osu file format v14

[General]
AudioFilename: audio.mp3
AudioLeadIn: 0
PreviewTime: 386204
Countdown: 0
SampleSet: Soft
StackLeniency: 0.7
Mode: 2
LetterboxInBreaks: 0
EpilepsyWarning: 1
WidescreenStoryboard: 1

[Editor]
DistanceSpacing: 1
BeatDivisor: 4
GridSize: 4
TimelineZoom: 4.399997

[Metadata]
Title:Songs Compilation
TitleUnicode:Songs Compilation
Artist:FELT
ArtistUnicode:FELT
Creator:Benny-
Version:Lunatic Collab
Source:東方Project
Tags:舞花 Maika white Feel the Flow Roll Ground Runway Drive Closed Wings Crescent Moon Prayer Blue Flower Flag OUR SHIP Day After Little Nova Goldrop Vivienne BRIGHTEST WAY Lies in Reality Puppet in the Dark 舞花 美歌 NANA NAGI☆ David Kronos Renko Maurits"禅"Cornelis Marathon BennyBananas Benny Spectator Zer0-
BeatmapID:1468584
BeatmapSetID:694107

[Difficulty]
HPDrainRate:6
CircleSize:4
OverallDifficulty:9.3
ApproachRate:9.3
SliderMultiplier:2
SliderTickRate:2

[Events]
//Background and Video events
0,0,"BG.jpg",0,0
//Break Periods
2,43075,51321
2,83124,89481
2,125357,131537
2,172791,178156
2,210734,217396
2,242695,246625
2,286246,288510
2,334263,340187
2,378441,383351
2,418177,420725
2,460080,462258
2,500614,506665
2,542578,546022
2,577658,584769
//Storyboard Layer 0 (Background)
//Storyboard Layer 1 (Fail)
//Storyboard Layer 2 (Pass)
//Storyboard Layer 3 (Foreground)
//Storyboard Sound Samples

[TimingPoints]
2312,422.535211267606,4,2,1,10,1,0
2734,-100,4,2,1,15,0,0
3157,-100,4,2,1,20,0,0
3579,-100,4,2,1,25,0,0
4002,-100,4,2,1,30,0,0
4424,-100,4,2,1,35,0,0
4847,-100,4,2,1,40,0,0
5269,-100,4,2,1,50,0,0
5692,-100,4,2,1,60,0,0
6114,-100,4,2,1,70,0,0
6537,-100,4,2,1,80,0,0
6959,-100,4,2,1,90,0,0
7382,-100,4,2,1,100,0,0
9072,-117.647058823529,4,2,1,50,0,0
9495,-117.647058823529,4,2,1,35,0,0
10762,-117.647058823529,4,2,1,40,0,0
11185,-117.647058823529,4,2,1,45,0,0
11607,-117.647058823529,4,2,1,50,0,0
12030,-117.647058823529,4,2,1,55,0,0
12452,-117.647058823529,4,2,1,100,0,0
14565,-117.647058823529,4,2,1,50,0,0
15833,-105.263157894737,4,2,1,100,0,1
16044,-105.263157894737,4,2,1,100,0,0
29354,-105.263157894737,4,2,1,100,0,1
29565,-105.263157894737,4,2,1,100,0,0
40973,-117.647058823529,4,2,1,70,0,0
42875,-117.647058823529,4,2,1,65,0,0
50617,419.58041958042,4,2,1,100,1,0
55651,-100,4,2,1,100,0,1
55861,-100,4,2,1,100,0,0
69078,-100,4,2,1,100,0,1
69288,-100,4,2,1,100,0,0
82505,-100,4,2,1,90,0,0
82714,-100,4,2,1,60,0,0
82924,-100,4,2,1,20,0,0
88572,365.853658536585,4,2,1,100,1,0
90035,-100,4,2,1,20,0,0
90584,-100,4,2,1,40,0,0
91315,-100,4,2,1,50,0,0
92047,-100,4,2,1,75,0,0
92962,-100,4,2,1,100,0,0
98815,-100,4,2,1,100,0,1
99181,-100,4,2,1,100,0,0
110523,-100,4,2,1,100,0,1
110889,-100,4,2,1,100,0,0
122047,-100,4,2,99,100,0,0
122230,-100,4,2,1,90,0,0
122596,-100,4,2,1,80,0,0
122962,-100,4,2,1,70,0,0
123328,-100,4,2,1,60,0,0
123693,-100,4,2,1,50,0,0
124059,-100,4,2,1,40,0,0
124425,-100,4,2,1,30,0,0
124791,-100,4,2,1,20,0,0
125157,-100,4,2,1,40,0,0
130591,375,4,2,1,100,1,0
137528,-100,4,2,99,100,0,0
139591,-100,4,2,1,100,0,1
139966,-100,4,2,1,100,0,0
151591,-100,4,2,1,100,0,1
151966,-100,4,2,1,100,0,0
166591,-100,4,2,1,70,0,0
169591,-100,4,2,1,60,0,0
169966,-100,4,2,1,55,0,0
170341,-100,4,2,1,50,0,0
170716,-100,4,2,1,45,0,0
171091,-100,4,2,1,40,0,0
171466,-100,4,2,1,35,0,0
171841,-100,4,2,1,30,0,0
172216,-100,4,2,1,25,0,0
172591,-100,4,2,1,40,0,0
177385,331.491712707182,4,2,1,100,1,0
186666,-100,4,2,1,100,0,1
186998,-100,4,2,1,100,0,0
197274,-100,4,2,1,100,0,1
197605,-100,4,2,1,100,0,0
207882,-100,4,2,1,90,0,0
208545,-100,4,2,1,80,0,0
209208,-100,4,2,1,70,0,0
209539,-100,4,2,1,60,0,0
209871,-100,4,2,1,50,0,0
210202,-100,4,2,1,40,0,0
210534,-100,4,2,1,20,0,0
217950,320.855614973262,4,2,1,60,1,0
220516,-100,4,2,1,100,0,1
230142,-100,4,2,1,100,0,0
230784,-100,4,2,1,100,0,1
239607,-100,4,2,1,100,0,0
239928,-100,4,2,1,54,0,0
241372,-100,4,2,1,47,0,0
241693,-100,4,2,1,36,0,0
242014,-100,4,2,1,28,0,0
242335,-100,4,2,1,10,0,0
242495,-100,4,2,1,5,0,0
247179,377.358490566038,4,2,1,100,1,0
253216,-100,4,2,1,100,0,1
253594,-100,4,2,1,100,0,0
265292,-100,4,2,1,100,0,1
265669,-100,4,2,1,100,0,0
277367,-125,4,2,1,100,0,0
277745,-125,4,2,1,5,0,0
280009,-125,4,2,1,100,0,0
280386,-100,4,2,1,60,0,0
284914,-100,4,2,1,50,0,0
285103,-100,4,2,1,40,0,0
285292,-100,4,2,1,30,0,0
285480,-100,4,2,1,20,0,0
285669,-100,4,2,1,15,0,0
285858,-100,4,2,1,10,0,0
286046,-100,4,2,1,5,0,0
289063,375,4,2,1,30,1,0
289625,-100,4,2,1,50,0,0
290375,-100,4,2,1,70,0,0
290938,-100,4,2,1,85,0,0
292063,-100,4,2,1,100,0,0
298063,-100,4,2,1,100,0,1
298438,-100,4,2,1,100,0,0
310063,-100,4,2,1,100,0,1
310438,-100,4,2,1,100,0,0
332563,-100,4,2,1,80,0,0
332938,-100,4,2,1,70,0,0
333313,-100,4,2,1,60,0,0
333688,-100,4,2,1,50,0,0
334063,-100,4,2,1,40,0,0
339908,416.666666666667,4,2,1,30,1,0
341574,-100,4,2,1,45,0,0
341991,-100,4,2,1,50,0,0
342408,-100,4,2,1,55,0,0
342824,-100,4,2,1,60,0,0
343241,-100,4,2,1,65,0,0
343658,-100,4,2,1,70,0,0
343866,-100,4,2,1,75,0,0
344074,-100,4,2,1,80,0,0
344283,-100,4,2,1,85,0,0
344491,-100,4,2,1,90,0,0
344699,-100,4,2,1,95,0,0
344908,-100,4,2,1,100,0,0
347199,-100,4,2,1,60,0,0
347616,-100,4,2,1,70,0,0
347824,-100,4,2,1,80,0,0
348033,-100,4,2,1,90,0,0
348241,-100,4,2,1,100,0,1
348658,-100,4,2,1,100,0,0
361574,-100,4,2,1,100,0,1
361991,-100,4,2,1,100,0,0
376574,-100,4,2,1,80,0,0
376991,-100,4,2,1,70,0,0
377408,-100,4,2,1,50,0,0
377824,-100,4,2,1,20,0,0
378241,-100,4,2,1,5,0,0
381977,428.571428571429,4,2,1,100,1,0
383905,-100,4,2,1,30,0,0
384119,-100,4,2,1,40,0,0
384334,-100,4,2,1,50,0,0
384548,-100,4,2,1,60,0,0
384762,-100,4,2,1,70,0,0
384977,-100,4,2,1,80,0,0
385191,-100,4,2,1,100,0,0
387119,-117.647058823529,4,2,1,100,0,1
395262,-95.2380952380952,4,2,1,100,0,1
395477,-117.647058823529,4,2,1,100,0,1
400405,-117.647058823529,4,2,1,100,0,0
400834,-117.647058823529,4,2,1,100,0,1
414548,-117.647058823529,4,2,1,100,0,0
414762,-117.647058823529,4,2,1,40,0,0
414977,-117.647058823529,4,2,1,70,0,0
416262,-117.647058823529,4,2,1,60,0,0
416477,-117.647058823529,4,2,1,55,0,0
416691,-117.647058823529,4,2,1,50,0,0
416905,-117.647058823529,4,2,1,45,0,0
417119,-117.647058823529,4,2,1,40,0,0
417334,-117.647058823529,4,2,1,35,0,0
417548,-117.647058823529,4,2,1,30,0,0
417762,-117.647058823529,4,2,1,25,0,0
417977,-117.647058823529,4,2,1,20,0,0
421279,419.58041958042,4,2,1,20,1,0
421488,-100,4,2,1,30,0,0
421593,-100,4,2,1,40,0,0
421698,-100,4,2,1,45,0,0
421908,-100,4,2,1,50,0,0
422118,-100,4,2,1,55,0,0
422432,-100,4,2,1,60,0,0
422747,-100,4,2,1,65,0,0
422957,-100,4,2,1,70,0,0
423586,-100,4,2,1,75,0,0
424425,-100,4,2,1,80,0,0
425474,-100,4,2,1,90,0,0
426313,-100,4,2,1,100,0,1
426733,-100,4,2,1,100,0,0
439740,-100,4,2,1,100,0,1
440160,-100,4,2,1,100,0,0
454635,-100,4,2,1,95,0,0
455474,-100,4,2,1,90,0,0
456104,-100,4,2,1,85,0,0
456523,-100,4,2,1,80,0,0
456733,-100,4,2,1,70,0,0
456943,-100,4,2,1,60,0,0
457153,-100,4,2,1,50,0,0
457572,-100,4,2,1,40,0,0
457992,-100,4,2,1,30,0,0
458202,-100,4,2,1,25,0,0
458621,-100,4,2,1,20,0,0
459041,-100,4,2,1,15,0,0
459460,-100,4,2,1,10,0,0
459880,-100,4,2,1,5,0,0
462812,410.958904109589,4,2,1,20,1,0
463428,-100,4,2,1,40,0,0
463839,-100,4,2,1,60,0,0
464250,-100,4,2,1,70,0,0
465072,-100,4,2,1,90,0,0
466099,-100,4,2,1,100,0,0
472675,-100,4,2,1,100,0,1
472983,-100,4,2,1,100,0,0
485825,-100,4,2,1,100,0,1
486133,-100,4,2,1,100,0,0
498565,-100,4,2,1,79,0,0
498976,-100,4,2,1,90,0,0
499592,-100,4,2,1,80,0,0
500003,-100,4,2,1,70,0,0
500209,-100,4,2,1,50,0,0
500414,-100,4,2,1,20,0,0
503398,382.165605095541,4,2,1,100,1,0
507219,-100,4,2,1,70,0,0
515627,-100,4,2,1,100,0,1
516009,-100,4,2,1,100,0,0
527856,-100,4,2,1,100,0,1
528238,-100,4,2,1,100,0,0
540085,-100,4,2,1,89,0,0
540468,-100,4,2,1,79,0,0
540850,-100,4,2,1,61,0,0
541232,-100,4,2,1,48,0,0
541614,-100,4,2,1,37,0,0
541996,-100,4,2,1,15,0,0
542378,-100,4,2,1,5,0,0
545106,294.117647058824,4,2,1,100,1,0
546576,-100,4,2,1,50,0,0
547753,-100,4,2,1,65,0,0
548635,-100,4,2,1,80,0,0
549664,-100,4,2,1,100,0,0
551282,-100,4,2,1,100,0,1
551576,-100,4,2,1,100,0,0
560694,-100,4,2,1,100,0,1
560988,-100,4,2,1,100,0,0
569664,-100,4,2,1,100,0,1
570106,-100,4,2,1,100,0,0
574517,-100,4,2,1,99,0,0
574811,-100,4,2,1,88,0,0
575106,-100,4,2,1,77,0,0
575400,-100,4,2,1,66,0,0
575694,-100,4,2,1,55,0,0
575988,-100,4,2,1,44,0,0
576282,-100,4,2,1,33,0,0
576576,-100,4,2,1,22,0,0
576870,-100,4,2,1,11,0,0
577164,-100,4,2,1,8,0,0
577458,-100,4,2,1,5,0,0
581113,350.877192982456,4,2,1,100,1,0
590937,-90.9090909090909,4,2,1,100,0,1
613042,-90.9090909090909,4,2,1,100,0,0
613393,-90.9090909090909,4,2,1,100,0,1
635849,-100,7,2,1,100,0,0
637604,-100,7,2,1,50,0,0
637955,-100,7,2,1,40,0,0
638305,-100,7,2,1,30,0,0
638656,-100,7,2,1,20,0,0
639007,-100,7,2,1,5,0,0

[Colours]
Combo1 : 167,84,84
Combo2 : 191,0,0
Combo3 : 0,128,64
Combo4 : 255,182,108

[HitObjects]
288,288,2312,6,0,L|80:240,1,200,2|2,0:0|0:0,0:0:0:0:
228,240,2945,2,0,L|292:152,1,100,8|0,0:0|0:0,0:0:0:0:
168,156,3368,1,2,0:0:0:0:
333,172,3579,2,0,L|353:60,1,100,8|0,0:0|0:0,0:0:0:0:
196,64,4002,6,0,P|116:92|92:176,1,150,2|2,0:0|0:0,0:0:0:0:
136,192,4424,1,0,0:0:0:0:
432,212,4635,2,0,P|468:172|368:84,1,200,12|0,0:0|0:0,0:0:0:0:
104,80,5269,2,0,L|20:184,1,100,12|0,0:0|0:0,0:0:0:0:
364,228,5692,6,0,P|432:168|364:104,1,200,6|0,0:0|0:0,0:0:0:0:
96,112,6326,2,0,L|132:228,1,100,8|0,0:0|0:0,0:0:0:0:
236,200,6748,1,0,0:0:0:0:
440,256,6959,2,0,L|384:164,1,100,8|0,0:0|0:0,0:0:0:0:
180,148,7382,6,0,P|96:180|72:256,1,150,2|2,0:0|0:0,0:0:0:0:
144,248,7804,1,0,0:0:0:0:
352,256,8016,2,0,L|144:224,1,200,8|2,0:0|0:0,0:0:0:0:
364,212,8650,2,0,L|472:212,1,100,2|0,0:0|0:0,0:0:0:0:
96,224,9072,6,0,P|48:200|112:128,1,170,6|8,0:0|0:0,0:0:0:0:
192,136,9706,1,8,0:0:0:0:
256,208,9917,1,8,0:0:0:0:
240,312,10128,1,8,0:0:0:0:
152,336,10340,1,8,0:0:0:0:
320,336,10551,6,0,P|384:280|336:224,1,170,8|8,0:0|0:0,0:0:0:0:
272,208,11185,1,8,0:0:0:0:
112,208,11396,1,8,0:0:0:0:
280,160,11607,1,8,0:0:0:0:
104,160,11819,1,8,0:0:0:0:
288,120,12030,1,8,0:0:0:0:
96,120,12241,1,8,0:0:0:0:
400,120,12453,6,0,P|448:128|464:168,1,85,8|0,0:0|0:0,0:0:0:0:
456,208,12770,1,0,0:0:0:0:
416,248,12875,1,2,0:0:0:0:
128,264,13087,2,0,P|96:232|96:192,1,85,8|0,0:0|0:0,0:0:0:0:
128,160,13403,1,0,0:0:0:0:
166,156,13509,1,2,0:0:0:0:
344,184,13720,1,2,0:0:0:0:
32,160,13931,1,8,0:0:0:0:
62,194,14565,5,0,0:0:0:0:
240,168,14776,2,0,P|232:120|128:64,1,170,2|0,0:0|0:0,0:0:0:0:
256,64,15410,2,0,L|368:64,1,85,2|0,0:0|0:0,0:0:0:0:
48,64,15833,6,0,L|128:144,1,94.9999974632264,6|0,0:0|0:0,0:0:0:0:
24,144,16150,2,0,L|120:160,1,94.9999974632264,2|0,0:0|0:0,0:0:0:0:
352,160,16466,2,0,L|396:272,1,94.9999974632264,8|0,0:0|0:0,0:0:0:0:
208,256,16889,2,0,L|188:144,1,94.9999974632264,2|8,0:0|0:0,0:0:0:0:
352,160,17312,1,0,0:0:0:0:
80,136,17523,5,6,0:0:0:0:
240,128,17734,1,0,0:0:0:0:
296,128,17840,1,2,0:0:0:0:
328,128,17946,1,0,0:0:0:0:
16,184,18157,2,0,L|52:288,1,94.9999974632264,8|0,0:0|0:0,0:0:0:0:
152,304,18579,1,2,0:0:0:0:
440,304,18790,2,0,L|464:204,1,94.9999974632264,8|2,0:0|0:3,0:0:0:0:
392,200,19108,1,2,0:3:0:0:
184,200,19213,6,0,L|84:192,1,94.9999974632264,6|0,0:0|0:0,0:0:0:0:
184,144,19530,2,0,L|116:60,1,94.9999974632264,2|0,0:0|0:0,0:0:0:0:
336,128,19847,2,0,P|384:156|328:256,1,189.999994926453,8|2,0:0|0:0,0:0:0:0:
160,256,20481,2,0,L|176:144,1,94.9999974632264,8|0,0:0|0:0,0:0:0:0:
240,160,20798,1,0,0:0:0:0:
448,168,20903,5,6,0:0:0:0:
344,128,21115,1,0,0:0:0:0:
376,80,21220,1,2,0:0:0:0:
448,72,21326,1,0,0:0:0:0:
176,72,21537,2,0,L|64:120,1,94.9999974632264,8|0,0:0|0:0,0:0:0:0:
248,136,21960,2,0,L|296:236,1,94.9999974632264,2|8,0:0|0:0,0:0:0:0:
248,248,22276,1,2,0:0:0:0:
168,240,22382,1,2,0:3:0:0:
448,248,22594,6,0,L|408:344,1,94.9999974632264,6|0,0:0|0:0,0:0:0:0:
320,328,22910,2,0,L|360:236,1,94.9999974632264,2|0,0:0|0:0,0:0:0:0:
192,240,23227,2,0,L|84:240,1,94.9999974632264,8|0,0:0|0:0,0:0:0:0:
256,144,23650,2,0,L|248:32,1,94.9999974632264,2|8,0:0|0:0,0:0:0:0:
112,48,24072,1,0,0:0:0:0:
392,168,24284,5,6,0:0:0:0:
496,128,24495,1,0,0:0:0:0:
464,72,24601,1,2,0:0:0:0:
384,56,24706,1,0,0:0:0:0:
96,96,24918,2,0,L|64:200,1,94.9999974632264,8|0,0:0|0:0,0:0:0:0:
176,192,25340,1,2,0:0:0:0:
448,200,25551,2,0,L|480:304,1,94.9999974632264,12|2,0:0|0:3,0:0:0:0:
408,304,25868,1,2,0:3:0:0:
232,304,25974,6,0,L|164:208,1,94.9999974632264,6|0,0:0|0:0,0:0:0:0:
272,216,26291,2,0,L|184:132,1,94.9999974632264,2|0,0:0|0:0,0:0:0:0:
416,144,26608,2,0,P|480:116|416:48,1,189.999994926453,8|2,0:0|0:0,0:0:0:0:
224,80,27241,2,0,L|128:144,1,94.9999974632264,8|0,0:0|0:0,0:0:0:0:
432,160,27664,5,6,0:0:0:0:
288,208,27875,1,8,0:0:0:0:
480,248,28087,2,0,L|496:352,1,94.9999974632264,8|2,0:0|0:0,0:0:0:0:
226,320,28509,1,8,0:0:0:0:
170,288,28615,1,2,0:3:0:0:
178,232,28720,1,2,0:3:0:0:
447,200,28932,1,8,0:0:0:0:
479,171,29037,1,2,0:3:0:0:
468,127,29143,1,2,0:3:0:0:
195,232,29354,6,0,L|97:318,1,94.9999974632264,6|0,0:0|0:0,0:0:0:0:
25,278,29671,2,0,L|118:292,1,94.9999974632264,2|0,0:0|0:0,0:0:0:0:
336,216,29988,2,0,L|448:216,1,94.9999974632264,8|0,0:0|0:0,0:0:0:0:
248,216,30410,2,0,L|232:108,1,94.9999974632264,2|8,0:0|0:0,0:0:0:0:
408,120,30833,1,0,0:0:0:0:
112,128,31044,6,0,P|56:144|80:236,1,142.49999619484,6|2,0:0|0:0,0:0:0:0:
120,232,31467,1,0,0:0:0:0:
480,104,31678,2,0,L|440:232,1,94.9999974632264,8|0,0:0|0:0,0:0:0:0:
324,192,32100,1,2,0:0:0:0:
32,112,32312,2,0,L|17:217,1,94.9999974632264,8|2,0:0|0:3,0:0:0:0:
69,220,32628,1,2,0:3:0:0:
296,240,32734,6,0,L|365:166,1,94.9999974632264,6|0,0:0|0:0,0:0:0:0:
460,164,33051,2,0,L|349:158,1,94.9999974632264,2|0,0:0|0:0,0:0:0:0:
112,144,33368,2,0,P|48:204|101:271,1,189.999994926453,8|2,0:0|0:0,0:0:0:0:
256,272,34002,2,0,L|312:180,1,94.9999974632264,8|0,0:0|0:0,0:0:0:0:
32,192,34425,6,0,P|80:176|96:88,1,142.49999619484,6|2,0:0|0:0,0:0:0:0:
36,80,34847,1,0,0:0:0:0:
352,96,35058,2,0,L|360:200,1,94.9999974632264,8|0,0:0|0:0,0:0:0:0:
472,200,35481,1,2,0:0:0:0:
168,200,35692,1,8,0:0:0:0:
120,248,35798,1,0,0:0:0:0:
120,304,35903,1,0,0:0:0:0:
432,312,36115,6,0,L|440:200,1,94.9999974632264,6|0,0:0|0:0,0:0:0:0:
280,120,36537,2,0,L|220:104,2,47.4999987316132,2|0|0,0:0|0:0|0:0,0:0:0:0:
128,168,36960,1,2,0:0:0:0:
312,144,37171,2,0,L|376:120,1,47.4999987316132,0|0,0:0|0:0,0:0:0:0:
328,88,37382,1,2,0:0:0:0:
32,56,37594,6,0,L|48:156,1,94.9999974632264,12|0,0:0|0:0,0:0:0:0:
376,136,38016,2,0,L|352:252,1,94.9999974632264,8|0,0:0|0:0,0:0:0:0:
72,248,38439,1,12,0:0:0:0:
192,240,38650,2,0,P|176:172|48:128,1,189.999994926453,2|0,0:0|0:0,0:0:0:0:
224,80,39284,2,0,L|292:80,1,47.4999987316132,2|2,0:3|0:3,0:0:0:0:
40,80,39495,6,0,P|24:128|124:224,1,189.999994926453,6|2,0:0|0:0,0:0:0:0:
208,224,40129,1,0,0:0:0:0:
376,224,40340,2,0,L|400:120,1,94.9999974632264,2|0,0:0|0:0,0:0:0:0:
98,203,40763,1,8,0:0:0:0:
376,224,40974,6,0,L|328:132,1,85.0000016212464,8|2,0:0|0:0,0:0:0:0:
232,136,41396,1,0,0:0:0:0:
56,136,41608,2,0,L|72:244,1,85.0000016212464,2|2,0:0|0:3,0:0:0:0:
120,264,41925,1,2,0:3:0:0:
285,267,42030,2,8,L|345:267,1,42.5000008106232,2|2,0:3|0:3,0:0:0:0:
99,206,42241,2,0,L|-17:174,2,85.0000016212464,2|2|0,0:0|0:0|0:0,0:0:0:0:
472,192,42875,5,6,0:0:0:0:
384,256,51875,5,0,0:0:0:0:
72,252,52086,2,0,P|48:192|152:120,1,200,4|0,0:0|0:0,0:0:0:0:
432,120,52714,2,0,L|448:248,1,100,8|0,0:0|0:0,0:0:0:0:
116,248,53134,2,0,L|48:248,2,50,2|2|2,0:3|0:3|0:3,0:0:0:0:
180,248,53449,1,2,0:0:0:0:
472,264,53554,2,0,L|384:200,1,100,12|2,0:0|0:0,0:0:0:0:
160,272,54183,5,2,0:0:0:0:
452,252,54393,1,8,0:0:0:0:
364,204,54603,2,0,L|288:192,1,50,2|2,0:0|0:0,0:0:0:0:
96,180,54812,5,2,0:3:0:0:
44,152,54917,1,2,0:3:0:0:
52,100,55022,1,2,0:3:0:0:
104,88,55127,1,2,0:3:0:0:
304,108,55232,6,8,L|380:136,1,50,8|8,0:0|0:0,0:0:0:0:
168,200,55442,2,8,L|104:224,1,50,8|8,0:0|0:0,0:0:0:0:
304,268,55651,6,0,L|424:256,2,100,6|0|8,0:0|0:0|0:0,0:0:0:0:
108,280,56281,2,0,P|40:232|108:140,1,200,2|0,0:0|0:0,0:0:0:0:
388,144,56910,2,0,L|488:140,1,100,8|0,0:0|0:0,0:0:0:0:
196,136,57330,6,0,P|136:168|128:256,1,150,2|2,0:0|0:0,0:0:0:0:
288,260,57749,1,8,0:0:0:0:
96,280,57959,2,0,P|60:212|136:120,1,200,2|0,0:0|0:0,0:0:0:0:
304,104,58589,1,8,0:0:0:0:
140,68,58798,1,0,0:0:0:0:
424,64,59008,6,0,P|480:100|448:200,1,150,6|2,0:0|0:0,0:0:0:0:
296,204,59428,1,8,0:0:0:0:
76,196,59637,2,0,L|92:296,1,100,2|0,0:0|0:0,0:0:0:0:
416,304,60057,1,0,0:0:0:0:
320,232,60267,1,8,0:0:0:0:
496,180,60477,1,0,0:0:0:0:
156,216,60686,6,0,P|164:164|284:108,1,150,2|2,0:0|0:0,0:0:0:0:
416,104,61106,1,8,0:0:0:0:
220,196,61316,2,0,P|144:156|216:80,1,200,2|0,0:0|0:0,0:0:0:0:
388,76,61945,1,8,0:0:0:0:
196,180,62155,2,0,L|136:228,1,50,2|2,0:3|0:3,0:0:0:0:
348,228,62365,6,0,P|432:208|464:148,1,150,6|2,0:0|0:0,0:0:0:0:
288,136,62784,1,8,0:0:0:0:
96,160,62994,2,0,L|296:112,1,200,2|0,0:0|0:0,0:0:0:0:
392,84,63623,1,8,0:0:0:0:
200,200,63833,1,0,0:0:0:0:
480,200,64043,5,2,0:0:0:0:
340,200,64253,2,0,L|432:144,2,100,0|8|2,0:0|0:0|0:0,0:0:0:0:
56,212,64882,2,0,L|200:176,1,100,0|0,0:0|0:0,0:0:0:0:
304,184,65302,2,0,L|200:152,1,100,8|0,0:0|0:0,0:0:0:0:
496,144,65721,6,0,L|364:144,1,100,6|0,0:0|0:0,0:0:0:0:
192,232,66141,1,8,0:0:0:0:
496,244,66351,2,0,P|484:184|332:156,1,200,2|0,0:0|0:0,0:0:0:0:
52,164,66980,2,0,P|19:230|26:273,1,100,8|0,0:0|0:0,0:0:0:0:
79,317,67295,1,0,0:0:0:0:
121,331,67347,1,0,0:0:0:0:
256,324,67400,6,0,L|384:312,1,100,2|0,0:0|0:0,0:0:0:0:
400,312,67714,1,2,0:0:0:0:
180,280,67819,2,0,L|72:264,1,100,8|0,0:0|0:0,0:0:0:0:
396,220,68239,2,0,L|444:204,2,50,2|2|2,0:3|0:3|0:3,0:0:0:0:
80,304,68658,1,2,0:3:0:0:
32,240,68763,1,2,0:3:0:0:
36,184,68868,1,2,0:3:0:0:
88,160,68973,1,2,0:3:0:0:
324,160,69078,5,6,0:0:0:0:
160,200,69288,2,0,L|132:304,1,100,0|8,0:0|0:0,0:0:0:0:
404,280,69708,2,0,P|472:232|404:140,1,200,2|0,0:0|0:0,0:0:0:0:
124,144,70337,2,0,L|24:140,1,100,8|0,0:0|0:0,0:0:0:0:
316,136,70756,6,0,P|376:156|376:236,1,150,2|2,0:0|0:0,0:0:0:0:
208,260,71176,1,8,0:0:0:0:
376,276,71386,2,0,P|440:204|376:120,1,200,2|0,0:0|0:0,0:0:0:0:
208,104,72015,1,8,0:0:0:0:
372,68,72225,1,0,0:0:0:0:
88,64,72435,6,0,P|32:100|68:208,1,150,6|2,0:0|0:0,0:0:0:0:
208,196,72854,1,8,0:0:0:0:
428,195,73064,2,0,L|420:296,1,100,2|0,0:0|0:0,0:0:0:0:
232,296,73484,2,0,L|176:392,1,100,0|8,0:0|0:0,0:0:0:0:
352,368,73903,1,0,0:0:0:0:
32,252,74113,6,0,P|40:200|160:144,1,150,2|2,0:0|0:0,0:0:0:0:
316,136,74533,1,8,0:0:0:0:
160,224,74742,2,0,P|168:156|288:100,1,200,2|0,0:0|0:0,0:0:0:0:
392,112,75372,1,8,0:0:0:0:
196,180,75582,2,0,L|136:228,1,50,2|2,0:3|0:3,0:0:0:0:
348,228,75791,6,0,P|432:212|464:160,1,150,6|2,0:0|0:0,0:0:0:0:
296,136,76211,1,8,0:0:0:0:
96,176,76421,2,0,L|296:96,1,200,2|0,0:0|0:0,0:0:0:0:
392,84,77050,1,8,0:0:0:0:
200,200,77260,1,0,0:0:0:0:
480,212,77470,6,0,P|464:140|384:88,1,150,2|2,0:0|0:0,0:0:0:0:
220,96,77889,1,8,0:0:0:0:
376,132,78099,2,0,L|408:268,1,100,2|0,0:0|0:0,0:0:0:0:
228,228,78519,2,0,L|88:200,1,100,0|8,0:0|0:0,0:0:0:0:
84,196,78833,1,0,0:0:0:0:
64,152,78938,1,0,0:0:0:0:
408,192,79148,6,0,P|416:144|308:104,1,150,6|2,0:0|0:0,0:0:0:0:
176,132,79568,1,8,0:0:0:0:
376,256,79777,2,0,P|420:212|324:156,1,200,6|0,0:0|0:0,0:0:0:0:
24,192,80407,1,8,0:0:0:0:
316,219,80617,1,4,0:0:0:0:
144,348,80826,6,0,P|224:340|280:272,1,150,2|2,0:0|0:0,0:0:0:0:
52,276,81246,2,0,L|168:268,1,100,8|0,0:0|0:0,0:0:0:0:
460,272,81665,2,0,L|508:256,2,50,2|2|2,0:3|0:3|0:3,0:0:0:0:
140,272,82085,1,2,0:3:0:0:
64,248,82190,1,2,0:3:0:0:
24,192,82295,1,2,0:3:0:0:
40,136,82400,1,2,0:3:0:0:
356,140,82505,6,0,P|420:176|348:252,1,200,6|0,0:0|0:0,0:0:0:0:
388,280,90035,6,0,P|448:212|376:144,1,200,6|0,0:0|0:0,0:0:0:0:
232,132,90584,2,0,L|444:104,1,200,6|0,0:0|0:0,0:0:0:0:
328,84,91132,1,0,0:0:0:0:
32,88,91315,6,0,P|24:160|128:244,1,200,6|0,0:0|0:0,0:0:0:0:
224,240,91864,1,0,0:0:0:0:
480,160,92047,2,0,L|312:256,1,150,6|0,0:0|0:0,0:0:0:0:
172,228,92413,1,2,0:3:0:0:
324,164,92596,1,2,0:3:0:0:
256,112,92687,1,2,0:3:0:0:
172,92,92779,1,2,0:3:0:0:
484,88,92962,6,0,P|476:152|368:240,1,200,6|8,0:0|0:0,0:0:0:0:
212,208,93511,2,0,L|320:192,2,100,2|0|0,0:0|0:0|0:0,0:0:0:0:
360,120,94059,1,8,0:0:0:0:
104,136,94242,6,0,P|64:172|104:324,1,200,4|0,0:0|0:0,0:0:0:0:
204,312,94791,1,8,0:0:0:0:
448,312,94974,2,0,P|444:256|300:184,1,200,2|0,0:0|0:0,0:0:0:0:
88,184,95523,2,0,L|48:284,1,100,8|0,0:0|0:0,0:0:0:0:
360,292,95889,6,0,P|432:284|484:204,1,150,6|0,0:0|0:0,0:0:0:0:
296,208,96254,2,0,L|180:212,1,100,8|0,0:0|0:0,0:0:0:0:
456,168,96620,2,0,L|480:56,1,100,8|0,0:0|0:0,0:0:0:0:
156,104,96986,1,8,0:0:0:0:
448,252,97169,6,0,P|440:200|312:136,1,200,12|0,0:0|0:0,0:0:0:0:
53,132,97718,2,0,B|153:132|153:132|54:139|54:139|158:146,1,300,4|0,0:0|0:0,0:0:0:0:
456,280,98450,2,0,L|492:184,1,100,0|0,0:0|0:0,0:0:0:0:
176,176,98815,6,0,P|144:224|236:320,1,200,6|8,0:0|0:0,0:0:0:0:
476,316,99364,1,2,0:0:0:0:
328,268,99547,2,0,L|432:252,1,100
100,160,99913,2,0,L|68:56,1,100,8|0,0:0|0:0,0:0:0:0:
340,88,100279,6,0,L|400:128,2,50,2|0|0,0:0|0:0|0:0,0:0:0:0:
96,168,100645,1,8,0:0:0:0:
372,192,100828,2,0,P|400:240|356:328,1,150,2|0,0:0|0:0,0:0:0:0:
316,332,101193,1,2,0:0:0:0:
24,340,101376,2,0,L|88:256,1,100,8|0,0:0|0:0,0:0:0:0:
392,296,101742,6,0,L|408:188,1,100,6|0,0:0|0:0,0:0:0:0:
164,184,102108,2,0,L|104:72,1,100,8|2,0:0|0:0,0:0:0:0:
428,148,102474,2,0,L|444:28,1,100
72,160,102840,2,0,L|104:276,1,100,8|0,0:0|0:0,0:0:0:0:
384,264,103206,6,0,L|436:244,2,50,2|0|0,0:0|0:0|0:0,0:0:0:0:
144,224,103571,1,8,0:0:0:0:
396,212,103754,2,0,P|424:164|376:84,1,150,2|0,0:0|0:0,0:0:0:0:
332,72,104120,1,0,0:0:0:0:
64,76,104303,2,0,L|12:168,1,100,8|2,0:0|0:3,0:0:0:0:
68,184,104578,1,2,0:3:0:0:
308,212,104669,6,0,P|368:172|336:96,1,150,6|0,0:0|0:0,0:0:0:0:
180,100,105035,2,0,L|292:104,1,100,8|2,0:0|0:0,0:0:0:0:
116,184,105401,1,0,0:0:0:0:
208,220,105584,1,2,0:0:0:0:
56,268,105767,1,8,0:0:0:0:
408,284,105950,1,2,0:0:0:0:
248,264,106132,6,0,L|300:160,1,100,6|0,0:0|0:0,0:0:0:0:
400,176,106498,1,8,0:0:0:0:
136,168,106681,2,0,P|76:192|72:320,1,200,2|2,0:0|0:0,0:0:0:0:
256,258,107230,2,0,L|144:258,1,100,8|0,0:0|0:0,0:0:0:0:
464,244,107596,6,0,P|464:184|368:108,1,150,6|0,0:0|0:0,0:0:0:0:
240,112,107962,2,0,L|356:116,1,100,8|2,0:0|0:0,0:0:0:0:
40,192,108328,2,0,L|160:244,1,100,8|2,0:0|0:0,0:0:0:0:
192,232,108602,1,0,0:0:0:0:
432,248,108693,1,8,0:0:0:0:
120,272,108876,6,0,P|80:228|176:144,1,200,6|0,0:0|0:0,0:0:0:0:
432,148,109425,2,0,P|452:192|416:240,1,100,8|0,0:0|0:0,0:0:0:0:
176,252,109791,2,0,L|104:252,1,50,2|2,0:3|0:3,0:0:0:0:
176,252,109974,2,0,L|236:252,1,50,2|2,0:3|0:3,0:0:0:0:
56,228,110157,2,8,L|-12:228,1,50,8|8,0:0|0:0,0:0:0:0:
236,196,110340,2,8,L|308:196,1,50,8|8,0:0|0:0,0:0:0:0:
92,184,110523,6,0,P|84:236|200:324,1,200,6|8,0:0|0:0,0:0:0:0:
476,316,111071,1,2,0:0:0:0:
328,268,111255,2,0,L|432:248,1,100
108,164,111621,2,0,L|68:56,1,100,8|0,0:0|0:0,0:0:0:0:
340,88,111986,6,0,L|400:128,2,50,2|0|0,0:0|0:0|0:0,0:0:0:0:
96,168,112353,1,8,0:0:0:0:
372,192,112536,2,0,P|400:240|356:328,1,150,2|0,0:0|0:0,0:0:0:0:
316,332,112901,1,2,0:0:0:0:
24,340,113084,2,0,L|88:256,1,100,8|0,0:0|0:0,0:0:0:0:
352,248,113450,6,0,L|480:232,1,100,6|0,0:0|0:0,0:0:0:0:
207,162,113815,2,0,L|97:147,1,100,8|0,0:0|0:0,0:0:0:0:
393,167,114181,2,0,L|297:118,1,100,0|0,0:0|0:0,0:0:0:0:
22,290,114547,2,0,L|82:178,1,100,8|0,0:0|0:0,0:0:0:0:
220,212,114913,5,2,0:0:0:0:
172,236,115004,1,0,0:0:0:0:
128,264,115096,1,0,0:0:0:0:
368,224,115279,1,8,0:0:0:0:
116,212,115462,2,0,P|88:164|136:84,1,150,2|0,0:0|0:0,0:0:0:0:
180,72,115828,1,2,0:0:0:0:
448,76,116011,2,0,L|500:168,1,100,8|2,0:0|0:3,0:0:0:0:
440,188,116285,1,2,0:3:0:0:
204,212,116377,6,0,P|136:180|220:96,1,200,6|8,0:0|0:0,0:0:0:0:
436,96,116925,1,2,0:0:0:0:
280,128,117108,1,0,0:0:0:0:
388,200,117291,1,2,0:0:0:0:
236,256,117474,1,8,0:0:0:0:
480,288,117657,6,0,L|372:244,2,100,2|0|2,0:0|0:0|0:0,0:0:0:0:
152,280,118206,1,12,0:0:0:0:
428,228,118389,2,0,P|456:176|352:92,1,200,2|2,0:0|0:0,0:0:0:0:
72,104,118937,1,8,0:0:0:0:
400,188,119120,6,0,P|460:164|408:72,1,200,6|2,0:0|0:0,0:0:0:0:
304,44,119669,1,8,0:0:0:0:
64,44,119852,2,0,L|284:44,1,200,6|2,0:0|0:0,0:0:0:0:
164,124,120401,1,8,0:0:0:0:
444,204,120584,6,0,L|236:204,1,200,6|2,0:0|0:0,0:0:0:0:
132,204,121132,1,8,0:0:0:0:
412,168,121315,2,0,L|392:272,1,100,6|0,0:0|0:0,0:0:0:0:
80,156,121681,2,0,L|40:264,1,100,6|0,0:0|0:0,0:0:0:0:
472,268,122047,1,6,0:0:0:0:
256,192,122230,12,4,125157,0:0:0:0:
408,272,132091,6,0,P|464:216|380:128,1,200,6|8,0:0|0:0,0:0:0:0:
276,128,132653,2,0,P|304:80|448:60,1,200,2|0,0:0|0:0,0:0:0:0:
328,48,133216,1,8,0:0:0:0:
48,120,133403,6,0,P|64:184|220:216,1,200,2|0,0:0|0:0,0:0:0:0:
52,240,133966,1,8,0:0:0:0:
312,240,134153,2,0,P|348:188|256:96,1,200,6|0,0:0|0:0,0:0:0:0:
108,100,134716,1,8,0:0:0:0:
240,168,134903,2,0,L|292:212,1,50,0|0,0:0|0:0,0:0:0:0:
56,236,135091,6,0,P|32:184|140:100,1,200,6|8,0:0|0:0,0:0:0:0:
300,108,135653,2,0,L|328:228,1,100,2|0,0:0|0:0,0:0:0:0:
152,208,136028,2,0,L|124:320,1,100,2|8,0:0|0:0,0:0:0:0:
420,316,136403,6,0,P|452:268|372:156,1,200,4|0,0:0|0:0,0:0:0:0:
216,160,136966,1,8,0:0:0:0:
388,108,137153,2,0,P|372:56|220:8,1,200,4|4,0:0|0:0,0:0:0:0:
256,192,138091,12,0,139403,0:0:0:0:
326,278,139591,6,0,L|341:156,1,100,4|0,0:0|0:0,0:0:0:0:
167,221,139966,2,0,P|138:172|156:117,1,100,8|0,0:0|0:0,0:0:0:0:
321,224,140341,2,0,P|376:161|313:83,1,200,2|8,0:0|0:0,0:0:0:0:
153,83,140903,1,0,0:0:0:0:
416,243,141091,6,0,L|300:215,1,100,2|0,0:0|0:0,0:0:0:0:
449,131,141466,1,8,0:0:0:0:
136,300,141653,2,0,L|36:284,1,100,2|0,0:0|0:0,0:0:0:0:
164,184,142028,1,2,0:0:0:0:
432,184,142216,2,0,L|448:75,1,100,8|0,0:0|0:0,0:0:0:0:
49,254,142591,6,0,L|275:236,1,200,6|8,0:0|0:0,0:0:0:0:
115,352,143153,2,0,L|99:223,1,100,2|0,0:0|0:0,0:0:0:0:
402,237,143528,2,0,L|418:108,1,100,2|8,0:0|0:0,0:0:0:0:
134,167,143903,5,2,0:0:0:0:
267,168,144091,1,0,0:0:0:0:
126,177,144278,1,0,0:0:0:0:
281,247,144466,2,0,L|400:246,1,100,8|0,0:0|0:0,0:0:0:0:
66,343,144841,2,0,L|47:227,1,100,2|0,0:0|0:0,0:0:0:0:
184,233,145216,1,8,0:0:0:0:
56,232,145403,1,0,0:0:0:0:
328,340,145591,6,0,P|371:281|373:219,1,100,6|0,0:0|0:0,0:0:0:0:
221,253,145966,2,0,L|201:149,1,100,8|0,0:0|0:0,0:0:0:0:
363,125,146341,1,2,0:0:0:0:
241,72,146528,1,0,0:0:0:0:
241,72,146716,1,8,0:0:0:0:
363,125,146903,1,0,0:0:0:0:
51,297,147091,6,0,L|261:276,1,200,2|8,0:0|0:0,0:0:0:0:
133,205,147653,1,0,0:0:0:0:
425,298,147841,2,0,P|444:241|365:171,1,150,2|0,0:0|0:0,0:0:0:0:
218,188,148216,2,0,L|103:173,1,100,8|0,0:0|0:0,0:0:0:0:
280,350,148591,6,0,P|331:307|263:201,1,200,4|8,0:0|0:0,0:0:0:0:
128,275,149153,2,0,L|340:261,1,200,2|0,0:0|0:0,0:0:0:0:
480,157,149716,2,0,L|348:142,1,100,8|4,0:0|0:0,0:0:0:0:
240,256,150091,5,2,0:0:0:0:
396,321,150278,2,0,L|398:246,1,50,0|0,0:0|0:0,0:0:0:0:
200,208,150466,2,0,L|186:100,1,100,12|0,0:0|0:0,0:0:0:0:
355,228,150841,1,2,0:0:0:0:
496,218,151028,1,0,0:0:0:0:
355,228,151216,1,8,0:0:0:0:
496,218,151403,1,0,0:0:0:0:
176,340,151591,6,0,L|63:319,1,100,6|0,0:0|0:0,0:0:0:0:
220,253,151966,2,0,P|279:200|199:115,1,200,8|2,0:0|0:0,0:0:0:0:
78,179,152528,2,0,L|58:118,1,50,0|0,0:0|0:0,0:0:0:0:
234,30,152716,2,0,L|341:25,1,100,8|0,0:0|0:0,0:0:0:0:
487,122,153091,6,0,L|374:111,2,100,2|0|8,0:0|0:0|0:0,0:0:0:0:
124,264,153653,2,0,P|98:200|221:155,1,200,2|0,0:0|0:0,0:0:0:0:
458,50,154216,2,0,L|320:34,1,100,8|0,0:0|0:0,0:0:0:0:
89,331,154591,6,0,L|316:299,1,200,6|8,0:0|0:0,0:0:0:0:
164,238,155153,2,0,P|128:192|195:84,1,200,2|0,0:0|0:0,0:0:0:0:
329,85,155716,1,8,0:0:0:0:
193,81,155903,1,2,0:0:0:0:
447,296,156091,6,0,L|462:163,1,100,0|0,0:0|0:0,0:0:0:0:
323,189,156466,1,8,0:0:0:0:
441,201,156653,1,0,0:0:0:0:
187,312,156841,2,0,L|169:201,1,100,2|0,0:0|0:0,0:0:0:0:
309,167,157216,2,0,L|323:57,1,100,8|0,0:0|0:0,0:0:0:0:
43,298,157591,6,0,L|251:278,1,200,6|8,0:0|0:0,0:0:0:0:
394,329,158153,2,0,L|416:125,1,200,2|0,0:0|0:0,0:0:0:0:
246,129,158716,1,8,0:0:0:0:
389,222,158903,6,0,P|293:179|319:66,1,200,2|0,0:0|0:0,0:0:0:0:
451,117,159466,2,0,L|462:1,1,100,8|0,0:0|0:0,0:0:0:0:
188,318,159841,2,0,P|140:281|155:215,1,100,2|0,0:0|0:0,0:0:0:0:
194,192,160122,1,0,0:0:0:0:
361,235,160216,2,0,L|378:117,1,100,8|0,0:0|0:0,0:0:0:0:
73,356,160591,6,0,L|286:345,1,200,6|8,0:0|0:0,0:0:0:0:
430,206,161153,2,0,L|217:195,1,200,2|0,0:0|0:0,0:0:0:0:
85,193,161716,1,8,0:0:0:0:
374,321,161903,6,0,P|437:250|367:167,1,200,6|0,0:0|0:0,0:0:0:0:
240,237,162466,1,4,0:0:0:0:
227,119,162653,1,2,0:0:0:0:
386,182,162841,1,2,0:0:0:0:
245,178,163028,1,2,0:0:0:0:
245,178,163216,1,2,0:0:0:0:
386,182,163403,1,4,0:0:0:0:
106,304,163778,6,0,P|75:256|96:185,1,100,0|8,0:0|0:0,0:0:0:0:
213,246,164153,2,0,P|251:172|197:56,1,200,2|0,0:0|0:0,0:0:0:0:
81,71,164716,1,8,0:0:0:0:
224,64,164903,1,0,0:0:0:0:
482,226,165091,6,0,L|492:109,1,100,2|0,0:0|0:0,0:0:0:0:
367,320,165466,2,0,L|477:318,1,100,8|0,0:0|0:0,0:0:0:0:
307,228,165841,2,0,L|66:208,1,200,2|8,0:0|0:0,0:0:0:0:
216,113,166403,1,0,0:0:0:0:
464,240,166591,6,0,P|481:167|360:115,1,200,6|0,0:0|0:0,0:0:0:0:
157,271,167341,2,0,L|363:260,1,200,8|0,0:0|0:0,0:0:0:0:
237,185,167903,1,2,0:0:0:0:
62,239,168278,6,0,P|37:182|165:100,1,200,2|2,0:0|0:0,0:0:0:0:
259,309,168841,2,0,P|302:243|227:135,1,200,8|2,0:0|0:0,0:0:0:0:
134,147,169403,1,2,0:0:0:0:
272,143,169591,1,6,0:0:0:0:
256,192,169778,12,4,172591,0:0:0:0:
284,304,178710,6,0,P|368:296|416:232,1,150,6|0,0:0|0:0,0:0:0:0:
224,244,179042,2,0,L|92:232,1,100,8|0,0:0|0:0,0:0:0:0:
388,200,179373,2,0,P|420:144|348:32,1,200,2|8,0:0|0:0,0:0:0:0:
252,32,179871,1,0,0:0:0:0:
20,192,180036,6,0,L|244:148,1,200,2|8,0:0|0:0,0:0:0:0:
120,128,180534,1,0,0:0:0:0:
400,132,180699,2,0,L|448:256,1,100,2|0,0:0|0:0,0:0:0:0:
104,268,181031,2,0,P|48:228|76:132,1,150,12|0,0:0|0:0,0:0:0:0:
134,127,181362,5,6,0:0:0:0:
269,126,181528,2,0,L|335:122,2,50,0|0|8,0:0|0:0|0:0,0:0:0:0:
114,193,181860,2,0,L|101:80,1,100,2|0,0:0|0:0,0:0:0:0:
398,193,182191,2,0,L|411:80,1,100,2|8,0:0|0:0,0:0:0:0:
28,283,182523,6,0,P|28:219|164:171,1,200,2|0,0:0|0:0,0:0:0:0:
275,238,183020,2,0,L|175:251,1,100,8|0,0:0|0:0,0:0:0:0:
333,136,183351,2,0,L|432:149,2,100,2|0|12,0:0|0:0|0:0,0:0:0:0:
64,336,183849,6,0,P|24:276|84:216,1,150,2|0,0:0|0:0,0:0:0:0:
248,220,184180,2,0,P|308:168|280:104,1,150,2|0,0:0|0:0,0:0:0:0:
68,112,184512,2,0,P|112:64|208:48,1,150,2|0,0:0|0:0,0:0:0:0:
400,64,184843,2,0,P|456:96|452:200,1,150,2|0,0:0|0:0,0:0:0:0:
272,176,185175,6,0,P|260:240|372:308,1,200,6|2,0:0|0:0,0:0:0:0:
180,312,185838,1,2,0:0:0:0:
392,328,186169,6,0,L|460:308,1,50,2|2,0:3|0:3,0:0:0:0:
212,172,186335,2,0,P|164:228|168:320,1,150,12|0,0:0|0:0,0:0:0:0:
373,320,186666,6,0,P|422:255|316:184,1,200,6|8,0:0|0:0,0:0:0:0:
129,263,187164,2,0,L|331:245,1,200,2|0,0:0|0:0,0:0:0:0:
464,298,187661,2,0,L|477:169,1,100,8|0,0:0|0:0,0:0:0:0:
133,334,187992,6,0,P|88:271|186:173,1,200,2|8,0:0|0:0,0:0:0:0:
416,200,188489,2,0,L|199:182,1,200,2|0,0:0|0:0,0:0:0:0:
348,92,188987,2,0,L|228:80,1,100,8|0,0:0|0:0,0:0:0:0:
111,293,189318,6,0,P|90:225|156:165,1,150,6|0,0:0|0:0,0:0:0:0:
204,170,189650,1,8,0:0:0:0:
354,171,189815,1,0,0:0:0:0:
80,272,189981,1,2,0:0:0:0:
219,272,190147,1,0,0:0:0:0:
225,217,190230,1,0,0:0:0:0:
231,162,190313,1,8,0:0:0:0:
71,180,190478,6,0,L|191:171,1,100,2|0,0:0|0:0,0:0:0:0:
324,75,190810,2,0,L|182:64,1,100,6|8,0:0|0:0,0:0:0:0:
475,250,191141,2,0,L|355:241,1,100,2|0,0:0|0:0,0:0:0:0:
222,145,191473,2,0,L|364:134,1,100,2|12,0:0|0:0,0:0:0:0:
145,75,191804,2,0,L|96:76,1,50,2|2,0:3|0:3,0:0:0:0:
283,244,191970,6,0,P|341:215|366:114,1,150,6|0,0:0|0:0,0:0:0:0:
310,79,192302,2,0,L|209:74,1,100,8|0,0:0|0:0,0:0:0:0:
88,193,192633,2,0,L|188:179,2,100,2|0|8,0:0|0:0|0:0,0:0:0:0:
225,337,193130,6,0,P|249:283|227:217,1,100,2|0,0:0|0:0,0:0:0:0:
104,205,193462,2,0,P|80:151|102:85,1,100,2|8,0:0|0:0,0:0:0:0:
405,327,193793,2,0,L|441:118,1,200,2|0,0:0|0:0,0:0:0:0:
321,162,194291,2,0,L|301:50,1,100,8|0,0:0|0:0,0:0:0:0:
451,86,194622,6,0,P|395:73|346:73,2,100,6|0|8,0:0|0:0|0:0,0:0:0:0:
212,250,195119,2,0,P|160:217|233:103,1,200,2|0,0:0|0:0,0:0:0:0:
339,107,195617,1,8,0:0:0:0:
101,286,195782,2,0,L|81:164,1,100,6|0,0:0|0:0,0:0:0:0:
234,167,196114,2,0,P|285:146|341:159,1,100,2|8,0:0|0:0,0:0:0:0:
176,34,196445,1,2,0:0:0:0:
439,222,196611,6,0,L|499:217,2,50,2|2|2,0:3|0:3|0:3,0:0:0:0:
300,349,196943,2,0,L|291:265,1,50,2|2,0:3|0:3,0:0:0:0:
202,277,197108,2,0,L|194:206,1,50,2|2,0:3|0:3,0:0:0:0:
295,195,197274,6,0,P|352:162|356:76,1,150,6|0,0:0|0:0,0:0:0:0:
158,61,197605,2,0,L|50:42,1,100,8|2,0:0|0:0,0:0:0:0:
171,251,197937,2,0,L|278:234,1,100,0|0,0:0|0:0,0:0:0:0:
388,123,198268,1,8,0:0:0:0:
122,308,198434,6,0,P|80:254|195:187,1,200,2|0,0:0|0:0,0:0:0:0:
281,172,198931,1,8,0:0:0:0:
428,206,199097,2,0,P|454:132|367:66,1,200,2|0,0:0|0:0,0:0:0:0:
215,188,199594,2,0,L|352:172,1,100,8|0,0:0|0:0,0:0:0:0:
78,338,199926,6,0,P|69:277|160:205,1,150,6|0,0:0|0:0,0:0:0:0:
203,153,200257,2,0,L|94:150,1,100,8|0,0:0|0:0,0:0:0:0:
426,335,200589,2,0,P|454:286|430:223,1,100,2|0,0:0|0:0,0:0:0:0:
338,189,200920,1,8,0:0:0:0:
97,335,201086,6,0,L|67:194,1,100,6|0,0:0|0:0,0:0:0:0:
194,182,201418,2,0,L|224:41,1,100,6|8,0:0|0:0,0:0:0:0:
69,285,201749,2,0,L|39:144,1,100,6|0,0:0|0:0,0:0:0:0:
320,187,202081,1,2,0:0:0:0:
46,203,202246,2,0,L|20:99,1,100,12|0,0:0|0:0,0:0:0:0:
317,328,202578,6,0,P|372:302|400:192,1,150,4|0,0:0|0:0,0:0:0:0:
332,177,202909,1,8,0:0:0:0:
186,310,203075,2,0,L|295:292,1,100,2|0,0:0|0:0,0:0:0:0:
422,130,203407,2,0,L|306:117,1,100,2|8,0:0|0:0,0:0:0:0:
160,192,203738,2,0,L|145:76,1,100,2|0,0:0|0:0,0:0:0:0:
393,370,204070,5,2,0:0:0:0:
505,296,204235,1,8,0:0:0:0:
508,187,204401,1,2,0:0:0:0:
412,110,204567,1,2,0:0:0:0:
267,172,204733,1,2,0:0:0:0:
248,300,204898,1,12,0:0:0:0:
388,384,205064,1,0,0:0:0:0:
86,291,205230,6,0,P|38:232|134:146,1,200,2|2,0:0|0:0,0:0:0:0:
294,170,205893,2,0,L|173:163,2,100,8|0|2,0:0|0:0|0:0,0:0:0:0:
456,291,206556,6,0,P|482:229|384:160,1,200,6|0,0:0|0:0,0:0:0:0:
260,327,207053,2,0,P|325:297|452:337,2,200,0|0|0,0:0|0:0|0:0,0:0:0:0:
27,224,207882,1,4,0:0:0:0:
256,192,208047,12,4,210534,0:0:0:0:
192,204,217950,5,8,0:0:0:0:
280,200,218110,1,0,0:0:0:0:
184,144,218270,1,0,0:0:0:0:
416,116,218431,6,0,P|472:168|400:252,1,200,0|0,0:0|0:0,0:0:0:0:
304,260,218912,1,0,0:0:0:0:
188,264,219072,2,0,P|128:220|204:156,1,200,0|0,0:0|0:0,0:0:0:0:
372,144,219714,5,0,0:0:0:0:
256,144,219875,2,0,P|260:88|368:44,1,150,0|0,0:0|0:0,0:0:0:0:
92,60,220195,2,0,P|80:112|164:164,1,150,4|0,0:3|0:0,0:0:0:0:
432,264,220516,6,0,P|488:224|408:140,1,200,6|8,0:0|0:0,0:0:0:0:
324,140,220998,1,0,0:0:0:0:
100,142,221158,2,0,L|88:264,1,100,2|0,0:0|0:0,0:0:0:0:
204,248,221479,1,8,0:0:0:0:
440,256,221639,6,0,L|468:144,1,100,2|0,0:0|0:0,0:0:0:0:
84,248,221960,2,0,L|20:168,2,100,2|8|0,0:0|0:0|0:0,0:0:0:0:
244,256,222441,1,2,0:3:0:0:
240,200,222521,1,2,0:3:0:0:
192,168,222602,1,2,0:3:0:0:
48,172,222762,2,0,L|16:104,1,50,8|2,0:0|0:3,0:0:0:0:
176,104,222923,2,0,L|240:100,1,50,2|2,0:3|0:3,0:0:0:0:
368,104,223083,6,0,P|448:172|444:264,1,200,6|8,0:0|0:0,0:0:0:0:
164,276,223564,2,0,L|120:176,1,100,2|0,0:0|0:0,0:0:0:0:
272,164,223885,2,0,L|370:178,1,100,2|8,0:0|0:0,0:0:0:0:
36,152,224206,6,0,L|124:76,1,100,2|2,0:0|0:3,0:0:0:0:
172,76,224447,1,2,0:3:0:0:
232,108,224527,1,2,0:3:0:0:
496,244,224687,2,0,L|456:108,1,100,8|0,0:0|0:0,0:0:0:0:
192,208,225008,1,2,0:0:0:0:
328,180,225169,1,0,0:0:0:0:
24,180,225329,2,0,L|80:64,1,100,12|2,0:0|0:3,0:0:0:0:
132,88,225570,1,2,0:3:0:0:
432,256,225650,6,0,L|496:156,1,100,6|0,0:0|0:0,0:0:0:0:
380,152,225971,1,8,0:0:0:0:
96,160,226131,2,0,L|12:232,2,100,2|0|2,0:0|0:0|0:0,0:0:0:0:
328,152,226613,2,0,L|448:152,1,100,8|0,0:0|0:0,0:0:0:0:
248,240,226933,5,2,0:0:0:0:
492,248,227094,2,0,L|376:224,2,100,2|8|0,0:0|0:0|0:0,0:0:0:0:
188,252,227575,2,0,L|120:216,2,50,2|2|2,0:3|0:3|0:3,0:0:0:0:
464,248,227896,1,8,0:0:0:0:
66,265,228217,5,2,0:0:0:0:
464,248,228538,2,0,L|440:124,1,100,6|0,0:0|0:0,0:0:0:0:
328,172,228859,1,2,0:3:0:0:
188,168,229019,1,2,0:3:0:0:
160,144,229099,1,2,0:3:0:0:
148,96,229179,1,2,0:3:0:0:
428,92,229340,6,0,P|460:120|492:208,1,100,6|2,0:0|0:3,0:0:0:0:
472,216,229581,1,2,0:3:0:0:
424,248,229661,1,2,0:3:0:0:
80,268,229821,1,8,0:0:0:0:
236,248,229982,2,0,L|296:236,1,50,2|2,0:0|0:0,0:0:0:0:
460,248,230142,5,6,0:3:0:0:
492,204,230222,1,2,0:3:0:0:
484,152,230302,1,2,0:3:0:0:
432,120,230383,1,2,0:3:0:0:
236,132,230463,2,0,L|132:196,1,100,8|0,0:0|0:0,0:0:0:0:
432,264,230784,6,0,P|488:224|408:140,1,200,6|8,0:0|0:0,0:0:0:0:
324,140,231266,1,0,0:0:0:0:
40,144,231426,2,0,L|72:264,1,100,2|0,0:0|0:0,0:0:0:0:
204,248,231746,1,8,0:0:0:0:
440,256,231907,6,0,L|468:144,1,100,2|0,0:0|0:0,0:0:0:0:
184,256,232228,2,0,L|120:176,1,100,2|8,0:0|0:0,0:0:0:0:
424,192,232548,2,0,L|376:96,1,100,2|2,0:0|0:3,0:0:0:0:
324,84,232789,1,2,0:3:0:0:
272,84,232870,1,2,0:3:0:0:
136,120,233030,2,0,L|96:156,1,50,8|2,0:0|0:3,0:0:0:0:
276,196,233190,2,0,L|316:248,1,50,2|2,0:3|0:3,0:0:0:0:
76,244,233351,6,0,P|36:284|132:356,1,200,6|8,0:0|0:0,0:0:0:0:
348,276,233832,2,0,L|392:176,1,100,2|0,0:0|0:0,0:0:0:0:
240,164,234153,2,0,L|141:178,1,100,2|8,0:0|0:0,0:0:0:0:
475,151,234474,6,0,P|466:102|411:63,1,100,2|2,0:0|0:3,0:0:0:0:
372,56,234714,1,2,0:3:0:0:
304,64,234795,1,2,0:3:0:0:
64,132,234955,2,0,L|24:252,1,100,8|0,0:0|0:0,0:0:0:0:
280,236,235276,1,6,0:0:0:0:
160,188,235436,1,0,0:0:0:0:
392,260,235597,2,0,L|440:168,1,100,12|2,0:0|0:3,0:0:0:0:
464,124,235838,1,2,0:3:0:0:
208,188,235917,6,0,L|96:188,1,100,6|0,0:0|0:0,0:0:0:0:
36,136,236238,1,8,0:0:0:0:
280,148,236399,2,0,L|384:172,2,100,2|0|0,0:0|0:0|0:0,0:0:0:0:
28,224,236880,2,0,L|60:112,1,100,8|0,0:0|0:0,0:0:0:0:
156,132,237201,5,2,0:0:0:0:
408,140,237361,2,0,L|288:152,2,100,0|8|0,0:0|0:0|0:0,0:0:0:0:
52,152,237843,2,0,L|28:104,2,50,2|2|2,0:3|0:3|0:3,0:0:0:0:
364,180,238163,1,8,0:0:0:0:
108,192,238485,5,2,0:0:0:0:
244,240,238645,1,2,0:0:0:0:
24,160,238805,1,8,0:0:0:0:
180,100,238966,1,2,0:0:0:0:
20,48,239126,1,2,0:0:0:0:
184,32,239286,1,2,0:0:0:0:
24,92,239447,1,2,0:0:0:0:
436,88,239607,1,8,0:0:0:0:
248,252,239928,6,0,L|224:140,2,100,0|0|0,0:0|0:0|0:0,0:0:0:0:
408,256,240409,1,0,0:0:0:0:
296,256,240570,2,0,L|332:156,1,100,0|0,0:0|0:0,0:0:0:0:
440,164,240891,1,0,0:0:0:0:
184,160,241051,1,6,0:0:0:0:
256,192,241212,12,0,242495,0:0:0:0:
336,276,247179,6,0,P|384:232|376:144,1,150,4|0,0:0|0:0,0:0:0:0:
160,136,247556,2,0,L|56:120,1,100,8|0,0:0|0:0,0:0:0:0:
360,204,247933,2,0,L|456:116,1,100,8|0,0:0|0:0,0:0:0:0:
144,144,248311,1,2,0:0:0:0:
404,140,248499,6,0,P|452:168|412:296,1,200,6|0,0:0|0:0,0:0:0:0:
96,296,249065,2,0,L|152:196,1,100,8|0,0:0|0:0,0:0:0:0:
392,212,249443,2,0,L|256:184,2,100,8|0|2,0:0|0:0|0:0,0:0:0:0:
128,164,250009,6,0,L|356:172,1,200,4|2,0:0|0:0,0:0:0:0:
432,216,250575,1,2,0:0:0:0:
316,288,250763,1,2,0:0:0:0:
66,285,250952,1,2,0:0:0:0:
215,249,251141,1,2,0:0:0:0:
66,285,251329,1,8,0:0:0:0:
376,208,251518,6,0,P|412:168|328:72,1,200,4|2,0:0|0:0,0:0:0:0:
64,108,252084,2,0,L|16:212,1,100,8|0,0:0|0:0,0:0:0:0:
320,208,252462,1,8,0:0:0:0:
200,172,252650,2,0,L|160:112,1,50,2|2,0:3|0:3,0:0:0:0:
332,132,252839,2,0,L|400:128,1,50,8|2,0:0|0:3,0:0:0:0:
172,130,253028,2,0,L|84:133,1,50,2|2,0:3|0:3,0:0:0:0:
444,235,253216,6,0,P|459:144|374:106,1,200,6|8,0:0|0:0,0:0:0:0:
88,124,253782,2,0,L|208:84,1,100,2|0,0:0|0:0,0:0:0:0:
236,84,254065,1,0,0:0:0:0:
144,72,254160,2,0,L|121:27,1,50,2|0,0:0|0:0,0:0:0:0:
288,32,254348,2,0,L|416:36,1,100,8|0,0:0|0:0,0:0:0:0:
96,132,254726,6,0,P|52:168|36:280,1,150,6|0,0:0|0:0,0:0:0:0:
196,264,255103,2,0,L|88:252,1,100,8|2,0:0|0:0,0:0:0:0:
224,220,255480,2,0,L|296:204,1,50,0|0,0:0|0:0,0:0:0:0:
160,200,255669,2,0,L|116:168,1,50,2|0,0:0|0:0,0:0:0:0:
312,152,255858,1,8,0:0:0:0:
168,120,256046,2,0,L|112:84,1,50,0|0,0:0|0:0,0:0:0:0:
316,80,256235,6,0,L|372:208,1,100,6|0,0:0|0:0,0:0:0:0:
224,176,256612,1,8,0:0:0:0:
474,186,256801,2,0,P|480:236|352:312,1,200,2|2,0:0|0:0,0:0:0:0:
328,320,257273,1,0,0:0:0:0:
148,320,257367,2,0,L|44:280,1,100,8|0,0:0|0:0,0:0:0:0:
336,240,257745,5,6,0:0:0:0:
196,192,257933,1,0,0:0:0:0:
332,140,258122,1,8,0:0:0:0:
84,140,258311,2,0,P|48:180|112:288,1,200,2|2,0:0|0:0,0:0:0:0:
380,288,258877,2,0,L|456:260,1,50,8|2,0:0|0:3,0:0:0:0:
228,240,259065,2,0,L|156:224,1,50,2|2,0:3|0:3,0:0:0:0:
404,212,259254,6,0,P|432:156|320:72,1,200,6|8,0:0|0:0,0:0:0:0:
480,68,259820,1,0,0:0:0:0:
208,128,260009,2,0,P|164:176|228:284,1,200,2|8,0:0|0:0,0:0:0:0:
352,288,260575,1,2,0:0:0:0:
64,280,260763,6,0,P|80:216|216:172,1,200,6|8,0:0|0:0,0:0:0:0:
320,176,261329,1,0,0:0:0:0:
32,168,261518,1,2,0:0:0:0:
180,168,261707,2,0,L|160:64,1,100,0|8,0:0|0:0,0:0:0:0:
20,56,262084,1,2,0:0:0:0:
324,72,262273,6,0,P|388:104|432:244,1,200,6|8,0:0|0:0,0:0:0:0:
144,248,262839,2,0,L|36:236,2,100,2|0|0,0:0|0:0|0:0,0:0:0:0:
408,252,263405,2,0,L|488:184,1,100,8|0,0:0|0:0,0:0:0:0:
116,244,263782,6,0,L|80:128,1,100,6|0,0:0|0:0,0:0:0:0:
168,144,264065,2,0,L|280:136,1,100,8|0,0:0|0:0,0:0:0:0:
56,128,264348,2,0,L|32:76,1,50,10|2,0:0|0:3,0:0:0:0:
76,48,264537,2,0,L|136:40,1,50,2|2,0:3|0:3,0:0:0:0:
304,48,264726,2,0,L|368:80,1,50,2|2,0:3|0:3,0:0:0:0:
184,128,264914,2,0,L|140:168,1,50,8|2,0:0|0:3,0:0:0:0:
336,188,265103,2,0,L|400:220,1,50,2|2,0:3|0:3,0:0:0:0:
68,235,265292,6,0,P|53:144|138:106,1,200,6|8,0:0|0:0,0:0:0:0:
424,124,265858,2,0,L|304:84,1,100,2|0,0:0|0:0,0:0:0:0:
276,84,266141,1,0,0:0:0:0:
368,72,266236,2,0,L|391:27,1,50,2|0,0:0|0:0,0:0:0:0:
224,32,266424,2,0,L|96:36,1,100,8|2,0:0|0:0,0:0:0:0:
416,132,266802,6,0,P|460:168|476:280,1,150,6|0,0:0|0:0,0:0:0:0:
316,264,267179,2,0,L|424:252,1,100,8|2,0:0|0:0,0:0:0:0:
288,220,267556,2,0,L|216:204,1,50,0|0,0:0|0:0,0:0:0:0:
352,200,267745,2,0,L|396:168,1,50,2|0,0:0|0:0,0:0:0:0:
216,148,267934,1,8,0:0:0:0:
344,120,268122,2,0,L|400:84,1,50,2|0,0:0|0:0,0:0:0:0:
196,80,268311,6,0,L|176:200,1,100,6|0,0:0|0:0,0:0:0:0:
308,180,268688,1,8,0:0:0:0:
56,184,268877,2,0,L|28:296,1,100,2|0,0:0|0:0,0:0:0:0:
320,284,269254,2,0,L|436:276,1,100,2|8,0:0|0:0,0:0:0:0:
88,248,269631,6,0,L|28:140,1,100,2|0,0:0|0:0,0:0:0:0:
316,192,270009,1,0,0:0:0:0:
180,140,270197,1,8,0:0:0:0:
428,140,270387,2,0,P|464:180|400:288,1,200,2|2,0:0|0:0,0:0:0:0:
132,288,270953,2,0,L|56:260,1,50,8|2,0:0|0:3,0:0:0:0:
284,240,271141,2,0,L|356:224,1,50,2|2,0:3|0:3,0:0:0:0:
108,212,271329,6,0,P|80:156|192:72,1,200,6|8,0:0|0:0,0:0:0:0:
32,68,271895,1,0,0:0:0:0:
304,128,272084,2,0,P|348:176|284:284,1,200,2|8,0:0|0:0,0:0:0:0:
160,288,272650,1,0,0:0:0:0:
448,280,272839,6,0,P|432:216|296:172,1,200,6|8,0:0|0:0,0:0:0:0:
192,176,273404,1,0,0:0:0:0:
480,168,273594,1,2,0:0:0:0:
332,168,273782,2,0,L|352:64,1,100,0|8,0:0|0:0,0:0:0:0:
64,68,274159,1,6,0:0:0:0:
196,80,274348,6,0,L|156:196,1,100,0|0,0:0|0:0,0:0:0:0:
480,168,274726,1,8,0:0:0:0:
368,248,274914,2,0,L|476:236,2,100,2|0|0,0:0|0:0|0:0,0:0:0:0:
480,168,275480,1,8,0:0:0:0:
124,300,275669,6,0,P|80:244|172:160,1,200,6|2,0:0|0:0,0:0:0:0:
312,160,276235,1,2,0:0:0:0:
40,144,276424,1,8,0:0:0:0:
136,104,276612,2,0,L|224:88,1,50,2|2,0:3|0:3,0:0:0:0:
380,112,276801,2,0,L|424:160,1,50,2|2,0:3|0:3,0:0:0:0:
216,208,276990,2,0,L|180:268,1,50,8|2,0:0|0:3,0:0:0:0:
396,272,277179,2,0,L|444:312,1,50,2|2,0:3|0:3,0:0:0:0:
152,332,277367,5,6,0:0:0:0:
360,328,277650,2,0,P|476:244|125:232,1,1000
376,236,280386,6,0,P|456:200|468:128,1,150,6|0,0:0|0:0,0:0:0:0:
460,100,280763,1,8,0:0:0:0:
164,156,280952,2,0,L|52:220,2,100,2|0|0,0:0|0:0|0:0,0:0:0:0:
432,168,281518,2,0,L|452:272,1,100,8|0,0:0|0:0,0:0:0:0:
180,276,281895,6,0,P|144:224|192:144,1,150,6|0,0:0|0:0,0:0:0:0:
224,144,282273,1,8,0:0:0:0:
480,144,282462,2,0,P|472:208|348:284,1,200,2|2,0:0|0:0,0:0:0:0:
96,284,283028,2,0,L|72:172,1,100,8|0,0:0|0:0,0:0:0:0:
132,184,283311,1,0,0:0:0:0:
340,188,283405,6,0,P|412:172|444:96,1,150,6|0,0:0|0:0,0:0:0:0:
420,64,283782,1,8,0:0:0:0:
168,120,283971,2,0,L|280:120,2,100,2|0|0,0:0|0:0|0:0,0:0:0:0:
64,120,284537,1,2,0:0:0:0:
416,160,284726,5,12,0:0:0:0:
256,192,284914,12,0,286046,0:0:0:0:
108,236,289064,6,0,L|314:195,1,200,6|8,0:0|0:0,0:0:0:0:
168,184,289625,2,0,P|112:144|188:56,1,200,0|0,0:0|0:0,0:0:0:0:
52,56,290188,1,8,0:0:0:0:
300,56,290375,6,0,P|376:92|424:216,1,200,6|8,0:0|0:0,0:0:0:0:
152,216,290938,2,0,L|20:196,2,100,2|0|2,0:0|0:0|0:0,0:0:0:0:
268,276,291500,2,0,L|300:332,1,50,2|2,0:3|0:3,0:0:0:0:
112,332,291688,2,0,L|16:248,1,100,8|0,0:0|0:0,0:0:0:0:
312,268,292063,6,0,P|372:232|352:108,1,200,6|8,0:0|0:0,0:0:0:0:
200,127,292625,2,0,L|116:239,1,100,2|0,0:0|0:0,0:0:0:0:
308,216,293000,2,0,L|392:296,1,100,2|8,0:0|0:0,0:0:0:0:
108,316,293375,6,0,P|56:280|128:184,1,200,6|0,0:0|0:0,0:0:0:0:
224,184,293938,1,8,0:0:0:0:
492,192,294125,2,0,L|444:88,1,100,2|0,0:0|0:0,0:0:0:0:
288,112,294500,2,0,L|264:240,1,100,2|8,0:0|0:0,0:0:0:0:
380,212,294875,1,0,0:0:0:0:
72,212,295063,6,0,P|32:152|128:80,1,200,6|8,0:0|0:0,0:0:0:0:
220,80,295625,1,0,0:0:0:0:
488,112,295813,2,0,L|360:140,2,100,8|2|8,0:0|0:0|0:0,0:0:0:0:
172,288,296375,6,0,P|108:228|184:172,1,200,8|8,0:0|0:0,0:0:0:0:
336,172,296938,1,8,0:0:0:0:
152,128,297125,1,2,0:0:0:0:
436,120,297313,1,2,0:3:0:0:
488,156,297406,1,2,0:3:0:0:
492,212,297500,1,2,0:3:0:0:
456,260,297594,1,2,0:3:0:0:
200,264,297688,2,8,L|120:264,1,50,8|8,0:0|0:0,0:0:0:0:
320,200,297875,2,8,L|380:200,1,50,8|8,0:0|0:0,0:0:0:0:
135,175,298063,6,0,P|102:113|219:47,1,200,6|8,0:0|0:0,0:0:0:0:
321,137,298625,2,0,L|103:127,1,200,2|2,0:0|0:0,0:0:0:0:
246,319,299188,2,0,P|287:278|278:214,1,100,8|0,0:0|0:0,0:0:0:0:
219,188,299469,1,0,0:0:0:0:
50,213,299563,6,0,P|43:143|152:86,1,200,2|8,0:0|0:0,0:0:0:0:
306,91,300125,2,0,L|96:87,1,200,2|2,0:0|0:0,0:0:0:0:
216,256,300688,2,0,P|271:236|342:246,1,100,8|0,0:0|0:0,0:0:0:0:
104,304,301063,6,0,P|52:250|140:174,1,200,2|8,0:0|0:0,0:0:0:0:
253,169,301625,2,0,L|473:147,1,200,2|2,0:0|0:0,0:0:0:0:
359,51,302188,2,0,L|235:39,1,100,8|0,0:0|0:0,0:0:0:0:
128,153,302563,6,0,L|247:146,1,100,2|0,0:0|0:0,0:0:0:0:
359,236,302938,1,8,0:0:0:0:
230,322,303125,1,2,0:0:0:0:
367,355,303313,2,0,L|377:255,1,100,0|2,0:0|0:0,0:0:0:0:
103,269,303688,1,8,0:0:0:0:
97,294,304063,6,0,P|76:231|177:167,1,200,6|8,0:0|0:0,0:0:0:0:
301,168,304625,2,0,L|82:147,1,200,2|2,0:0|0:0,0:0:0:0:
219,231,305188,1,8,0:0:0:0:
357,167,305375,1,0,0:0:0:0:
66,324,305563,6,0,L|49:122,1,200,2|8,0:0|0:0,0:0:0:0:
191,129,306125,1,2,0:0:0:0:
62,229,306313,2,0,P|34:170|72:125,1,100,0|2,0:0|0:0,0:0:0:0:
193,67,306688,2,0,L|307:65,1,100,8|0,0:0|0:0,0:0:0:0:
423,155,307063,6,0,L|191:167,1,200,6|8,0:0|0:0,0:0:0:0:
90,248,307625,2,0,P|85:164|201:101,1,200,2|2,0:0|0:0,0:0:0:0:
308,101,308188,1,8,0:0:0:0:
58,306,308375,6,0,L|262:293,1,200,6|2,0:0|0:0,0:0:0:0:
422,192,308938,2,0,L|283:184,1,100,8|0,0:0|0:0,0:0:0:0:
196,118,309313,2,0,L|131:116,2,50,2|2|2,0:3|0:3|0:3,0:0:0:0:
341,292,309688,1,8,0:0:0:0:
382,264,309781,1,2,0:3:0:0:
394,215,309875,1,2,0:3:0:0:
377,167,309969,1,2,0:3:0:0:
166,193,310063,6,0,P|66:188|27:105,1,200,6|8,0:0|0:0,0:0:0:0:
220,278,310625,2,0,P|294:262|327:134,1,200,2|2,0:0|0:0,0:0:0:0:
209,78,311188,1,8,0:0:0:0:
339,76,311375,1,0,0:0:0:0:
32,294,311563,6,0,P|39:208|164:162,1,200,2|8,0:0|0:0,0:0:0:0:
286,160,312125,2,0,L|68:137,1,200,2|2,0:0|0:0,0:0:0:0:
208,140,312688,1,8,0:0:0:0:
80,137,312875,1,0,0:0:0:0:
421,351,313063,6,0,P|470:300|406:190,1,200,2|8,0:0|0:0,0:0:0:0:
262,188,313625,2,0,P|266:125|387:59,1,200,2|2,0:0|0:0,0:0:0:0:
506,61,314188,1,8,0:0:0:0:
227,252,314375,6,0,P|170:203|241:130,1,200,2|2,0:0|0:0,0:0:0:0:
371,132,314938,2,0,L|396:36,1,100,8|0,0:0|0:0,0:0:0:0:
251,93,315313,1,2,0:0:0:0:
116,89,315500,1,0,0:0:0:0:
251,93,315688,1,8,0:0:0:0:
116,89,315875,1,0,0:0:0:0:
419,279,316063,6,0,P|442:215|340:132,1,200,6|8,0:0|0:0,0:0:0:0:
237,234,316625,2,0,P|226:167|329:105,1,200,2|2,0:0|0:0,0:0:0:0:
457,107,317188,1,8,0:0:0:0:
211,100,317375,6,0,L|-19:78,1,200,2|2,0:0|0:0,0:0:0:0:
124,191,317938,2,0,L|241:204,1,100,8|0,0:0|0:0,0:0:0:0:
350,267,318313,2,0,L|344:153,1,100,2|0,0:0|0:0,0:0:0:0:
477,133,318688,1,8,0:0:0:0:
337,77,318875,1,0,0:0:0:0:
59,222,319063,6,0,P|62:144|176:87,1,200,6|8,0:0|0:0,0:0:0:0:
317,253,319625,2,0,P|366:193|305:95,1,200,2|2,0:0|0:0,0:0:0:0:
151,104,320188,1,8,0:0:0:0:
432,237,320375,5,6,0:0:0:0:
316,163,320750,1,2,0:0:0:0:
446,93,320938,2,0,L|334:86,1,100,8|0,0:0|0:0,0:0:0:0:
180,264,321313,2,0,L|292:257,1,100,2|0,0:0|0:0,0:0:0:0:
428,322,321688,2,0,L|435:239,2,50,2|2|2,0:3|0:3|0:3,0:0:0:0:
94,211,322063,1,6,0:0:0:0:
256,192,322250,12,0,324313,0:0:0:0:
196,182,324688,5,8,0:0:0:0:
330,185,324875,1,0,0:0:0:0:
256,192,325063,12,8,327688,0:0:0:0:
85,318,328063,6,0,P|85:254|196:170,1,200,6|8,0:0|0:0,0:0:0:0:
313,177,328625,2,0,P|311:113|191:54,1,200,0|0,0:0|0:0,0:0:0:0:
62,48,329188,1,8,0:0:0:0:
376,321,329563,6,0,P|376:257|265:173,1,200,2|8,0:0|0:0,0:0:0:0:
169,179,330125,2,0,P|171:115|291:56,1,200,2|2,0:0|0:0,0:0:0:0:
399,51,330688,1,8,0:0:0:0:
182,280,331063,6,0,P|126:225|213:150,1,200,6|8,0:0|0:0,0:0:0:0:
479,199,331625,2,0,P|474:127|366:56,1,200,6|2,0:0|0:0,0:0:0:0:
270,51,332188,1,8,0:0:0:0:
25,50,332375,1,6,0:0:0:0:
266,316,332750,5,2,0:0:0:0:
268,265,332844,1,2,0:0:0:0:
271,214,332938,1,8,0:0:0:0:
80,196,333313,2,0,L|70:73,1,100,8|2,0:0|0:0,0:0:0:0:
192,100,333688,1,2,0:0:0:0:
472,111,334063,1,6,0:0:0:0:
276,296,340741,6,0,L|252:184,1,100,0|0,0:0|0:0,0:0:0:0:
416,256,341158,2,0,L|448:136,1,100,0|0,0:0|0:0,0:0:0:0:
124,144,341574,6,0,P|76:176|148:268,1,200,4|0,0:0|0:0,0:0:0:0:
280,264,342199,2,0,L|88:192,1,200,0|0,0:0|0:0,0:0:0:0:
236,188,342824,2,0,L|352:164,1,100,0|0,0:0|0:0,0:0:0:0:
152,152,343241,6,0,P|148:104|276:48,1,200,0|0,0:0|0:0,0:0:0:0:
424,56,343866,2,0,P|480:104|424:196,1,200,0|0,0:0|0:0,0:0:0:0:
316,196,344491,1,4,0:0:0:0:
112,200,344699,1,0,0:0:0:0:
380,236,344908,6,0,L|480:232,2,100,8|0|0,0:0|0:0|0:0,0:0:0:0:
158,236,345533,2,0,L|58:232,2,100,8|0|0,0:0|0:0|0:0,0:0:0:0:
488,152,346158,1,8,0:0:0:0:
164,148,346366,5,2,0:0:0:0:
392,148,346783,1,2,0:0:0:0:
88,304,347199,6,0,L|40:280,2,50,0|0|0,0:0|0:0|0:0,0:0:0:0:
288,292,347616,2,0,L|344:264,1,50,2|2,0:3|0:3,0:0:0:0:
152,252,347824,1,8,0:0:0:0:
296,180,348033,1,0,0:0:0:0:
28,197,348241,6,0,P|34:138|163:51,1,200,6|8,0:0|0:0,0:0:0:0:
281,118,348866,2,0,L|360:114,2,50,0|8|0,0:0|0:0|0:0,0:0:0:0:
108,272,349283,2,0,L|186:266,1,50,2|0,0:0|0:0,0:0:0:0:
354,249,349491,1,8,0:0:0:0:
191,171,349699,1,0,0:0:0:0:
478,107,349908,6,0,L|339:102,2,100,6|0|8,0:0|0:0|0:0,0:0:0:0:
179,259,350533,1,0,0:0:0:0:
256,250,350637,1,8,0:0:0:0:
328,243,350741,1,0,0:0:0:0:
155,271,350949,2,0,L|133:153,1,100,2|8,0:0|0:0,0:0:0:0:
300,151,351366,2,0,L|310:73,1,50,0|0,0:0|0:0,0:0:0:0:
129,105,351574,6,0,L|12:95,1,100,6|0,0:0|0:0,0:0:0:0:
160,192,351991,1,8,0:0:0:0:
33,343,352199,2,0,L|21:258,1,50,0|8,0:0|0:0,0:0:0:0:
196,256,352408,1,0,0:0:0:0:
333,180,352616,2,0,L|100:163,1,200,2|0,0:0|0:0,0:0:0:0:
275,247,353241,5,6,0:0:0:0:
139,248,353449,1,0,0:0:0:0:
270,256,353658,1,8,0:0:0:0:
413,258,353866,2,0,L|488:261,2,50,0|8|0,0:0|0:0|0:0,0:0:0:0:
115,207,354283,1,2,0:0:0:0:
259,204,354491,1,8,0:0:0:0:
87,145,354699,2,0,L|8:147,1,50,2|2,0:0|0:0,0:0:0:0:
275,313,354908,6,0,L|396:303,1,100,6|0,0:0|0:0,0:0:0:0:
235,195,355324,1,8,0:0:0:0:
360,124,355533,2,0,L|429:127,1,50,0|8,0:0|0:0,0:0:0:0:
203,252,355741,2,0,P|165:200|194:141,1,100,0|2,0:0|0:0,0:0:0:0:
296,164,356053,2,0,L|364:77,1,100,0|0,0:0|0:0,0:0:0:0:
471,63,356366,2,0,L|481:5,1,50,2|0,0:0|0:0,0:0:0:0:
256,319,356574,6,0,L|132:313,1,100,6|0,0:0|0:0,0:0:0:0:
302,183,356991,2,0,L|426:177,1,100,8|0,0:0|0:0,0:0:0:0:
368,108,357303,1,8,0:0:0:0:
192,239,357408,2,0,L|186:117,1,100,0|2,0:0|0:0,0:0:0:0:
374,137,357824,1,8,0:0:0:0:
193,76,358033,2,0,L|122:72,1,50,2|2,0:3|0:3,0:0:0:0:
361,258,358241,6,0,L|509:250,2,100,6|0|8,0:0|0:0|0:0,0:0:0:0:
192,353,358866,2,0,L|340:345,2,100,2|0|0,0:0|0:0|0:0,0:0:0:0:
379,231,359491,1,8,0:0:0:0:
90,235,359699,6,0,P|32:179|115:112,1,200,6|0,0:0|0:0,0:0:0:0:
246,113,360324,1,12,0:0:0:0:
99,159,360533,2,0,L|78:78,1,50,2|8,0:3|0:0,0:0:0:0:
158,44,360741,1,2,0:3:0:0:
263,46,360845,2,0,L|377:47,1,100,2|0,0:3|0:0,0:0:0:0:
162,259,361158,2,0,P|108:220|160:147,1,150,8|0,0:0|0:0,0:0:0:0:
406,274,361574,6,0,P|438:211|337:141,1,200,6|8,0:0|0:0,0:0:0:0:
209,168,362199,2,0,L|140:154,2,50,0|8|0,0:0|0:0|0:0,0:0:0:0:
356,139,362616,1,2,0:0:0:0:
192,182,362824,2,0,L|181:70,1,100,8|0,0:0|0:0,0:0:0:0:
485,51,363241,6,0,L|357:41,2,100,6|2|8,0:0|0:0|0:0,0:0:0:0:
291,278,363866,2,0,L|271:217,1,50,0|8,0:0|0:0,0:0:0:0:
468,221,364074,2,0,L|488:104,1,100,0|2,0:0|0:0,0:0:0:0:
278,106,364491,1,8,0:0:0:0:
415,76,364699,2,0,L|330:63,1,50,2|0,0:0|0:0,0:0:0:0:
128,291,364908,6,0,P|102:239|130:179,1,100,6|0,0:0|0:0,0:0:0:0:
260,156,365324,1,8,0:0:0:0:
98,113,365533,2,0,L|91:51,1,50,0|8,0:0|0:0,0:0:0:0:
275,165,365741,2,0,L|396:161,2,100,0|2|8,0:0|0:0|0:0,0:0:0:0:
126,305,366366,6,0,L|117:178,1,100,2|6,0:0|0:0,0:0:0:0:
391,79,366783,2,0,L|398:178,1,100,2|8,0:0|0:0,0:0:0:0:
126,55,367199,2,0,L|62:49,1,50,0|8,0:0|0:0,0:0:0:0:
250,232,367408,2,0,L|376:229,1,100,0|2,0:0|0:3,0:0:0:0:
394,137,367720,1,2,0:3:0:0:
162,127,367824,2,0,P|122:107|59:113,1,100,12|0,0:0|0:0,0:0:0:0:
356,270,368241,6,0,P|433:231|394:106,1,200,6|8,0:0|0:0,0:0:0:0:
258,42,368866,2,0,L|476:42,1,200,2|0,0:0|0:0,0:0:0:0:
325,95,369491,1,8,0:0:0:0:
36,241,369699,6,0,P|48:156|159:105,1,200,6|0,0:0|0:0,0:0:0:0:
277,104,370324,1,8,0:0:0:0:
140,199,370533,2,0,L|123:114,1,50,0|8,0:0|0:0,0:0:0:0:
310,258,370741,2,0,L|446:252,1,100,0|4,0:0|0:0,0:0:0:0:
124,75,371158,2,0,L|24:79,1,100,12|0,0:0|0:0,0:0:0:0:
315,309,371574,5,6,0:0:0:0:
455,231,371783,1,0,0:0:0:0:
309,227,371991,1,8,0:0:0:0:
451,148,372199,1,0,0:0:0:0:
161,221,372408,2,0,L|48:207,2,100,8|0|0,0:0|0:0|0:0,0:0:0:0:
434,198,373033,5,12,0:0:0:0:
110,146,373449,1,0,0:0:0:0:
377,220,373866,1,8,0:0:0:0:
67,282,374283,2,0,L|129:263,1,50,2|2,0:3|0:3,0:0:0:0:
330,244,374491,2,0,L|358:129,1,100,8|0,0:0|0:0,0:0:0:0:
56,154,374908,5,4,0:0:0:0:
256,192,375116,12,0,378241,0:0:0:0:
72,268,383905,5,8,0:0:0:0:
180,232,384120,1,8,0:0:0:0:
56,180,384334,1,8,0:0:0:0:
328,192,384548,1,8,0:0:0:0:
184,156,384763,1,8,0:0:0:0:
464,112,384977,1,8,0:0:0:0:
176,80,385191,5,12,0:0:0:0:
256,192,385405,12,8,386691,0:0:0:0:
220,332,387120,6,0,P|172:280|228:220,1,127.50000243187,4|0,0:0|0:0,0:0:0:0:
380,136,387548,1,8,0:0:0:0:
216,140,387762,1,0,0:0:0:0:
160,168,387869,1,0,0:0:0:0:
156,220,387977,5,0,0:0:0:0:
216,252,388084,1,0,0:0:0:0:
396,256,388191,2,0,L|456:256,1,42.5000008106232,12|0,0:3|0:0,0:0:0:0:
192,80,388405,1,8,0:0:0:0:
356,104,388619,1,0,0:0:0:0:
80,120,388834,5,4,0:0:0:0:
32,144,388941,1,0,0:0:0:0:
24,196,389048,1,0,0:0:0:0:
68,240,389155,1,0,0:0:0:0:
256,248,389263,1,8,0:0:0:0:
48,214,389477,1,0,0:0:0:0:
256,180,389691,6,0,L|291:132,1,42.5000008106232,0|0,0:0|0:0,0:0:0:0:
113,136,389905,2,0,L|105:86,1,42.5000008106232,12|0,0:3|0:0,0:0:0:0:
289,81,390119,1,8,0:0:0:0:
349,109,390227,1,0,0:0:0:0:
171,162,390334,2,0,L|106:166,1,42.5000008106232
376,208,390548,6,0,P|424:240|436:316,1,127.50000243187,4|0,0:0|0:0,0:0:0:0:
264,328,390977,1,8,0:0:0:0:
100,332,391191,1,0,0:0:0:0:
76,284,391298,1,0,0:0:0:0:
92,236,391405,5,0,0:0:0:0:
140,200,391512,1,0,0:0:0:0:
308,160,391619,2,0,L|260:148,1,42.5000008106232,12|0,0:3|0:0,0:0:0:0:
68,140,391834,1,8,0:0:0:0:
232,140,392048,6,0,L|332:140,1,85.0000016212464,0|4,0:0|0:0,0:0:0:0:
128,100,392369,2,0,L|56:88,2,42.5000008106232,8|0|0,0:0|0:3|0:0,0:0:0:0:
296,112,392691,2,0,L|396:112,1,85.0000016212464,8|0,0:0|0:0,0:0:0:0:
132,224,393013,1,8,0:0:0:0:
68,192,393120,5,0,0:0:0:0:
52,144,393227,1,0,0:0:0:0:
280,144,393334,1,10,0:3:0:0:
120,128,393548,2,0,L|112:32,1,85.0000016212464,8|0,0:0|0:0,0:0:0:0:
172,48,393870,1,0,0:0:0:0:
404,84,393977,6,0,P|480:120|480:168,1,127.50000243187,4|0,0:0|0:0,0:0:0:0:
300,228,394405,1,8,0:0:0:0:
136,208,394619,1,0,0:0:0:0:
160,156,394727,1,0,0:0:0:0:
224,140,394834,5,0,0:0:0:0:
288,164,394941,1,0,0:0:0:0:
96,156,395048,2,0,L|32:148,1,42.5000008106232,12|0,0:3|0:0,0:0:0:0:
272,120,395263,2,0,L|382:120,1,104.999996795654,8|0,0:0|0:0,0:0:0:0:
422,120,395584,1,0,0:0:0:0:
224,160,395691,5,4,0:0:0:0:
176,144,395798,1,0,0:0:0:0:
176,96,395905,1,0,0:0:0:0:
224,64,396013,1,0,0:0:0:0:
416,64,396120,1,8,0:0:0:0:
248,116,396334,6,0,L|352:132,1,85.0000016212464,0|0,0:0|0:0,0:0:0:0:
388,140,396655,1,0,0:0:0:0:
208,196,396762,2,0,L|148:216,1,42.5000008106232,12|0,0:3|0:0,0:0:0:0:
436,240,396977,2,0,L|344:240,1,85.0000016212464,8|0,0:0|0:0,0:0:0:0:
288,240,397298,1,0,0:0:0:0:
80,224,397405,6,0,P|48:192|108:132,1,127.50000243187,4|0,0:0|0:0,0:0:0:0:
296,112,397834,1,8,0:0:0:0:
136,176,398048,2,0,L|40:208,1,85.0000016212464,0|0,0:0|0:0,0:0:0:0:
104,232,398370,1,0,0:0:0:0:
284,248,398477,2,0,L|404:248,1,85.0000016212464,12|0,0:3|0:0,0:0:0:0:
24,176,398905,6,0,P|56:112|168:80,1,170,12|0,0:0|0:0,0:0:0:0:
196,84,399441,1,0,0:0:0:0:
368,96,399548,2,0,L|452:80,1,85.0000016212464,12|0,0:0|0:0,0:0:0:0:
432,160,399869,1,2,0:3:0:0:
164,140,399977,5,8,0:0:0:0:
132,184,400084,1,0,0:0:0:0:
328,216,400191,2,0,L|360:276,1,42.5000008106232,12|0,0:3|0:0,0:0:0:0:
152,288,400405,1,8,0:0:0:0:
104,260,400512,1,8,0:0:0:0:
337,250,400619,1,8,0:0:0:0:
377,298,400727,1,8,0:0:0:0:
104,280,400834,6,0,P|32:244|40:172,1,127.50000243187,4|0,0:0|0:0,0:0:0:0:
196,152,401262,1,8,0:0:0:0:
368,144,401476,1,0,0:0:0:0:
404,184,401583,1,0,0:0:0:0:
388,224,401691,5,0,0:0:0:0:
340,252,401798,1,0,0:0:0:0:
116,256,401905,2,0,L|56:256,1,42.5000008106232,12|0,0:3|0:0,0:0:0:0:
320,80,402119,1,8,0:0:0:0:
156,108,402333,1,0,0:0:0:0:
432,120,402548,5,4,0:0:0:0:
480,144,402655,1,0,0:0:0:0:
488,196,402762,1,0,0:0:0:0:
444,240,402869,1,0,0:0:0:0:
256,248,402977,1,8,0:0:0:0:
469,227,403191,1,0,0:0:0:0:
256,180,403405,6,0,L|232:128,1,42.5000008106232,0|0,0:0|0:0,0:0:0:0:
408,136,403619,2,0,L|440:92,1,42.5000008106232,12|0,0:3|0:0,0:0:0:0:
260,68,403833,1,8,0:0:0:0:
200,96,403941,1,0,0:0:0:0:
385,147,404048,1,0,0:0:0:0:
413,203,404155,1,0,0:0:0:0:
96,208,404262,6,0,P|48:216|24:288,1,127.50000243187,4|0,0:0|0:0,0:0:0:0:
188,324,404691,1,8,0:0:0:0:
356,320,404905,1,0,0:0:0:0:
416,296,405012,1,0,0:0:0:0:
440,236,405119,5,0,0:0:0:0:
424,180,405226,1,0,0:0:0:0:
220,160,405333,2,0,L|268:148,1,42.5000008106232,12|0,0:3|0:0,0:0:0:0:
444,140,405548,1,8,0:0:0:0:
223,143,405762,6,0,L|123:143,1,85.0000016212464,0|4,0:0|0:0,0:0:0:0:
384,100,406084,2,0,L|456:88,2,42.5000008106232,8|0|0,0:0|0:0|0:0,0:0:0:0:
216,112,406405,2,0,L|116:112,1,85.0000016212464,8|0,0:0|0:0,0:0:0:0:
380,224,406727,5,8,0:0:0:0:
444,192,406834,1,0,0:0:0:0:
460,144,406941,1,0,0:0:0:0:
232,144,407048,1,10,0:3:0:0:
392,128,407262,2,0,L|468:196,1,85.0000016212464,8|0,0:0|0:0,0:0:0:0:
384,192,407584,1,0,0:0:0:0:
112,176,407691,6,0,P|60:196|48:268,1,127.50000243187,4|0,0:0|0:0,0:0:0:0:
216,264,408119,1,8,0:0:0:0:
376,208,408333,1,0,0:0:0:0:
352,156,408441,1,0,0:0:0:0:
288,140,408548,5,0,0:0:0:0:
224,164,408655,1,0,0:0:0:0:
416,156,408762,2,0,L|480:148,1,42.5000008106232,12|0,0:3|0:0,0:0:0:0:
240,120,408977,2,0,L|144:120,1,85,8|0,0:0|0:0,0:0:0:0:
468,200,409405,5,4,0:0:0:0:
448,144,409512,1,0,0:0:0:0:
400,112,409619,1,0,0:0:0:0:
344,100,409727,1,0,0:0:0:0:
176,96,409834,1,8,0:0:0:0:
344,140,410048,6,0,L|240:156,1,85.0000016212464,0|0,0:0|0:0,0:0:0:0:
204,164,410369,1,0,0:0:0:0:
404,232,410476,2,0,L|464:252,1,42.5000008106232,12|0,0:3|0:0,0:0:0:0:
204,272,410691,1,8,0:0:0:0:
368,300,410905,1,0,0:0:0:0:
76,256,411119,6,0,P|44:224|104:164,1,127.50000243187,4|0,0:0|0:0,0:0:0:0:
296,112,411548,1,8,0:0:0:0:
136,176,411762,1,0,0:0:0:0:
84,192,411869,1,0,0:0:0:0:
68,232,411977,1,0,0:0:0:0:
104,232,412084,1,0,0:0:0:0:
284,248,412191,2,0,L|404:248,1,85.0000016212464,12|0,0:3|0:0,0:0:0:0:
40,220,412619,6,0,P|24:160|124:112,1,170.000003242493,4|2,0:0|0:0,0:0:0:0:
408,168,413262,2,0,P|424:116|364:76,1,127.50000243187,4|0,0:0|0:0,0:0:0:0:
148,96,413691,2,0,L|32:112,1,85.0000016212464,8|0,0:0|0:0,0:0:0:0:
417,152,414119,2,0,L|485:208,1,85.0000016212464,8|0,0:0|0:0,0:0:0:0:
51,173,414548,6,0,P|43:237|44:291,1,85.0000016212464,6|0,0:0|0:0,0:0:0:0:
256,192,414977,12,0,417977,0:0:0:0:
272,200,421279,5,2,0:0:0:0:
176,180,421488,2,0,L|132:156,1,50,2|2,0:0|0:0,0:0:0:0:
328,116,421698,2,0,L|392:220,1,100,12|0,0:0|0:0,0:0:0:0:
52,208,422118,2,0,L|188:132,2,150,8|0|0,0:0|0:0|0:0,0:0:0:0:
372,240,422957,6,0,P|420:192|344:84,1,200,6|2,0:0|0:0,0:0:0:0:
96,196,423586,2,0,L|304:124,1,200,12|0,0:0|0:0,0:0:0:0:
160,100,424216,2,0,L|92:80,1,50,2|2,0:3|0:3,0:0:0:0:
320,88,424425,6,0,P|384:136|344:244,1,200,6|2,0:0|0:0,0:0:0:0:
76,232,425055,2,0,L|48:120,1,100,8|0,0:0|0:0,0:0:0:0:
352,132,425474,1,2,0:3:0:0:
416,164,425579,1,2,0:3:0:0:
420,208,425684,1,2,0:3:0:0:
88,192,425894,1,2,0:3:0:0:
88,132,425999,1,2,0:3:0:0:
152,100,426104,1,2,0:3:0:0:
424,104,426313,6,0,P|456:148|424:240,1,150,6|0,0:0|0:0,0:0:0:0:
268,232,426733,1,8,0:0:0:0:
400,184,426943,2,0,L|196:128,1,200,2|0,0:0|0:0,0:0:0:0:
64,160,427572,1,8,0:0:0:0:
384,104,427782,6,0,L|436:208,1,100,2|0,0:0|0:0,0:0:0:0:
320,208,428202,1,0,0:0:0:0:
48,200,428411,1,8,0:0:0:0:
168,176,428621,2,0,P|136:112|8:92,1,200,2|0,0:0|0:0,0:0:0:0:
128,76,429251,1,8,0:0:0:0:
400,100,429460,6,0,L|348:204,1,100,0|2,0:0|0:0,0:0:0:0:
180,184,429880,2,0,L|112:176,2,50,0|0|8,0:0|0:0|0:0,0:0:0:0:
472,164,430299,2,0,L|368:156,2,100,2|0|0,0:0|0:0|0:0,0:0:0:0:
160,212,430929,1,8,0:0:0:0:
431,202,431139,6,0,P|499:158|431:78,1,200,6|2,0:0|0:0,0:0:0:0:
36,104,431768,2,0,L|96:188,1,100,8|0,0:0|0:0,0:0:0:0:
380,216,432188,2,0,L|424:268,2,50,2|2|2,0:3|0:3|0:3,0:0:0:0:
108,224,432607,1,8,0:0:0:0:
216,156,432817,2,2,L|296:156,1,50,2|2,0:0|0:0,0:0:0:0:
88,156,433027,6,0,P|52:112|120:36,1,150,6|0,0:0|0:0,0:0:0:0:
264,40,433446,1,8,0:0:0:0:
112,100,433656,2,0,L|304:164,1,200,2|0,0:0|0:0,0:0:0:0:
152,196,434285,1,8,0:0:0:0:
464,224,434495,6,0,P|484:156|388:68,1,200,2|0,0:0|0:0,0:0:0:0:
296,68,435125,1,8,0:0:0:0:
24,188,435334,2,0,L|244:148,1,200,2|0,0:0|0:0,0:0:0:0:
492,192,435964,2,0,L|460:292,1,100,8|0,0:0|0:0,0:0:0:0:
192,296,436383,6,0,P|136:276|112:160,1,150,6|0,0:0|0:0,0:0:0:0:
268,200,436803,1,8,0:0:0:0:
120,196,437013,2,0,P|124:132|236:36,1,200,2|0,0:0|0:0,0:0:0:0:
488,148,437642,1,8,0:0:0:0:
216,72,437852,6,0,P|148:108|216:212,1,200,6|0,0:0|0:0,0:0:0:0:
456,208,438481,2,0,P|448:148|316:60,1,200,12|2,0:0|0:3,0:0:0:0:
292,64,439006,1,2,0:3:0:0:
244,96,439111,1,2,0:3:0:0:
224,152,439216,1,2,0:3:0:0:
416,216,439320,2,8,L|475:238,1,50,8|8,0:0|0:0,0:0:0:0:
254,268,439530,2,8,L|201:299,1,50,8|8,0:0|0:0,0:0:0:0:
424,104,439740,6,0,P|456:148|424:240,1,150,6|0,0:0|0:0,0:0:0:0:
268,232,440160,1,8,0:0:0:0:
400,184,440370,2,0,L|196:128,1,200,2|0,0:0|0:0,0:0:0:0:
52,148,440999,1,8,0:0:0:0:
384,104,441209,6,0,L|436:208,1,100,2|0,0:0|0:0,0:0:0:0:
320,208,441629,1,0,0:0:0:0:
48,200,441838,1,8,0:0:0:0:
168,176,442048,2,0,L|132:60,1,100,2|0,0:0|0:0,0:0:0:0:
28,80,442467,1,0,0:0:0:0:
356,80,442678,1,8,0:0:0:0:
79,178,442887,6,0,L|107:288,1,100,2|2,0:0|0:0,0:0:0:0:
267,269,443306,1,0,0:0:0:0:
324,244,443411,1,0,0:0:0:0:
372,216,443516,1,8,0:0:0:0:
60,208,443726,1,2,0:0:0:0:
196,152,443936,2,0,L|88:144,2,100,0|0|8,0:0|0:0|0:0,0:0:0:0:
472,148,444566,6,0,L|272:120,1,200,6|0,0:0|0:0,0:0:0:0:
88,184,445195,2,0,L|29:102,1,100,8|0,0:0|0:0,0:0:0:0:
380,216,445614,2,0,L|424:268,2,50,2|2|2,0:3|0:3|0:3,0:0:0:0:
108,224,446034,1,8,0:0:0:0:
216,156,446244,2,2,L|296:156,1,50,2|2,0:0|0:0,0:0:0:0:
88,156,446454,6,0,P|52:112|120:36,1,150,6|0,0:0|0:0,0:0:0:0:
264,40,446873,1,8,0:0:0:0:
112,100,447083,2,0,L|304:164,1,200,2|0,0:0|0:0,0:0:0:0:
192,192,447712,1,8,0:0:0:0:
464,224,447922,6,0,P|484:156|388:68,1,200,6|0,0:0|0:0,0:0:0:0:
296,68,448551,1,8,0:0:0:0:
28,141,448761,2,0,L|20:252,1,100,0|0,0:0|0:0,0:0:0:0:
144,240,449181,1,2,0:0:0:0:
424,224,449390,2,0,L|468:328,1,100,12|0,0:0|0:0,0:0:0:0:
192,296,449810,6,0,P|136:276|112:160,1,150,2|0,0:0|0:0,0:0:0:0:
268,200,450230,1,8,0:0:0:0:
108,160,450439,1,2,0:0:0:0:
384,160,450649,2,0,L|456:276,1,100,8|0,0:0|0:0,0:0:0:0:
304,248,451069,1,2,0:0:0:0:
36,252,451279,6,0,P|40:200|180:136,1,200,6|0,0:0|0:0,0:0:0:0:
456,208,451908,1,8,0:0:0:0:
324,208,452118,2,0,L|292:312,1,100,2|2,0:0|0:3,0:0:0:0:
340,344,452433,1,2,0:3:0:0:
396,332,452538,1,2,0:3:0:0:
412,284,452643,1,2,0:3:0:0:
244,268,452747,2,8,L|184:264,1,50,8|8,0:0|0:0,0:0:0:0:
380,244,452957,2,8,L|440:240,1,50,8|8,0:0|0:0,0:0:0:0:
216,180,453167,6,0,P|160:148|192:68,1,150,6|0,0:0|0:0,0:0:0:0:
360,76,453586,1,8,0:0:0:0:
192,224,453796,2,0,L|92:232,1,100,2|8,0:0|0:0,0:0:0:0:
16,320,454216,1,0,0:0:0:0:
492,328,454635,6,0,P|484:260|348:196,1,200,6|0,0:0|0:0,0:0:0:0:
224,200,455265,1,8,0:0:0:0:
388,196,455474,2,0,L|280:172,2,100,2|8|0,0:0|0:0|0:0,0:0:0:0:
496,276,456104,1,2,0:0:0:0:
16,260,456523,6,0,L|140:260,2,100,6|0|8,0:0|0:0|0:0,0:0:0:0:
323,264,457153,2,0,L|107:264,1,200,6|0,0:0|0:0,0:0:0:0:
403,136,457992,5,6,0:0:0:0:
256,192,458202,12,0,459880,0:0:0:0:
476,107,462812,6,0,P|508:175|440:291,1,200,2|0,0:0|0:0,0:0:0:0:
308,133,463428,2,0,P|228:153|204:261,1,200,2|0,0:0|0:0,0:0:0:0:
300,289,464044,1,8,0:0:0:0:
480,312,464250,6,0,L|288:256,1,200,6|0,0:0|0:0,0:0:0:0:
376,232,464866,1,0,0:0:0:0:
104,248,465072,2,0,P|36:208|96:120,1,200,12|2,0:0|0:0,0:0:0:0:
248,124,465688,2,0,P|308:144|356:244,1,150,8|0,0:0|0:0,0:0:0:0:
72,260,466099,6,0,L|40:136,1,100,6|0,0:0|0:0,0:0:0:0:
204,160,466510,1,2,0:0:0:0:
364,160,466716,2,0,L|168:92,1,200,0|0,0:0|0:0,0:0:0:0:
312,72,467332,1,2,0:0:0:0:
20,80,467538,6,0,P|16:172|120:248,1,200,4|0,0:0|0:0,0:0:0:0:
200,244,468154,1,2,0:0:0:0:
480,248,468359,2,0,L|416:144,1,100,12|2,0:0|0:0,0:0:0:0:
124,172,468770,2,0,L|248:172,2,100,12|2|0,0:0|0:0|0:0,0:0:0:0:
444,168,469387,6,0,P|444:232|308:284,1,200,6|2,0:0|0:0,0:0:0:0:
41,287,470003,2,0,P|45:215|173:151,1,200,12|0,0:0|0:0,0:0:0:0:
12,136,470620,1,2,0:0:0:0:
368,148,470825,6,0,P|424:196|352:284,1,200,6|8,0:0|0:0,0:0:0:0:
168,284,471443,1,8,0:0:0:0:
440,288,471648,1,8,0:0:0:0:
208,216,472058,6,2,L|280:216,1,50,2|2,0:0|0:0,0:0:0:0:
64,184,472264,2,0,P|52:136|132:88,1,150,8|0,0:0|0:0,0:0:0:0:
320,96,472675,6,0,P|368:112|388:224,1,150,6|0,0:0|0:0,0:0:0:0:
212,200,473085,1,8,0:0:0:0:
236,148,473188,1,0,0:0:0:0:
292,128,473291,1,0,0:0:0:0:
352,128,473394,1,0,0:0:0:0:
252,128,473496,6,0,L|152:128,1,100,0|2,0:0|0:0,0:0:0:0:
472,168,473907,1,8,0:0:0:0:
280,220,474113,1,0,0:0:0:0:
464,240,474318,5,2,0:0:0:0:
484,192,474421,1,0,0:0:0:0:
460,148,474524,1,0,0:0:0:0:
400,132,474627,1,0,0:0:0:0:
236,128,474729,2,0,L|136:128,1,100,8|0,0:0|0:0,0:0:0:0:
336,216,475140,5,2,0:3:0:0:
384,200,475243,1,2,0:3:0:0:
436,180,475346,1,2,0:3:0:0:
172,157,475551,1,8,0:0:0:0:
368,124,475757,2,0,L|432:116,1,50,0|0,0:0|0:0,0:0:0:0:
148,88,475962,6,0,L|40:88,1,100,6|0,0:0|0:0,0:0:0:0:
324,92,476373,1,8,0:0:0:0:
200,92,476579,2,0,L|136:92,1,50,0|0,0:0|0:0,0:0:0:0:
156,56,476784,6,0,L|220:56,1,50,0|0,0:0|0:0,0:0:0:0:
412,196,476990,2,0,L|468:196,1,50,2|0,0:0|0:0,0:0:0:0:
288,184,477195,1,8,0:0:0:0:
116,144,477401,1,2,0:0:0:0:
64,120,477503,1,0,0:0:0:0:
40,68,477606,5,0,0:0:0:0:
72,32,477709,1,0,0:0:0:0:
232,40,477812,2,0,L|300:40,1,50,2|0,0:0|0:0,0:0:0:0:
88,136,478017,2,0,L|44:240,1,100,8|0,0:0|0:0,0:0:0:0:
224,236,478428,6,0,L|296:224,1,50,0|0,0:0|0:0,0:0:0:0:
320,216,478633,1,2,0:0:0:0:
32,168,478839,1,8,0:0:0:0:
208,140,479044,2,0,L|280:136,1,50,0|0,0:0|0:0,0:0:0:0:
48,135,479250,6,0,L|103:298,1,150,6|0,0:0|0:0,0:0:0:0:
284,264,479661,1,8,0:0:0:0:
108,248,479866,1,2,0:0:0:0:
82,205,479968,1,0,0:0:0:0:
83,156,480071,1,0,0:0:0:0:
111,115,480174,1,0,0:0:0:0:
157,96,480276,1,2,0:0:0:0:
368,108,480483,1,8,0:0:0:0:
80,256,480688,6,0,P|40:204|132:116,1,200,6|0,0:0|0:0,0:0:0:0:
428,120,481305,1,8,0:0:0:0:
256,112,481510,2,0,L|192:112,1,50,0|0,0:0|0:0,0:0:0:0:
212,64,481716,2,0,L|280:64,1,50,0|0,0:0|0:0,0:0:0:0:
82,48,481921,2,0,L|26:48,1,50,2|0,0:0|0:0,0:0:0:0:
291,107,482127,1,8,0:0:0:0:
119,195,482332,1,0,0:0:0:0:
448,200,482538,6,0,L|400:50,1,150,6|0,0:0|0:0,0:0:0:0:
216,64,482948,1,8,0:0:0:0:
380,136,483154,1,0,0:0:0:0:
374,185,483256,1,0,0:0:0:0:
348,227,483359,1,0,0:0:0:0:
306,253,483462,1,0,0:0:0:0:
104,292,483565,2,0,L|40:292,1,50,2|0,0:0|0:0,0:0:0:0:
232,296,483770,1,8,0:0:0:0:
396,296,483976,6,0,P|408:232|332:144,1,150,6|0,0:0|0:0,0:0:0:0:
180,160,484387,1,2,0:0:0:0:
336,100,484592,1,2,0:0:0:0:
32,136,484798,2,0,L|64:248,1,100,12|2,0:0|0:3,0:0:0:0:
96,268,485106,1,2,0:3:0:0:
168,284,485209,1,2,0:3:0:0:
436,280,485414,2,0,L|484:256,2,50,8|2|2,0:0|0:3|0:3,0:0:0:0:
96,100,485825,6,0,P|53:139|91:222,1,150,6|0,0:0|0:0,0:0:0:0:
300,200,486235,1,8,0:0:0:0:
276,148,486338,1,0,0:0:0:0:
220,128,486441,1,0,0:0:0:0:
160,128,486544,1,0,0:0:0:0:
260,128,486647,6,0,L|364:128,1,100,0|2,0:0|0:0,0:0:0:0:
40,168,487057,1,8,0:0:0:0:
232,220,487263,1,0,0:0:0:0:
48,240,487468,5,2,0:0:0:0:
28,192,487571,1,0,0:0:0:0:
52,148,487674,1,0,0:0:0:0:
112,132,487777,1,0,0:0:0:0:
276,128,487879,2,0,L|376:128,1,100,8|0,0:0|0:0,0:0:0:0:
176,216,488291,5,2,0:3:0:0:
128,200,488393,1,2,0:3:0:0:
76,180,488496,1,2,0:3:0:0:
344,160,488702,1,8,0:0:0:0:
144,124,488907,2,0,L|80:116,1,50,0|0,0:0|0:0,0:0:0:0:
364,88,489113,6,0,L|472:88,1,100,6|0,0:0|0:0,0:0:0:0:
188,92,489523,1,8,0:0:0:0:
312,92,489729,2,0,L|376:92,1,50,0|0,0:0|0:0,0:0:0:0:
356,56,489935,6,0,L|264:56,1,50,0|0,0:0|0:0,0:0:0:0:
100,196,490140,2,0,L|44:196,1,50,2|0,0:0|0:0,0:0:0:0:
224,184,490345,1,8,0:0:0:0:
396,144,490551,1,2,0:0:0:0:
448,120,490653,1,0,0:0:0:0:
472,68,490756,5,0,0:0:0:0:
440,32,490859,1,0,0:0:0:0:
280,40,490962,2,0,L|212:40,1,50,2|0,0:0|0:0,0:0:0:0:
424,136,491167,2,0,L|468:240,1,100,8|0,0:0|0:0,0:0:0:0:
288,236,491578,6,0,L|216:224,1,50,0|0,0:0|0:0,0:0:0:0:
192,216,491783,1,2,0:0:0:0:
480,168,491989,1,8,0:0:0:0:
304,140,492195,2,0,L|208:140,1,50,0|0,0:0|0:0,0:0:0:0:
438,141,492400,6,0,L|405:296,1,150,6|0,0:0|0:0,0:0:0:0:
228,264,492811,1,8,0:0:0:0:
404,248,493017,1,2,0:0:0:0:
430,205,493120,1,0,0:0:0:0:
429,156,493222,1,0,0:0:0:0:
401,115,493325,1,0,0:0:0:0:
355,96,493428,1,2,0:0:0:0:
148,104,493633,1,8,0:0:0:0:
432,256,493839,6,0,P|476:200|380:116,1,200,6|0,0:0|0:0,0:0:0:0:
84,120,494455,1,8,0:0:0:0:
256,112,494661,2,0,L|328:112,1,50,6|0,0:0|0:0,0:0:0:0:
300,64,494866,2,0,L|224:64,1,50,0|0,0:0|0:0,0:0:0:0:
431,47,495072,2,0,L|495:47,1,50,2|0,0:0|0:0,0:0:0:0:
231,117,495277,1,8,0:0:0:0:
403,201,495483,1,0,0:0:0:0:
64,200,495688,6,0,L|120:51,1,150,6|0,0:0|0:0,0:0:0:0:
296,64,496099,1,8,0:0:0:0:
132,136,496304,1,0,0:0:0:0:
137,185,496406,1,0,0:0:0:0:
163,227,496509,1,0,0:0:0:0:
205,253,496612,1,0,0:0:0:0:
408,292,496715,2,0,L|472:292,1,50,2|0,0:0|0:0,0:0:0:0:
280,296,496920,1,8,0:0:0:0:
116,296,497126,6,0,P|104:232|180:144,1,150,6|0,0:0|0:0,0:0:0:0:
332,160,497537,1,2,0:0:0:0:
176,100,497742,1,2,0:0:0:0:
480,136,497948,2,0,L|448:248,1,100,8|0,0:0|0:0,0:0:0:0:
416,268,498256,1,0,0:0:0:0:
344,284,498359,1,0,0:0:0:0:
80,272,498565,2,0,L|48:200,1,50,8|8,0:0|0:0,0:0:0:0:
240,216,498770,2,0,L|296:204,1,50,8|0,0:0|0:0,0:0:0:0:
96,268,498976,6,0,P|80:216|176:116,1,200,6|0,0:0|0:0,0:0:0:0:
368,116,499592,2,0,L|156:92,1,200,8|0,0:0|0:0,0:0:0:0:
60,84,500209,1,2,0:0:0:0:
456,220,500414,1,12,0:0:0:0:
232,280,507219,6,0,L|440:244,1,200,2|8,0:0|0:0,0:0:0:0:
288,224,507792,2,0,P|236:200|288:96,1,200,2|2,0:0|0:0,0:0:0:0:
416,96,508366,1,8,0:0:0:0:
232,96,508557,2,0,P|164:116|128:252,1,200,2|0,0:0|0:0,0:0:0:0:
454,257,509130,2,0,P|408:250|376:313,1,100,4|0,0:0|0:0,0:0:0:0:
120,254,509512,6,0,P|64:230|136:142,1,200,6|8,0:0|0:0,0:0:0:0:
254,131,510085,2,0,P|246:75|122:23,1,200,2|2,0:0|0:0,0:0:0:0:
280,24,510659,1,8,0:0:0:0:
20,144,510850,6,0,P|28:212|172:248,1,200,6|2,0:0|0:0,0:0:0:0:
288,264,511423,2,0,L|376:200,1,100,8|0,0:0|0:0,0:0:0:0:
64,172,511805,1,4,0:0:0:0:
320,160,511996,2,0,L|444:160,1,100,4|0,0:0|0:0,0:0:0:0:
292,212,512378,2,0,L|236:192,1,50,2|0,0:0|0:0,0:0:0:0:
460,212,512569,5,6,0:0:0:0:
328,212,512761,2,0,L|332:108,1,100,0|8,0:0|0:0,0:0:0:0:
464,116,513143,1,0,0:0:0:0:
408,88,513238,1,0,0:0:0:0:
352,64,513334,1,0,0:0:0:0:
480,48,513525,1,2,0:0:0:0:
100,192,513716,1,8,0:0:0:0:
256,172,513907,1,2,0:0:0:0:
67,153,514098,6,0,L|48:44,1,100,2|2,0:0|0:0,0:0:0:0:
164,52,514480,1,12,0:0:0:0:
480,72,514671,2,0,L|452:196,1,100,2|8,0:0|0:0,0:0:0:0:
100,204,515054,1,0,0:0:0:0:
220,192,515245,2,0,L|272:180,1,50,8|2,0:0|0:3,0:0:0:0:
96,136,515436,2,0,L|44:120,1,50,2|2,0:3|0:3,0:0:0:0:
331,280,515627,6,0,P|381:238|348:137,1,150,6|0,0:0|0:0,0:0:0:0:
296,126,516009,1,8,0:0:0:0:
134,122,516200,1,2,0:0:0:0:
449,330,516391,2,0,L|468:219,1,100,0|2,0:0|0:0,0:0:0:0:
317,179,516773,1,8,0:0:0:0:
443,207,516964,1,0,0:0:0:0:
63,330,517155,6,0,L|44:219,1,100,2|0,0:0|0:0,0:0:0:0:
195,179,517538,1,8,0:0:0:0:
69,207,517729,1,2,0:0:0:0:
351,278,517920,2,0,L|480:288,1,100,0|0,0:0|0:0,0:0:0:0:
182,185,518302,2,0,L|53:195,1,100,8|0,0:0|0:0,0:0:0:0:
376,230,518684,6,0,P|351:173|261:115,1,150,2|0,0:0|0:0,0:0:0:0:
204,115,519066,1,8,0:0:0:0:
402,112,519257,1,2,0:0:0:0:
142,256,519448,2,0,L|73:243,2,50,0|0|0,0:0|0:0|0:0,0:0:0:0:
290,283,519831,2,0,L|301:177,1,100,8|2,0:0|0:0,0:0:0:0:
130,119,520213,6,0,L|61:106,2,50,0|0|2,0:0|0:0|0:0,0:0:0:0:
301,183,520595,2,0,L|174:213,1,100,8|0,0:0|0:0,0:0:0:0:
344,319,520977,1,2,0:0:0:0:
392,304,521073,1,0,0:0:0:0:
439,290,521168,1,0,0:0:0:0:
294,213,521359,2,0,L|407:196,1,100,8|0,0:0|0:0,0:0:0:0:
328,126,521646,1,0,0:0:0:0:
126,241,521741,6,0,P|113:180|222:108,1,200,2|8,0:0|0:0,0:0:0:0:
345,102,522315,2,0,L|125:89,1,200,2|2,0:0|0:0,0:0:0:0:
18,120,522888,1,8,0:0:0:0:
335,313,523079,6,0,P|408:251|327:180,1,200,6|0,0:0|0:0,0:0:0:0:
193,180,523652,2,0,L|163:50,1,100,8|0,0:0|0:0,0:0:0:0:
315,53,524034,2,0,L|402:59,2,50,2|0|0,0:0|0:0|0:0,0:0:0:0:
107,131,524417,2,0,L|244:157,1,100,8|0,0:0|0:0,0:0:0:0:
468,261,524799,6,0,P|452:183|380:123,1,150,2|0,0:0|0:0,0:0:0:0:
329,128,525181,1,8,0:0:0:0:
186,128,525372,1,2,0:0:0:0:
327,179,525563,1,0,0:0:0:0:
327,179,525659,1,0,0:0:0:0:
327,179,525754,1,2,0:0:0:0:
134,180,525945,1,8,0:0:0:0:
418,274,526136,6,0,P|322:234|210:250,1,200,6|0,0:0|0:0,0:0:0:0:
339,307,526710,1,8,0:0:0:0:
203,318,526901,2,0,P|186:244|304:161,1,200,6|0,0:0|0:0,0:0:0:0:
422,161,527474,2,0,L|314:157,1,100,8|0,0:0|0:0,0:0:0:0:
62,308,527856,6,0,P|48:232|140:179,1,150,6|0,0:0|0:0,0:0:0:0:
176,180,528238,1,8,0:0:0:0:
327,180,528429,1,2,0:0:0:0:
169,239,528620,2,0,L|148:164,2,50,0|0|2,0:0|0:0|0:0,0:0:0:0:
301,115,529003,2,0,L|156:112,1,100,8|0,0:0|0:0,0:0:0:0:
392,192,529385,6,0,L|413:117,2,50,2|0|0,0:0|0:0|0:0,0:0:0:0:
282,200,529767,2,0,P|250:146|288:101,1,100,8|0,0:0|0:0,0:0:0:0:
331,68,530054,1,0,0:0:0:0:
222,55,530149,2,0,L|110:44,1,100,2|0,0:0|0:0,0:0:0:0:
397,95,530531,2,0,L|509:84,1,100,8|0,0:0|0:0,0:0:0:0:
225,317,530913,6,0,P|235:243|309:192,1,150,2|0,0:0|0:0,0:0:0:0:
366,193,531296,1,8,0:0:0:0:
187,192,531487,1,2,0:0:0:0:
357,92,531678,2,0,L|443:92,2,50,0|0|0,0:0|0:0|0:0,0:0:0:0:
181,160,532060,2,0,L|161:52,1,100,8|2,0:0|0:0,0:0:0:0:
311,158,532442,5,0,0:0:0:0:
319,108,532538,1,0,0:0:0:0:
328,59,532633,1,2,0:0:0:0:
181,297,532824,2,0,P|134:265|159:213,1,100,8|0,0:0|0:0,0:0:0:0:
208,191,533111,1,0,0:0:0:0:
379,202,533206,2,0,L|398:94,1,100,2|0,0:0|0:0,0:0:0:0:
245,97,533589,1,8,0:0:0:0:
383,92,533780,1,0,0:0:0:0:
67,321,533971,6,0,P|65:238|188:172,1,200,2|8,0:0|0:0,0:0:0:0:
283,171,534544,1,2,0:0:0:0:
156,232,534735,1,0,0:0:0:0:
143,183,534831,1,0,0:0:0:0:
130,134,534926,1,0,0:0:0:0:
261,46,535117,1,8,0:0:0:0:
138,309,535308,6,0,L|367:292,1,200,2|0,0:0|0:0,0:0:0:0:
477,253,535882,2,0,L|491:140,1,100,8|0,0:0|0:0,0:0:0:0:
424,104,536168,1,0,0:0:0:0:
201,219,536264,2,0,L|77:197,1,100,2|0,0:0|0:0,0:0:0:0:
250,107,536646,2,0,L|124:83,1,100,8|0,0:0|0:0,0:0:0:0:
326,296,537028,6,0,P|389:255|394:143,1,150,6|0,0:0|0:0,0:0:0:0:
213,147,537410,1,8,0:0:0:0:
343,146,537601,1,6,0:0:0:0:
212,247,537792,1,0,0:0:0:0:
164,233,537887,1,0,0:0:0:0:
115,219,537983,1,0,0:0:0:0:
384,228,538175,1,8,0:0:0:0:
227,312,538366,6,0,L|112:334,1,100,6|0,0:0|0:0,0:0:0:0:
452,320,538748,2,0,L|470:88,1,200,2|0,0:0|0:0,0:0:0:0:
160,246,539321,2,0,L|140:126,1,100,8|0,0:0|0:0,0:0:0:0:
292,70,539703,2,2,L|377:72,2,50,2|2|2,0:0|0:0|0:0,0:0:0:0:
16,68,540085,1,6,0:0:0:0:
256,192,540276,12,0,542378,0:0:0:0:
380,256,546576,6,0,P|416:196|336:104,1,200,2|8,0:0|0:0,0:0:0:0:
220,108,547017,2,0,P|292:52|408:52,1,200,2|0,0:0|0:0,0:0:0:0:
248,83,547458,6,0,P|218:142|224:197,1,100,10|0,0:0|0:0,0:0:0:0:
384,280,547753,2,0,P|474:258|492:163,1,200,2|8,0:0|0:0,0:0:0:0:
391,86,548194,2,0,L|523:62,2,100,0|8|0,0:0|0:0|0:0,0:0:0:0:
175,234,548635,6,0,L|66:223,1,100,8|0,0:0|0:0,0:0:0:0:
220,144,548929,1,8,0:0:0:0:
88,152,549076,2,0,P|112:88|248:76,1,200,0|0,0:0|0:0,0:0:0:0:
361,64,549517,1,8,0:0:0:0:
40,232,549664,6,0,P|32:112|184:44,1,300,0|0,0:0|0:0,0:0:0:0:
280,48,550253,2,0,L|328:96,1,50,2|2,0:3|0:3,0:0:0:0:
100,144,550400,1,8,0:0:0:0:
67,181,550473,1,8,0:0:0:0:
62,230,550547,1,8,0:0:0:0:
86,273,550620,1,8,0:0:0:0:
130,295,550694,1,8,0:0:0:0:
388,336,550841,6,0,P|452:272|416:172,1,200,6|2,0:0|0:0,0:0:0:0:
368,156,551208,1,2,0:0:0:0:
176,308,551282,6,0,L|128:204,1,100,10|0,0:0|0:0,0:0:0:0:
264,188,551576,1,2,0:0:0:0:
116,156,551723,2,0,L|156:64,1,100,0|8,0:0|0:0,0:0:0:0:
292,64,552017,1,0,0:0:0:0:
60,72,552164,6,0,L|28:176,1,100,2|2,0:0|0:0,0:0:0:0:
80,208,552385,1,2,0:0:0:0:
264,227,552458,2,0,L|366:285,1,100,8|0,0:0|0:0,0:0:0:0:
188,192,552753,2,2,L|136:176,1,50,2|2,0:0|0:0,0:0:0:0:
288,148,552900,2,2,L|340:136,1,50,2|2,0:0|0:0,0:0:0:0:
160,96,553047,1,8,0:0:0:0:
272,112,553194,6,0,P|320:176|224:256,1,200,2|2,0:0|0:0,0:0:0:0:
184,264,553561,1,2,0:0:0:0:
32,256,553635,2,0,P|44:184|168:136,1,200,8|2,0:0|0:0,0:0:0:0:
244,132,554076,1,0,0:0:0:0:
496,200,554223,2,0,L|396:202,1,100,8|0,0:0|0:0,0:0:0:0:
64,208,554517,5,2,0:0:0:0:
180,164,554664,1,0,0:0:0:0:
40,148,554811,2,0,L|36:32,1,100,8|0,0:0|0:0,0:0:0:0:
184,60,555106,1,2,0:0:0:0:
144,40,555179,1,2,0:0:0:0:
104,24,555253,1,2,0:0:0:0:
248,16,555400,1,8,0:0:0:0:
24,116,555547,6,0,P|24:192|140:260,1,200,2|0,0:0|0:0,0:0:0:0:
408,264,555988,2,0,L|480:180,1,100,8|0,0:0|0:0,0:0:0:0:
188,152,556282,1,2,0:0:0:0:
324,200,556429,2,0,L|316:308,1,100,0|8,0:0|0:0,0:0:0:0:
40,304,556723,1,0,0:0:0:0:
164,264,556870,5,2,0:0:0:0:
20,200,557017,1,2,0:0:0:0:
72,176,557091,1,2,0:0:0:0:
124,156,557164,2,0,P|228:120|324:180,1,200,8|2,0:0|0:0,0:0:0:0:
138,226,557606,2,0,L|106:108,1,100,0|8,0:0|0:0,0:0:0:0:
384,160,557900,6,0,P|448:112|376:40,1,200,2|2,0:0|0:0,0:0:0:0:
320,32,558267,1,2,0:0:0:0:
144,32,558341,2,0,P|160:96|288:176,1,200,8|2,0:0|0:0,0:0:0:0:
128,240,558782,1,0,0:0:0:0:
416,256,558929,2,0,L|512:160,1,100,8|0,0:0|0:0,0:0:0:0:
176,192,559223,5,2,0:0:0:0:
128,176,559297,1,2,0:0:0:0:
112,144,559370,1,2,0:0:0:0:
128,112,559444,1,2,0:0:0:0:
176,96,559517,1,8,0:0:0:0:
64,96,559664,2,0,P|16:144|112:224,1,200,2|0,0:0|0:0,0:0:0:0:
192,224,560106,1,8,0:0:0:0:
416,224,560253,6,0,P|320:144|208:128,1,200,6|0,0:0|0:0,0:0:0:0:
32,128,560694,2,0,P|64:176|240:208,1,200,8|2,0:0|0:0,0:0:0:0:
80,272,561135,1,0,0:0:0:0:
288,272,561282,2,0,L|400:256,1,100,8|0,0:0|0:0,0:0:0:0:
128,224,561576,6,0,L|144:112,1,100,2|2,0:0|0:0,0:0:0:0:
208,112,561797,1,2,0:0:0:0:
384,128,561870,2,0,L|480:176,1,100,8|0,0:0|0:0,0:0:0:0:
128,256,562164,1,2,0:0:0:0:
80,240,562238,1,2,0:0:0:0:
64,208,562311,1,2,0:0:0:0:
80,160,562385,1,2,0:0:0:0:
128,144,562458,1,8,0:0:0:0:
352,144,562606,6,0,P|400:192|320:272,1,200,2|2,0:0|0:0,0:0:0:0:
272,272,562973,1,2,0:0:0:0:
480,272,563047,2,0,P|496:208|400:128,1,200,8|2,0:0|0:0,0:0:0:0:
272,128,563488,1,0,0:0:0:0:
64,208,563635,2,0,L|144:288,1,100,8|0,0:0|0:0,0:0:0:0:
432,240,563929,6,0,L|336:272,2,100,2|0|8,0:0|0:0|0:0,0:0:0:0:
160,256,564370,2,0,L|96:160,1,100,2|2,0:0|0:0,0:0:0:0:
144,128,564591,1,2,0:0:0:0:
208,128,564664,1,2,0:0:0:0:
432,144,564811,1,8,0:0:0:0:
208,128,564958,6,0,P|128:176|160:288,1,200,2|2,0:0|0:0,0:0:0:0:
192,288,565326,1,2,0:0:0:0:
336,288,565400,2,0,L|480:288,1,100,8|0,0:0|0:0,0:0:0:0:
232,140,565694,2,0,L|100:130,2,100,2|0|8,0:0|0:0|0:0,0:0:0:0:
371,247,566135,6,0,P|387:185|273:102,1,200,2|2,0:0|0:0,0:0:0:0:
223,99,566503,1,2,0:0:0:0:
63,201,566576,2,0,L|38:76,1,100,8|0,0:0|0:0,0:0:0:0:
198,98,566870,2,2,L|279:95,2,50,2|2|2,0:3|0:3|0:3,0:0:0:0:
53,62,567164,1,8,0:0:0:0:
319,307,567311,6,0,P|386:275|394:142,1,200,2|0,0:0|0:0,0:0:0:0:
140,187,567753,2,0,L|28:174,1,100,8|0,0:0|0:0,0:0:0:0:
170,302,568047,2,0,L|283:289,1,100,2|0,0:0|0:0,0:0:0:0:
392,324,568341,2,0,L|413:207,1,100,8|0,0:0|0:0,0:0:0:0:
248,204,568635,6,0,L|227:87,1,100,2|2,0:0|0:3,0:0:0:0:
288,55,568856,1,2,0:3:0:0:
445,178,568929,2,0,P|478:131|437:69,1,100,8|0,0:0|0:0,0:0:0:0:
192,304,569223,1,2,0:0:0:0:
149,276,569297,1,2,0:0:0:0:
135,228,569370,1,2,0:0:0:0:
147,179,569444,1,2,0:0:0:0:
189,153,569517,1,2,0:0:0:0:
340,150,569664,6,0,L|137:125,1,200,6|0,0:0|0:0,0:0:0:0:
465,342,570106,2,0,P|482:285|465:220,1,100,2|0,0:0|0:0,0:0:0:0:
347,187,570400,2,0,L|460:178,1,100,2|0,0:0|0:0,0:0:0:0:
294,121,570694,2,0,P|277:64|294:-1,1,100,2|0,0:0|0:0,0:0:0:0:
117,283,570988,6,0,L|-10:258,1,100,2|0,0:0|0:0,0:0:0:0:
141,197,571282,2,0,L|18:175,1,100,2|0,0:0|0:0,0:0:0:0:
162,110,571576,2,0,L|35:85,1,100,2|0,0:0|0:0,0:0:0:0:
187,24,571870,2,0,L|289:56,1,100,2|0,0:0|0:0,0:0:0:0:
400,338,572164,6,0,L|421:228,1,100,2|0,0:0|0:0,0:0:0:0:
260,254,572458,2,0,L|239:144,1,100,2|0,0:0|0:0,0:0:0:0:
380,289,572753,2,0,P|454:235|331:112,1,300,2|0,0:0|0:0,0:0:0:0:
58,315,573341,6,0,P|57:247|264:118,1,300,6|0,0:0|0:0,0:0:0:0:
372,117,573929,2,0,L|225:96,1,100,2|0,0:0|0:0,0:0:0:0:
133,134,574223,1,2,0:0:0:0:
485,133,574370,1,6,0:0:0:0:
256,192,574517,12,0,577458,0:0:0:0:
60,252,585323,6,0,L|44:120,1,100,8|0,0:0|0:0,0:0:0:0:
308,196,585674,2,0,L|424:188,2,100,6|0|8,0:0|0:0|0:0,0:0:0:0:
32,188,586200,2,0,L|16:288,1,100,0|8,0:0|0:0,0:0:0:0:
120,300,586551,1,0,0:0:0:0:
372,304,586727,6,0,L|476:232,1,100,8|0,0:0|0:0,0:0:0:0:
356,208,587077,1,8,0:0:0:0:
112,200,587253,2,0,L|72:164,2,50,2|2|8,0:0|0:0|0:0,0:0:0:0:
208,216,587604,1,0,0:0:0:0:
448,220,587779,2,0,P|456:156|392:88,1,150,8|0,0:0|0:0,0:0:0:0:
188,80,588130,6,0,P|120:112|140:224,1,200,6|2,0:0|0:0,0:0:0:0:
248,240,588656,1,2,0:0:0:0:
132,188,588832,1,2,0:0:0:0:
252,152,589007,1,2,0:0:0:0:
128,116,589183,1,2,0:0:0:0:
256,72,589358,1,2,0:0:0:0:
16,88,589534,1,8,0:0:0:0:
228,224,589884,5,0,0:0:0:0:
380,224,590060,1,0,0:0:0:0:
228,180,590235,1,0,0:0:0:0:
380,184,590411,1,0,0:0:0:0:
228,140,590586,1,0,0:0:0:0:
380,132,590762,1,0,0:0:0:0:
96,232,590937,6,0,P|32:176|112:104,1,220.000006713867,6|8,0:0|0:0,0:0:0:0:
208,120,591463,1,2,0:0:0:0:
40,192,591638,2,0,L|72:304,1,110.000003356934,0|0,0:0|0:0,0:0:0:0:
336,288,591989,2,0,L|472:288,1,110.000003356934,8|0,0:0|0:0,0:0:0:0:
72,144,592340,6,0,L|176:232,2,110.000003356934,2|0|8,0:0|0:0|0:0,0:0:0:0:
192,120,592866,1,2,0:0:0:0:
448,136,593042,1,0,0:0:0:0:
488,168,593130,1,8,0:0:0:0:
496,208,593217,1,0,0:0:0:0:
408,272,593393,1,8,0:0:0:0:
240,272,593568,2,2,L|176:264,1,55.0000016784668,2|2,0:3|0:3,0:0:0:0:
352,232,593744,6,0,L|240:184,1,110.000003356934,2|0,0:0|0:0,0:0:0:0:
416,184,594094,2,0,L|456:304,1,110.000003356934,8|2,0:0|0:0,0:0:0:0:
336,304,594445,1,0,0:0:0:0:
168,288,594621,1,0,0:0:0:0:
486,238,594796,2,0,L|368:185,1,110.000003356934,8|0,0:0|0:0,0:0:0:0:
72,170,595147,6,0,L|153:247,1,110.000003356934,2|0,0:0|0:0,0:0:0:0:
48,256,595498,1,8,0:0:0:0:
288,256,595673,2,0,L|400:216,1,110.000003356934,2|0,0:0|0:0,0:0:0:0:
352,192,595937,1,8,0:0:0:0:
192,168,596024,1,0,0:0:0:0:
328,128,596200,1,8,0:0:0:0:
200,112,596375,2,2,L|168:64,1,55.0000016784668,2|2,0:3|0:3,0:0:0:0:
376,64,596551,6,0,P|384:120|248:192,1,220.000006713867,6|8,0:0|0:0,0:0:0:0:
184,160,597077,1,2,0:0:0:0:
344,128,597252,2,0,L|304:240,1,110.000003356934,0|0,0:0|0:0,0:0:0:0:
144,224,597604,1,8,0:0:0:0:
296,192,597779,1,0,0:0:0:0:
48,176,597955,6,0,L|152:128,1,110.000003356934,2|0,0:0|0:0,0:0:0:0:
304,152,598305,2,0,L|184:224,1,110.000003356934,8|0,0:0|0:0,0:0:0:0:
40,248,598656,1,0,0:0:0:0:
16,208,598744,1,8,0:0:0:0:
32,160,598831,1,0,0:0:0:0:
192,152,599007,2,0,L|304:136,1,110.000003356934,8|2,0:0|0:3,0:0:0:0:
352,128,599270,1,2,0:3:0:0:
200,88,599358,6,0,P|112:104|136:224,1,220.000006713867,6|8,0:0|0:0,0:0:0:0:
288,224,599884,2,0,L|344:120,1,110.000003356934,0|0,0:0|0:0,0:0:0:0:
200,112,600235,1,0,0:0:0:0:
328,64,600410,1,8,0:0:0:0:
228,255,600586,1,0,0:0:0:0:
482,250,600762,6,0,L|498:114,1,110.000003356934,6|0,0:0|0:0,0:0:0:0:
330,141,601113,2,0,L|441:106,1,110.000003356934,8|0,0:0|0:0,0:0:0:0:
120,288,601463,2,0,L|56:256,1,55.0000016784668,0|8,0:0|0:0,0:0:0:0:
216,216,601638,1,0,0:0:0:0:
64,192,601814,2,0,L|160:136,1,110.000003356934,8|2,0:0|0:3,0:0:0:0:
208,120,602077,1,2,0:3:0:0:
424,168,602165,6,0,P|448:104|328:56,1,220.000006713867,4|8,0:0|0:0,0:0:0:0:
168,120,602691,2,0,L|248:208,1,110.000003356934,2|0,0:0|0:0,0:0:0:0:
80,256,603042,1,0,0:0:0:0:
240,288,603217,2,0,L|328:216,1,110.000003356934,8|0,0:0|0:0,0:0:0:0:
56,192,603568,6,0,L|32:80,1,110.000003356934,2|0,0:0|0:0,0:0:0:0:
168,72,603919,1,8,0:0:0:0:
328,112,604094,1,0,0:0:0:0:
144,80,604270,1,0,0:0:0:0:
216,88,604358,1,8,0:0:0:0:
249,134,604446,2,0,L|168:208,1,110.000003356934,0|8,0:0|0:0,0:0:0:0:
304,256,604796,1,2,0:3:0:0:
256,288,604884,1,2,0:3:0:0:
64,288,604972,6,0,P|16:240|128:168,1,220.000006713867,6|8,0:0|0:0,0:0:0:0:
208,176,605498,1,2,0:0:0:0:
376,192,605673,1,0,0:0:0:0:
368,96,605849,1,0,0:0:0:0:
264,48,606024,1,8,0:0:0:0:
432,56,606200,1,0,0:0:0:0:
152,160,606375,6,0,L|48:216,1,110.000003356934,2|0,0:0|0:0,0:0:0:0:
224,256,606726,2,0,P|296:224|232:120,1,220.000006713867,8|0,0:0|0:0,0:0:0:0:
192,112,607165,1,8,0:0:0:0:
144,136,607252,1,0,0:0:0:0:
432,208,607428,1,8,0:0:0:0:
312,192,607603,2,2,L|240:160,1,55.0000016784668,2|2,0:3|0:3,0:0:0:0:
432,136,607779,6,0,P|488:176|384:256,1,220.000006713867,0|8,0:0|0:0,0:0:0:0:
320,264,608305,1,2,0:0:0:0:
152,208,608480,2,0,L|128:96,1,110.000003356934,0|0,0:0|0:0,0:0:0:0:
288,96,608832,2,0,L|296:208,1,110.000003356934,8|0,0:0|0:0,0:0:0:0:
40,208,609182,6,0,L|152:288,1,110.000003356934,2|0,0:0|0:0,0:0:0:0:
400,272,609533,2,0,L|312:184,1,110.000003356934,8|0,0:0|0:0,0:0:0:0:
48,184,609884,2,0,L|24:128,2,55.0000016784668,0|8|0,0:0|0:0|0:0,0:0:0:0:
320,232,610235,2,0,L|408:144,1,110.000003356934,8|2,0:0|0:3,0:0:0:0:
368,112,610498,1,2,0:3:0:0:
148,108,610586,6,0,L|28:160,1,110.000003356934,0|0,0:0|0:0,0:0:0:0:
296,216,610937,2,0,L|160:276,1,110.000003356934,8|0,0:0|0:0,0:0:0:0:
496,316,611288,2,0,L|468:184,1,110.000003356934,0|0,0:0|0:0,0:0:0:0:
368,192,611639,1,8,0:0:0:0:
240,240,611814,1,0,0:0:0:0:
432,240,611989,5,8,0:0:0:0:
94,282,612165,1,8,0:0:0:0:
448,256,612340,1,8,0:0:0:0:
110,266,612515,1,8,0:0:0:0:
464,272,612691,1,2,0:0:0:0:
494,228,612778,1,2,0:0:0:0:
488,174,612866,1,2,0:0:0:0:
447,139,612954,1,2,0:0:0:0:
176,216,613042,1,2,0:3:0:0:
130,187,613129,1,2,0:3:0:0:
116,135,613217,1,2,0:3:0:0:
142,88,613305,1,2,0:3:0:0:
368,88,613393,6,0,L|480:144,1,110.000003356934,12|0,0:0|0:0,0:0:0:0:
152,168,613744,2,0,L|272:224,1,110.000003356934,8|0,0:0|0:0,0:0:0:0:
496,240,614095,2,0,L|360:288,1,110.000003356934,8|0,0:0|0:0,0:0:0:0:
48,280,614445,2,0,L|24:152,1,110.000003356934,8|0,0:0|0:0,0:0:0:0:
264,208,614796,6,0,L|240:80,1,110.000003356934,8|0,0:0|0:0,0:0:0:0:
488,144,615148,2,0,L|456:32,1,110.000003356934,8|2,0:0|0:0,0:0:0:0:
400,32,615410,1,2,0:0:0:0:
200,48,615498,2,0,L|120:152,1,110.000003356934,10|2,0:0|0:0,0:0:0:0:
184,152,615761,1,2,0:0:0:0:
352,152,615849,1,10,0:0:0:0:
416,176,615937,1,2,0:0:0:0:
448,240,616024,1,2,0:0:0:0:
408,296,616113,1,2,0:0:0:0:
168,248,616200,6,0,L|120:368,1,110.000003356934,12|0,0:0|0:0,0:0:0:0:
376,272,616551,2,0,L|408:384,1,110.000003356934,8|0,0:0|0:0,0:0:0:0:
160,304,616901,2,0,L|24:352,1,110.000003356934,8|0,0:0|0:0,0:0:0:0:
312,336,617252,2,0,L|424:248,1,110.000003356934,8|0,0:0|0:0,0:0:0:0:
48,264,617603,6,0,L|24:136,1,110.000003356934,8|0,0:0|0:0,0:0:0:0:
272,152,617954,2,0,L|176:216,1,110.000003356934,8|2,0:0|0:0,0:0:0:0:
232,248,618217,1,2,0:0:0:0:
488,232,618305,2,0,L|408:336,1,110.000003356934,10|2,0:0|0:0,0:0:0:0:
360,304,618568,1,2,0:0:0:0:
160,192,618656,1,10,0:0:0:0:
192,128,618744,1,2,0:0:0:0:
264,104,618831,1,2,0:0:0:0:
336,112,618920,1,2,0:0:0:0:
24,104,619007,6,0,L|136:160,1,110.000003356934,12|0,0:0|0:0,0:0:0:0:
384,200,619358,2,0,L|528:256,1,110.000003356934,8|0,0:0|0:0,0:0:0:0:
24,184,619708,2,0,L|128:224,1,110.000003356934,8|0,0:0|0:0,0:0:0:0:
384,248,620059,2,0,L|512:280,1,110.000003356934,8|0,0:0|0:0,0:0:0:0:
128,264,620410,6,0,L|72:152,1,110.000003356934,8|0,0:0|0:0,0:0:0:0:
416,280,620761,2,0,L|464:160,1,110.000003356934,8|2,0:0|0:0,0:0:0:0:
416,144,621025,1,2,0:0:0:0:
248,176,621113,2,0,L|216:288,1,110.000003356934,10|2,0:0|0:0,0:0:0:0:
280,288,621375,1,2,0:0:0:0:
88,288,621463,1,10,0:0:0:0:
48,240,621551,1,2,0:0:0:0:
64,184,621638,1,2,0:0:0:0:
108,160,621727,1,2,0:0:0:0:
312,168,621814,6,0,L|200:224,1,110.000003356934,12|0,0:0|0:0,0:0:0:0:
488,224,622165,2,0,L|368:280,1,110.000003356934,8|0,0:0|0:0,0:0:0:0:
144,272,622515,2,0,L|96:152,1,110.000003356934,8|0,0:0|0:0,0:0:0:0:
376,208,622867,2,0,L|400:80,1,110.000003356934,8|0,0:0|0:0,0:0:0:0:
120,160,623217,6,0,L|200:48,1,110.000003356934,8|0,0:0|0:0,0:0:0:0:
448,144,623568,2,0,L|504:264,1,110.000003356934,8|0,0:0|0:0,0:0:0:0:
240,240,623919,2,0,L|168:240,1,55.0000016784668,2|2,0:3|0:3,0:0:0:0:
240,240,624095,2,0,L|324:240,1,55.0000016784668,2|2,0:3|0:3,0:0:0:0:
144,296,624270,2,8,L|72:296,1,55.0000016784668,8|8,0:0|0:0,0:0:0:0:
328,312,624446,2,8,L|392:312,1,55.0000016784668,8|8,0:0|0:0,0:0:0:0:
32,192,624621,6,0,L|144:120,1,110.000003356934,12|0,0:0|0:0,0:0:0:0:
400,104,624972,2,0,L|280:160,1,110.000003356934,8|0,0:0|0:0,0:0:0:0:
16,240,625322,2,0,L|152:288,1,110.000003356934,8|0,0:0|0:0,0:0:0:0:
464,280,625673,2,0,L|488:152,1,110.000003356934,8|0,0:0|0:0,0:0:0:0:
128,176,626024,6,0,L|-8:144,1,110.000003356934,8|0,0:0|0:0,0:0:0:0:
352,168,626375,2,0,L|480:152,1,110.000003356934,8|2,0:0|0:0,0:0:0:0:
504,120,626638,1,2,0:0:0:0:
264,120,626726,2,0,L|184:224,1,110.000003356934,10|2,0:0|0:0,0:0:0:0:
248,224,626989,1,2,0:0:0:0:
432,240,627077,1,10,0:0:0:0:
480,196,627165,1,2,0:0:0:0:
460,128,627252,1,2,0:0:0:0:
384,112,627341,1,2,0:0:0:0:
168,248,627428,6,0,L|120:368,1,110.000003356934,12|0,0:0|0:0,0:0:0:0:
376,272,627779,2,0,L|408:384,1,110.000003356934,8|0,0:0|0:0,0:0:0:0:
160,304,628129,2,0,L|24:352,1,110.000003356934,8|0,0:0|0:0,0:0:0:0:
384,304,628480,2,0,L|504:272,1,110.000003356934,8|0,0:0|0:0,0:0:0:0:
48,264,628832,6,0,L|192:240,1,110.000003356934,8|0,0:0|0:0,0:0:0:0:
456,152,629182,2,0,L|360:96,1,110.000003356934,8|2,0:0|0:0,0:0:0:0:
304,80,629446,1,2,0:0:0:0:
88,80,629533,2,0,L|8:184,1,110.000003356934,10|2,0:0|0:0,0:0:0:0:
72,200,629796,1,2,0:0:0:0:
264,216,629884,1,10,0:0:0:0:
352,192,629972,1,2,0:0:0:0:
368,128,630059,1,2,0:0:0:0:
332,80,630148,1,2,0:0:0:0:
24,104,630235,6,0,L|136:160,1,110.000003356934,12|0,0:0|0:0,0:0:0:0:
488,240,630586,2,0,L|388:193,1,110.000003356934,8|0,0:0|0:0,0:0:0:0:
144,256,630937,6,0,L|8:288,1,110.000003356934,8|0,0:0|0:0,0:0:0:0:
280,240,631287,2,0,L|176:296,1,110.000003356934,8|0,0:0|0:0,0:0:0:0:
496,200,631638,6,0,L|368:200,1,110.000003356934,8|0,0:0|0:0,0:0:0:0:
96,208,631989,2,0,L|72:360,1,110.000003356934,8|2,0:0|0:0,0:0:0:0:
136,344,632252,1,2,0:0:0:0:
416,64,632340,2,0,L|448:176,1,110.000003356934,10|2,0:0|0:0,0:0:0:0:
384,176,632603,1,2,0:0:0:0:
152,176,632691,1,10,0:0:0:0:
184,224,632778,1,2,0:0:0:0:
240,240,632866,1,2,0:0:0:0:
296,240,632955,1,2,0:0:0:0:
496,184,633042,6,0,L|384:240,1,110.000003356934,12|0,0:0|0:0,0:0:0:0:
24,224,633393,2,0,L|144:280,1,110.000003356934,8|0,0:0|0:0,0:0:0:0:
368,272,633744,2,0,L|424:136,1,110.000003356934,8|0,0:0|0:0,0:0:0:0:
136,208,634094,2,0,L|112:80,1,110.000003356934,8|0,0:0|0:0,0:0:0:0:
392,160,634446,5,8,0:0:0:0:
104,224,634621,1,8,0:0:0:0:
368,248,634797,1,8,0:0:0:0:
104,148,634972,2,0,P|48:180|112:316,1,220.000006713867,12|2,0:0|0:0,0:0:0:0:
144,316,635411,1,2,0:0:0:0:
192,316,635498,2,0,P|264:292|296:228,1,110.000003356934,10|2,0:0|0:0,0:0:0:0:
280,216,635762,1,2,0:0:0:0:
32,256,635849,1,6,0:0:0:0:
256,192,636025,12,0,639007,0:0:0:0:
