osu file format v14

[General]
AudioFilename: audio.mp3
AudioLeadIn: 0
PreviewTime: 224181
Countdown: 0
SampleSet: Soft
StackLeniency: 0.7
Mode: 3
LetterboxInBreaks: 0
EpilepsyWarning: 1
SpecialStyle: 0
WidescreenStoryboard: 1

[Editor]
Bookmarks: 56355,70268,125920,139833,167659
DistanceSpacing: 0.7
BeatDivisor: 4
GridSize: 32
TimelineZoom: 1.9

[Metadata]
Title:Sky Gate
TitleUnicode:Sky Gate
Artist:FELT
ArtistUnicode:FELT
Creator:Lita-
Version:Wish
Source:東方花映塚 ~ Phantasmagoria of Flower View.
Tags:東方project touhou 8 PoFV NAGI☆ NAGI* NANA 舞花 maika 花映塚 milky wink maurits 禅 cornelis 射命丸 文 reitasai SP special Kaeizuka shameimaru aya 風神少女 Fuujin Shoujo wind god girl rebirth story ZUN storyboard collab collaboration japanese jrock j-rock rock pop jpop j-pop power pop-rock videogame video game yuiazu- onii_ue sun [_lovega_] stelar famoss marathon full ver version SB
BeatmapID:3553733
BeatmapSetID:1738756

[Difficulty]
HPDrainRate:8.5
CircleSize:7
OverallDifficulty:8.5
ApproachRate:5
SliderMultiplier:1.4
SliderTickRate:1

[Events]
//Background and Video events
0,0,"BG0.jpg",0,0
//Break Periods
//Storyboard Layer 0 (Background)
//Storyboard Layer 1 (Fail)
//Storyboard Layer 2 (Pass)
//Storyboard Layer 3 (Foreground)
//Storyboard Layer 4 (Overlay)
//Storyboard Sound Samples

[TimingPoints]
703,434.782608695652,4,2,2,30,1,0
28529,-100,4,2,1,40,0,0
70268,-100,4,2,1,40,0,1
98094,-100,4,2,1,40,0,0
139833,-100,4,2,1,40,0,1
167659,-100,4,2,1,40,0,0
223311,-100,4,2,2,40,0,0
238963,-100,4,2,1,40,0,1
252876,-100,4,2,1,40,0,0

[HitObjects]
329,192,630,5,0,0:0:0:70:A5S_s.wav
402,192,666,1,0,0:0:0:70:D6S_s.wav
475,192,703,128,0,1355:0:0:0:100:F#6S_Gb6S_s.wav
182,192,920,1,0,0:0:0:0:
36,192,1137,1,0,0:0:0:0:
329,192,1355,128,0,2007:0:0:0:100:E6S_s.wav
402,192,1355,1,0,0:0:0:0:
109,192,1572,1,0,0:0:0:0:
256,192,1789,1,0,0:0:0:0:
36,192,2007,128,0,2224:0:0:0:100:F#6S_Gb6S_s.wav
182,192,2007,1,0,0:0:0:0:
329,192,2224,1,0,0:0:0:100:A6S_s.wav
475,192,2224,128,0,2442:0:0:0:0:
109,192,2442,1,0,0:0:0:100:E6S_s.wav
402,192,2442,128,0,3094:0:0:0:0:
182,192,2478,1,0,0:0:0:100:F#6S_Gb6S_s.wav
256,192,2659,1,0,0:0:0:0:
329,192,2876,1,0,0:0:0:0:
36,192,3094,1,0,0:0:0:100:E6S_s.wav
109,192,3094,128,0,3746:0:0:0:0:
182,192,3311,1,0,0:0:0:0:
256,192,3529,1,0,0:0:0:0:
329,192,3746,128,0,3963:0:0:0:100:F#6S_Gb6S_s.wav
475,192,3746,1,0,0:0:0:0:
36,192,3963,128,0,4181:0:0:0:100:A6S_s.wav
182,192,3963,1,0,0:0:0:0:
329,192,4181,1,0,0:0:0:100:D6S_s.wav
475,192,4181,128,0,4833:0:0:0:0:
402,192,4217,1,0,0:0:0:0:
109,192,4398,1,0,0:0:0:0:
182,192,4398,128,0,4616:0:0:0:0:
329,192,4616,1,0,0:0:0:100:B5S_s.wav
402,192,4616,128,0,4833:0:0:0:0:
36,192,4833,1,0,0:0:0:100:C#6S_Db6S_s.wav
109,192,4833,128,0,5268:0:0:0:0:
256,192,5050,1,0,0:0:0:0:
36,192,5268,128,0,5485:0:0:0:100:D6S_s.wav
475,192,5268,128,0,5485:0:0:0:0:
109,192,5485,128,0,5702:0:0:0:100:C#6S_Db6S_s.wav
402,192,5485,128,0,5702:0:0:0:0:
182,192,5702,128,0,5920:0:0:0:100:A5S_s.wav
329,192,5702,128,0,5920:0:0:0:0:
256,192,5920,128,0,6137:0:0:0:100:B5S_s.wav
475,192,5920,1,0,0:0:0:0:
36,192,6137,128,0,6355:0:0:0:0:
182,192,6137,1,0,0:0:0:0:
329,192,6355,1,0,0:0:0:0:
475,192,6355,128,0,6572:0:0:0:0:
109,192,6572,128,0,6789:0:0:0:0:
182,192,6572,1,0,0:0:0:0:
329,192,6789,128,0,7007:0:0:0:100:B4S_s.wav
402,192,6789,1,0,0:0:0:0:
36,192,7007,1,0,0:0:0:100:A5S_s.wav
256,192,7007,128,0,7224:0:0:0:0:
402,192,7224,1,0,0:0:0:100:D6S_s.wav
475,192,7224,128,0,7442:0:0:0:0:
36,192,7442,1,0,0:0:0:100:E6S_s.wav
109,192,7442,128,0,7659:0:0:0:0:
182,192,7659,128,0,8311:0:0:0:100:D6S_s.wav
329,192,7659,1,0,0:0:0:0:
256,192,7695,1,0,0:0:0:100:F#6S_Gb6S_s.wav
402,192,7876,128,0,8094:0:0:0:0:
475,192,8094,128,0,8311:0:0:0:0:
36,192,8311,128,0,8963:0:0:0:100:E6S_s.wav
109,192,8311,1,0,0:0:0:0:
402,192,8529,1,0,0:0:0:0:
256,192,8746,1,0,0:0:0:0:
329,192,8963,1,0,0:0:0:100:F#6S_Gb6S_s.wav
475,192,8963,128,0,9181:0:0:0:0:
36,192,9181,1,0,0:0:0:100:A6S_s.wav
182,192,9181,128,0,9398:0:0:0:0:
109,192,9398,128,0,10050:0:0:0:100:E6S_s.wav
402,192,9398,1,0,0:0:0:0:
329,192,9434,1,0,0:0:0:0:
256,192,9616,128,0,9833:0:0:0:0:
182,192,9833,128,0,10050:0:0:0:0:
402,192,10050,128,0,10702:0:0:0:100:C#6S_Db6S_s.wav
475,192,10050,1,0,0:0:0:0:
329,192,10268,1,0,0:0:0:0:
256,192,10485,1,0,0:0:0:0:
36,192,10702,1,0,0:0:0:100:F#6S_Gb6S_s.wav
182,192,10702,128,0,10920:0:0:0:0:
329,192,10920,1,0,0:0:0:100:A6S_s.wav
475,192,10920,128,0,11137:0:0:0:0:
36,192,11137,128,0,11789:0:0:0:100:D6S_s.wav
256,192,11137,1,0,0:0:0:0:
182,192,11192,1,0,0:0:0:70:C#6S_Db6S_s.wav
329,192,11355,128,0,11572:0:0:0:0:
402,192,11355,1,0,0:0:0:0:
109,192,11572,128,0,11789:0:0:0:100:B5S_s.wav
182,192,11572,1,0,0:0:0:0:
402,192,11789,128,0,12224:0:0:0:100:C#6S_Db6S_s.wav
475,192,11789,1,0,0:0:0:0:
256,192,12007,1,0,0:0:0:0:
36,192,12224,128,0,12442:0:0:0:100:A6S_s.wav
182,192,12224,1,0,0:0:0:0:
329,192,12442,1,0,0:0:0:0:
475,192,12442,1,0,0:0:0:0:
256,192,12659,128,0,12876:0:0:0:100:D7S_s.wav
402,192,12659,128,0,12876:0:0:0:0:
36,192,12876,128,0,13094:0:0:0:100:C#7S_Db7S_s.wav
182,192,12876,128,0,13094:0:0:0:0:
329,192,13094,128,0,13311:0:0:0:100:A6S_s.wav
475,192,13094,128,0,13311:0:0:0:0:
109,192,13311,128,0,13746:0:0:0:100:B6S_s.wav
402,192,13311,128,0,13746:0:0:0:0:
256,192,13529,1,0,0:0:0:0:
36,192,13746,128,0,13963:0:0:0:100:B6S_s.wav
475,192,13746,128,0,13963:0:0:0:0:
109,192,13963,128,0,14181:0:0:0:100:C#7S_Db7S_s.wav
402,192,13963,128,0,14181:0:0:0:0:
182,192,14181,128,0,14398:0:0:0:100:D7S_s.wav
329,192,14181,128,0,14398:0:0:0:0:
256,192,14398,128,0,14507:0:0:0:100:E7S_s.wav
256,192,14616,128,0,15268:0:0:0:70:E7S_s.wav
109,192,14652,1,0,0:0:0:70:F#6S_Gb6S_s.wav
402,192,14652,1,0,0:0:0:0:
182,192,14833,128,0,15050:0:0:0:0:
329,192,15050,128,0,15268:0:0:0:0:
36,192,15268,1,0,0:0:0:70:E7S_s.wav
475,192,15268,128,0,15920:0:0:0:0:
402,192,15304,1,0,0:0:0:0:
182,192,15485,1,0,0:0:0:0:
109,192,15702,1,0,0:0:0:0:
36,192,15920,1,0,0:0:0:100:F#6S_Gb6S_s.wav
182,192,15920,128,0,16137:0:0:0:0:
329,192,16137,128,0,16355:0:0:0:100:A6S_s.wav
475,192,16137,1,0,0:0:0:0:
36,192,16355,128,0,17007:0:0:0:100:E6S_s.wav
182,192,16355,1,0,0:0:0:0:
109,192,16391,1,0,0:0:0:100:F#6S_Gb6S_s.wav
402,192,16572,128,0,16789:0:0:0:0:
256,192,16789,128,0,17007:0:0:0:0:
329,192,17007,1,0,0:0:0:100:E6S_s.wav
475,192,17007,128,0,17659:0:0:0:0:
402,192,17224,1,0,0:0:0:0:
109,192,17442,128,0,17659:0:0:0:0:
182,192,17659,1,0,0:0:0:100:F#6S_Gb6S_s.wav
256,192,17659,128,0,17876:0:0:0:0:
402,192,17876,128,0,18094:0:0:0:100:A6S_s.wav
475,192,17876,1,0,0:0:0:0:
36,192,18094,1,0,0:0:0:100:E6S_s.wav
109,192,18094,128,0,18746:0:0:0:0:
329,192,18130,1,0,0:0:0:100:D6S_s.wav
182,192,18311,128,0,18529:0:0:0:0:
475,192,18529,128,0,18746:0:0:0:100:B5S_s.wav
256,192,18746,128,0,19181:0:0:0:100:C#6S_Db6S_s.wav
402,192,18746,1,0,0:0:0:0:
109,192,19181,128,0,19398:0:0:0:100:D6S_s.wav
329,192,19181,128,0,19398:0:0:0:0:
182,192,19398,128,0,19616:0:0:0:100:C#6S_Db6S_s.wav
402,192,19398,128,0,19616:0:0:0:0:
36,192,19616,128,0,19833:0:0:0:100:A5S_s.wav
256,192,19616,128,0,19833:0:0:0:0:
329,192,19833,128,0,20702:0:0:0:100:B5S_s.wav
475,192,19833,128,0,20702:0:0:0:0:
109,192,20050,1,0,0:0:0:0:
182,192,20268,1,0,0:0:0:0:
256,192,20485,1,0,0:0:0:0:
36,192,20702,128,0,20920:0:0:0:100:B5S_s.wav
109,192,20702,128,0,20920:0:0:0:0:
402,192,20920,128,0,21137:0:0:0:100:C#6S_Db6S_s.wav
475,192,20920,128,0,21137:0:0:0:0:
109,192,21137,128,0,21355:0:0:0:100:D6S_s.wav
182,192,21137,128,0,21355:0:0:0:0:
329,192,21355,128,0,21572:0:0:0:100:E6S_s.wav
402,192,21355,128,0,21572:0:0:0:0:
36,192,21572,1,0,0:0:0:100:F#6S_Gb6S_s.wav
256,192,21572,128,0,22224:0:0:0:0:
182,192,21789,128,0,22007:0:0:0:0:
329,192,22007,128,0,22224:0:0:0:0:
402,192,22224,128,0,22768:0:0:0:100:E6S_s.wav
475,192,22224,1,0,0:0:0:0:
182,192,22442,1,0,0:0:0:0:
109,192,22659,1,0,0:0:0:0:
36,192,22876,1,0,0:0:0:100:F#6S_Gb6S_s.wav
182,192,22876,128,0,23094:0:0:0:0:
329,192,23094,128,0,23311:0:0:0:100:A6S_s.wav
475,192,23094,1,0,0:0:0:0:
36,192,23311,128,0,23963:0:0:0:100:F#6S_Gb6S_s.wav
109,192,23311,1,0,0:0:0:0:
402,192,23529,128,0,23746:0:0:0:0:
256,192,23746,128,0,23963:0:0:0:0:
329,192,23963,1,0,0:0:0:100:E6S_s.wav
475,192,23963,128,0,24616:0:0:0:0:
402,192,24181,1,0,0:0:0:0:
109,192,24398,1,0,0:0:0:0:
182,192,24616,1,0,0:0:0:100:F#6S_Gb6S_s.wav
256,192,24616,128,0,24833:0:0:0:0:
329,192,24833,1,0,0:0:0:100:A6S_s.wav
402,192,24833,128,0,24942:0:0:0:0:
329,192,25050,1,0,0:0:0:100:A6S_s.wav
402,192,25050,128,0,28420:0:0:0:0:
109,192,26789,128,0,28420:0:0:0:0:
109,192,28529,1,0,0:0:0:70:Kick 19.wav
182,192,28529,1,0,0:0:0:70:Crash 1.wav
329,192,28529,1,0,0:0:0:0:
402,192,28529,1,0,0:0:0:0:
256,192,28746,1,0,0:0:0:0:
36,192,28963,1,0,0:0:0:70:Kick 19.wav
475,192,28963,1,0,0:0:0:0:
109,192,29181,1,0,0:0:0:0:
329,192,29398,1,0,0:0:0:70:Kick 19.wav
402,192,29398,1,0,0:0:0:0:
256,192,29616,1,0,0:0:0:0:
36,192,29833,128,0,30159:0:0:0:70:Kick 19.wav
109,192,29833,1,0,0:0:0:0:
475,192,29833,1,0,0:0:0:0:
329,192,30050,1,0,0:0:0:0:
36,192,30268,128,0,30702:0:0:0:70:Kick 19.wav
109,192,30268,1,0,0:0:0:0:
475,192,30485,1,0,0:0:0:0:
182,192,30702,1,0,0:0:0:70:Kick 19.wav
402,192,30702,128,0,30920:0:0:0:0:
256,192,30920,128,0,31355:0:0:0:0:
36,192,31137,1,0,0:0:0:70:Kick 19.wav
475,192,31137,1,0,0:0:0:0:
109,192,31355,128,0,31789:0:0:0:0:
329,192,31572,1,0,0:0:0:70:Kick 19.wav
402,192,31572,1,0,0:0:0:0:
475,192,31789,128,0,32224:0:0:0:0:
36,192,32007,1,0,0:0:0:70:Kick 19.wav
109,192,32007,1,0,0:0:0:70:Crash 1.wav
182,192,32007,1,0,0:0:0:0:
256,192,32224,128,0,32442:0:0:0:0:
402,192,32442,128,0,32876:0:0:0:70:Kick 19.wav
475,192,32442,1,0,0:0:0:0:
109,192,32659,1,0,0:0:0:0:
36,192,32876,1,0,0:0:0:70:Kick 19.wav
256,192,32876,1,0,0:0:0:0:
475,192,33094,1,0,0:0:0:0:
36,192,33311,128,0,33529:0:0:0:70:Kick 19.wav
109,192,33311,1,0,0:0:0:0:
256,192,33529,128,0,33746:0:0:0:0:
402,192,33746,1,0,0:0:0:70:Kick 19.wav
475,192,33746,128,0,34181:0:0:0:0:
329,192,33963,1,0,0:0:0:0:
36,192,34181,1,0,0:0:0:70:Kick 19.wav
109,192,34181,128,0,34398:0:0:0:0:
402,192,34398,128,0,34833:0:0:0:0:
109,192,34616,1,0,0:0:0:70:Kick 19.wav
182,192,34616,1,0,0:0:0:0:
256,192,34833,128,0,35268:0:0:0:0:
36,192,35050,1,0,0:0:0:70:Kick 19.wav
329,192,35050,1,0,0:0:0:0:
109,192,35268,128,0,35485:0:0:0:0:
36,192,35485,1,0,0:0:0:70:Kick 19.wav
182,192,35485,1,0,0:0:0:70:Crash 1.wav
402,192,35485,1,0,0:0:0:0:
475,192,35485,128,0,35702:0:0:0:0:
329,192,35702,128,0,35920:0:0:0:0:
36,192,35920,1,0,0:0:0:70:Kick 19.wav
182,192,35920,128,0,36355:0:0:0:0:
475,192,36137,1,0,0:0:0:0:
109,192,36355,1,0,0:0:0:70:Kick 19.wav
256,192,36355,1,0,0:0:0:0:
329,192,36572,1,0,0:0:0:0:
36,192,36789,128,0,37007:0:0:0:70:Kick 19.wav
475,192,36789,1,0,0:0:0:0:
402,192,37007,128,0,37442:0:0:0:0:
109,192,37224,1,0,0:0:0:70:Kick 19.wav
256,192,37224,1,0,0:0:0:0:
182,192,37442,128,0,37659:0:0:0:0:
329,192,37659,128,0,37876:0:0:0:70:Kick 19.wav
475,192,37659,1,0,0:0:0:0:
109,192,37876,128,0,38311:0:0:0:0:
182,192,38094,1,0,0:0:0:70:Kick 19.wav
402,192,38094,1,0,0:0:0:0:
475,192,38311,1,0,0:0:0:0:
256,192,38529,128,0,38963:0:0:0:70:Kick 19.wav
329,192,38529,1,0,0:0:0:0:
109,192,38746,1,0,0:0:0:0:
36,192,38963,1,0,0:0:0:70:Kick 19.wav
182,192,38963,1,0,0:0:0:70:Crash 1.wav
402,192,38963,128,0,39398:0:0:0:0:
475,192,38963,1,0,0:0:0:0:
329,192,39181,1,0,0:0:0:0:
109,192,39398,128,0,39616:0:0:0:70:Kick 19.wav
182,192,39398,1,0,0:0:0:0:
329,192,39616,128,0,40050:0:0:0:0:
256,192,39833,1,0,0:0:0:70:Kick 19.wav
475,192,39833,1,0,0:0:0:0:
36,192,40050,128,0,40485:0:0:0:0:
182,192,40268,1,0,0:0:0:70:Kick 19.wav
402,192,40268,1,0,0:0:0:0:
475,192,40485,128,0,40920:0:0:0:0:
109,192,40702,128,0,40920:0:0:0:70:Kick 19.wav
182,192,40702,1,0,0:0:0:0:
36,192,40920,128,0,41137:0:0:0:0:
329,192,40920,128,0,41355:0:0:0:0:
109,192,41137,1,0,0:0:0:70:Kick 19.wav
182,192,41137,128,0,41355:0:0:0:0:
256,192,41355,128,0,41789:0:0:0:0:
402,192,41355,1,0,0:0:0:0:
36,192,41572,1,0,0:0:0:70:Kick 19.wav
475,192,41572,1,0,0:0:0:0:
109,192,41789,1,0,0:0:0:70:TMKD_SNARE.wav
182,192,41789,1,0,0:0:0:0:
329,192,41789,1,0,0:0:0:0:
402,192,41789,128,0,42007:0:0:0:0:
36,192,42007,128,0,42224:0:0:0:70:Kick 19.wav
475,192,42007,1,0,0:0:0:0:
256,192,42224,1,0,0:0:0:70:TOM_1.wav
329,192,42224,1,0,0:0:0:0:
402,192,42224,1,0,0:0:0:0:
36,192,42442,1,0,0:0:0:70:Kick 19.wav
109,192,42442,1,0,0:0:0:70:Crash 1.wav
182,192,42442,1,0,0:0:0:0:
329,192,42442,1,0,0:0:0:0:
475,192,42442,1,0,0:0:0:0:
256,192,42659,1,0,0:0:0:0:
36,192,42876,1,0,0:0:0:70:TMKD_SNARE.wav
109,192,42876,1,0,0:0:0:0:
329,192,42876,1,0,0:0:0:0:
475,192,42876,1,0,0:0:0:0:
402,192,43094,1,0,0:0:0:0:
329,192,43202,1,0,0:0:0:70:snare22.wav
36,192,43311,1,0,0:0:0:0:
109,192,43311,1,0,0:0:0:0:
182,192,43420,1,0,0:0:0:70:snare22.wav
36,192,43529,1,0,0:0:0:70:Kick 19.wav
256,192,43529,1,0,0:0:0:0:
402,192,43746,1,0,0:0:0:0:
475,192,43746,128,0,44072:0:0:0:0:
109,192,43963,1,0,0:0:0:70:Kick 19.wav
182,192,43963,1,0,0:0:0:0:
402,192,44181,1,0,0:0:0:0:
475,192,44181,128,0,44616:0:0:0:0:
36,192,44398,1,0,0:0:0:70:Kick 19.wav
329,192,44398,1,0,0:0:0:0:
109,192,44616,128,0,44833:0:0:0:70:TMKD_SNARE.wav
182,192,44616,1,0,0:0:0:0:
256,192,44616,1,0,0:0:0:0:
402,192,44616,1,0,0:0:0:0:
475,192,44833,1,0,0:0:0:0:
402,192,44942,1,0,0:0:0:70:snare22.wav
36,192,45050,1,0,0:0:0:0:
329,192,45050,1,0,0:0:0:0:
109,192,45159,1,0,0:0:0:70:snare22.wav
182,192,45268,1,0,0:0:0:70:Kick 19.wav
256,192,45268,1,0,0:0:0:0:
329,192,45485,1,0,0:0:0:70:Kick 19.wav
402,192,45485,1,0,0:0:0:70:snare22.wav
475,192,45485,1,0,0:0:0:0:
36,192,45594,1,0,0:0:0:70:TMKD_SNARE.wav
109,192,45594,1,0,0:0:0:0:
182,192,45594,1,0,0:0:0:0:
402,192,45702,1,0,0:0:0:70:Kick 19.wav
475,192,45702,1,0,0:0:0:0:
36,192,45920,128,0,46137:0:0:0:70:Kick 19.wav
109,192,45920,1,0,0:0:0:0:
182,192,45920,1,0,0:0:0:0:
329,192,45920,1,0,0:0:0:0:
256,192,46137,128,0,46789:0:0:0:0:
402,192,46246,1,0,0:0:0:70:Kick 19.wav
475,192,46246,1,0,0:0:0:0:
36,192,46355,1,0,0:0:0:70:TMKD_SNARE.wav
109,192,46355,1,0,0:0:0:0:
182,192,46355,1,0,0:0:0:0:
475,192,46572,1,0,0:0:0:0:
402,192,46681,1,0,0:0:0:70:snare22.wav
36,192,46789,1,0,0:0:0:0:
109,192,46789,1,0,0:0:0:0:
182,192,46898,1,0,0:0:0:70:snare22.wav
329,192,47007,1,0,0:0:0:70:Kick 19.wav
402,192,47007,1,0,0:0:0:0:
36,192,47224,128,0,47442:0:0:0:0:
475,192,47224,1,0,0:0:0:0:
182,192,47442,1,0,0:0:0:70:Kick 19.wav
256,192,47442,128,0,47659:0:0:0:0:
329,192,47442,1,0,0:0:0:0:
36,192,47659,1,0,0:0:0:0:
475,192,47659,128,0,48094:0:0:0:0:
329,192,47876,1,0,0:0:0:70:Kick 19.wav
402,192,47876,1,0,0:0:0:0:
36,192,48094,1,0,0:0:0:70:TMKD_SNARE.wav
109,192,48094,128,0,48311:0:0:0:0:
182,192,48094,1,0,0:0:0:0:
256,192,48094,1,0,0:0:0:0:
475,192,48311,1,0,0:0:0:0:
402,192,48420,1,0,0:0:0:70:snare22.wav
36,192,48529,1,0,0:0:0:0:
329,192,48529,1,0,0:0:0:0:
109,192,48637,1,0,0:0:0:70:snare22.wav
182,192,48746,1,0,0:0:0:70:Kick 19.wav
256,192,48746,1,0,0:0:0:0:
329,192,48963,1,0,0:0:0:70:Kick 19.wav
402,192,48963,1,0,0:0:0:70:snare22.wav
475,192,48963,1,0,0:0:0:0:
36,192,49072,1,0,0:0:0:70:TMKD_SNARE.wav
109,192,49072,1,0,0:0:0:0:
182,192,49072,1,0,0:0:0:0:
329,192,49181,1,0,0:0:0:70:Kick 19.wav
402,192,49181,1,0,0:0:0:0:
36,192,49398,1,0,0:0:0:70:Kick 19.wav
182,192,49398,1,0,0:0:0:70:Crash 1.wav
256,192,49398,1,0,0:0:0:0:
475,192,49398,128,0,49616:0:0:0:0:
329,192,49616,128,0,49833:0:0:0:0:
109,192,49833,1,0,0:0:0:70:TMKD_SNARE.wav
182,192,49833,128,0,50050:0:0:0:0:
256,192,49833,1,0,0:0:0:0:
475,192,49833,1,0,0:0:0:0:
36,192,50050,1,0,0:0:0:0:
109,192,50159,1,0,0:0:0:70:snare22.wav
182,192,50268,1,0,0:0:0:0:
475,192,50268,1,0,0:0:0:0:
256,192,50376,1,0,0:0:0:70:snare22.wav
329,192,50485,128,0,50702:0:0:0:70:Kick 19.wav
402,192,50485,1,0,0:0:0:0:
36,192,50702,1,0,0:0:0:0:
182,192,50702,128,0,50920:0:0:0:0:
256,192,50920,1,0,0:0:0:70:Kick 19.wav
402,192,50920,128,0,51355:0:0:0:0:
475,192,50920,1,0,0:0:0:0:
109,192,51137,1,0,0:0:0:0:
36,192,51355,1,0,0:0:0:70:Kick 19.wav
329,192,51355,1,0,0:0:0:0:
109,192,51572,1,0,0:0:0:70:TMKD_SNARE.wav
182,192,51572,1,0,0:0:0:0:
402,192,51572,1,0,0:0:0:0:
475,192,51572,1,0,0:0:0:0:
36,192,51789,1,0,0:0:0:0:
109,192,51898,1,0,0:0:0:70:snare22.wav
182,192,52007,1,0,0:0:0:0:
475,192,52007,1,0,0:0:0:0:
402,192,52116,1,0,0:0:0:70:snare22.wav
256,192,52224,1,0,0:0:0:70:Kick 19.wav
329,192,52224,1,0,0:0:0:0:
36,192,52442,1,0,0:0:0:70:Kick 19.wav
109,192,52442,1,0,0:0:0:70:snare22.wav
182,192,52442,1,0,0:0:0:0:
329,192,52550,1,0,0:0:0:70:TMKD_SNARE.wav
402,192,52550,1,0,0:0:0:0:
475,192,52550,1,0,0:0:0:0:
36,192,52659,1,0,0:0:0:70:Kick 19.wav
182,192,52659,1,0,0:0:0:0:
402,192,52876,1,0,0:0:0:70:Kick 19.wav
475,192,52876,128,0,53311:0:0:0:0:
182,192,53094,1,0,0:0:0:0:
256,192,53202,1,0,0:0:0:70:Kick 19.wav
36,192,53311,1,0,0:0:0:70:TMKD_SNARE.wav
109,192,53311,128,0,53529:0:0:0:0:
329,192,53311,1,0,0:0:0:0:
402,192,53311,1,0,0:0:0:0:
256,192,53529,1,0,0:0:0:0:
329,192,53637,1,0,0:0:0:70:snare22.wav
402,192,53746,1,0,0:0:0:0:
475,192,53746,1,0,0:0:0:0:
256,192,53855,1,0,0:0:0:70:snare22.wav
36,192,53963,128,0,54398:0:0:0:70:Kick 19.wav
182,192,53963,1,0,0:0:0:0:
402,192,54181,1,0,0:0:0:0:
109,192,54398,1,0,0:0:0:70:Kick 19.wav
182,192,54398,128,0,54833:0:0:0:70:Splash.wav
256,192,54398,1,0,0:0:0:0:
329,192,54398,1,0,0:0:0:0:
475,192,54616,1,0,0:0:0:0:
109,192,54833,1,0,0:0:0:70:Kick 19.wav
329,192,54833,128,0,55268:0:0:0:0:
36,192,55050,1,0,0:0:0:70:TMKD_SNARE.wav
402,192,55050,1,0,0:0:0:0:
475,192,55050,1,0,0:0:0:0:
109,192,55268,1,0,0:0:0:70:Kick 19.wav
182,192,55268,1,0,0:0:0:0:
475,192,55268,1,0,0:0:0:0:
256,192,55376,1,0,0:0:0:70:snare22.wav
36,192,55485,1,0,0:0:0:70:TMKD_SNARE.wav
182,192,55485,1,0,0:0:0:0:
329,192,55485,1,0,0:0:0:0:
475,192,55485,1,0,0:0:0:0:
109,192,55702,1,0,0:0:0:70:Kick 19.wav
256,192,55702,1,0,0:0:0:0:
402,192,55702,1,0,0:0:0:0:
36,192,55920,1,0,0:0:0:70:Kick 19.wav
109,192,55920,1,0,0:0:0:70:snare22.wav
182,192,55920,1,0,0:0:0:0:
329,192,56029,1,0,0:0:0:70:TMKD_SNARE.wav
402,192,56029,1,0,0:0:0:0:
475,192,56029,1,0,0:0:0:0:
36,192,56137,1,0,0:0:0:70:TOM_1.wav
182,192,56137,1,0,0:0:0:0:
109,192,56355,1,0,0:0:0:70:Kick 19.wav
256,192,56355,128,0,57007:0:0:0:70:Crash 1.wav
329,192,56355,1,0,0:0:0:0:
402,192,56355,1,0,0:0:0:0:
475,192,56355,1,0,0:0:0:0:
36,192,56789,1,0,0:0:0:70:TMKD_SNARE.wav
402,192,56789,1,0,0:0:0:0:
475,192,56789,1,0,0:0:0:0:
109,192,57007,128,0,57442:0:0:0:0:
475,192,57224,1,0,0:0:0:0:
36,192,57442,1,0,0:0:0:70:Kick 19.wav
256,192,57442,128,0,57659:0:0:0:0:
109,192,57550,1,0,0:0:0:0:
182,192,57659,1,0,0:0:0:70:TMKD_SNARE.wav
329,192,57659,128,0,57876:0:0:0:0:
402,192,57659,1,0,0:0:0:0:
475,192,57659,1,0,0:0:0:0:
36,192,57876,1,0,0:0:0:70:Kick 19.wav
256,192,57876,1,0,0:0:0:0:
402,192,57876,128,0,58311:0:0:0:0:
109,192,58094,1,0,0:0:0:0:
182,192,58311,128,0,58746:0:0:0:70:Kick 19.wav
256,192,58311,1,0,0:0:0:0:
36,192,58529,1,0,0:0:0:70:TMKD_SNARE.wav
402,192,58529,1,0,0:0:0:0:
475,192,58529,1,0,0:0:0:0:
256,192,58746,128,0,59181:0:0:0:0:
36,192,58963,1,0,0:0:0:0:
109,192,59072,1,0,0:0:0:70:snare22.wav
182,192,59181,1,0,0:0:0:70:Kick 19.wav
475,192,59181,128,0,59398:0:0:0:0:
36,192,59398,1,0,0:0:0:70:TMKD_SNARE.wav
256,192,59398,1,0,0:0:0:0:
329,192,59398,128,0,59616:0:0:0:0:
402,192,59398,1,0,0:0:0:0:
109,192,59616,1,0,0:0:0:70:Kick 19.wav
182,192,59616,128,0,59833:0:0:0:0:
36,192,59833,128,0,60485:0:0:0:70:Kick 19.wav
402,192,59833,1,0,0:0:0:0:
475,192,59833,1,0,0:0:0:0:
329,192,60050,1,0,0:0:0:0:
256,192,60268,1,0,0:0:0:0:
475,192,60268,1,0,0:0:0:0:
182,192,60268,1,0,0:0:0:70:TMKD_SNARE.wav
402,192,60485,128,0,60920:0:0:0:0:
329,192,60594,1,0,0:0:0:70:snare22.wav
256,192,60702,1,0,0:0:0:0:
36,192,60920,1,0,0:0:0:70:Kick 19.wav
109,192,60920,128,0,61355:0:0:0:0:
182,192,61029,1,0,0:0:0:0:
256,192,61137,1,0,0:0:0:70:TMKD_SNARE.wav
329,192,61137,1,0,0:0:0:0:
475,192,61137,1,0,0:0:0:0:
36,192,61355,1,0,0:0:0:70:Kick 19.wav
329,192,61355,128,0,61789:0:0:0:0:
402,192,61355,1,0,0:0:0:0:
256,192,61572,1,0,0:0:0:0:
182,192,61789,128,0,62007:0:0:0:70:Kick 19.wav
475,192,61789,1,0,0:0:0:0:
36,192,62007,1,0,0:0:0:70:TMKD_SNARE.wav
109,192,62007,128,0,62224:0:0:0:0:
402,192,62007,1,0,0:0:0:0:
256,192,62224,128,0,62659:0:0:0:0:
36,192,62442,1,0,0:0:0:0:
109,192,62550,1,0,0:0:0:0:
182,192,62659,1,0,0:0:0:70:Kick 19.wav
402,192,62659,128,0,62876:0:0:0:0:
36,192,62876,1,0,0:0:0:70:TMKD_SNARE.wav
109,192,62876,1,0,0:0:0:0:
256,192,62876,1,0,0:0:0:0:
402,192,62985,1,0,0:0:0:70:TMKD_SNARE.wav
475,192,62985,1,0,0:0:0:0:
182,192,63094,1,0,0:0:0:70:Kick 19.wav
329,192,63094,128,0,63311:0:0:0:0:
36,192,63311,128,0,63746:0:0:0:70:Kick 19.wav
109,192,63311,1,0,0:0:0:70:Crash 1.wav
256,192,63311,1,0,0:0:0:0:
475,192,63311,1,0,0:0:0:0:
182,192,63529,1,0,0:0:0:0:
109,192,63746,1,0,0:0:0:70:TMKD_SNARE.wav
402,192,63746,128,0,63963:0:0:0:0:
475,192,63746,1,0,0:0:0:0:
329,192,63963,128,0,64398:0:0:0:0:
109,192,64072,1,0,0:0:0:70:snare22.wav
182,192,64181,1,0,0:0:0:0:
36,192,64398,1,0,0:0:0:70:Kick 19.wav
109,192,64398,1,0,0:0:0:0:
256,192,64507,1,0,0:0:0:0:
182,192,64616,128,0,64833:0:0:0:70:TMKD_SNARE.wav
329,192,64616,1,0,0:0:0:0:
402,192,64616,1,0,0:0:0:0:
475,192,64616,1,0,0:0:0:0:
36,192,64833,1,0,0:0:0:70:Kick 19.wav
109,192,64833,1,0,0:0:0:0:
256,192,64833,1,0,0:0:0:0:
329,192,64833,128,0,65268:0:0:0:0:
475,192,65050,1,0,0:0:0:0:
36,192,65268,1,0,0:0:0:70:Kick 19.wav
256,192,65268,128,0,65485:0:0:0:0:
109,192,65485,1,0,0:0:0:70:TMKD_SNARE.wav
182,192,65485,128,0,65702:0:0:0:0:
329,192,65485,1,0,0:0:0:0:
475,192,65485,1,0,0:0:0:0:
402,192,65702,128,0,66137:0:0:0:0:
256,192,65920,1,0,0:0:0:0:
182,192,66029,1,0,0:0:0:70:snare22.wav
36,192,66137,128,0,66789:0:0:0:70:Kick 19.wav
109,192,66137,1,0,0:0:0:0:
182,192,66355,1,0,0:0:0:70:TMKD_SNARE.wav
256,192,66355,1,0,0:0:0:0:
475,192,66355,1,0,0:0:0:0:
109,192,66572,1,0,0:0:0:70:Kick 19.wav
329,192,66572,1,0,0:0:0:0:
182,192,66789,1,0,0:0:0:70:Kick 19.wav
256,192,66789,128,0,68202:0:0:0:70:Splash.wav
402,192,66789,1,0,0:0:0:0:
475,192,66789,1,0,0:0:0:0:
329,192,67224,1,0,0:0:0:70:TMKD_SNARE.wav
402,192,67224,1,0,0:0:0:0:
475,192,67224,1,0,0:0:0:0:
36,192,67442,1,0,0:0:0:70:Kick 19.wav
109,192,67442,1,0,0:0:0:70:Crash 1.wav
182,192,67442,1,0,0:0:0:0:
402,192,67659,1,0,0:0:0:0:
36,192,67876,1,0,0:0:0:70:Kick 19.wav
475,192,67876,1,0,0:0:0:0:
36,192,68094,128,0,68202:0:0:0:70:TMKD_SNARE.wav
109,192,68094,1,0,0:0:0:0:
402,192,68094,1,0,0:0:0:0:
475,192,68094,128,0,68202:0:0:0:0:
109,192,68311,1,0,0:0:0:70:Kick 19.wav
182,192,68311,128,0,68746:0:0:0:70:Crash 1.wav
256,192,68311,1,0,0:0:0:0:
329,192,68311,128,0,68746:0:0:0:0:
402,192,68311,1,0,0:0:0:0:
109,192,68746,1,0,0:0:0:70:Kick 19.wav
256,192,68746,1,0,0:0:0:0:
402,192,68746,1,0,0:0:0:0:
36,192,68963,1,0,0:0:0:70:TMKD_SNARE.wav
182,192,68963,1,0,0:0:0:0:
329,192,68963,1,0,0:0:0:0:
475,192,68963,1,0,0:0:0:0:
109,192,69181,1,0,0:0:0:70:Kick 19.wav
182,192,69181,1,0,0:0:0:70:TMKD_SNARE.wav
329,192,69181,1,0,0:0:0:0:
402,192,69181,1,0,0:0:0:0:
36,192,69398,1,0,0:0:0:70:Kick 19.wav
109,192,69398,1,0,0:0:0:70:TMKD_SNARE.wav
402,192,69398,1,0,0:0:0:0:
475,192,69398,1,0,0:0:0:0:
182,192,69616,1,0,0:0:0:70:Kick 19.wav
256,192,69616,1,0,0:0:0:70:Splash.wav
329,192,69616,1,0,0:0:0:0:
329,192,69833,1,0,0:0:0:70:TMKD_SNARE.wav
402,192,69833,1,0,0:0:0:0:
475,192,69833,1,0,0:0:0:0:
36,192,69942,1,0,0:0:0:70:TMKD_SNARE.wav
109,192,69942,1,0,0:0:0:0:
182,192,69942,1,0,0:0:0:0:
402,192,70050,1,0,0:0:0:70:TOM_1.wav
475,192,70050,1,0,0:0:0:0:
36,192,70268,1,0,0:0:0:70:Kick 19.wav
109,192,70268,1,0,0:0:0:70:Crash 1.wav
182,192,70268,1,0,0:0:0:0:
256,192,70268,128,0,70702:0:0:0:0:
329,192,70268,1,0,0:0:0:0:
182,192,70702,1,0,0:0:0:70:TMKD_SNARE.wav
329,192,70702,1,0,0:0:0:0:
402,192,70702,1,0,0:0:0:0:
475,192,70702,128,0,70920:0:0:0:0:
36,192,70920,128,0,71355:0:0:0:70:Kick 19.wav
109,192,70920,1,0,0:0:0:0:
475,192,71137,1,0,0:0:0:0:
329,192,71246,1,0,0:0:0:70:snare22.wav
402,192,71246,1,0,0:0:0:0:
256,192,71355,1,0,0:0:0:70:Kick 19.wav
36,192,71572,1,0,0:0:0:70:TMKD_SNARE.wav
182,192,71572,1,0,0:0:0:0:
402,192,71572,128,0,71789:0:0:0:0:
475,192,71572,1,0,0:0:0:0:
109,192,71789,128,0,72007:0:0:0:0:
329,192,71789,1,0,0:0:0:0:
182,192,72007,1,0,0:0:0:70:Kick 19.wav
256,192,72007,128,0,72224:0:0:0:0:
475,192,72224,128,0,72659:0:0:0:0:
36,192,72333,1,0,0:0:0:70:Kick 19.wav
402,192,72333,1,0,0:0:0:0:
109,192,72442,1,0,0:0:0:70:TMKD_SNARE.wav
182,192,72442,1,0,0:0:0:0:
329,192,72442,1,0,0:0:0:0:
36,192,72659,128,0,73094:0:0:0:70:Kick 19.wav
402,192,72659,1,0,0:0:0:0:
182,192,72876,1,0,0:0:0:0:
256,192,72985,1,0,0:0:0:70:snare22.wav
329,192,73094,1,0,0:0:0:70:Kick 19.wav
402,192,73094,128,0,73311:0:0:0:0:
36,192,73311,1,0,0:0:0:70:TMKD_SNARE.wav
182,192,73311,1,0,0:0:0:0:
256,192,73311,128,0,73529:0:0:0:0:
475,192,73311,1,0,0:0:0:0:
109,192,73529,128,0,73963:0:0:0:70:Kick 19.wav
402,192,73529,1,0,0:0:0:0:
182,192,73746,1,0,0:0:0:70:Kick 19.wav
256,192,73746,1,0,0:0:0:0:
329,192,73855,1,0,0:0:0:70:snare22.wav
402,192,73963,1,0,0:0:0:0:
36,192,74181,1,0,0:0:0:70:TMKD_SNARE.wav
109,192,74181,1,0,0:0:0:0:
182,192,74181,1,0,0:0:0:0:
256,192,74181,1,0,0:0:0:0:
329,192,74398,128,0,74616:0:0:0:70:Kick 19.wav
402,192,74398,1,0,0:0:0:0:
256,192,74616,1,0,0:0:0:0:
475,192,74616,128,0,74833:0:0:0:0:
182,192,74724,1,0,0:0:0:70:snare22.wav
36,192,74833,1,0,0:0:0:70:Kick 19.wav
109,192,74833,128,0,75050:0:0:0:0:
256,192,75050,1,0,0:0:0:70:TMKD_SNARE.wav
329,192,75050,128,0,75268:0:0:0:0:
402,192,75050,1,0,0:0:0:0:
475,192,75050,1,0,0:0:0:0:
182,192,75159,1,0,0:0:0:70:Kick 19.wav
36,192,75268,128,0,75485:0:0:0:0:
109,192,75268,1,0,0:0:0:0:
475,192,75376,1,0,0:0:0:70:snare22.wav
182,192,75485,128,0,75920:0:0:0:70:Kick 19.wav
402,192,75485,1,0,0:0:0:0:
36,192,75702,1,0,0:0:0:0:
109,192,75811,1,0,0:0:0:70:Kick 19.wav
256,192,75920,1,0,0:0:0:70:TMKD_SNARE.wav
329,192,75920,1,0,0:0:0:0:
402,192,75920,128,0,76137:0:0:0:0:
475,192,75920,1,0,0:0:0:0:
36,192,76137,1,0,0:0:0:70:Kick 19.wav
109,192,76137,128,0,76355:0:0:0:0:
402,192,76246,1,0,0:0:0:70:TMKD_SNARE.wav
475,192,76246,1,0,0:0:0:0:
329,192,76355,128,0,76572:0:0:0:0:
109,192,76463,1,0,0:0:0:70:snare22.wav
182,192,76463,1,0,0:0:0:0:
36,192,76572,1,0,0:0:0:70:Kick 19.wav
256,192,76572,128,0,76789:0:0:0:0:
402,192,76572,1,0,0:0:0:0:
182,192,76789,1,0,0:0:0:70:TMKD_SNARE.wav
329,192,76789,1,0,0:0:0:0:
402,192,76789,1,0,0:0:0:0:
475,192,76789,1,0,0:0:0:0:
36,192,77007,1,0,0:0:0:70:snare22.wav
109,192,77007,128,0,77224:0:0:0:0:
182,192,77224,1,0,0:0:0:70:Kick 19.wav
329,192,77224,1,0,0:0:0:70:Crash 1.wav
402,192,77224,128,0,77659:0:0:0:0:
475,192,77224,1,0,0:0:0:0:
36,192,77659,128,0,77876:0:0:0:70:TMKD_SNARE.wav
109,192,77659,1,0,0:0:0:0:
182,192,77659,1,0,0:0:0:0:
256,192,77659,1,0,0:0:0:0:
329,192,77876,1,0,0:0:0:70:Kick 19.wav
475,192,77876,128,0,78311:0:0:0:0:
36,192,78094,1,0,0:0:0:0:
109,192,78202,1,0,0:0:0:70:snare22.wav
182,192,78311,128,0,78529:0:0:0:70:Kick 19.wav
256,192,78311,1,0,0:0:0:0:
36,192,78529,1,0,0:0:0:70:TMKD_SNARE.wav
329,192,78529,128,0,78963:0:0:0:0:
402,192,78529,1,0,0:0:0:0:
475,192,78529,1,0,0:0:0:0:
109,192,78637,1,0,0:0:0:70:Kick 19.wav
182,192,78746,1,0,0:0:0:0:
256,192,78855,1,0,0:0:0:70:snare22.wav
402,192,78963,1,0,0:0:0:70:Kick 19.wav
475,192,78963,128,0,79181:0:0:0:0:
36,192,79181,128,0,79398:0:0:0:0:
109,192,79181,1,0,0:0:0:0:
182,192,79289,1,0,0:0:0:70:Kick 19.wav
256,192,79398,1,0,0:0:0:70:TMKD_SNARE.wav
329,192,79398,1,0,0:0:0:0:
402,192,79398,128,0,79616:0:0:0:0:
475,192,79398,1,0,0:0:0:0:
36,192,79616,1,0,0:0:0:70:Kick 19.wav
109,192,79616,128,0,80050:0:0:0:0:
475,192,79833,1,0,0:0:0:0:
402,192,79942,1,0,0:0:0:70:snare22.wav
182,192,80050,1,0,0:0:0:70:Kick 19.wav
256,192,80050,128,0,80485:0:0:0:0:
36,192,80268,1,0,0:0:0:70:TMKD_SNARE.wav
109,192,80268,1,0,0:0:0:0:
329,192,80268,1,0,0:0:0:0:
182,192,80485,1,0,0:0:0:70:Kick 19.wav
475,192,80485,128,0,81355:0:0:0:0:
36,192,80702,1,0,0:0:0:70:Kick 19.wav
109,192,80702,1,0,0:0:0:0:
182,192,80811,1,0,0:0:0:70:snare22.wav
256,192,80920,1,0,0:0:0:70:Kick 19.wav
329,192,80920,1,0,0:0:0:0:
36,192,81137,1,0,0:0:0:70:TMKD_SNARE.wav
109,192,81137,1,0,0:0:0:0:
402,192,81137,1,0,0:0:0:0:
256,192,81355,1,0,0:0:0:70:Kick 19.wav
329,192,81355,1,0,0:0:0:0:
109,192,81463,1,0,0:0:0:0:
182,192,81572,1,0,0:0:0:0:
256,192,81681,1,0,0:0:0:70:snare22.wav
329,192,81681,1,0,0:0:0:0:
36,192,81789,128,0,82007:0:0:0:70:Kick 19.wav
402,192,81789,1,0,0:0:0:0:
475,192,81789,1,0,0:0:0:0:
109,192,82007,1,0,0:0:0:70:TMKD_SNARE.wav
182,192,82007,1,0,0:0:0:0:
256,192,82007,128,0,82224:0:0:0:0:
329,192,82007,1,0,0:0:0:0:
36,192,82224,1,0,0:0:0:70:Kick 19.wav
109,192,82224,1,0,0:0:0:70:Crash 1.wav
402,192,82224,1,0,0:0:0:0:
475,192,82224,128,0,82659:0:0:0:0:
182,192,82333,1,0,0:0:0:70:snare22.wav
329,192,82333,1,0,0:0:0:0:
36,192,82659,1,0,0:0:0:70:Kick 19.wav
109,192,82659,1,0,0:0:0:0:
256,192,82876,1,0,0:0:0:70:TMKD_SNARE.wav
329,192,82876,1,0,0:0:0:70:Crash 1.wav
402,192,82876,1,0,0:0:0:0:
475,192,82876,1,0,0:0:0:0:
109,192,83094,1,0,0:0:0:70:Kick 19.wav
182,192,83094,1,0,0:0:0:0:
329,192,83202,1,0,0:0:0:70:TMKD_SNARE.wav
475,192,83202,1,0,0:0:0:0:
256,192,83311,1,0,0:0:0:0:
36,192,83420,1,0,0:0:0:70:snare22.wav
182,192,83420,1,0,0:0:0:0:
329,192,83529,1,0,0:0:0:70:TOM_1.wav
402,192,83529,1,0,0:0:0:0:
36,192,83746,1,0,0:0:0:70:TMKD_SNARE.wav
109,192,83746,1,0,0:0:0:0:
402,192,83855,1,0,0:0:0:70:snare22.wav
475,192,83855,1,0,0:0:0:0:
109,192,83963,1,0,0:0:0:70:TOM_1.wav
182,192,83963,1,0,0:0:0:0:
329,192,84072,1,0,0:0:0:70:TOM_2.wav
402,192,84072,1,0,0:0:0:0:
36,192,84181,1,0,0:0:0:70:Kick 19.wav
182,192,84181,1,0,0:0:0:70:Crash 1.wav
256,192,84181,128,0,84616:0:0:0:0:
475,192,84181,1,0,0:0:0:0:
36,192,84616,128,0,84833:0:0:0:70:TMKD_SNARE.wav
109,192,84616,1,0,0:0:0:0:
182,192,84616,1,0,0:0:0:0:
329,192,84616,1,0,0:0:0:0:
402,192,84833,1,0,0:0:0:70:Kick 19.wav
475,192,84833,128,0,85268:0:0:0:0:
36,192,85050,1,0,0:0:0:0:
109,192,85159,1,0,0:0:0:70:snare22.wav
182,192,85159,1,0,0:0:0:0:
256,192,85268,1,0,0:0:0:70:Kick 19.wav
36,192,85485,1,0,0:0:0:70:TMKD_SNARE.wav
109,192,85485,128,0,85702:0:0:0:0:
329,192,85485,1,0,0:0:0:0:
475,192,85485,1,0,0:0:0:0:
182,192,85702,1,0,0:0:0:0:
402,192,85702,128,0,86137:0:0:0:0:
256,192,85920,1,0,0:0:0:70:Kick 19.wav
329,192,85920,1,0,0:0:0:0:
36,192,86137,128,0,86572:0:0:0:0:
109,192,86246,1,0,0:0:0:70:Kick 19.wav
475,192,86246,1,0,0:0:0:0:
182,192,86355,1,0,0:0:0:70:TMKD_SNARE.wav
256,192,86355,1,0,0:0:0:0:
329,192,86355,1,0,0:0:0:0:
109,192,86572,1,0,0:0:0:70:Kick 19.wav
475,192,86572,128,0,87007:0:0:0:0:
329,192,86789,1,0,0:0:0:0:
256,192,86898,1,0,0:0:0:70:snare22.wav
109,192,87007,128,0,87224:0:0:0:70:Kick 19.wav
182,192,87007,1,0,0:0:0:0:
36,192,87224,1,0,0:0:0:70:TMKD_SNARE.wav
256,192,87224,128,0,87442:0:0:0:0:
329,192,87224,1,0,0:0:0:0:
475,192,87224,1,0,0:0:0:0:
109,192,87442,1,0,0:0:0:70:Kick 19.wav
402,192,87442,128,0,87876:0:0:0:0:
256,192,87659,1,0,0:0:0:70:Kick 19.wav
329,192,87659,1,0,0:0:0:0:
182,192,87768,1,0,0:0:0:70:snare22.wav
109,192,87876,1,0,0:0:0:0:
256,192,88094,1,0,0:0:0:70:TMKD_SNARE.wav
329,192,88094,1,0,0:0:0:0:
402,192,88094,1,0,0:0:0:0:
475,192,88094,1,0,0:0:0:0:
36,192,88311,128,0,88746:0:0:0:70:Kick 19.wav
109,192,88311,1,0,0:0:0:0:
182,192,88529,1,0,0:0:0:0:
256,192,88637,1,0,0:0:0:70:snare22.wav
329,192,88746,128,0,88963:0:0:0:70:Kick 19.wav
402,192,88746,1,0,0:0:0:0:
475,192,88746,1,0,0:0:0:0:
36,192,88963,1,0,0:0:0:70:TMKD_SNARE.wav
109,192,88963,1,0,0:0:0:0:
182,192,88963,128,0,89181:0:0:0:0:
256,192,88963,1,0,0:0:0:0:
329,192,89072,1,0,0:0:0:70:Kick 19.wav
402,192,89181,1,0,0:0:0:0:
475,192,89181,128,0,89398:0:0:0:0:
36,192,89289,1,0,0:0:0:70:snare22.wav
109,192,89398,1,0,0:0:0:70:Kick 19.wav
329,192,89398,128,0,89616:0:0:0:0:
182,192,89616,128,0,89833:0:0:0:0:
475,192,89616,1,0,0:0:0:0:
402,192,89724,1,0,0:0:0:70:Kick 19.wav
36,192,89833,1,0,0:0:0:70:TMKD_SNARE.wav
109,192,89833,128,0,90050:0:0:0:0:
256,192,89833,1,0,0:0:0:0:
329,192,89833,1,0,0:0:0:0:
402,192,90050,1,0,0:0:0:70:Kick 19.wav
475,192,90050,128,0,90485:0:0:0:0:
36,192,90159,1,0,0:0:0:70:TMKD_SNARE.wav
182,192,90159,1,0,0:0:0:0:
256,192,90268,1,0,0:0:0:0:
329,192,90376,1,0,0:0:0:70:snare22.wav
402,192,90376,1,0,0:0:0:0:
109,192,90485,1,0,0:0:0:70:Kick 19.wav
182,192,90485,1,0,0:0:0:0:
256,192,90485,128,0,90702:0:0:0:0:
36,192,90702,1,0,0:0:0:70:TMKD_SNARE.wav
329,192,90702,1,0,0:0:0:0:
475,192,90702,1,0,0:0:0:0:
402,192,90920,128,0,91137:0:0:0:70:snare22.wav
475,192,90920,1,0,0:0:0:0:
36,192,91137,1,0,0:0:0:70:Kick 19.wav
109,192,91137,128,0,91572:0:0:0:70:Crash 1.wav
182,192,91137,1,0,0:0:0:0:
329,192,91137,1,0,0:0:0:0:
256,192,91572,1,0,0:0:0:70:TMKD_SNARE.wav
329,192,91572,1,0,0:0:0:0:
402,192,91572,1,0,0:0:0:0:
475,192,91572,128,0,91789:0:0:0:0:
36,192,91789,128,0,92224:0:0:0:70:Kick 19.wav
182,192,91789,1,0,0:0:0:0:
256,192,92007,1,0,0:0:0:0:
329,192,92116,1,0,0:0:0:70:snare22.wav
402,192,92224,128,0,92659:0:0:0:70:Kick 19.wav
475,192,92224,1,0,0:0:0:0:
182,192,92442,1,0,0:0:0:70:TMKD_SNARE.wav
256,192,92442,1,0,0:0:0:0:
329,192,92442,1,0,0:0:0:0:
109,192,92550,1,0,0:0:0:0:
36,192,92659,128,0,93094:0:0:0:0:
329,192,92768,1,0,0:0:0:70:snare22.wav
256,192,92876,1,0,0:0:0:70:Kick 19.wav
402,192,93094,128,0,93529:0:0:0:0:
475,192,93094,1,0,0:0:0:0:
329,192,93202,1,0,0:0:0:70:Kick 19.wav
36,192,93311,1,0,0:0:0:70:TMKD_SNARE.wav
109,192,93311,1,0,0:0:0:0:
182,192,93311,1,0,0:0:0:0:
329,192,93529,1,0,0:0:0:70:Kick 19.wav
475,192,93529,128,0,93963:0:0:0:0:
36,192,93746,1,0,0:0:0:0:
109,192,93855,1,0,0:0:0:70:snare22.wav
182,192,93855,1,0,0:0:0:0:
256,192,93963,128,0,94181:0:0:0:70:Kick 19.wav
329,192,93963,1,0,0:0:0:0:
109,192,94181,1,0,0:0:0:70:TMKD_SNARE.wav
182,192,94181,1,0,0:0:0:0:
402,192,94181,1,0,0:0:0:0:
475,192,94181,1,0,0:0:0:0:
36,192,94398,128,0,94616:0:0:0:70:Kick 19.wav
329,192,94398,1,0,0:0:0:0:
402,192,94616,1,0,0:0:0:70:Kick 19.wav
475,192,94616,128,0,95920:0:0:0:0:
329,192,94724,1,0,0:0:0:70:snare22.wav
182,192,94833,1,0,0:0:0:70:Kick 19.wav
256,192,94833,1,0,0:0:0:0:
36,192,95050,1,0,0:0:0:70:TMKD_SNARE.wav
109,192,95050,1,0,0:0:0:0:
329,192,95050,1,0,0:0:0:0:
109,192,95268,1,0,0:0:0:70:Kick 19.wav
182,192,95268,1,0,0:0:0:0:
402,192,95376,1,0,0:0:0:0:
329,192,95485,1,0,0:0:0:70:Kick 19.wav
182,192,95594,1,0,0:0:0:70:snare22.wav
256,192,95594,1,0,0:0:0:0:
36,192,95702,1,0,0:0:0:70:Kick 19.wav
109,192,95702,1,0,0:0:0:0:
402,192,95811,1,0,0:0:0:0:
109,192,95920,1,0,0:0:0:70:TMKD_SNARE.wav
182,192,95920,1,0,0:0:0:0:
256,192,95920,128,0,96137:0:0:0:0:
329,192,95920,1,0,0:0:0:0:
36,192,96137,128,0,96572:0:0:0:70:Kick 19.wav
329,192,96137,1,0,0:0:0:70:Crash 1.wav
402,192,96137,1,0,0:0:0:0:
475,192,96137,1,0,0:0:0:0:
182,192,96246,1,0,0:0:0:70:snare22.wav
109,192,96355,1,0,0:0:0:0:
256,192,96572,1,0,0:0:0:70:TMKD_SNARE.wav
329,192,96572,1,0,0:0:0:0:
402,192,96572,1,0,0:0:0:0:
475,192,96572,1,0,0:0:0:0:
256,192,96789,1,0,0:0:0:70:TMKD_SNARE.wav
329,192,96789,1,0,0:0:0:70:Crash 1.wav
402,192,96789,1,0,0:0:0:0:
475,192,96789,1,0,0:0:0:0:
36,192,97007,1,0,0:0:0:70:Kick 19.wav
109,192,97007,1,0,0:0:0:0:
182,192,97007,1,0,0:0:0:0:
329,192,97224,1,0,0:0:0:70:TMKD_SNARE.wav
402,192,97224,1,0,0:0:0:0:
475,192,97224,1,0,0:0:0:0:
256,192,97333,1,0,0:0:0:70:snare22.wav
36,192,97442,1,0,0:0:0:70:TOM_1.wav
182,192,97442,1,0,0:0:0:0:
329,192,97659,1,0,0:0:0:70:TMKD_SNARE.wav
402,192,97659,1,0,0:0:0:0:
475,192,97659,1,0,0:0:0:0:
256,192,97768,1,0,0:0:0:70:snare22.wav
109,192,97876,1,0,0:0:0:70:TOM_1.wav
182,192,97876,1,0,0:0:0:0:
256,192,98094,1,0,0:0:0:70:Kick 19.wav
329,192,98094,1,0,0:0:0:70:Crash 1.wav
402,192,98094,1,0,0:0:0:0:
475,192,98094,1,0,0:0:0:0:
109,192,98529,1,0,0:0:0:70:Kick 19.wav
182,192,98529,1,0,0:0:0:0:
36,192,98746,1,0,0:0:0:0:
256,192,98963,1,0,0:0:0:70:Kick 19.wav
329,192,98963,1,0,0:0:0:0:
109,192,99181,1,0,0:0:0:0:
402,192,99398,1,0,0:0:0:70:Kick 19.wav
475,192,99398,128,0,99724:0:0:0:0:
182,192,99616,1,0,0:0:0:0:
402,192,99833,1,0,0:0:0:70:Kick 19.wav
475,192,99833,128,0,100268:0:0:0:0:
36,192,100050,1,0,0:0:0:0:
109,192,100268,128,0,100485:0:0:0:70:Kick 19.wav
329,192,100268,1,0,0:0:0:0:
256,192,100485,128,0,100920:0:0:0:0:
36,192,100702,1,0,0:0:0:70:Kick 19.wav
475,192,100702,1,0,0:0:0:0:
402,192,100920,128,0,101355:0:0:0:0:
109,192,101137,1,0,0:0:0:70:Kick 19.wav
182,192,101137,1,0,0:0:0:0:
36,192,101355,128,0,101789:0:0:0:0:
329,192,101572,1,0,0:0:0:70:Kick 19.wav
402,192,101572,1,0,0:0:0:70:Crash 1.wav
475,192,101572,1,0,0:0:0:0:
256,192,101789,128,0,102442:0:0:0:0:
109,192,102007,1,0,0:0:0:70:Kick 19.wav
182,192,102007,1,0,0:0:0:0:
402,192,102224,1,0,0:0:0:0:
329,192,102442,1,0,0:0:0:70:Kick 19.wav
475,192,102442,1,0,0:0:0:0:
36,192,102659,1,0,0:0:0:0:
402,192,102876,1,0,0:0:0:70:Kick 19.wav
475,192,102876,128,0,103094:0:0:0:0:
256,192,103094,128,0,103311:0:0:0:0:
36,192,103311,128,0,103746:0:0:0:70:Kick 19.wav
109,192,103311,1,0,0:0:0:0:
182,192,103529,1,0,0:0:0:0:
402,192,103746,128,0,103963:0:0:0:70:Kick 19.wav
475,192,103746,1,0,0:0:0:0:
109,192,103963,128,0,104398:0:0:0:0:
329,192,104181,128,0,104398:0:0:0:70:Kick 19.wav
402,192,104181,1,0,0:0:0:0:
256,192,104398,128,0,104833:0:0:0:0:
182,192,104616,1,0,0:0:0:70:Kick 19.wav
475,192,104616,128,0,104833:0:0:0:0:
402,192,104833,128,0,105050:0:0:0:0:
36,192,105050,128,0,105268:0:0:0:70:Kick 19.wav
109,192,105050,1,0,0:0:0:70:Crash 1.wav
329,192,105050,1,0,0:0:0:0:
475,192,105050,1,0,0:0:0:0:
182,192,105268,128,0,105485:0:0:0:0:
329,192,105485,128,0,105920:0:0:0:70:Kick 19.wav
475,192,105485,1,0,0:0:0:0:
36,192,105702,1,0,0:0:0:0:
256,192,105920,1,0,0:0:0:70:Kick 19.wav
402,192,105920,1,0,0:0:0:0:
182,192,106137,1,0,0:0:0:0:
36,192,106355,1,0,0:0:0:70:Kick 19.wav
475,192,106355,128,0,106572:0:0:0:0:
109,192,106572,128,0,107007:0:0:0:0:
256,192,106789,1,0,0:0:0:70:Kick 19.wav
402,192,106789,1,0,0:0:0:0:
329,192,107007,128,0,107224:0:0:0:0:
36,192,107224,1,0,0:0:0:70:Kick 19.wav
182,192,107224,1,0,0:0:0:0:
402,192,107442,128,0,107876:0:0:0:0:
109,192,107659,1,0,0:0:0:70:Kick 19.wav
329,192,107659,1,0,0:0:0:0:
36,192,107876,1,0,0:0:0:0:
182,192,108094,1,0,0:0:0:70:Kick 19.wav
256,192,108094,128,0,108529:0:0:0:0:
402,192,108311,1,0,0:0:0:0:
36,192,108529,1,0,0:0:0:70:Kick 19.wav
109,192,108529,128,0,108963:0:0:0:70:Crash 1.wav
329,192,108529,1,0,0:0:0:0:
475,192,108529,1,0,0:0:0:0:
182,192,108746,1,0,0:0:0:0:
329,192,108963,1,0,0:0:0:70:Kick 19.wav
402,192,108963,128,0,109181:0:0:0:0:
182,192,109181,128,0,109616:0:0:0:0:
36,192,109398,1,0,0:0:0:70:Kick 19.wav
256,192,109398,1,0,0:0:0:0:
475,192,109616,128,0,110050:0:0:0:0:
109,192,109833,1,0,0:0:0:70:Kick 19.wav
329,192,109833,1,0,0:0:0:0:
36,192,110050,128,0,110485:0:0:0:0:
182,192,110268,1,0,0:0:0:70:Kick 19.wav
402,192,110268,1,0,0:0:0:0:
256,192,110485,128,0,111355:0:0:0:0:
329,192,110702,1,0,0:0:0:70:Kick 19.wav
402,192,110702,1,0,0:0:0:0:
36,192,110920,128,0,111355:0:0:0:0:
402,192,111137,1,0,0:0:0:70:Kick 19.wav
475,192,111137,1,0,0:0:0:0:
109,192,111355,1,0,0:0:0:70:TMKD_SNARE.wav
182,192,111355,1,0,0:0:0:0:
329,192,111355,1,0,0:0:0:0:
402,192,111355,1,0,0:0:0:0:
256,192,111572,1,0,0:0:0:70:Kick 19.wav
475,192,111572,1,0,0:0:0:0:
36,192,111789,1,0,0:0:0:70:TOM_1.wav
109,192,111789,1,0,0:0:0:0:
182,192,111789,1,0,0:0:0:0:
109,192,112007,1,0,0:0:0:70:Kick 19.wav
182,192,112007,1,0,0:0:0:70:Crash 1.wav
329,192,112007,1,0,0:0:0:0:
402,192,112007,1,0,0:0:0:0:
475,192,112007,1,0,0:0:0:0:
256,192,112224,1,0,0:0:0:0:
36,192,112442,1,0,0:0:0:70:TMKD_SNARE.wav
182,192,112442,1,0,0:0:0:0:
402,192,112442,1,0,0:0:0:0:
475,192,112442,1,0,0:0:0:0:
109,192,112659,1,0,0:0:0:0:
182,192,112768,1,0,0:0:0:70:snare22.wav
256,192,112876,1,0,0:0:0:0:
329,192,112876,1,0,0:0:0:0:
402,192,112985,1,0,0:0:0:70:snare22.wav
182,192,113094,1,0,0:0:0:70:Kick 19.wav
475,192,113094,1,0,0:0:0:0:
36,192,113311,128,0,113637:0:0:0:0:
109,192,113311,1,0,0:0:0:0:
329,192,113529,1,0,0:0:0:70:Kick 19.wav
402,192,113529,1,0,0:0:0:0:
475,192,113529,1,0,0:0:0:0:
36,192,113746,128,0,114181:0:0:0:0:
109,192,113746,1,0,0:0:0:0:
182,192,113963,1,0,0:0:0:70:Kick 19.wav
475,192,113963,1,0,0:0:0:0:
109,192,114181,1,0,0:0:0:70:TMKD_SNARE.wav
256,192,114181,1,0,0:0:0:0:
329,192,114181,1,0,0:0:0:0:
402,192,114181,128,0,114398:0:0:0:0:
36,192,114398,1,0,0:0:0:0:
109,192,114507,1,0,0:0:0:70:snare22.wav
182,192,114616,1,0,0:0:0:0:
475,192,114616,1,0,0:0:0:0:
402,192,114724,1,0,0:0:0:70:snare22.wav
256,192,114833,1,0,0:0:0:70:Kick 19.wav
329,192,114833,1,0,0:0:0:0:
36,192,115050,1,0,0:0:0:70:Kick 19.wav
109,192,115050,1,0,0:0:0:70:snare22.wav
182,192,115050,1,0,0:0:0:0:
329,192,115159,1,0,0:0:0:70:TMKD_SNARE.wav
402,192,115159,1,0,0:0:0:0:
475,192,115159,1,0,0:0:0:0:
36,192,115268,1,0,0:0:0:70:Kick 19.wav
109,192,115268,1,0,0:0:0:0:
182,192,115485,1,0,0:0:0:70:Kick 19.wav
329,192,115485,1,0,0:0:0:0:
402,192,115485,1,0,0:0:0:0:
475,192,115485,1,0,0:0:0:0:
256,192,115702,128,0,115920:0:0:0:0:
36,192,115811,1,0,0:0:0:70:Kick 19.wav
109,192,115811,1,0,0:0:0:0:
182,192,115920,1,0,0:0:0:70:TMKD_SNARE.wav
329,192,115920,1,0,0:0:0:0:
402,192,115920,128,0,116572:0:0:0:0:
475,192,115920,1,0,0:0:0:0:
36,192,116137,1,0,0:0:0:0:
109,192,116246,1,0,0:0:0:70:snare22.wav
182,192,116355,1,0,0:0:0:0:
256,192,116463,1,0,0:0:0:70:snare22.wav
36,192,116572,1,0,0:0:0:70:Kick 19.wav
329,192,116572,1,0,0:0:0:0:
109,192,116789,1,0,0:0:0:0:
475,192,116789,128,0,117007:0:0:0:0:
182,192,117007,1,0,0:0:0:70:Kick 19.wav
256,192,117007,1,0,0:0:0:0:
329,192,117007,1,0,0:0:0:0:
36,192,117224,128,0,117659:0:0:0:0:
475,192,117224,1,0,0:0:0:0:
109,192,117442,1,0,0:0:0:70:Kick 19.wav
182,192,117442,1,0,0:0:0:0:
256,192,117659,1,0,0:0:0:70:TMKD_SNARE.wav
329,192,117659,1,0,0:0:0:0:
402,192,117659,128,0,117876:0:0:0:0:
475,192,117659,1,0,0:0:0:0:
36,192,117876,1,0,0:0:0:0:
109,192,117985,1,0,0:0:0:70:snare22.wav
182,192,118094,1,0,0:0:0:0:
475,192,118094,1,0,0:0:0:0:
402,192,118202,1,0,0:0:0:70:snare22.wav
256,192,118311,1,0,0:0:0:70:Kick 19.wav
329,192,118311,1,0,0:0:0:0:
36,192,118529,1,0,0:0:0:70:Kick 19.wav
109,192,118529,1,0,0:0:0:70:snare22.wav
182,192,118529,1,0,0:0:0:0:
329,192,118637,1,0,0:0:0:70:TMKD_SNARE.wav
402,192,118637,1,0,0:0:0:0:
475,192,118637,1,0,0:0:0:0:
109,192,118746,1,0,0:0:0:70:Kick 19.wav
182,192,118746,1,0,0:0:0:0:
36,192,118963,128,0,119181:0:0:0:70:Kick 19.wav
256,192,118963,1,0,0:0:0:70:Crash 1.wav
329,192,118963,1,0,0:0:0:0:
475,192,118963,1,0,0:0:0:0:
182,192,119181,128,0,119398:0:0:0:0:
36,192,119398,1,0,0:0:0:70:TMKD_SNARE.wav
256,192,119398,1,0,0:0:0:0:
329,192,119398,128,0,119616:0:0:0:0:
402,192,119398,1,0,0:0:0:0:
475,192,119616,128,0,119833:0:0:0:0:
182,192,119724,1,0,0:0:0:70:snare22.wav
36,192,119833,1,0,0:0:0:0:
109,192,119833,1,0,0:0:0:0:
329,192,119942,1,0,0:0:0:70:snare22.wav
182,192,120050,128,0,120268:0:0:0:70:Kick 19.wav
256,192,120050,1,0,0:0:0:0:
329,192,120268,128,0,120485:0:0:0:0:
475,192,120268,1,0,0:0:0:0:
36,192,120485,1,0,0:0:0:70:Kick 19.wav
109,192,120485,128,0,120920:0:0:0:0:
182,192,120485,1,0,0:0:0:0:
402,192,120702,1,0,0:0:0:0:
329,192,120920,1,0,0:0:0:70:Kick 19.wav
475,192,120920,1,0,0:0:0:0:
36,192,121137,1,0,0:0:0:70:TMKD_SNARE.wav
109,192,121137,1,0,0:0:0:0:
182,192,121137,1,0,0:0:0:0:
256,192,121137,1,0,0:0:0:0:
475,192,121355,1,0,0:0:0:0:
402,192,121463,1,0,0:0:0:70:snare22.wav
36,192,121572,1,0,0:0:0:0:
329,192,121572,1,0,0:0:0:0:
109,192,121681,1,0,0:0:0:70:snare22.wav
182,192,121789,1,0,0:0:0:70:Kick 19.wav
256,192,121789,1,0,0:0:0:0:
329,192,122007,1,0,0:0:0:70:Kick 19.wav
402,192,122007,1,0,0:0:0:70:snare22.wav
475,192,122007,1,0,0:0:0:0:
36,192,122116,1,0,0:0:0:70:TMKD_SNARE.wav
109,192,122116,1,0,0:0:0:0:
182,192,122116,1,0,0:0:0:0:
329,192,122224,1,0,0:0:0:70:Kick 19.wav
475,192,122224,1,0,0:0:0:0:
36,192,122442,128,0,122876:0:0:0:70:Kick 19.wav
109,192,122442,1,0,0:0:0:0:
256,192,122659,1,0,0:0:0:0:
109,192,122768,1,0,0:0:0:70:Kick 19.wav
182,192,122768,1,0,0:0:0:0:
256,192,122876,1,0,0:0:0:70:TMKD_SNARE.wav
329,192,122876,1,0,0:0:0:0:
402,192,122876,128,0,123094:0:0:0:0:
475,192,122876,1,0,0:0:0:0:
182,192,123094,1,0,0:0:0:0:
109,192,123202,1,0,0:0:0:70:snare22.wav
36,192,123311,1,0,0:0:0:0:
329,192,123311,1,0,0:0:0:0:
256,192,123420,1,0,0:0:0:70:snare22.wav
182,192,123529,1,0,0:0:0:70:Kick 19.wav
475,192,123529,128,0,123963:0:0:0:0:
109,192,123746,1,0,0:0:0:0:
182,192,123963,1,0,0:0:0:70:Kick 19.wav
256,192,123963,1,0,0:0:0:70:Splash.wav
329,192,123963,128,0,124398:0:0:0:0:
402,192,123963,1,0,0:0:0:0:
36,192,124181,1,0,0:0:0:0:
182,192,124398,128,0,124833:0:0:0:70:Kick 19.wav
256,192,124398,1,0,0:0:0:0:
36,192,124616,1,0,0:0:0:70:TMKD_SNARE.wav
109,192,124616,1,0,0:0:0:0:
475,192,124616,1,0,0:0:0:0:
109,192,124833,1,0,0:0:0:70:Kick 19.wav
329,192,124833,1,0,0:0:0:0:
402,192,124833,1,0,0:0:0:0:
256,192,124942,1,0,0:0:0:70:snare22.wav
36,192,125050,1,0,0:0:0:70:TMKD_SNARE.wav
182,192,125050,1,0,0:0:0:0:
329,192,125050,1,0,0:0:0:0:
475,192,125050,1,0,0:0:0:0:
109,192,125268,1,0,0:0:0:70:Kick 19.wav
256,192,125268,1,0,0:0:0:0:
402,192,125268,1,0,0:0:0:0:
329,192,125485,1,0,0:0:0:70:Kick 19.wav
402,192,125485,1,0,0:0:0:70:snare22.wav
475,192,125485,1,0,0:0:0:0:
36,192,125594,1,0,0:0:0:70:TMKD_SNARE.wav
109,192,125594,1,0,0:0:0:0:
182,192,125594,1,0,0:0:0:0:
329,192,125702,1,0,0:0:0:70:TOM_1.wav
475,192,125702,1,0,0:0:0:0:
36,192,125920,1,0,0:0:0:70:Kick 19.wav
109,192,125920,1,0,0:0:0:70:Crash 1.wav
182,192,125920,1,0,0:0:0:0:
256,192,125920,128,0,126572:0:0:0:0:
36,192,126355,1,0,0:0:0:70:TMKD_SNARE.wav
109,192,126355,1,0,0:0:0:0:
475,192,126355,1,0,0:0:0:0:
402,192,126572,128,0,127007:0:0:0:0:
182,192,126789,1,0,0:0:0:0:
256,192,127007,128,0,127224:0:0:0:70:Kick 19.wav
475,192,127007,1,0,0:0:0:0:
329,192,127116,1,0,0:0:0:0:
36,192,127224,1,0,0:0:0:70:TMKD_SNARE.wav
182,192,127224,128,0,127442:0:0:0:0:
402,192,127224,1,0,0:0:0:0:
475,192,127224,1,0,0:0:0:0:
109,192,127442,128,0,127876:0:0:0:70:Kick 19.wav
256,192,127442,1,0,0:0:0:0:
329,192,127442,1,0,0:0:0:0:
402,192,127659,1,0,0:0:0:0:
256,192,127876,1,0,0:0:0:70:Kick 19.wav
329,192,127876,128,0,128311:0:0:0:0:
36,192,128094,1,0,0:0:0:70:TMKD_SNARE.wav
109,192,128094,1,0,0:0:0:0:
182,192,128094,1,0,0:0:0:0:
256,192,128311,128,0,128746:0:0:0:0:
475,192,128529,1,0,0:0:0:0:
402,192,128637,1,0,0:0:0:70:snare22.wav
36,192,128746,128,0,128963:0:0:0:70:Kick 19.wav
329,192,128746,1,0,0:0:0:0:
109,192,128963,1,0,0:0:0:70:TMKD_SNARE.wav
182,192,128963,128,0,129181:0:0:0:0:
256,192,128963,1,0,0:0:0:0:
475,192,128963,1,0,0:0:0:0:
329,192,129181,128,0,129398:0:0:0:70:Kick 19.wav
402,192,129181,1,0,0:0:0:0:
36,192,129398,1,0,0:0:0:70:Kick 19.wav
475,192,129398,128,0,130050:0:0:0:0:
109,192,129616,1,0,0:0:0:0:
182,192,129833,1,0,0:0:0:70:TMKD_SNARE.wav
256,192,129833,1,0,0:0:0:0:
329,192,129833,1,0,0:0:0:0:
109,192,130050,128,0,130485:0:0:0:0:
182,192,130159,1,0,0:0:0:70:snare22.wav
256,192,130268,1,0,0:0:0:0:
402,192,130485,128,0,130920:0:0:0:70:Kick 19.wav
475,192,130485,1,0,0:0:0:0:
36,192,130594,1,0,0:0:0:0:
182,192,130702,1,0,0:0:0:70:TMKD_SNARE.wav
256,192,130702,1,0,0:0:0:0:
329,192,130702,1,0,0:0:0:0:
36,192,130920,128,0,131355:0:0:0:70:Kick 19.wav
109,192,130920,1,0,0:0:0:0:
329,192,130920,1,0,0:0:0:0:
475,192,130920,1,0,0:0:0:0:
256,192,131137,1,0,0:0:0:0:
475,192,131355,128,0,131572:0:0:0:0:
182,192,131355,1,0,0:0:0:70:Kick 19.wav
36,192,131572,1,0,0:0:0:70:TMKD_SNARE.wav
109,192,131572,1,0,0:0:0:0:
402,192,131572,128,0,131789:0:0:0:0:
256,192,131789,128,0,132224:0:0:0:0:
475,192,132007,1,0,0:0:0:0:
402,192,132116,1,0,0:0:0:0:
109,192,132224,128,0,132442:0:0:0:70:Kick 19.wav
329,192,132224,1,0,0:0:0:0:
402,192,132442,1,0,0:0:0:0:
475,192,132442,1,0,0:0:0:0:
256,192,132442,1,0,0:0:0:70:TMKD_SNARE.wav
36,192,132550,1,0,0:0:0:70:TMKD_SNARE.wav
109,192,132550,1,0,0:0:0:0:
182,192,132659,128,0,132876:0:0:0:70:Kick 19.wav
329,192,132659,1,0,0:0:0:0:
36,192,132876,1,0,0:0:0:70:Kick 19.wav
256,192,132876,1,0,0:0:0:70:Crash 1.wav
402,192,132876,1,0,0:0:0:0:
475,192,132876,1,0,0:0:0:0:
329,192,133094,128,0,133311:0:0:0:0:
36,192,133311,1,0,0:0:0:70:TMKD_SNARE.wav
109,192,133311,128,0,133529:0:0:0:0:
256,192,133311,1,0,0:0:0:0:
182,192,133529,128,0,133963:0:0:0:0:
329,192,133746,1,0,0:0:0:0:
402,192,133963,128,0,134398:0:0:0:70:Kick 19.wav
475,192,133963,1,0,0:0:0:0:
256,192,134072,1,0,0:0:0:0:
36,192,134181,1,0,0:0:0:70:TMKD_SNARE.wav
109,192,134181,1,0,0:0:0:0:
329,192,134181,1,0,0:0:0:0:
109,192,134398,1,0,0:0:0:70:Kick 19.wav
182,192,134398,128,0,134833:0:0:0:0:
256,192,134398,1,0,0:0:0:0:
475,192,134398,1,0,0:0:0:0:
36,192,134616,1,0,0:0:0:0:
256,192,134833,128,0,135050:0:0:0:70:Kick 19.wav
475,192,134833,1,0,0:0:0:0:
36,192,135050,1,0,0:0:0:70:TMKD_SNARE.wav
182,192,135050,1,0,0:0:0:0:
329,192,135050,128,0,135268:0:0:0:0:
402,192,135050,1,0,0:0:0:0:
109,192,135268,128,0,135702:0:0:0:0:
256,192,135485,128,0,135702:0:0:0:0:
329,192,135594,1,0,0:0:0:70:snare22.wav
402,192,135702,1,0,0:0:0:70:Kick 19.wav
475,192,135702,128,0,136137:0:0:0:0:
36,192,135920,1,0,0:0:0:70:TMKD_SNARE.wav
109,192,135920,1,0,0:0:0:0:
329,192,135920,128,0,136137:0:0:0:0:
182,192,136137,1,0,0:0:0:70:Kick 19.wav
402,192,136137,1,0,0:0:0:0:
36,192,136355,1,0,0:0:0:70:Kick 19.wav
109,192,136355,1,0,0:0:0:70:Splash.wav
256,192,136355,128,0,137768:0:0:0:0:
329,192,136355,1,0,0:0:0:0:
36,192,136789,1,0,0:0:0:70:TMKD_SNARE.wav
109,192,136789,1,0,0:0:0:0:
182,192,136789,1,0,0:0:0:0:
329,192,137007,1,0,0:0:0:70:Kick 19.wav
402,192,137007,1,0,0:0:0:70:Crash 1.wav
475,192,137007,1,0,0:0:0:0:
109,192,137224,1,0,0:0:0:0:
36,192,137442,1,0,0:0:0:70:Kick 19.wav
475,192,137442,1,0,0:0:0:0:
36,192,137659,128,0,137768:0:0:0:70:TOM_1.wav
109,192,137659,1,0,0:0:0:0:
402,192,137659,1,0,0:0:0:0:
475,192,137659,128,0,137768:0:0:0:0:
109,192,137876,1,0,0:0:0:70:Kick 19.wav
182,192,137876,128,0,138311:0:0:0:70:Crash 1.wav
256,192,137876,1,0,0:0:0:0:
329,192,137876,128,0,138311:0:0:0:0:
402,192,137876,1,0,0:0:0:0:
109,192,138311,1,0,0:0:0:70:Kick 19.wav
256,192,138311,1,0,0:0:0:0:
402,192,138311,1,0,0:0:0:0:
36,192,138529,1,0,0:0:0:70:TMKD_SNARE.wav
182,192,138529,1,0,0:0:0:0:
329,192,138529,1,0,0:0:0:0:
475,192,138529,1,0,0:0:0:0:
109,192,138746,1,0,0:0:0:70:Kick 19.wav
182,192,138746,1,0,0:0:0:70:TMKD_SNARE.wav
329,192,138746,1,0,0:0:0:0:
402,192,138746,1,0,0:0:0:0:
36,192,138963,1,0,0:0:0:70:Kick 19.wav
109,192,138963,1,0,0:0:0:70:TMKD_SNARE.wav
402,192,138963,1,0,0:0:0:0:
475,192,138963,1,0,0:0:0:0:
182,192,139181,1,0,0:0:0:70:Kick 19.wav
256,192,139181,1,0,0:0:0:70:Splash.wav
329,192,139181,1,0,0:0:0:0:
36,192,139398,1,0,0:0:0:70:TMKD_SNARE.wav
109,192,139398,1,0,0:0:0:0:
182,192,139398,1,0,0:0:0:0:
329,192,139507,1,0,0:0:0:70:TMKD_SNARE.wav
402,192,139507,1,0,0:0:0:0:
475,192,139507,1,0,0:0:0:0:
36,192,139616,1,0,0:0:0:70:TOM_1.wav
109,192,139616,1,0,0:0:0:0:
182,192,139833,1,0,0:0:0:70:Kick 19.wav
256,192,139833,128,0,140268:0:0:0:70:Crash 1.wav
329,192,139833,1,0,0:0:0:0:
402,192,139833,1,0,0:0:0:0:
475,192,139833,1,0,0:0:0:0:
36,192,140268,128,0,140485:0:0:0:70:TMKD_SNARE.wav
109,192,140268,1,0,0:0:0:0:
182,192,140268,1,0,0:0:0:0:
329,192,140268,1,0,0:0:0:0:
402,192,140485,1,0,0:0:0:70:Kick 19.wav
475,192,140485,128,0,140920:0:0:0:0:
36,192,140702,1,0,0:0:0:0:
109,192,140811,1,0,0:0:0:70:snare22.wav
182,192,140811,1,0,0:0:0:0:
256,192,140920,1,0,0:0:0:70:Kick 19.wav
36,192,141137,1,0,0:0:0:70:TMKD_SNARE.wav
109,192,141137,128,0,141355:0:0:0:0:
329,192,141137,1,0,0:0:0:0:
475,192,141137,1,0,0:0:0:0:
182,192,141355,1,0,0:0:0:0:
402,192,141355,128,0,141572:0:0:0:0:
256,192,141572,128,0,141789:0:0:0:70:Kick 19.wav
329,192,141572,1,0,0:0:0:0:
36,192,141789,128,0,142224:0:0:0:0:
109,192,141898,1,0,0:0:0:70:Kick 19.wav
475,192,141898,1,0,0:0:0:0:
182,192,142007,1,0,0:0:0:70:TMKD_SNARE.wav
329,192,142007,1,0,0:0:0:0:
402,192,142007,1,0,0:0:0:0:
109,192,142224,1,0,0:0:0:70:Kick 19.wav
475,192,142224,128,0,142659:0:0:0:0:
329,192,142442,1,0,0:0:0:0:
256,192,142550,1,0,0:0:0:70:snare22.wav
109,192,142659,128,0,142876:0:0:0:70:Kick 19.wav
182,192,142659,1,0,0:0:0:0:
36,192,142876,1,0,0:0:0:70:TMKD_SNARE.wav
256,192,142876,128,0,143094:0:0:0:0:
329,192,142876,1,0,0:0:0:0:
475,192,142876,1,0,0:0:0:0:
109,192,143094,1,0,0:0:0:70:Kick 19.wav
402,192,143094,128,0,143529:0:0:0:0:
256,192,143311,1,0,0:0:0:70:Kick 19.wav
329,192,143311,1,0,0:0:0:0:
182,192,143420,1,0,0:0:0:70:snare22.wav
109,192,143529,1,0,0:0:0:0:
256,192,143746,1,0,0:0:0:70:TMKD_SNARE.wav
329,192,143746,1,0,0:0:0:0:
402,192,143746,1,0,0:0:0:0:
475,192,143746,1,0,0:0:0:0:
36,192,143963,128,0,144398:0:0:0:70:Kick 19.wav
109,192,143963,1,0,0:0:0:0:
182,192,144181,1,0,0:0:0:0:
256,192,144289,1,0,0:0:0:70:snare22.wav
329,192,144398,128,0,144616:0:0:0:70:Kick 19.wav
402,192,144398,1,0,0:0:0:0:
475,192,144398,1,0,0:0:0:0:
36,192,144616,1,0,0:0:0:70:TMKD_SNARE.wav
109,192,144616,1,0,0:0:0:0:
182,192,144616,128,0,144833:0:0:0:0:
256,192,144616,1,0,0:0:0:0:
329,192,144724,1,0,0:0:0:0:
402,192,144833,1,0,0:0:0:0:
475,192,144833,128,0,145050:0:0:0:0:
36,192,144942,1,0,0:0:0:70:snare22.wav
109,192,145050,1,0,0:0:0:70:Kick 19.wav
329,192,145050,128,0,145268:0:0:0:0:
256,192,145268,128,0,145485:0:0:0:0:
475,192,145268,1,0,0:0:0:0:
402,192,145376,1,0,0:0:0:70:Kick 19.wav
36,192,145485,1,0,0:0:0:70:TMKD_SNARE.wav
109,192,145485,128,0,145702:0:0:0:0:
182,192,145485,1,0,0:0:0:0:
329,192,145485,1,0,0:0:0:0:
402,192,145702,1,0,0:0:0:70:Kick 19.wav
475,192,145702,128,0,146137:0:0:0:0:
36,192,145811,1,0,0:0:0:70:TMKD_SNARE.wav
109,192,145811,1,0,0:0:0:0:
182,192,145920,1,0,0:0:0:0:
329,192,146029,1,0,0:0:0:70:snare22.wav
402,192,146029,1,0,0:0:0:0:
109,192,146137,1,0,0:0:0:70:Kick 19.wav
182,192,146137,1,0,0:0:0:0:
256,192,146137,128,0,146355:0:0:0:0:
36,192,146355,1,0,0:0:0:70:TMKD_SNARE.wav
109,192,146355,1,0,0:0:0:0:
329,192,146355,1,0,0:0:0:0:
475,192,146355,1,0,0:0:0:0:
402,192,146572,128,0,146789:0:0:0:70:snare22.wav
475,192,146572,1,0,0:0:0:0:
36,192,146789,1,0,0:0:0:70:Kick 19.wav
109,192,146789,128,0,147224:0:0:0:70:Crash 1.wav
182,192,146789,1,0,0:0:0:0:
329,192,146789,1,0,0:0:0:0:
256,192,147224,1,0,0:0:0:70:TMKD_SNARE.wav
329,192,147224,1,0,0:0:0:0:
402,192,147224,1,0,0:0:0:0:
475,192,147224,128,0,147442:0:0:0:0:
36,192,147442,128,0,147876:0:0:0:70:Kick 19.wav
182,192,147442,1,0,0:0:0:0:
475,192,147659,1,0,0:0:0:0:
402,192,147768,1,0,0:0:0:70:snare22.wav
256,192,147876,1,0,0:0:0:70:Kick 19.wav
329,192,147876,128,0,148094:0:0:0:0:
36,192,148094,1,0,0:0:0:70:TMKD_SNARE.wav
109,192,148094,1,0,0:0:0:0:
182,192,148094,128,0,148311:0:0:0:0:
475,192,148094,1,0,0:0:0:0:
402,192,148202,1,0,0:0:0:0:
329,192,148311,128,0,148529:0:0:0:0:
256,192,148420,1,0,0:0:0:70:snare22.wav
36,192,148529,128,0,148746:0:0:0:70:Kick 19.wav
109,192,148529,1,0,0:0:0:0:
402,192,148746,1,0,0:0:0:0:
475,192,148746,128,0,148963:0:0:0:0:
329,192,148855,1,0,0:0:0:70:Kick 19.wav
36,192,148963,1,0,0:0:0:70:TMKD_SNARE.wav
109,192,148963,128,0,149181:0:0:0:0:
182,192,148963,1,0,0:0:0:0:
256,192,148963,1,0,0:0:0:0:
402,192,149181,128,0,149616:0:0:0:70:Kick 19.wav
475,192,149181,1,0,0:0:0:0:
36,192,149398,1,0,0:0:0:0:
109,192,149507,1,0,0:0:0:70:snare22.wav
256,192,149616,128,0,149833:0:0:0:70:Kick 19.wav
329,192,149616,1,0,0:0:0:0:
109,192,149833,1,0,0:0:0:70:TMKD_SNARE.wav
182,192,149833,1,0,0:0:0:0:
402,192,149833,1,0,0:0:0:0:
475,192,149833,1,0,0:0:0:0:
36,192,150050,128,0,151137:0:0:0:70:Kick 19.wav
329,192,150050,1,0,0:0:0:0:
402,192,150268,1,0,0:0:0:70:Kick 19.wav
475,192,150268,1,0,0:0:0:0:
329,192,150376,1,0,0:0:0:70:snare22.wav
182,192,150485,1,0,0:0:0:70:Kick 19.wav
256,192,150485,1,0,0:0:0:0:
109,192,150702,1,0,0:0:0:70:TMKD_SNARE.wav
402,192,150702,1,0,0:0:0:0:
475,192,150702,1,0,0:0:0:0:
182,192,150920,1,0,0:0:0:70:Kick 19.wav
256,192,150920,1,0,0:0:0:0:
402,192,151029,1,0,0:0:0:0:
329,192,151137,1,0,0:0:0:0:
182,192,151246,1,0,0:0:0:70:snare22.wav
256,192,151246,1,0,0:0:0:0:
36,192,151355,1,0,0:0:0:70:Kick 19.wav
109,192,151355,1,0,0:0:0:0:
475,192,151355,128,0,151572:0:0:0:0:
182,192,151572,1,0,0:0:0:70:TMKD_SNARE.wav
256,192,151572,128,0,151789:0:0:0:0:
329,192,151572,1,0,0:0:0:0:
402,192,151572,1,0,0:0:0:0:
36,192,151789,128,0,152224:0:0:0:70:Kick 19.wav
109,192,151789,1,0,0:0:0:70:Crash 1.wav
402,192,151789,1,0,0:0:0:0:
475,192,151789,1,0,0:0:0:0:
182,192,151898,1,0,0:0:0:70:snare22.wav
329,192,151898,1,0,0:0:0:0:
402,192,152224,1,0,0:0:0:70:Kick 19.wav
475,192,152224,1,0,0:0:0:0:
36,192,152442,1,0,0:0:0:70:TMKD_SNARE.wav
109,192,152442,1,0,0:0:0:70:Crash 1.wav
182,192,152442,1,0,0:0:0:0:
256,192,152442,1,0,0:0:0:0:
329,192,152659,1,0,0:0:0:70:Kick 19.wav
402,192,152659,1,0,0:0:0:0:
36,192,152768,1,0,0:0:0:70:TMKD_SNARE.wav
182,192,152768,1,0,0:0:0:0:
256,192,152876,1,0,0:0:0:0:
329,192,152985,1,0,0:0:0:70:snare22.wav
475,192,152985,1,0,0:0:0:0:
109,192,153094,1,0,0:0:0:70:TOM_1.wav
182,192,153094,1,0,0:0:0:0:
329,192,153311,1,0,0:0:0:70:TMKD_SNARE.wav
402,192,153311,1,0,0:0:0:0:
475,192,153311,1,0,0:0:0:0:
36,192,153420,1,0,0:0:0:70:snare22.wav
109,192,153420,1,0,0:0:0:0:
329,192,153529,1,0,0:0:0:70:TOM_1.wav
402,192,153529,1,0,0:0:0:0:
36,192,153637,1,0,0:0:0:70:TOM_2.wav
182,192,153637,1,0,0:0:0:0:
256,192,153746,128,0,154181:0:0:0:70:Kick 19.wav
329,192,153746,1,0,0:0:0:70:Crash 1.wav
402,192,153746,1,0,0:0:0:0:
475,192,153746,1,0,0:0:0:0:
182,192,154181,1,0,0:0:0:70:TMKD_SNARE.wav
329,192,154181,1,0,0:0:0:0:
402,192,154181,1,0,0:0:0:0:
475,192,154181,128,0,154398:0:0:0:0:
36,192,154398,128,0,154833:0:0:0:70:Kick 19.wav
109,192,154398,1,0,0:0:0:0:
475,192,154616,1,0,0:0:0:0:
329,192,154724,1,0,0:0:0:70:snare22.wav
402,192,154724,1,0,0:0:0:0:
256,192,154833,1,0,0:0:0:70:Kick 19.wav
36,192,155050,1,0,0:0:0:70:TMKD_SNARE.wav
182,192,155050,1,0,0:0:0:0:
402,192,155050,128,0,155268:0:0:0:0:
475,192,155050,1,0,0:0:0:0:
109,192,155268,128,0,155485:0:0:0:0:
329,192,155268,1,0,0:0:0:0:
182,192,155485,1,0,0:0:0:70:Kick 19.wav
256,192,155485,128,0,155702:0:0:0:0:
475,192,155702,128,0,156137:0:0:0:0:
36,192,155811,1,0,0:0:0:70:Kick 19.wav
402,192,155811,1,0,0:0:0:0:
109,192,155920,1,0,0:0:0:70:TMKD_SNARE.wav
182,192,155920,1,0,0:0:0:0:
329,192,155920,1,0,0:0:0:0:
36,192,156137,128,0,156572:0:0:0:70:Kick 19.wav
402,192,156137,1,0,0:0:0:0:
182,192,156355,1,0,0:0:0:0:
256,192,156463,1,0,0:0:0:70:snare22.wav
329,192,156572,1,0,0:0:0:70:Kick 19.wav
402,192,156572,128,0,156789:0:0:0:0:
36,192,156789,1,0,0:0:0:70:TMKD_SNARE.wav
182,192,156789,1,0,0:0:0:0:
256,192,156789,128,0,157007:0:0:0:0:
475,192,156789,1,0,0:0:0:0:
109,192,157007,128,0,157442:0:0:0:70:Kick 19.wav
402,192,157007,1,0,0:0:0:0:
182,192,157224,1,0,0:0:0:70:Kick 19.wav
256,192,157224,1,0,0:0:0:0:
329,192,157333,1,0,0:0:0:70:snare22.wav
402,192,157442,1,0,0:0:0:0:
36,192,157659,1,0,0:0:0:70:TMKD_SNARE.wav
109,192,157659,1,0,0:0:0:0:
182,192,157659,1,0,0:0:0:0:
256,192,157659,1,0,0:0:0:0:
402,192,157876,1,0,0:0:0:70:Kick 19.wav
475,192,157876,128,0,158311:0:0:0:0:
329,192,158094,1,0,0:0:0:0:
256,192,158202,1,0,0:0:0:70:snare22.wav
36,192,158311,1,0,0:0:0:70:Kick 19.wav
109,192,158311,1,0,0:0:0:0:
182,192,158311,128,0,158529:0:0:0:0:
256,192,158529,1,0,0:0:0:70:TMKD_SNARE.wav
329,192,158529,128,0,158746:0:0:0:0:
402,192,158529,1,0,0:0:0:0:
475,192,158529,1,0,0:0:0:0:
182,192,158637,1,0,0:0:0:0:
36,192,158746,128,0,158963:0:0:0:0:
109,192,158746,1,0,0:0:0:0:
475,192,158855,1,0,0:0:0:70:snare22.wav
182,192,158963,128,0,159181:0:0:0:70:Kick 19.wav
402,192,158963,1,0,0:0:0:0:
36,192,159181,1,0,0:0:0:0:
329,192,159181,128,0,159398:0:0:0:0:
109,192,159289,1,0,0:0:0:70:Kick 19.wav
182,192,159398,1,0,0:0:0:70:TMKD_SNARE.wav
256,192,159398,1,0,0:0:0:0:
402,192,159398,128,0,159616:0:0:0:0:
475,192,159398,1,0,0:0:0:0:
36,192,159616,128,0,160050:0:0:0:70:Kick 19.wav
109,192,159616,1,0,0:0:0:0:
329,192,159724,1,0,0:0:0:70:TMKD_SNARE.wav
475,192,159724,1,0,0:0:0:0:
256,192,159833,1,0,0:0:0:0:
109,192,159942,1,0,0:0:0:70:snare22.wav
182,192,159942,1,0,0:0:0:0:
256,192,160050,128,0,160268:0:0:0:70:Kick 19.wav
329,192,160050,1,0,0:0:0:0:
402,192,160050,1,0,0:0:0:0:
36,192,160268,1,0,0:0:0:70:TMKD_SNARE.wav
182,192,160268,1,0,0:0:0:0:
475,192,160268,1,0,0:0:0:0:
109,192,160485,128,0,160702:0:0:0:70:snare22.wav
329,192,160485,1,0,0:0:0:0:
182,192,160702,1,0,0:0:0:70:Kick 19.wav
256,192,160702,1,0,0:0:0:70:Crash 1.wav
402,192,160702,128,0,161137:0:0:0:0:
475,192,160702,1,0,0:0:0:0:
36,192,161137,128,0,161355:0:0:0:70:TMKD_SNARE.wav
109,192,161137,1,0,0:0:0:0:
182,192,161137,1,0,0:0:0:0:
256,192,161137,1,0,0:0:0:0:
329,192,161355,1,0,0:0:0:70:Kick 19.wav
475,192,161355,128,0,161789:0:0:0:0:
256,192,161572,1,0,0:0:0:0:
182,192,161681,1,0,0:0:0:70:snare22.wav
36,192,161789,128,0,162224:0:0:0:70:Kick 19.wav
109,192,161789,1,0,0:0:0:0:
402,192,162007,1,0,0:0:0:70:TMKD_SNARE.wav
475,192,162007,1,0,0:0:0:0:
329,192,162116,1,0,0:0:0:0:
182,192,162224,128,0,162659:0:0:0:0:
256,192,162224,1,0,0:0:0:0:
109,192,162333,1,0,0:0:0:70:snare22.wav
36,192,162442,1,0,0:0:0:70:Kick 19.wav
475,192,162442,1,0,0:0:0:0:
402,192,162659,128,0,163094:0:0:0:0:
329,192,162768,1,0,0:0:0:70:Kick 19.wav
36,192,162876,1,0,0:0:0:70:TMKD_SNARE.wav
109,192,162876,1,0,0:0:0:0:
182,192,162876,1,0,0:0:0:0:
329,192,163094,1,0,0:0:0:70:Kick 19.wav
475,192,163094,128,0,163529:0:0:0:0:
36,192,163311,1,0,0:0:0:0:
109,192,163420,1,0,0:0:0:70:snare22.wav
182,192,163420,1,0,0:0:0:0:
256,192,163529,128,0,163963:0:0:0:70:Kick 19.wav
329,192,163529,1,0,0:0:0:0:
402,192,163529,1,0,0:0:0:0:
36,192,163746,1,0,0:0:0:70:TMKD_SNARE.wav
109,192,163746,1,0,0:0:0:0:
475,192,163746,1,0,0:0:0:0:
329,192,163963,1,0,0:0:0:70:Kick 19.wav
402,192,163963,1,0,0:0:0:0:
36,192,164181,128,0,165485:0:0:0:70:Kick 19.wav
109,192,164181,1,0,0:0:0:0:
182,192,164289,1,0,0:0:0:70:snare22.wav
256,192,164398,1,0,0:0:0:70:Kick 19.wav
329,192,164398,1,0,0:0:0:0:
109,192,164616,1,0,0:0:0:70:TMKD_SNARE.wav
182,192,164616,1,0,0:0:0:0:
475,192,164616,1,0,0:0:0:0:
329,192,164833,1,0,0:0:0:70:Kick 19.wav
402,192,164833,1,0,0:0:0:0:
109,192,164942,1,0,0:0:0:0:
182,192,165050,1,0,0:0:0:70:Kick 19.wav
256,192,165159,1,0,0:0:0:70:snare22.wav
329,192,165159,1,0,0:0:0:0:
402,192,165268,1,0,0:0:0:70:Kick 19.wav
475,192,165268,1,0,0:0:0:0:
109,192,165376,1,0,0:0:0:0:
182,192,165485,1,0,0:0:0:70:TMKD_SNARE.wav
256,192,165485,128,0,165702:0:0:0:0:
329,192,165485,1,0,0:0:0:0:
402,192,165485,1,0,0:0:0:0:
36,192,165702,1,0,0:0:0:70:Kick 19.wav
109,192,165702,1,0,0:0:0:70:Crash 1.wav
182,192,165702,1,0,0:0:0:0:
475,192,165702,128,0,166137:0:0:0:0:
329,192,165811,1,0,0:0:0:70:snare22.wav
402,192,165920,1,0,0:0:0:0:
36,192,166137,1,0,0:0:0:70:Kick 19.wav
109,192,166137,1,0,0:0:0:0:
182,192,166137,1,0,0:0:0:0:
256,192,166137,1,0,0:0:0:0:
36,192,166355,1,0,0:0:0:70:TMKD_SNARE.wav
109,192,166355,1,0,0:0:0:70:Crash 1.wav
182,192,166355,1,0,0:0:0:0:
256,192,166355,1,0,0:0:0:0:
329,192,166572,1,0,0:0:0:70:Kick 19.wav
402,192,166572,1,0,0:0:0:0:
475,192,166572,1,0,0:0:0:0:
36,192,166789,1,0,0:0:0:70:TMKD_SNARE.wav
109,192,166789,1,0,0:0:0:0:
182,192,166789,1,0,0:0:0:0:
256,192,166898,1,0,0:0:0:70:snare22.wav
329,192,167007,1,0,0:0:0:70:TOM_1.wav
475,192,167007,1,0,0:0:0:0:
36,192,167224,1,0,0:0:0:70:TMKD_SNARE.wav
109,192,167224,1,0,0:0:0:0:
182,192,167224,1,0,0:0:0:0:
256,192,167333,1,0,0:0:0:70:snare22.wav
329,192,167442,1,0,0:0:0:70:TOM_1.wav
402,192,167442,1,0,0:0:0:0:
36,192,167659,1,0,0:0:0:70:Kick 19.wav
109,192,167659,1,0,0:0:0:70:Crash 1.wav
182,192,167659,1,0,0:0:0:0:
256,192,167659,1,0,0:0:0:0:
402,192,168094,1,0,0:0:0:70:Kick 19.wav
475,192,168094,1,0,0:0:0:0:
256,192,168311,1,0,0:0:0:0:
36,192,168529,1,0,0:0:0:70:Kick 19.wav
109,192,168529,1,0,0:0:0:0:
329,192,168746,128,0,168963:0:0:0:0:
182,192,168963,1,0,0:0:0:70:Kick 19.wav
402,192,168963,128,0,169181:0:0:0:0:
256,192,169181,128,0,169398:0:0:0:0:
109,192,169398,1,0,0:0:0:70:Kick 19.wav
329,192,169398,128,0,169616:0:0:0:0:
182,192,169616,128,0,169833:0:0:0:0:
256,192,169833,128,0,170050:0:0:0:70:Kick 19.wav
475,192,169833,1,0,0:0:0:0:
109,192,170050,128,0,170268:0:0:0:0:
182,192,170268,128,0,170485:0:0:0:70:Kick 19.wav
329,192,170268,1,0,0:0:0:0:
475,192,170485,128,0,170702:0:0:0:0:
36,192,170702,1,0,0:0:0:70:Kick 19.wav
402,192,170702,1,0,0:0:0:0:
109,192,170811,1,0,0:0:0:0:
182,192,170920,128,0,171137:0:0:0:0:
36,192,171137,1,0,0:0:0:70:Kick 19.wav
256,192,171137,1,0,0:0:0:70:Crash 1.wav
329,192,171137,128,0,171572:0:0:0:0:
475,192,171137,1,0,0:0:0:0:
109,192,171355,1,0,0:0:0:0:
182,192,171572,1,0,0:0:0:70:Kick 19.wav
402,192,171572,1,0,0:0:0:0:
256,192,171789,128,0,172007:0:0:0:0:
36,192,172007,1,0,0:0:0:70:Kick 19.wav
109,192,172007,128,0,172442:0:0:0:0:
329,192,172224,1,0,0:0:0:0:
402,192,172442,128,0,172659:0:0:0:70:Kick 19.wav
475,192,172442,1,0,0:0:0:0:
256,192,172659,128,0,173094:0:0:0:0:
109,192,172876,1,0,0:0:0:70:Kick 19.wav
475,192,172876,1,0,0:0:0:0:
182,192,173094,1,0,0:0:0:0:
329,192,173094,128,0,173529:0:0:0:0:
402,192,173311,1,0,0:0:0:70:Kick 19.wav
475,192,173311,1,0,0:0:0:0:
36,192,173529,1,0,0:0:0:0:
256,192,173529,1,0,0:0:0:0:
109,192,173637,1,0,0:0:0:0:
182,192,173746,1,0,0:0:0:70:Kick 19.wav
329,192,173746,1,0,0:0:0:0:
256,192,173963,1,0,0:0:0:0:
475,192,173963,1,0,0:0:0:0:
402,192,174072,1,0,0:0:0:0:
182,192,174181,1,0,0:0:0:70:Kick 19.wav
329,192,174181,1,0,0:0:0:0:
109,192,174398,1,0,0:0:0:0:
36,192,174616,128,0,175050:0:0:0:70:Kick 19.wav
256,192,174616,1,0,0:0:0:70:Crash 1.wav
329,192,174616,1,0,0:0:0:0:
475,192,174616,1,0,0:0:0:0:
182,192,174833,1,0,0:0:0:0:
329,192,175050,1,0,0:0:0:70:Kick 19.wav
402,192,175050,128,0,175268:0:0:0:0:
182,192,175268,128,0,175702:0:0:0:0:
256,192,175485,1,0,0:0:0:70:Kick 19.wav
475,192,175485,1,0,0:0:0:0:
329,192,175702,128,0,176137:0:0:0:0:
36,192,175920,1,0,0:0:0:70:Kick 19.wav
182,192,175920,1,0,0:0:0:0:
475,192,176137,128,0,176572:0:0:0:0:
256,192,176355,1,0,0:0:0:70:Kick 19.wav
402,192,176355,1,0,0:0:0:0:
109,192,176572,128,0,176789:0:0:0:0:
256,192,176789,128,0,177224:0:0:0:70:Kick 19.wav
329,192,176789,1,0,0:0:0:0:
182,192,177007,1,0,0:0:0:0:
109,192,177224,1,0,0:0:0:70:Kick 19.wav
402,192,177224,1,0,0:0:0:0:
329,192,177442,128,0,177659:0:0:0:0:
36,192,177659,128,0,177876:0:0:0:70:Kick 19.wav
182,192,177659,1,0,0:0:0:0:
109,192,177876,128,0,178094:0:0:0:0:
256,192,178094,1,0,0:0:0:70:Kick 19.wav
329,192,178094,1,0,0:0:0:70:Crash 1.wav
402,192,178094,128,0,178529:0:0:0:0:
475,192,178094,1,0,0:0:0:0:
182,192,178311,1,0,0:0:0:0:
109,192,178529,1,0,0:0:0:70:Kick 19.wav
329,192,178529,128,0,178746:0:0:0:0:
256,192,178746,128,0,179181:0:0:0:0:
182,192,178963,1,0,0:0:0:70:Kick 19.wav
475,192,178963,1,0,0:0:0:0:
36,192,179181,128,0,179616:0:0:0:0:
329,192,179398,1,0,0:0:0:70:Kick 19.wav
402,192,179398,1,0,0:0:0:0:
182,192,179616,128,0,180050:0:0:0:0:
256,192,179724,1,0,0:0:0:0:
109,192,179833,1,0,0:0:0:70:Kick 19.wav
402,192,179833,1,0,0:0:0:0:
36,192,180050,1,0,0:0:0:70:snare22.wav
329,192,180050,128,0,180485:0:0:0:0:
475,192,180050,1,0,0:0:0:0:
182,192,180268,1,0,0:0:0:70:Kick 19.wav
256,192,180268,1,0,0:0:0:0:
36,192,180485,1,0,0:0:0:70:TOM_1.wav
402,192,180485,1,0,0:0:0:0:
256,192,180702,128,0,180920:0:0:0:70:Kick 19.wav
329,192,180702,1,0,0:0:0:0:
36,192,180920,1,0,0:0:0:70:TMKD_SNARE.wav
109,192,180920,1,0,0:0:0:0:
182,192,180920,1,0,0:0:0:0:
475,192,180920,1,0,0:0:0:0:
256,192,181137,1,0,0:0:0:70:Kick 19.wav
329,192,181137,1,0,0:0:0:70:Splash.wav
402,192,181137,1,0,0:0:0:0:
109,192,181355,1,0,0:0:0:70:TOM_2.wav
182,192,181355,1,0,0:0:0:0:
402,192,181355,1,0,0:0:0:0:
36,192,181572,128,0,181898:0:0:0:70:Kick 19.wav
182,192,181572,128,0,181898:0:0:0:70:Crash 1.wav
256,192,181572,128,0,181898:0:0:0:0:
329,192,181572,128,0,181898:0:0:0:0:
475,192,181572,128,0,181898:0:0:0:0:
36,192,182007,1,0,0:0:0:70:TMKD_SNARE.wav
182,192,182007,1,0,0:0:0:0:
329,192,182007,1,0,0:0:0:0:
475,192,182007,1,0,0:0:0:0:
256,192,182224,128,0,182442:0:0:0:70:Kick 19.wav
402,192,182224,1,0,0:0:0:0:
109,192,182442,128,0,182876:0:0:0:0:
329,192,182550,1,0,0:0:0:70:snare22.wav
182,192,182659,1,0,0:0:0:70:Kick 19.wav
475,192,182659,1,0,0:0:0:0:
402,192,182876,128,0,183094:0:0:0:0:
36,192,183094,1,0,0:0:0:70:Kick 19.wav
256,192,183094,128,0,183529:0:0:0:0:
329,192,183202,1,0,0:0:0:70:snare22.wav
182,192,183311,1,0,0:0:0:0:
36,192,183529,128,0,183963:0:0:0:70:Kick 19.wav
402,192,183529,1,0,0:0:0:0:
109,192,183746,1,0,0:0:0:70:TMKD_SNARE.wav
329,192,183746,1,0,0:0:0:0:
475,192,183746,1,0,0:0:0:0:
256,192,183963,1,0,0:0:0:70:Kick 19.wav
402,192,183963,128,0,184398:0:0:0:0:
109,192,184181,1,0,0:0:0:0:
182,192,184289,1,0,0:0:0:70:snare22.wav
36,192,184398,128,0,184616:0:0:0:70:Kick 19.wav
329,192,184398,1,0,0:0:0:0:
109,192,184616,1,0,0:0:0:70:TMKD_SNARE.wav
256,192,184616,128,0,184833:0:0:0:0:
402,192,184616,1,0,0:0:0:0:
475,192,184616,1,0,0:0:0:0:
182,192,184833,128,0,185050:0:0:0:70:Kick 19.wav
329,192,184833,1,0,0:0:0:0:
36,192,185050,1,0,0:0:0:70:Kick 19.wav
256,192,185050,1,0,0:0:0:70:Crash 1.wav
402,192,185050,1,0,0:0:0:0:
475,192,185050,128,0,185485:0:0:0:0:
109,192,185268,1,0,0:0:0:0:
182,192,185485,1,0,0:0:0:70:TMKD_SNARE.wav
256,192,185485,1,0,0:0:0:0:
329,192,185485,1,0,0:0:0:0:
402,192,185485,1,0,0:0:0:0:
36,192,185702,1,0,0:0:0:70:Kick 19.wav
109,192,185702,1,0,0:0:0:0:
256,192,185920,1,0,0:0:0:0:
402,192,185920,128,0,186137:0:0:0:0:
329,192,186029,1,0,0:0:0:70:snare22.wav
109,192,186137,1,0,0:0:0:70:Kick 19.wav
182,192,186137,128,0,186355:0:0:0:0:
329,192,186355,128,0,186572:0:0:0:0:
475,192,186355,1,0,0:0:0:0:
36,192,186572,128,0,186789:0:0:0:70:Kick 19.wav
182,192,186572,1,0,0:0:0:0:
256,192,186789,1,0,0:0:0:0:
475,192,186789,128,0,187224:0:0:0:0:
109,192,187007,1,0,0:0:0:70:Kick 19.wav
402,192,187007,128,0,187224:0:0:0:0:
36,192,187224,1,0,0:0:0:70:TMKD_SNARE.wav
182,192,187224,1,0,0:0:0:0:
256,192,187224,128,0,187442:0:0:0:0:
329,192,187224,1,0,0:0:0:0:
109,192,187442,128,0,187876:0:0:0:70:Kick 19.wav
402,192,187442,1,0,0:0:0:70:Splash.wav
475,192,187442,1,0,0:0:0:0:
329,192,187659,1,0,0:0:0:0:
256,192,187768,1,0,0:0:0:70:snare22.wav
182,192,187876,1,0,0:0:0:70:Kick 19.wav
402,192,187876,128,0,188094:0:0:0:0:
36,192,188094,1,0,0:0:0:70:TMKD_SNARE.wav
109,192,188094,1,0,0:0:0:0:
256,192,188094,1,0,0:0:0:0:
475,192,188094,1,0,0:0:0:0:
182,192,188311,1,0,0:0:0:70:Kick 19.wav
329,192,188311,1,0,0:0:0:0:
36,192,188529,1,0,0:0:0:70:Kick 19.wav
256,192,188529,128,0,188963:0:0:0:70:Crash 1.wav
402,192,188529,1,0,0:0:0:0:
475,192,188529,1,0,0:0:0:0:
36,192,188963,1,0,0:0:0:70:TMKD_SNARE.wav
182,192,188963,1,0,0:0:0:0:
329,192,188963,1,0,0:0:0:0:
475,192,188963,1,0,0:0:0:0:
109,192,189181,128,0,189616:0:0:0:70:Kick 19.wav
256,192,189181,1,0,0:0:0:0:
475,192,189398,1,0,0:0:0:0:
329,192,189507,1,0,0:0:0:70:snare22.wav
256,192,189616,1,0,0:0:0:70:Kick 19.wav
402,192,189616,1,0,0:0:0:0:
36,192,189833,1,0,0:0:0:70:TMKD_SNARE.wav
182,192,189833,1,0,0:0:0:0:
329,192,189833,1,0,0:0:0:0:
475,192,189833,1,0,0:0:0:0:
109,192,190050,1,0,0:0:0:70:Kick 19.wav
256,192,190050,128,0,190485:0:0:0:70:Crash 1.wav
402,192,190050,1,0,0:0:0:0:
329,192,190268,1,0,0:0:0:0:
182,192,190376,1,0,0:0:0:70:snare22.wav
36,192,190485,1,0,0:0:0:70:Kick 19.wav
475,192,190485,1,0,0:0:0:0:
109,192,190702,1,0,0:0:0:70:TMKD_SNARE.wav
182,192,190702,1,0,0:0:0:0:
329,192,190702,1,0,0:0:0:0:
402,192,190702,1,0,0:0:0:0:
256,192,190920,1,0,0:0:0:70:Kick 19.wav
475,192,190920,1,0,0:0:0:0:
36,192,191137,1,0,0:0:0:0:
329,192,191137,128,0,191355:0:0:0:0:
109,192,191246,1,0,0:0:0:70:snare22.wav
182,192,191355,128,0,191572:0:0:0:70:Kick 19.wav
402,192,191355,1,0,0:0:0:0:
36,192,191572,1,0,0:0:0:70:TMKD_SNARE.wav
256,192,191572,128,0,191789:0:0:0:0:
329,192,191572,1,0,0:0:0:0:
475,192,191572,1,0,0:0:0:0:
109,192,191789,1,0,0:0:0:70:Kick 19.wav
182,192,191789,1,0,0:0:0:70:Crash 1.wav
402,192,191789,128,0,192876:0:0:0:0:
475,192,191789,1,0,0:0:0:0:
36,192,192007,1,0,0:0:0:0:
182,192,192116,1,0,0:0:0:70:snare22.wav
256,192,192224,1,0,0:0:0:70:Kick 19.wav
329,192,192224,1,0,0:0:0:0:
36,192,192442,1,0,0:0:0:70:TMKD_SNARE.wav
109,192,192442,1,0,0:0:0:70:Crash 1.wav
475,192,192442,1,0,0:0:0:0:
182,192,192659,1,0,0:0:0:70:Kick 19.wav
329,192,192659,1,0,0:0:0:0:
109,192,192876,1,0,0:0:0:0:
182,192,192985,1,0,0:0:0:70:snare22.wav
256,192,193094,1,0,0:0:0:70:Kick 19.wav
329,192,193094,1,0,0:0:0:0:
36,192,193311,1,0,0:0:0:70:TMKD_SNARE.wav
109,192,193311,128,0,193529:0:0:0:0:
402,192,193311,1,0,0:0:0:0:
475,192,193311,1,0,0:0:0:0:
182,192,193529,1,0,0:0:0:70:Kick 19.wav
256,192,193529,128,0,193746:0:0:0:70:Splash.wav
329,192,193529,1,0,0:0:0:0:
402,192,193746,128,0,194398:0:0:0:0:
109,192,193963,1,0,0:0:0:70:Kick 19.wav
329,192,193963,1,0,0:0:0:0:
36,192,194181,1,0,0:0:0:70:TMKD_SNARE.wav
182,192,194181,1,0,0:0:0:70:Crash 1.wav
475,192,194181,1,0,0:0:0:0:
109,192,194398,1,0,0:0:0:70:Kick 19.wav
329,192,194398,1,0,0:0:0:0:
36,192,194616,1,0,0:0:0:70:TMKD_SNARE.wav
256,192,194616,1,0,0:0:0:0:
402,192,194616,1,0,0:0:0:0:
475,192,194616,1,0,0:0:0:0:
109,192,194833,1,0,0:0:0:70:TOM_1.wav
329,192,194833,1,0,0:0:0:0:
182,192,194942,1,0,0:0:0:70:TOM_2.wav
36,192,195050,1,0,0:0:0:70:TOM_3.wav
256,192,195050,1,0,0:0:0:0:
475,192,195050,1,0,0:0:0:0:
402,192,195159,1,0,0:0:0:70:snare22.wav
109,192,195268,1,0,0:0:0:70:TOM_1.wav
329,192,195268,1,0,0:0:0:0:
182,192,195376,1,0,0:0:0:70:TOM_2.wav
36,192,195485,128,0,197550:0:0:0:70:Kick 19.wav
109,192,195485,1,0,0:0:0:70:Crash 1.wav
256,192,195485,1,0,0:0:0:0:
402,192,195485,1,0,0:0:0:0:
475,192,195485,1,0,0:0:0:0:
182,192,195920,1,0,0:0:0:70:TMKD_SNARE.wav
256,192,195920,1,0,0:0:0:0:
329,192,195920,1,0,0:0:0:0:
109,192,196137,1,0,0:0:0:70:Kick 19.wav
402,192,196137,1,0,0:0:0:0:
182,192,196355,1,0,0:0:0:0:
256,192,196463,1,0,0:0:0:70:snare22.wav
329,192,196572,1,0,0:0:0:70:Kick 19.wav
402,192,196572,1,0,0:0:0:0:
109,192,196789,1,0,0:0:0:70:TMKD_SNARE.wav
182,192,196789,1,0,0:0:0:0:
475,192,196789,1,0,0:0:0:0:
256,192,197007,1,0,0:0:0:0:
182,192,197224,1,0,0:0:0:70:Kick 19.wav
475,192,197224,1,0,0:0:0:0:
402,192,197442,1,0,0:0:0:0:
256,192,197550,1,0,0:0:0:70:Kick 19.wav
329,192,197550,1,0,0:0:0:0:
109,192,197659,1,0,0:0:0:70:TMKD_SNARE.wav
182,192,197659,128,0,197876:0:0:0:0:
402,192,197659,1,0,0:0:0:0:
475,192,197659,1,0,0:0:0:0:
36,192,197876,1,0,0:0:0:70:Kick 19.wav
256,192,197876,1,0,0:0:0:0:
329,192,197876,128,0,198094:0:0:0:0:
182,192,198094,128,0,198311:0:0:0:0:
329,192,198202,1,0,0:0:0:70:snare22.wav
109,192,198311,1,0,0:0:0:70:Kick 19.wav
402,192,198311,128,0,198529:0:0:0:0:
36,192,198529,1,0,0:0:0:70:TMKD_SNARE.wav
182,192,198529,1,0,0:0:0:0:
256,192,198529,128,0,198746:0:0:0:0:
475,192,198529,1,0,0:0:0:0:
329,192,198746,128,0,200268:0:0:0:70:Kick 19.wav
402,192,198746,1,0,0:0:0:0:
109,192,198963,1,0,0:0:0:70:Kick 19.wav
182,192,198963,1,0,0:0:0:0:
256,192,199072,1,0,0:0:0:70:snare22.wav
475,192,199181,1,0,0:0:0:0:
402,192,199289,1,0,0:0:0:0:
36,192,199398,1,0,0:0:0:70:TMKD_SNARE.wav
109,192,199398,1,0,0:0:0:0:
182,192,199398,1,0,0:0:0:0:
402,192,199616,1,0,0:0:0:70:Kick 19.wav
475,192,199616,1,0,0:0:0:0:
36,192,199833,1,0,0:0:0:0:
109,192,199942,1,0,0:0:0:70:snare22.wav
182,192,200050,1,0,0:0:0:70:Kick 19.wav
475,192,200050,1,0,0:0:0:0:
36,192,200268,128,0,200702:0:0:0:70:TMKD_SNARE.wav
109,192,200268,1,0,0:0:0:0:
256,192,200268,1,0,0:0:0:0:
402,192,200268,1,0,0:0:0:0:
182,192,200376,1,0,0:0:0:70:Kick 19.wav
475,192,200376,1,0,0:0:0:0:
329,192,200485,1,0,0:0:0:0:
182,192,200702,128,0,200920:0:0:0:70:Kick 19.wav
256,192,200702,1,0,0:0:0:0:
402,192,200920,128,0,201137:0:0:0:0:
329,192,201029,1,0,0:0:0:70:Kick 19.wav
36,192,201137,1,0,0:0:0:70:TMKD_SNARE.wav
109,192,201137,128,0,201355:0:0:0:0:
256,192,201137,1,0,0:0:0:0:
475,192,201137,1,0,0:0:0:0:
329,192,201355,128,0,201572:0:0:0:70:Kick 19.wav
402,192,201355,1,0,0:0:0:0:
182,192,201463,1,0,0:0:0:70:snare22.wav
256,192,201572,128,0,201789:0:0:0:0:
475,192,201681,1,0,0:0:0:70:snare22.wav
36,192,201789,128,0,202224:0:0:0:70:Kick 19.wav
402,192,201789,1,0,0:0:0:0:
109,192,202007,1,0,0:0:0:70:TMKD_SNARE.wav
182,192,202007,1,0,0:0:0:0:
329,192,202007,1,0,0:0:0:0:
256,192,202224,1,0,0:0:0:70:Kick 19.wav
402,192,202224,128,0,202442:0:0:0:0:
36,192,202442,1,0,0:0:0:70:Kick 19.wav
182,192,202442,128,0,202659:0:0:0:70:Crash 1.wav
329,192,202442,1,0,0:0:0:0:
475,192,202442,1,0,0:0:0:0:
256,192,202659,128,0,202876:0:0:0:0:
36,192,202876,1,0,0:0:0:70:TMKD_SNARE.wav
109,192,202876,1,0,0:0:0:0:
329,192,202876,128,0,203094:0:0:0:0:
402,192,202876,1,0,0:0:0:0:
182,192,203094,128,0,203529:0:0:0:70:Kick 19.wav
475,192,203094,1,0,0:0:0:0:
329,192,203311,1,0,0:0:0:0:
256,192,203420,1,0,0:0:0:70:snare22.wav
109,192,203529,1,0,0:0:0:70:Kick 19.wav
402,192,203529,128,0,203746:0:0:0:0:
36,192,203746,128,0,203963:0:0:0:70:TMKD_SNARE.wav
182,192,203746,1,0,0:0:0:0:
329,192,203746,1,0,0:0:0:0:
475,192,203746,1,0,0:0:0:0:
256,192,203963,128,0,204398:0:0:0:0:
109,192,204181,1,0,0:0:0:70:Kick 19.wav
402,192,204181,1,0,0:0:0:0:
475,192,204398,128,0,204616:0:0:0:0:
329,192,204507,1,0,0:0:0:70:Kick 19.wav
36,192,204616,1,0,0:0:0:70:TMKD_SNARE.wav
109,192,204616,128,0,204833:0:0:0:0:
182,192,204616,1,0,0:0:0:0:
402,192,204616,1,0,0:0:0:0:
256,192,204833,1,0,0:0:0:70:Kick 19.wav
329,192,204833,128,0,205050:0:0:0:0:
109,192,205050,1,0,0:0:0:0:
182,192,205159,1,0,0:0:0:70:snare22.wav
256,192,205268,1,0,0:0:0:70:Kick 19.wav
402,192,205268,128,0,205485:0:0:0:0:
36,192,205485,1,0,0:0:0:70:TMKD_SNARE.wav
182,192,205485,128,0,205702:0:0:0:0:
329,192,205485,1,0,0:0:0:0:
475,192,205485,1,0,0:0:0:0:
256,192,205702,128,0,205920:0:0:0:70:Kick 19.wav
402,192,205702,1,0,0:0:0:0:
109,192,205920,1,0,0:0:0:70:Kick 19.wav
475,192,205920,128,0,206355:0:0:0:0:
36,192,206137,1,0,0:0:0:70:Kick 19.wav
329,192,206137,1,0,0:0:0:0:
109,192,206355,128,0,206572:0:0:0:70:TMKD_SNARE.wav
182,192,206355,1,0,0:0:0:0:
256,192,206355,1,0,0:0:0:0:
402,192,206355,1,0,0:0:0:0:
36,192,206572,1,0,0:0:0:70:Kick 19.wav
329,192,206572,128,0,207007:0:0:0:0:
182,192,206789,1,0,0:0:0:0:
256,192,206898,1,0,0:0:0:70:snare22.wav
402,192,207007,128,0,207224:0:0:0:70:Kick 19.wav
475,192,207007,1,0,0:0:0:0:
36,192,207224,1,0,0:0:0:70:TMKD_SNARE.wav
109,192,207224,1,0,0:0:0:0:
182,192,207224,128,0,207659:0:0:0:0:
256,192,207224,1,0,0:0:0:0:
109,192,207442,1,0,0:0:0:70:Kick 19.wav
329,192,207442,1,0,0:0:0:70:Splash.wav
475,192,207442,1,0,0:0:0:0:
256,192,207659,128,0,207876:0:0:0:0:
36,192,207876,128,0,208311:0:0:0:70:Kick 19.wav
475,192,207876,1,0,0:0:0:0:
182,192,208094,1,0,0:0:0:70:TMKD_SNARE.wav
329,192,208094,1,0,0:0:0:70:Splash.wav
402,192,208094,1,0,0:0:0:0:
109,192,208311,1,0,0:0:0:0:
475,192,208311,1,0,0:0:0:0:
182,192,208420,1,0,0:0:0:70:TMKD_SNARE.wav
402,192,208420,1,0,0:0:0:0:
256,192,208529,1,0,0:0:0:0:
329,192,208529,128,0,208746:0:0:0:0:
36,192,208637,1,0,0:0:0:70:snare22.wav
109,192,208637,1,0,0:0:0:0:
182,192,208746,128,0,208963:0:0:0:70:TOM_1.wav
475,192,208746,1,0,0:0:0:0:
36,192,208963,1,0,0:0:0:70:TMKD_SNARE.wav
256,192,208963,1,0,0:0:0:0:
329,192,208963,1,0,0:0:0:0:
402,192,208963,1,0,0:0:0:0:
109,192,209072,1,0,0:0:0:70:TMKD_SNARE.wav
475,192,209072,1,0,0:0:0:0:
182,192,209181,1,0,0:0:0:70:TOM_1.wav
402,192,209181,1,0,0:0:0:0:
256,192,209289,1,0,0:0:0:70:TOM_2.wav
329,192,209289,1,0,0:0:0:0:
36,192,209398,1,0,0:0:0:70:Kick 19.wav
109,192,209398,1,0,0:0:0:70:Crash 1.wav
182,192,209398,1,0,0:0:0:0:
475,192,209398,128,0,209833:0:0:0:0:
402,192,209507,128,0,209833:0:0:0:0:
329,192,209616,128,0,209833:0:0:0:0:
36,192,209833,1,0,0:0:0:70:TMKD_SNARE.wav
109,192,209833,128,0,210050:0:0:0:0:
182,192,209833,1,0,0:0:0:0:
256,192,209833,1,0,0:0:0:0:
256,192,210050,128,0,210485:0:0:0:70:Kick 19.wav
402,192,210050,1,0,0:0:0:0:
329,192,210268,1,0,0:0:0:0:
182,192,210376,1,0,0:0:0:70:snare22.wav
36,192,210485,1,0,0:0:0:70:Kick 19.wav
475,192,210485,128,0,210702:0:0:0:0:
109,192,210702,1,0,0:0:0:70:TMKD_SNARE.wav
256,192,210702,1,0,0:0:0:0:
329,192,210702,128,0,210920:0:0:0:0:
402,192,210702,1,0,0:0:0:0:
182,192,210920,128,0,211355:0:0:0:0:
36,192,211137,1,0,0:0:0:70:Kick 19.wav
402,192,211137,1,0,0:0:0:0:
329,192,211355,128,0,211572:0:0:0:0:
256,192,211463,1,0,0:0:0:70:Kick 19.wav
36,192,211572,1,0,0:0:0:70:TMKD_SNARE.wav
109,192,211572,128,0,211789:0:0:0:0:
182,192,211572,1,0,0:0:0:0:
475,192,211572,1,0,0:0:0:0:
329,192,211789,1,0,0:0:0:70:Kick 19.wav
402,192,211789,128,0,212007:0:0:0:0:
256,192,212007,1,0,0:0:0:70:snare22.wav
182,192,212116,1,0,0:0:0:70:snare22.wav
36,192,212224,128,0,212442:0:0:0:70:Kick 19.wav
109,192,212224,1,0,0:0:0:0:
182,192,212442,1,0,0:0:0:70:TMKD_SNARE.wav
256,192,212442,128,0,212659:0:0:0:0:
329,192,212442,1,0,0:0:0:0:
402,192,212442,1,0,0:0:0:0:
36,192,212659,1,0,0:0:0:70:Kick 19.wav
475,192,212659,128,0,212876:0:0:0:0:
109,192,212876,128,0,213094:0:0:0:70:Kick 19.wav
329,192,212876,1,0,0:0:0:0:
402,192,212985,1,0,0:0:0:70:snare22.wav
256,192,213094,128,0,213311:0:0:0:0:
109,192,213311,1,0,0:0:0:70:TMKD_SNARE.wav
182,192,213311,1,0,0:0:0:0:
329,192,213311,1,0,0:0:0:0:
475,192,213311,128,0,213529:0:0:0:0:
36,192,213529,128,0,213963:0:0:0:70:Kick 19.wav
402,192,213529,1,0,0:0:0:0:
256,192,213746,1,0,0:0:0:0:
329,192,213855,1,0,0:0:0:70:snare22.wav
182,192,213963,1,0,0:0:0:70:Kick 19.wav
402,192,213963,128,0,214181:0:0:0:0:
36,192,214181,1,0,0:0:0:70:TMKD_SNARE.wav
109,192,214181,1,0,0:0:0:0:
256,192,214181,1,0,0:0:0:0:
475,192,214181,1,0,0:0:0:0:
182,192,214398,128,0,214833:0:0:0:0:
329,192,214398,1,0,0:0:0:0:
402,192,214507,1,0,0:0:0:70:snare22.wav
109,192,214616,1,0,0:0:0:70:Kick 19.wav
475,192,214616,1,0,0:0:0:0:
329,192,214833,128,0,215268:0:0:0:0:
256,192,214942,1,0,0:0:0:70:Kick 19.wav
36,192,215050,1,0,0:0:0:70:TMKD_SNARE.wav
109,192,215050,1,0,0:0:0:0:
475,192,215050,1,0,0:0:0:0:
182,192,215268,1,0,0:0:0:70:Kick 19.wav
256,192,215268,128,0,215702:0:0:0:0:
402,192,215376,1,0,0:0:0:70:TMKD_SNARE.wav
109,192,215485,1,0,0:0:0:70:TMKD_SNARE.wav
329,192,215594,1,0,0:0:0:70:snare22.wav
36,192,215702,128,0,215920:0:0:0:70:Kick 19.wav
475,192,215702,1,0,0:0:0:0:
109,192,215920,1,0,0:0:0:70:TMKD_SNARE.wav
182,192,215920,128,0,216137:0:0:0:0:
256,192,215920,1,0,0:0:0:0:
402,192,215920,1,0,0:0:0:0:
329,192,216137,128,0,216355:0:0:0:70:Kick 19.wav
475,192,216137,1,0,0:0:0:0:
36,192,216355,1,0,0:0:0:70:Kick 19.wav
109,192,216355,128,0,216789:0:0:0:70:Crash 1.wav
256,192,216355,1,0,0:0:0:0:
402,192,216355,1,0,0:0:0:0:
182,192,216572,1,0,0:0:0:0:
256,192,216789,1,0,0:0:0:70:TMKD_SNARE.wav
329,192,216789,1,0,0:0:0:0:
402,192,216789,1,0,0:0:0:0:
475,192,216789,1,0,0:0:0:0:
109,192,217007,1,0,0:0:0:70:Kick 19.wav
402,192,217007,128,0,217442:0:0:0:0:
182,192,217224,1,0,0:0:0:0:
256,192,217333,1,0,0:0:0:70:snare22.wav
36,192,217442,1,0,0:0:0:70:Kick 19.wav
329,192,217442,1,0,0:0:0:0:
109,192,217659,1,0,0:0:0:70:TMKD_SNARE.wav
182,192,217659,128,0,217876:0:0:0:0:
402,192,217659,1,0,0:0:0:0:
475,192,217659,1,0,0:0:0:0:
329,192,217768,1,0,0:0:0:0:
256,192,217876,128,0,218311:0:0:0:0:
475,192,217985,1,0,0:0:0:0:
36,192,218094,1,0,0:0:0:70:Kick 19.wav
109,192,218094,1,0,0:0:0:0:
182,192,218202,1,0,0:0:0:70:TMKD_SNARE.wav
402,192,218311,128,0,218529:0:0:0:0:
329,192,218420,1,0,0:0:0:70:Kick 19.wav
36,192,218529,128,0,218746:0:0:0:70:TMKD_SNARE.wav
109,192,218529,1,0,0:0:0:0:
256,192,218529,1,0,0:0:0:0:
475,192,218529,1,0,0:0:0:0:
182,192,218746,1,0,0:0:0:70:Kick 19.wav
329,192,218746,128,0,219181:0:0:0:70:Splash.wav
402,192,218746,1,0,0:0:0:0:
475,192,218963,1,0,0:0:0:0:
256,192,219072,1,0,0:0:0:70:snare22.wav
109,192,219181,128,0,219616:0:0:0:70:Kick 19.wav
182,192,219181,1,0,0:0:0:0:
36,192,219398,1,0,0:0:0:70:TMKD_SNARE.wav
256,192,219398,1,0,0:0:0:0:
475,192,219398,1,0,0:0:0:0:
182,192,219616,1,0,0:0:0:70:Kick 19.wav
402,192,219616,128,0,220050:0:0:0:0:
109,192,219833,1,0,0:0:0:70:Kick 19.wav
329,192,219833,1,0,0:0:0:0:
256,192,219942,1,0,0:0:0:70:snare22.wav
182,192,220050,1,0,0:0:0:70:Kick 19.wav
475,192,220050,1,0,0:0:0:0:
256,192,220159,1,0,0:0:0:0:
36,192,220268,1,0,0:0:0:70:TMKD_SNARE.wav
109,192,220268,1,0,0:0:0:0:
329,192,220268,1,0,0:0:0:0:
402,192,220268,1,0,0:0:0:0:
182,192,220485,128,0,220920:0:0:0:70:Kick 19.wav
475,192,220485,1,0,0:0:0:0:
329,192,220702,1,0,0:0:0:0:
109,192,220811,1,0,0:0:0:70:snare22.wav
256,192,220920,1,0,0:0:0:70:Kick 19.wav
402,192,220920,128,0,221355:0:0:0:0:
36,192,221137,1,0,0:0:0:70:TMKD_SNARE.wav
329,192,221137,1,0,0:0:0:0:
475,192,221137,1,0,0:0:0:0:
109,192,221355,1,0,0:0:0:70:Kick 19.wav
182,192,221355,1,0,0:0:0:70:Crash 1.wav
256,192,221355,128,0,221789:0:0:0:0:
329,192,221355,1,0,0:0:0:0:
109,192,221789,1,0,0:0:0:70:Kick 19.wav
402,192,221789,1,0,0:0:0:0:
36,192,222007,1,0,0:0:0:70:TMKD_SNARE.wav
182,192,222007,1,0,0:0:0:70:Crash 1.wav
256,192,222007,1,0,0:0:0:0:
329,192,222007,1,0,0:0:0:0:
475,192,222007,1,0,0:0:0:0:
109,192,222224,1,0,0:0:0:70:Kick 19.wav
402,192,222224,1,0,0:0:0:0:
182,192,222333,1,0,0:0:0:70:TMKD_SNARE.wav
329,192,222333,1,0,0:0:0:0:
36,192,222442,128,0,222985:0:0:0:70:Kick 19.wav
475,192,222442,128,0,222985:0:0:0:0:
256,192,222550,1,0,0:0:0:70:TMKD_SNARE.wav
109,192,222659,128,0,222985:0:0:0:70:TOM_1.wav
402,192,222659,128,0,222985:0:0:0:0:
182,192,222876,128,0,222985:0:0:0:70:TOM_2.wav
329,192,222876,128,0,222985:0:0:0:0:
36,192,223094,128,0,225050:0:0:0:70:Kick 19.wav
109,192,223094,128,0,225050:0:0:0:70:Crash 1.wav
256,192,223094,1,0,0:0:0:0:
402,192,223094,128,0,225050:0:0:0:0:
475,192,223094,128,0,225050:0:0:0:0:
182,192,224181,1,0,0:0:0:0:
329,192,224398,1,0,0:0:0:0:
256,192,224616,1,0,0:0:0:0:
182,192,224833,1,0,0:0:0:0:
329,192,225050,128,0,225485:0:0:0:100:F#6S_Gb6S_s.wav
182,192,225485,1,0,0:0:0:0:
256,192,225702,128,0,226137:0:0:0:100:E6S_s.wav
402,192,226355,1,0,0:0:0:100:F#6S_Gb6S_s.wav
329,192,226572,1,0,0:0:0:100:A6S_s.wav
109,192,226789,1,0,0:0:0:100:E6S_s.wav
182,192,227007,128,0,227442:0:0:0:0:
329,192,227442,128,0,227876:0:0:0:100:E6S_s.wav
256,192,227876,1,0,0:0:0:0:
475,192,228094,1,0,0:0:0:100:F#6S_Gb6S_s.wav
402,192,228311,1,0,0:0:0:100:A6S_s.wav
109,192,228529,128,0,228963:0:0:0:100:D6S_s.wav
182,192,228746,1,0,0:0:0:0:
256,192,228963,1,0,0:0:0:100:B5S_s.wav
402,192,229181,128,0,229616:0:0:0:100:C#6S_Db6S_s.wav
36,192,229616,1,0,0:0:0:100:D6S_s.wav
109,192,229833,1,0,0:0:0:100:C#6S_Db6S_s.wav
256,192,230050,1,0,0:0:0:100:A5S_s.wav
182,192,230268,1,0,0:0:0:100:B5S_s.wav
475,192,230485,128,0,230702:0:0:0:0:
402,192,230702,128,0,230920:0:0:0:0:
256,192,230920,128,0,231137:0:0:0:0:
329,192,231137,128,0,231355:0:0:0:100:B4S_s.wav
109,192,231355,128,0,231572:0:0:0:100:A5S_s.wav
182,192,231572,128,0,231789:0:0:0:100:D6S_s.wav
36,192,231789,128,0,232007:0:0:0:100:E6S_s.wav
256,192,232007,128,0,232442:0:0:0:100:F#6S_Gb6S_s.wav
475,192,232224,1,0,0:0:0:0:
182,192,232442,1,0,0:0:0:0:
402,192,232659,128,0,233094:0:0:0:100:E6S_s.wav
329,192,233094,1,0,0:0:0:0:
182,192,233311,128,0,233746:0:0:0:100:F#6S_Gb6S_s.wav
256,192,233529,1,0,0:0:0:100:A6S_s.wav
475,192,233746,1,0,0:0:0:100:E6S_s.wav
402,192,233963,1,0,0:0:0:0:
36,192,234181,1,0,0:0:0:0:
109,192,234398,128,0,234833:0:0:0:100:C#6S_Db6S_s.wav
329,192,234833,128,0,235268:0:0:0:0:
256,192,235050,1,0,0:0:0:100:F#6S_Gb6S_s.wav
475,192,235268,128,0,236137:0:0:0:100:A6S_s.wav
109,192,235485,1,0,0:0:0:100:D6S_s.wav
329,192,235702,1,0,0:0:0:0:
182,192,235920,1,0,0:0:0:100:B5S_s.wav
256,192,236137,1,0,0:0:0:100:C#6S_Db6S_s.wav
402,192,236355,1,0,0:0:0:0:
109,192,236572,1,0,0:0:0:100:A6S_s.wav
256,192,236789,128,0,237007:0:0:0:0:
36,192,237007,128,0,237442:0:0:0:0:
475,192,237007,128,0,237442:0:0:0:0:
109,192,237442,1,0,0:0:0:70:Kick 19.wav
182,192,237442,1,0,0:0:0:0:
329,192,237442,1,0,0:0:0:0:
402,192,237442,1,0,0:0:0:0:
36,192,237659,1,0,0:0:0:70:Kick 19.wav
182,192,237659,1,0,0:0:0:0:
329,192,237659,1,0,0:0:0:0:
475,192,237659,1,0,0:0:0:0:
36,192,237876,1,0,0:0:0:70:TMKD_SNARE.wav
109,192,237876,1,0,0:0:0:70:Crash 1.wav
256,192,237876,1,0,0:0:0:0:
402,192,237876,1,0,0:0:0:0:
475,192,237876,1,0,0:0:0:0:
182,192,238094,1,0,0:0:0:70:Kick 19.wav
329,192,238094,1,0,0:0:0:0:
109,192,238311,1,0,0:0:0:70:Kick 19.wav
402,192,238311,1,0,0:0:0:0:
36,192,238529,1,0,0:0:0:70:TMKD_SNARE.wav
475,192,238529,1,0,0:0:0:0:
109,192,238637,1,0,0:0:0:70:TMKD_SNARE.wav
402,192,238637,1,0,0:0:0:0:
182,192,238746,1,0,0:0:0:70:TOM_1.wav
329,192,238746,1,0,0:0:0:0:
36,192,238963,1,0,0:0:0:70:Kick 19.wav
109,192,238963,1,0,0:0:0:70:Crash 1.wav
256,192,238963,128,0,239398:0:0:0:0:
402,192,238963,1,0,0:0:0:0:
475,192,238963,1,0,0:0:0:0:
182,192,239398,1,0,0:0:0:70:TMKD_SNARE.wav
329,192,239398,1,0,0:0:0:0:
402,192,239398,1,0,0:0:0:0:
475,192,239398,128,0,239616:0:0:0:0:
36,192,239616,128,0,240050:0:0:0:70:Kick 19.wav
109,192,239616,1,0,0:0:0:0:
475,192,239833,1,0,0:0:0:0:
329,192,239942,1,0,0:0:0:70:snare22.wav
402,192,239942,1,0,0:0:0:0:
256,192,240050,1,0,0:0:0:70:Kick 19.wav
36,192,240268,1,0,0:0:0:70:TMKD_SNARE.wav
182,192,240268,1,0,0:0:0:0:
402,192,240268,128,0,240485:0:0:0:0:
475,192,240268,1,0,0:0:0:0:
109,192,240485,128,0,240702:0:0:0:0:
329,192,240485,1,0,0:0:0:0:
182,192,240702,1,0,0:0:0:70:Kick 19.wav
256,192,240702,128,0,240920:0:0:0:0:
475,192,240920,128,0,241355:0:0:0:0:
36,192,241029,1,0,0:0:0:70:Kick 19.wav
402,192,241029,1,0,0:0:0:0:
109,192,241137,1,0,0:0:0:70:TMKD_SNARE.wav
182,192,241137,1,0,0:0:0:0:
329,192,241137,1,0,0:0:0:0:
36,192,241355,128,0,241789:0:0:0:70:Kick 19.wav
402,192,241355,1,0,0:0:0:0:
182,192,241572,1,0,0:0:0:0:
256,192,241681,1,0,0:0:0:70:snare22.wav
329,192,241789,1,0,0:0:0:70:Kick 19.wav
402,192,241789,128,0,242007:0:0:0:0:
36,192,242007,1,0,0:0:0:70:TMKD_SNARE.wav
182,192,242007,1,0,0:0:0:0:
256,192,242007,128,0,242224:0:0:0:0:
475,192,242007,1,0,0:0:0:0:
109,192,242224,128,0,242659:0:0:0:70:Kick 19.wav
402,192,242224,1,0,0:0:0:0:
182,192,242442,1,0,0:0:0:70:Kick 19.wav
256,192,242442,1,0,0:0:0:0:
329,192,242550,1,0,0:0:0:70:snare22.wav
402,192,242659,1,0,0:0:0:0:
36,192,242876,1,0,0:0:0:70:TMKD_SNARE.wav
109,192,242876,1,0,0:0:0:0:
182,192,242876,1,0,0:0:0:0:
256,192,242876,1,0,0:0:0:0:
402,192,243094,1,0,0:0:0:70:Kick 19.wav
475,192,243094,128,0,243529:0:0:0:0:
329,192,243311,1,0,0:0:0:0:
256,192,243420,1,0,0:0:0:70:snare22.wav
36,192,243529,1,0,0:0:0:70:Kick 19.wav
109,192,243529,1,0,0:0:0:0:
182,192,243529,128,0,243746:0:0:0:0:
256,192,243746,1,0,0:0:0:70:TMKD_SNARE.wav
329,192,243746,128,0,243963:0:0:0:0:
402,192,243746,1,0,0:0:0:0:
475,192,243746,1,0,0:0:0:0:
182,192,243855,1,0,0:0:0:0:
36,192,243963,128,0,244181:0:0:0:0:
109,192,243963,1,0,0:0:0:0:
475,192,244072,1,0,0:0:0:70:snare22.wav
182,192,244181,128,0,244398:0:0:0:70:Kick 19.wav
402,192,244181,1,0,0:0:0:0:
36,192,244398,1,0,0:0:0:0:
256,192,244398,128,0,244616:0:0:0:0:
109,192,244507,1,0,0:0:0:70:Kick 19.wav
182,192,244616,1,0,0:0:0:70:TMKD_SNARE.wav
329,192,244616,1,0,0:0:0:0:
402,192,244616,128,0,244833:0:0:0:0:
475,192,244616,1,0,0:0:0:0:
36,192,244833,128,0,245268:0:0:0:70:Kick 19.wav
109,192,244833,1,0,0:0:0:0:
402,192,244942,1,0,0:0:0:70:TMKD_SNARE.wav
475,192,244942,1,0,0:0:0:0:
329,192,245050,1,0,0:0:0:0:
109,192,245159,1,0,0:0:0:70:snare22.wav
182,192,245159,1,0,0:0:0:0:
256,192,245268,128,0,245485:0:0:0:70:Kick 19.wav
402,192,245268,1,0,0:0:0:0:
36,192,245485,1,0,0:0:0:70:TMKD_SNARE.wav
182,192,245485,1,0,0:0:0:0:
329,192,245485,1,0,0:0:0:0:
475,192,245485,1,0,0:0:0:0:
36,192,245702,1,0,0:0:0:70:snare22.wav
109,192,245702,128,0,245920:0:0:0:0:
256,192,245811,1,0,0:0:0:0:
182,192,245920,1,0,0:0:0:70:Kick 19.wav
329,192,245920,1,0,0:0:0:70:Crash 1.wav
402,192,245920,128,0,246355:0:0:0:0:
475,192,245920,1,0,0:0:0:0:
36,192,246355,128,0,246572:0:0:0:70:TMKD_SNARE.wav
109,192,246355,1,0,0:0:0:0:
182,192,246355,1,0,0:0:0:0:
256,192,246355,1,0,0:0:0:0:
329,192,246572,1,0,0:0:0:70:Kick 19.wav
475,192,246572,128,0,247007:0:0:0:0:
36,192,246789,1,0,0:0:0:0:
109,192,246898,1,0,0:0:0:70:snare22.wav
182,192,247007,1,0,0:0:0:70:Kick 19.wav
256,192,247007,128,0,247442:0:0:0:0:
36,192,247224,1,0,0:0:0:70:TMKD_SNARE.wav
329,192,247224,1,0,0:0:0:0:
402,192,247224,1,0,0:0:0:0:
109,192,247442,128,0,247876:0:0:0:0:
182,192,247659,1,0,0:0:0:70:Kick 19.wav
402,192,247659,1,0,0:0:0:0:
329,192,247876,128,0,248311:0:0:0:0:
256,192,247985,1,0,0:0:0:70:Kick 19.wav
36,192,248094,1,0,0:0:0:70:TMKD_SNARE.wav
402,192,248094,1,0,0:0:0:0:
475,192,248094,1,0,0:0:0:0:
36,192,248311,1,0,0:0:0:70:Kick 19.wav
182,192,248311,128,0,248746:0:0:0:0:
475,192,248529,1,0,0:0:0:0:
402,192,248637,1,0,0:0:0:70:snare22.wav
256,192,248746,128,0,249181:0:0:0:70:Kick 19.wav
329,192,248746,1,0,0:0:0:0:
36,192,248963,1,0,0:0:0:70:TMKD_SNARE.wav
109,192,248963,1,0,0:0:0:0:
475,192,248963,1,0,0:0:0:0:
182,192,249181,1,0,0:0:0:70:Kick 19.wav
329,192,249181,128,0,249398:0:0:0:0:
36,192,249398,128,0,250702:0:0:0:70:Kick 19.wav
475,192,249398,1,0,0:0:0:0:
109,192,249507,1,0,0:0:0:70:snare22.wav
256,192,249616,1,0,0:0:0:70:Kick 19.wav
329,192,249616,1,0,0:0:0:0:
109,192,249833,1,0,0:0:0:70:TMKD_SNARE.wav
182,192,249833,1,0,0:0:0:0:
475,192,249833,1,0,0:0:0:0:
256,192,250050,1,0,0:0:0:70:Kick 19.wav
402,192,250050,1,0,0:0:0:0:
329,192,250268,1,0,0:0:0:0:
256,192,250376,1,0,0:0:0:70:snare22.wav
182,192,250485,1,0,0:0:0:70:Kick 19.wav
402,192,250485,1,0,0:0:0:0:
109,192,250702,1,0,0:0:0:70:TMKD_SNARE.wav
256,192,250702,1,0,0:0:0:0:
329,192,250702,1,0,0:0:0:0:
475,192,250702,1,0,0:0:0:0:
36,192,250920,1,0,0:0:0:70:Kick 19.wav
182,192,250920,1,0,0:0:0:70:Crash 1.wav
402,192,250920,1,0,0:0:0:0:
475,192,250920,128,0,251355:0:0:0:0:
329,192,251137,1,0,0:0:0:0:
182,192,251355,1,0,0:0:0:70:Kick 19.wav
256,192,251355,1,0,0:0:0:0:
36,192,251572,1,0,0:0:0:70:TMKD_SNARE.wav
109,192,251572,1,0,0:0:0:70:Crash 1.wav
402,192,251572,1,0,0:0:0:0:
475,192,251572,1,0,0:0:0:0:
182,192,251789,1,0,0:0:0:70:Kick 19.wav
256,192,251789,1,0,0:0:0:0:
329,192,251898,1,0,0:0:0:70:TMKD_SNARE.wav
475,192,251898,1,0,0:0:0:0:
256,192,252007,1,0,0:0:0:0:
36,192,252116,1,0,0:0:0:70:snare22.wav
182,192,252116,1,0,0:0:0:0:
329,192,252224,1,0,0:0:0:70:TOM_1.wav
402,192,252224,1,0,0:0:0:0:
109,192,252442,1,0,0:0:0:70:TMKD_SNARE.wav
475,192,252442,1,0,0:0:0:0:
182,192,252550,1,0,0:0:0:70:snare22.wav
402,192,252550,1,0,0:0:0:0:
256,192,252659,1,0,0:0:0:70:TOM_1.wav
329,192,252659,1,0,0:0:0:0:
36,192,252768,1,0,0:0:0:70:TOM_2.wav
475,192,252768,1,0,0:0:0:0:
109,192,252876,1,0,0:0:0:70:Kick 19.wav
182,192,252876,128,0,253094:0:0:0:70:Crash 1.wav
256,192,252876,1,0,0:0:0:0:
402,192,252876,1,0,0:0:0:0:
329,192,253094,128,0,253311:0:0:0:0:
36,192,253311,1,0,0:0:0:70:TMKD_SNARE.wav
109,192,253311,128,0,253529:0:0:0:0:
402,192,253311,1,0,0:0:0:0:
475,192,253311,1,0,0:0:0:0:
256,192,253529,128,0,253963:0:0:0:70:Kick 19.wav
329,192,253529,1,0,0:0:0:0:
109,192,253746,1,0,0:0:0:0:
182,192,253855,1,0,0:0:0:70:snare22.wav
402,192,253963,1,0,0:0:0:70:Kick 19.wav
475,192,253963,1,0,0:0:0:0:
36,192,254181,1,0,0:0:0:70:TMKD_SNARE.wav
109,192,254181,1,0,0:0:0:0:
256,192,254181,1,0,0:0:0:0:
329,192,254181,1,0,0:0:0:0:
182,192,254398,128,0,254616:0:0:0:0:
329,192,254616,1,0,0:0:0:70:Kick 19.wav
475,192,254616,128,0,254833:0:0:0:0:
256,192,254833,128,0,255050:0:0:0:0:
36,192,255050,128,0,255268:0:0:0:70:TMKD_SNARE.wav
109,192,255050,1,0,0:0:0:0:
402,192,255050,1,0,0:0:0:0:
475,192,255050,1,0,0:0:0:0:
182,192,255268,1,0,0:0:0:70:Kick 19.wav
329,192,255268,128,0,255485:0:0:0:0:
475,192,255485,128,0,255702:0:0:0:0:
256,192,255594,1,0,0:0:0:70:snare22.wav
36,192,255702,1,0,0:0:0:70:Kick 19.wav
182,192,255702,128,0,255920:0:0:0:0:
109,192,255920,1,0,0:0:0:70:TMKD_SNARE.wav
329,192,255920,1,0,0:0:0:0:
402,192,255920,128,0,256137:0:0:0:0:
475,192,255920,1,0,0:0:0:0:
36,192,256137,1,0,0:0:0:70:Kick 19.wav
256,192,256137,128,0,256355:0:0:0:0:
182,192,256355,1,0,0:0:0:70:Kick 19.wav
329,192,256355,1,0,0:0:0:0:
402,192,256463,1,0,0:0:0:70:snare22.wav
256,192,256572,1,0,0:0:0:0:
36,192,256789,1,0,0:0:0:70:TMKD_SNARE.wav
109,192,256789,128,0,257007:0:0:0:0:
329,192,256789,1,0,0:0:0:0:
475,192,256789,1,0,0:0:0:0:
182,192,257007,1,0,0:0:0:70:Kick 19.wav
256,192,257007,128,0,257224:0:0:0:0:
402,192,257224,128,0,257442:0:0:0:0:
329,192,257333,1,0,0:0:0:70:snare22.wav
36,192,257442,128,0,257659:0:0:0:70:Kick 19.wav
109,192,257442,1,0,0:0:0:0:
182,192,257659,1,0,0:0:0:70:TMKD_SNARE.wav
256,192,257659,1,0,0:0:0:0:
402,192,257659,1,0,0:0:0:0:
475,192,257659,128,0,257876:0:0:0:0:
329,192,257876,128,0,258094:0:0:0:0:
256,192,257985,1,0,0:0:0:70:snare22.wav
109,192,258094,128,0,258311:0:0:0:70:Kick 19.wav
182,192,258094,1,0,0:0:0:0:
402,192,258311,128,0,258529:0:0:0:0:
256,192,258420,1,0,0:0:0:70:Kick 19.wav
36,192,258529,1,0,0:0:0:70:TMKD_SNARE.wav
182,192,258529,1,0,0:0:0:0:
329,192,258529,1,0,0:0:0:0:
475,192,258529,1,0,0:0:0:0:
109,192,258746,1,0,0:0:0:70:Kick 19.wav
256,192,258746,128,0,258963:0:0:0:0:
329,192,258855,1,0,0:0:0:70:TMKD_SNARE.wav
182,192,258963,1,0,0:0:0:0:
475,192,258963,1,0,0:0:0:0:
402,192,259072,1,0,0:0:0:70:snare22.wav
109,192,259181,128,0,259398:0:0:0:70:Kick 19.wav
256,192,259181,1,0,0:0:0:0:
36,192,259398,1,0,0:0:0:70:TMKD_SNARE.wav
182,192,259398,1,0,0:0:0:0:
402,192,259398,128,0,259616:0:0:0:0:
475,192,259398,1,0,0:0:0:0:
109,192,259616,1,0,0:0:0:70:snare22.wav
256,192,259616,1,0,0:0:0:0:
36,192,259833,1,0,0:0:0:70:Kick 19.wav
256,192,259833,128,0,260050:0:0:0:70:Crash 1.wav
329,192,259833,1,0,0:0:0:0:
475,192,259833,1,0,0:0:0:0:
109,192,260050,1,0,0:0:0:0:
182,192,260268,1,0,0:0:0:70:TMKD_SNARE.wav
256,192,260268,128,0,260485:0:0:0:0:
329,192,260268,1,0,0:0:0:0:
402,192,260268,1,0,0:0:0:0:
36,192,260485,128,0,260702:0:0:0:70:Kick 19.wav
475,192,260485,1,0,0:0:0:0:
329,192,260702,128,0,260920:0:0:0:0:
109,192,260811,1,0,0:0:0:70:snare22.wav
182,192,260920,1,0,0:0:0:70:Kick 19.wav
402,192,260920,1,0,0:0:0:0:
36,192,261137,1,0,0:0:0:70:TMKD_SNARE.wav
109,192,261137,1,0,0:0:0:0:
329,192,261137,128,0,261355:0:0:0:0:
475,192,261137,1,0,0:0:0:0:
182,192,261355,128,0,261572:0:0:0:0:
256,192,261355,1,0,0:0:0:0:
402,192,261572,1,0,0:0:0:70:Kick 19.wav
475,192,261572,1,0,0:0:0:0:
182,192,261789,128,0,262007:0:0:0:0:
256,192,261898,1,0,0:0:0:70:Kick 19.wav
36,192,262007,1,0,0:0:0:70:TMKD_SNARE.wav
109,192,262007,1,0,0:0:0:0:
329,192,262007,1,0,0:0:0:0:
475,192,262007,1,0,0:0:0:0:
256,192,262224,1,0,0:0:0:70:Kick 19.wav
402,192,262224,128,0,262442:0:0:0:0:
182,192,262442,1,0,0:0:0:0:
256,192,262550,1,0,0:0:0:70:snare22.wav
109,192,262659,128,0,262876:0:0:0:70:Kick 19.wav
329,192,262659,1,0,0:0:0:0:
36,192,262876,1,0,0:0:0:70:TMKD_SNARE.wav
182,192,262876,1,0,0:0:0:0:
402,192,262876,1,0,0:0:0:0:
475,192,262876,1,0,0:0:0:0:
256,192,263094,1,0,0:0:0:70:Kick 19.wav
329,192,263094,128,0,263311:0:0:0:0:
109,192,263311,1,0,0:0:0:70:Kick 19.wav
475,192,263311,1,0,0:0:0:0:
182,192,263420,1,0,0:0:0:70:snare22.wav
256,192,263529,128,0,263746:0:0:0:70:Kick 19.wav
402,192,263529,1,0,0:0:0:0:
36,192,263746,1,0,0:0:0:70:TMKD_SNARE.wav
109,192,263746,128,0,263963:0:0:0:0:
329,192,263746,1,0,0:0:0:0:
475,192,263746,1,0,0:0:0:0:
182,192,263963,1,0,0:0:0:70:Kick 19.wav
402,192,263963,128,0,264181:0:0:0:0:
256,192,264181,1,0,0:0:0:70:Kick 19.wav
329,192,264289,1,0,0:0:0:70:snare22.wav
109,192,264398,1,0,0:0:0:70:Kick 19.wav
182,192,264398,128,0,264616:0:0:0:0:
36,192,264616,1,0,0:0:0:70:TMKD_SNARE.wav
256,192,264616,128,0,264833:0:0:0:0:
402,192,264616,1,0,0:0:0:0:
475,192,264616,1,0,0:0:0:0:
109,192,264833,1,0,0:0:0:70:Kick 19.wav
182,192,264833,1,0,0:0:0:70:Crash 1.wav
329,192,264833,1,0,0:0:0:0:
475,192,264833,128,0,265268:0:0:0:0:
402,192,265050,1,0,0:0:0:0:
182,192,265268,1,0,0:0:0:70:Kick 19.wav
256,192,265268,1,0,0:0:0:0:
36,192,265485,1,0,0:0:0:70:TMKD_SNARE.wav
109,192,265485,1,0,0:0:0:70:Crash 1.wav
329,192,265485,1,0,0:0:0:0:
475,192,265485,1,0,0:0:0:0:
182,192,265702,1,0,0:0:0:70:Kick 19.wav
402,192,265702,1,0,0:0:0:0:
256,192,265811,1,0,0:0:0:70:snare22.wav
329,192,265811,1,0,0:0:0:0:
109,192,265920,128,0,266029:0:0:0:70:TMKD_SNARE.wav
402,192,266029,1,0,0:0:0:70:snare22.wav
475,192,266029,1,0,0:0:0:0:
36,192,266137,1,0,0:0:0:70:TOM_1.wav
182,192,266137,128,0,266246:0:0:0:0:
329,192,266246,1,0,0:0:0:0:
109,192,266355,1,0,0:0:0:70:TMKD_SNARE.wav
475,192,266355,128,0,266463:0:0:0:0:
182,192,266463,1,0,0:0:0:70:snare22.wav
402,192,266463,1,0,0:0:0:0:
256,192,266572,128,0,266681:0:0:0:70:TOM_1.wav
329,192,266572,1,0,0:0:0:0:
36,192,266681,1,0,0:0:0:70:TOM_2.wav
109,192,266681,1,0,0:0:0:0:
182,192,266789,1,0,0:0:0:70:Kick 19.wav
329,192,266789,1,0,0:0:0:70:Crash 1.wav
402,192,266789,128,0,267442:0:0:0:0:
475,192,266789,1,0,0:0:0:0:
256,192,267007,1,0,0:0:0:0:
36,192,267224,1,0,0:0:0:70:TMKD_SNARE.wav
109,192,267224,1,0,0:0:0:0:
182,192,267224,1,0,0:0:0:0:
256,192,267442,128,0,268094:0:0:0:70:Kick 19.wav
475,192,267442,1,0,0:0:0:0:
109,192,267659,1,0,0:0:0:0:
402,192,267768,1,0,0:0:0:70:snare22.wav
182,192,267876,1,0,0:0:0:70:Kick 19.wav
329,192,267876,1,0,0:0:0:0:
36,192,268094,1,0,0:0:0:70:TMKD_SNARE.wav
109,192,268094,128,0,268746:0:0:0:0:
402,192,268094,1,0,0:0:0:0:
475,192,268094,1,0,0:0:0:0:
182,192,268202,1,0,0:0:0:0:
329,192,268311,1,0,0:0:0:0:
256,192,268529,1,0,0:0:0:70:Kick 19.wav
475,192,268529,1,0,0:0:0:0:
402,192,268746,128,0,269398:0:0:0:0:
182,192,268855,1,0,0:0:0:70:Kick 19.wav
36,192,268963,1,0,0:0:0:70:TMKD_SNARE.wav
329,192,268963,1,0,0:0:0:0:
475,192,268963,1,0,0:0:0:0:
109,192,269181,1,0,0:0:0:70:Kick 19.wav
182,192,269181,1,0,0:0:0:0:
256,192,269398,128,0,269616:0:0:0:0:
475,192,269507,1,0,0:0:0:70:snare22.wav
182,192,269616,1,0,0:0:0:70:Kick 19.wav
329,192,269616,128,0,269833:0:0:0:0:
36,192,269833,1,0,0:0:0:70:TMKD_SNARE.wav
109,192,269833,128,0,270050:0:0:0:0:
256,192,269833,1,0,0:0:0:0:
402,192,269833,1,0,0:0:0:0:
329,192,270050,1,0,0:0:0:70:Kick 19.wav
475,192,270050,128,0,270268:0:0:0:0:
182,192,270268,128,0,270920:0:0:0:70:Kick 19.wav
256,192,270268,1,0,0:0:0:0:
402,192,270376,1,0,0:0:0:70:snare22.wav
329,192,270485,1,0,0:0:0:0:
36,192,270702,1,0,0:0:0:70:TMKD_SNARE.wav
109,192,270702,1,0,0:0:0:0:
475,192,270702,1,0,0:0:0:0:
402,192,270920,128,0,271355:0:0:0:70:Kick 19.wav
256,192,271137,1,0,0:0:0:0:
329,192,271246,1,0,0:0:0:70:snare22.wav
109,192,271355,128,0,271789:0:0:0:70:Kick 19.wav
182,192,271355,1,0,0:0:0:0:
36,192,271572,1,0,0:0:0:70:TMKD_SNARE.wav
256,192,271572,1,0,0:0:0:0:
475,192,271572,1,0,0:0:0:0:
182,192,271681,1,0,0:0:0:0:
329,192,271789,128,0,272224:0:0:0:0:
402,192,271898,1,0,0:0:0:70:snare22.wav
109,192,272007,1,0,0:0:0:70:Kick 19.wav
256,192,272007,1,0,0:0:0:0:
36,192,272224,128,0,272659:0:0:0:0:
182,192,272333,1,0,0:0:0:70:Kick 19.wav
329,192,272442,1,0,0:0:0:70:TMKD_SNARE.wav
402,192,272442,1,0,0:0:0:0:
475,192,272442,1,0,0:0:0:0:
109,192,272659,1,0,0:0:0:70:Kick 19.wav
475,192,272659,128,0,273094:0:0:0:0:
182,192,272768,1,0,0:0:0:70:TMKD_SNARE.wav
402,192,272876,1,0,0:0:0:0:
329,192,272985,1,0,0:0:0:70:snare22.wav
109,192,273094,1,0,0:0:0:70:Kick 19.wav
256,192,273094,128,0,273746:0:0:0:0:
36,192,273311,1,0,0:0:0:70:TMKD_SNARE.wav
182,192,273311,1,0,0:0:0:0:
402,192,273311,1,0,0:0:0:0:
109,192,273529,1,0,0:0:0:70:snare22.wav
329,192,273529,1,0,0:0:0:0:
182,192,273637,1,0,0:0:0:0:
36,192,273746,1,0,0:0:0:70:Kick 19.wav
109,192,273746,128,0,274398:0:0:0:70:Crash 1.wav
402,192,273746,1,0,0:0:0:0:
475,192,273746,1,0,0:0:0:0:
329,192,273963,1,0,0:0:0:0:
182,192,274181,1,0,0:0:0:70:TMKD_SNARE.wav
402,192,274181,1,0,0:0:0:0:
475,192,274181,1,0,0:0:0:0:
36,192,274398,1,0,0:0:0:70:Kick 19.wav
329,192,274398,128,0,275050:0:0:0:0:
182,192,274616,1,0,0:0:0:0:
256,192,274724,1,0,0:0:0:70:snare22.wav
402,192,274833,1,0,0:0:0:70:Kick 19.wav
475,192,274833,1,0,0:0:0:0:
36,192,275050,1,0,0:0:0:70:TMKD_SNARE.wav
109,192,275050,1,0,0:0:0:0:
182,192,275050,128,0,275702:0:0:0:0:
256,192,275050,1,0,0:0:0:0:
475,192,275159,1,0,0:0:0:0:
402,192,275268,1,0,0:0:0:0:
329,192,275376,1,0,0:0:0:70:snare22.wav
109,192,275485,1,0,0:0:0:70:Kick 19.wav
256,192,275485,1,0,0:0:0:0:
402,192,275702,128,0,276355:0:0:0:0:
329,192,275811,1,0,0:0:0:70:Kick 19.wav
36,192,275920,1,0,0:0:0:70:TMKD_SNARE.wav
109,192,275920,1,0,0:0:0:0:
182,192,275920,1,0,0:0:0:0:
256,192,276137,1,0,0:0:0:70:Kick 19.wav
329,192,276137,1,0,0:0:0:0:
109,192,276355,1,0,0:0:0:0:
182,192,276463,1,0,0:0:0:70:snare22.wav
329,192,276572,1,0,0:0:0:70:Kick 19.wav
402,192,276572,1,0,0:0:0:0:
36,192,276789,1,0,0:0:0:70:TMKD_SNARE.wav
109,192,276789,1,0,0:0:0:0:
256,192,276789,1,0,0:0:0:0:
475,192,276789,1,0,0:0:0:0:
182,192,277007,1,0,0:0:0:70:Kick 19.wav
402,192,277007,1,0,0:0:0:0:
256,192,277224,1,0,0:0:0:70:Kick 19.wav
329,192,277224,1,0,0:0:0:0:
36,192,277442,1,0,0:0:0:70:TMKD_SNARE.wav
109,192,277442,1,0,0:0:0:0:
182,192,277442,1,0,0:0:0:0:
402,192,277442,1,0,0:0:0:0:
109,192,277659,1,0,0:0:0:70:TMKD_SNARE.wav
329,192,277659,1,0,0:0:0:0:
402,192,277659,1,0,0:0:0:0:
475,192,277659,1,0,0:0:0:0:
182,192,277876,1,0,0:0:0:70:Kick 19.wav
256,192,277876,1,0,0:0:0:0:
402,192,277985,1,0,0:0:0:70:TOM_1.wav
475,192,277985,1,0,0:0:0:0:
109,192,278094,1,0,0:0:0:70:TMKD_SNARE.wav
182,192,278094,1,0,0:0:0:0:
256,192,278202,1,0,0:0:0:70:TOM_2.wav
36,192,278311,128,0,278529:0:0:0:70:Kick 19.wav
329,192,278311,1,0,0:0:0:0:
109,192,278529,1,0,0:0:0:70:snare22.wav
182,192,278529,1,0,0:0:0:0:
402,192,278529,1,0,0:0:0:0:
475,192,278529,1,0,0:0:0:0:
36,192,278746,1,0,0:0:0:70:Kick 19.wav
256,192,278746,1,0,0:0:0:70:Crash 1.wav
329,192,278746,128,0,278963:0:0:0:0:
475,192,278746,128,0,278963:0:0:0:0:
182,192,278963,1,0,0:0:0:0:
109,192,279181,1,0,0:0:0:70:Kick 19.wav
402,192,279181,1,0,0:0:0:0:
36,192,279398,128,0,279616:0:0:0:70:TMKD_SNARE.wav
182,192,279398,128,0,279616:0:0:0:70:Crash 1.wav
329,192,279398,1,0,0:0:0:0:
475,192,279398,1,0,0:0:0:0:
109,192,279616,1,0,0:0:0:70:Kick 19.wav
256,192,279616,1,0,0:0:0:0:
36,192,279724,1,0,0:0:0:70:TMKD_SNARE.wav
329,192,279724,1,0,0:0:0:0:
402,192,279724,1,0,0:0:0:0:
475,192,279724,1,0,0:0:0:0:
109,192,279942,1,0,0:0:0:70:TMKD_SNARE.wav
182,192,279942,1,0,0:0:0:0:
256,192,279942,1,0,0:0:0:0:
475,192,279942,1,0,0:0:0:0:
36,192,280050,1,0,0:0:0:70:TOM_1.wav
402,192,280050,1,0,0:0:0:0:
182,192,280268,1,0,0:0:0:70:TMKD_SNARE.wav
256,192,280268,1,0,0:0:0:0:
329,192,280268,1,0,0:0:0:0:
36,192,280376,1,0,0:0:0:70:snare22.wav
475,192,280376,1,0,0:0:0:0:
109,192,280485,1,0,0:0:0:70:TOM_1.wav
402,192,280485,1,0,0:0:0:0:
182,192,280594,1,0,0:0:0:70:TOM_2.wav
329,192,280594,1,0,0:0:0:0:
36,192,280702,128,0,291137:0:0:0:70:Kick 19.wav
109,192,280702,128,0,291137:0:0:0:70:Crash 1.wav
256,192,280702,1,0,0:0:0:0:
402,192,280702,128,0,291137:0:0:0:0:
475,192,280702,128,0,291137:0:0:0:0:
