osu file format v14

[General]
AudioFilename: audio.mp3
AudioLeadIn: 0
PreviewTime: 61864
Countdown: 0
SampleSet: Soft
StackLeniency: 0.4
Mode: 0
LetterboxInBreaks: 0
WidescreenStoryboard: 1

[Editor]
Bookmarks: 1233,19233,41654,54443,82390,89654
DistanceSpacing: 1.8
BeatDivisor: 4
GridSize: 32
TimelineZoom: 3.999998

[Metadata]
Title:Seed
TitleUnicode:Seed
Artist:FELT
ArtistUnicode:FELT
Creator:871
Version:Hard
Source:
Tags:NAGI☆ Instrumental Illstarred Dive
BeatmapID:2516925
BeatmapSetID:1030029

[Difficulty]
HPDrainRate:4
CircleSize:3.8
OverallDifficulty:7
ApproachRate:8
SliderMultiplier:2.1
SliderTickRate:1

[Events]
//Background and Video events
0,0,"bege.jpg",0,0
//Break Periods
2,2083,3028
2,7135,8080
2,12188,13133
2,37452,38396
2,82294,83870
//Storyboard Layer 0 (Background)
//Storyboard Layer 1 (Fail)
//Storyboard Layer 2 (Pass)
//Storyboard Layer 3 (Foreground)
//Storyboard Layer 4 (Overlay)
//Storyboard Sound Samples

[TimingPoints]
1252,631.578947368421,4,2,0,40,1,0
1252,-133.333333333333,4,2,0,40,0,0
11357,-100,4,2,0,40,0,0
17988,-133.333333333333,4,2,0,40,0,0
18936,-100,4,2,0,40,0,0
32830,-133.333333333333,4,2,0,40,0,0
34094,-100,4,2,0,40,0,0
41673,-66.6666666666667,4,2,0,40,0,0
42304,-100,4,2,0,40,0,0
42936,-133.333333333333,4,2,0,40,0,0
44199,-66.6666666666667,4,2,0,40,0,0
46094,-100,4,2,0,40,0,0
46725,-66.6666666666667,4,2,0,40,0,0
47830,-100,4,2,0,40,0,0
49252,-66.6666666666667,4,2,0,40,0,0
49883,-100,4,2,0,40,0,0
50515,-66.6666666666667,4,2,0,40,0,0
52409,-100,4,2,0,40,0,0
54304,-66.6666666666667,4,2,0,40,0,0
56199,-100,4,2,0,40,0,0
56830,-66.6666666666667,4,2,0,40,0,0
57462,-100,4,2,0,40,0,0
59357,-66.6666666666667,4,2,0,40,0,0
59988,-100,4,2,0,40,0,0
60620,-66.6666666666667,4,2,0,40,0,0
62199,-100,4,2,0,40,0,0
62830,-66.6666666666667,4,2,0,40,0,0
65041,-100,4,2,0,40,0,0
65673,-66.6666666666667,4,2,0,40,0,0
68199,-133.333333333333,4,2,0,40,0,0
69146,-66.6666666666667,4,2,0,40,0,0
70725,-133.333333333333,4,2,0,40,0,0
71988,-66.6666666666667,4,2,0,40,0,0
72620,-100,4,2,0,40,0,0
74199,-66.6666666666667,4,2,0,40,0,0
74988,-100,4,2,0,40,0,0
75778,-66.6666666666667,4,2,0,40,0,0
76409,-100,4,2,0,40,0,0
77041,-66.6666666666667,4,2,0,40,0,0
78304,-133.333333333333,4,2,0,40,0,0
79252,-100,4,2,0,40,0,0
79567,-66.6666666666667,4,2,0,40,0,0
81778,-100,4,2,0,40,0,0
82094,-133.333333333333,4,2,0,40,0,0

[Colours]
Combo1 : 185,155,240
Combo2 : 255,191,191
Combo3 : 160,209,254
Combo4 : 253,231,189

[HitObjects]
27,32,1252,6,0,B|29:66|29:66|30:67|30:67|33:115,2,78.7500030040742,0|2|0,3:0|0:0|0:0,0:0:0:0:
32,110,3778,6,0,B|30:67|30:67|29:66|29:66|27:32,1,78.7500030040742,0|2,3:0|0:0,0:0:0:0:
39,180,4409,1,0,0:0:0:0:
39,180,5041,6,0,P|53:220|90:230,1,78.7500030040742,2|0,2:2|0:0,0:0:0:0:
170,207,5673,2,0,P|159:170|124:156,1,78.7500030040742,2|0,0:0|0:0,0:0:0:0:
147,293,6304,2,0,L|232:283,2,78.7500030040742,0|2|0,3:0|0:0|0:0,0:0:0:0:
225,283,8830,6,0,L|147:293,1,78.7500030040742,0|2,3:0|0:0,0:0:0:0:
300,273,9462,1,0,0:0:0:0:
300,273,10094,6,0,P|314:321|345:335,1,78.7500030040742,0|2,0:0|0:0,0:0:0:0:
413,287,10515,1,0,0:0:0:0:
418,283,10620,1,0,0:0:0:0:
423,279,10725,2,0,P|409:231|378:217,1,78.7500030040742,0|2,3:0|0:0,0:0:0:0:
292,148,11357,2,0,P|371:114|376:93,2,105,0|2|0,3:0|0:0|0:0,0:0:0:0:
135,107,13883,6,0,P|169:147|219:157,1,105,0|2,3:0|0:0,0:0:0:0:
213,65,14515,1,0,0:0:0:0:
213,65,15146,6,0,L|219:162,1,52.5,2|0,0:0|0:0,0:0:0:0:
298,154,15462,2,0,L|292:251,1,52.5,0|0,2:0|0:0,0:0:0:0:
239,270,15778,2,0,L|245:367,1,52.5,2|0,0:0|0:0,0:0:0:0:
257,334,16094,1,0,0:0:0:0:
257,334,16409,6,0,P|208:314|119:322,2,105,0|0|0,3:0|0:0|0:0,0:0:0:0:
466,355,17988,6,0,P|453:329|429:317,1,39.3750015020371,2|0,0:0|0:0,0:0:0:0:
348,261,18304,2,0,P|377:262|399:247,1,39.3750015020371,2|0,0:0|0:0,0:0:0:0:
490,209,18620,2,0,P|473:233|475:260,1,39.3750015020371,2|0,0:0|0:0,0:0:0:0:
357,349,18936,2,0,L|248:332,2,105,0|2|0,3:0|0:0|0:0,0:0:0:0:
358,349,20041,5,0,3:0:0:0:
256,333,20199,2,0,L|137:319,1,105,0|2,0:0|0:0,0:0:0:0:
120,251,20620,1,0,0:0:0:0:
116,232,20725,1,0,0:0:0:0:
113,215,20830,2,0,L|227:246,1,105,0|2,3:0|0:0,0:0:0:0:
255,107,21462,6,0,P|240:127|196:143,1,52.5,2|0,3:2|0:0,0:0:0:0:
156,94,21778,2,0,P|133:103|86:95,1,52.5,2|0,2:0|0:0,0:0:0:0:
69,34,22094,1,0,2:0:0:0:
254,36,23041,5,2,0:0:0:0:
254,24,23515,5,2,0:0:0:0:
257,107,23988,6,0,P|272:127|316:143,1,52.5,2|0,2:2|0:0,0:0:0:0:
356,94,24304,2,0,P|378:103|425:95,1,52.5,0|0,0:0|0:0,0:0:0:0:
443,34,24620,2,0,L|432:184,1,105,2|2,0:0|2:0,0:0:0:0:
428,216,25094,5,2,0:0:0:0:
428,216,25251,2,0,L|328:201,1,52.5,0|0,0:0|0:0,0:0:0:0:
332,291,25567,2,0,L|432:276,1,52.5,2|0,3:2|0:0,0:0:0:0:
408,375,25883,2,0,L|272:360,2,105,2|0|0,0:0|0:0|3:0,0:0:0:0:
235,357,26830,5,2,0:0:0:0:
470,309,27146,1,0,0:0:0:0:
258,103,28094,5,2,0:0:0:0:
258,91,28568,5,2,0:0:0:0:
213,200,29041,6,0,P|153:231|106:200,1,105,0|2,3:0|0:0,0:0:0:0:
56,165,29515,1,0,0:0:0:0:
82,90,29673,2,0,P|125:123|128:142,1,52.5,0|0,3:0|0:0,0:0:0:0:
20,203,29988,2,0,P|63:170|82:172,1,52.5,2|0,2:0|0:0,0:0:0:0:
225,237,30304,6,0,L|103:215,1,105,0|2,0:0|0:0,0:0:0:0:
85,286,30725,1,0,0:0:0:0:
77,305,30830,1,0,0:0:0:0:
66,325,30936,2,0,L|188:303,1,105,0|2,3:0|0:0,0:0:0:0:
278,367,31567,6,0,P|257:345|256:304,1,52.5,0|0,3:0|0:0,0:0:0:0:
355,251,31883,2,0,P|346:280|311:301,1,52.5,2|0,0:0|0:0,0:0:0:0:
266,247,32199,1,0,0:0:0:0:
266,247,32830,6,0,P|255:206|257:202,1,39.3750015020371,2|0,0:0|0:0,0:0:0:0:
273,77,33146,2,0,P|303:107|303:111,1,39.3750015020371
202,160,33462,6,0,P|238:138|243:139,1,39.3750015020371,2|0,0:0|0:0,0:0:0:0:
375,121,33778,2,0,P|353:157|349:159,1,39.3750015020371
369,36,34094,6,0,L|503:24,1,105,0|2,3:0|0:0,0:0:0:0:
497,109,34567,1,0,0:0:0:0:
497,109,34725,2,0,L|411:97,1,52.5,0|0,3:0|0:0,0:0:0:0:
413,197,35041,2,0,L|492:172,1,52.5,2|0,0:0|0:0,0:0:0:0:
450,280,35357,2,0,P|382:283|349:259,2,105,0|2|0,3:0|0:0|3:0,0:0:0:0:
414,198,36304,5,2,0:0:0:0:
258,374,36620,2,0,P|316:343|361:352,1,105,0|2,3:0|0:0,0:0:0:0:
279,272,37252,1,0,0:0:0:0:
231,276,39146,6,0,P|174:319|123:313,1,105,0|2,3:0|0:0,0:0:0:0:
65,224,39620,1,0,0:0:0:0:
65,224,39778,2,0,P|111:236|125:232,1,52.5,2|0,0:0|0:0,0:0:0:0:
170,118,40094,2,0,P|128:141|114:141,1,52.5,0|0,3:0|0:0,0:0:0:0:
117,50,40409,6,0,L|244:38,1,105,2|0,0:0|3:0,0:0:0:0:
261,104,40830,1,0,0:0:0:0:
270,119,40936,1,0,0:0:0:0:
280,135,41041,2,0,L|153:123,1,105,2|0,2:0|0:0,0:0:0:0:
366,200,41673,6,0,B|357:118|357:118|359:114|359:114|346:-9,1,157.500006008148,4|0,3:1|2:0,0:0:0:0:
451,10,42146,1,0,0:0:0:0:
451,10,42304,2,0,L|443:86,1,52.5,2|0,0:0|0:0,0:0:0:0:
496,123,42620,1,0,2:0:0:0:
496,123,42936,6,0,P|487:178|483:182,1,39.3750015020371,0|0,3:0|0:0,0:0:0:0:
366,200,43252,2,0,P|418:180|423:181,1,39.3750015020371,2|0,0:0|0:0,0:0:0:0:
498,272,43567,2,0,P|454:236|453:231,1,39.3750015020371,0|0,3:0|0:0,0:0:0:0:
424,355,43883,2,0,P|408:328|403:315,1,39.3750015020371,2|0,0:0|0:0,0:0:0:0:
177,350,44199,6,0,B|261:361|261:361|263:360|263:360|334:369,1,157.500006008148,4|2,3:1|0:0,0:0:0:0:
341,356,44673,1,0,0:0:0:0:
244,247,44830,2,0,L|79:266,1,157.500006008148,0|2,3:0|0:0,0:0:0:0:
83,263,45462,6,0,P|56:166|154:140,1,157.500006008148,0|2,3:0|0:0,0:0:0:0:
0,35,45936,1,0,0:0:0:0:
0,35,46094,2,0,P|17:87|-2:123,1,52.5,0|0,3:0|0:0,0:0:0:0:
106,183,46409,2,0,P|89:131|108:95,1,52.5,2|0,0:0|0:0,0:0:0:0:
201,129,46725,2,0,B|196:199|196:199|194:201|194:201|187:305,1,157.5,4|2,3:1|0:0,0:0:0:0:
204,293,47199,5,0,0:0:0:0:
312,224,47357,2,0,B|317:294|317:294|318:296|318:296|326:400,1,157.500006008148,0|2,3:0|0:0,0:0:0:0:
324,380,47988,6,0,L|250:369,1,52.5,0|0,3:0|0:0,0:0:0:0:
220,299,48304,2,0,L|294:288,1,52.5,2|0,0:0|0:0,0:0:0:0:
195,373,48620,2,0,L|121:362,1,52.5,0|0,3:0|0:0,0:0:0:0:
92,293,48936,2,0,L|168:282,1,52.5,2|0,0:0|0:0,0:0:0:0:
64,368,49252,6,0,P|8:291|45:231,1,157.5,4|2,3:1|0:0,0:0:0:0:
133,173,49725,1,0,0:0:0:0:
133,173,49883,2,0,P|79:206|67:201,1,52.5,0|0,3:0|0:0,0:0:0:0:
0,125,50199,2,0,P|55:155|57:168,1,52.5,2|0,0:0|0:0,0:0:0:0:
147,16,50515,6,0,L|132:180,1,157.500006008148,0|2,0:0|0:0,0:0:0:0:
209,206,50936,1,0,0:0:0:0:
229,218,51041,1,0,0:0:0:0:
249,227,51146,2,0,L|234:70,1,157.500006008148,0|0,3:0|0:0,0:0:0:0:
237,67,51778,6,0,P|330:26|348:57,1,157.500006008148,4|2,3:1|2:0,0:0:0:0:
342,146,52252,1,0,0:0:0:0:
342,146,52409,2,0,P|383:123|423:126,1,52.5,0|0,3:0|2:0,0:0:0:0:
463,216,52725,1,2,0:0:0:0:
463,216,53041,6,0,L|381:204,1,52.5,0|0,3:0|0:0,0:0:0:0:
423,341,53357,2,0,L|435:259,1,52.5,2|0,0:0|0:0,0:0:0:0:
298,301,53673,2,0,L|380:313,1,52.5,0|0,3:0|0:0,0:0:0:0:
337,174,53988,2,0,L|328:248,1,52.5,2|0,0:0|0:0,0:0:0:0:
393,112,54304,6,0,P|307:94|251:181,1,157.500006008148,4|2,3:1|2:0,0:0:0:0:
219,231,54778,1,0,0:0:0:0:
219,231,54936,2,0,P|144:184|106:191,1,78.7500030040742,0|0,3:0|0:0,0:0:0:0:
45,277,55252,2,0,P|133:273|162:298,1,78.7500030040742,2|0,0:0|0:0,0:0:0:0:
36,365,55567,6,0,L|12:188,1,157.500006008148,0|2,3:0|0:0,0:0:0:0:
128,320,56041,1,0,0:0:0:0:
128,320,56199,2,0,L|114:223,1,52.5,0|0,3:0|0:0,0:0:0:0:
236,206,56515,2,0,L|228:274,1,52.5,2|0,0:0|0:0,0:0:0:0:
360,222,56830,6,0,P|239:200|224:243,1,157.500006008148,4|2,3:1|0:0,0:0:0:0:
302,313,57304,1,0,0:0:0:0:
302,313,57462,2,0,P|326:301|397:300,1,52.5,0|0,3:0|0:0,0:0:0:0:
427,331,57778,1,2,0:0:0:0:
427,331,58409,6,0,L|436:239,1,52.5,0|0,3:0|0:0,0:0:0:0:
485,163,58725,2,0,L|491:216,1,52.5,2|0,2:0|0:0,0:0:0:0:
393,158,59041,2,0,L|398:105,1,52.5,0|0,3:0|0:0,0:0:0:0:
512,30,59357,6,0,P|477:94|356:76,1,157.500006008148,4|2,3:1|0:0,0:0:0:0:
307,176,59830,1,0,0:0:0:0:
307,176,59988,2,0,P|275:150|230:147,1,52.5,0|0,3:0|0:0,0:0:0:0:
242,70,60304,2,0,P|200:74|167:103,1,52.5,2|0,0:0|0:0,0:0:0:0:
121,18,60620,6,0,B|70:95|133:164|133:164|131:168|131:168|196:219|138:342,2,315.000012016297,0|0|4,0:0|2:0|3:1,0:0:0:0:
123,37,62199,6,0,P|95:67|55:74,1,52.5,2|0,0:0|0:0,0:0:0:0:
17,166,62515,2,0,P|48:176|95:165,1,52.5,2|0,2:0|0:0,0:0:0:0:
68,293,62830,6,0,B|121:266|141:212|130:150|130:150|88:184|5:174,1,236.250009012223,2|0,2:2|0:0,0:0:0:0:
60,186,63462,5,2,0:0:0:0:
5,34,63778,1,2,0:0:0:0:
20,36,64094,1,2,0:0:0:0:
131,151,64409,6,0,P|197:154|252:61,1,157.500006008148,4|2,3:1|0:0,0:0:0:0:
339,17,64883,1,0,0:0:0:0:
339,17,65041,2,0,P|326:49|331:78,1,52.5,0|0,3:0|0:0,0:0:0:0:
354,176,65357,2,0,P|332:148|305:138,1,52.5,2|0,0:0|0:0,0:0:0:0:
336,252,65673,6,0,L|470:234,2,78.7500030040742,0|2|2,3:0|0:0|0:0,0:0:0:0:
281,304,66146,1,0,0:0:0:0:
217,226,66304,2,0,P|175:220|146:290,1,78.7500030040742,0|0,3:1|0:0,0:0:0:0:
128,319,66620,2,0,P|170:325|199:255,1,78.7500030040742,0|0,0:0|0:0,0:0:0:0:
113,162,66936,6,0,L|131:351,1,157.500006008148,2|0,2:0|3:0,0:0:0:0:
111,316,67409,1,0,0:0:0:0:
9,131,67567,2,0,L|23:290,1,157.500006008148,2|0,0:0|3:0,0:0:0:0:
5,284,68041,5,0,0:0:0:0:
113,162,68199,2,0,L|173:153,3,39.3750015020371,2|0|2|0,2:0|0:0|0:0|0:0,0:0:0:0:
64,25,68830,1,0,2:0:0:0:
64,25,69146,6,0,P|103:94|145:106,1,78.7500030040742,0|0,3:0|0:0,0:0:0:0:
157,156,69462,2,0,B|237:151|237:151|239:149|239:149|375:139,1,157.500006008148,4|2,3:1|0:0,0:0:0:0:
374,68,69936,1,0,0:0:0:0:
374,68,70094,2,0,L|252:52,1,78.7500030040742,0|0,3:0|0:0,0:0:0:0:
468,16,70409,1,2,0:0:0:0:
468,16,70725,6,0,P|461:44|466:62,1,39.3750015020371,0|0,3:0|0:0,0:0:0:0:
368,191,71041,2,0,P|388:170|392:152,1,39.3750015020371,2|0,0:0|0:0,0:0:0:0:
349,66,71357,2,0,P|374:80|392:79,1,39.3750015020371,0|0,3:0|0:0,0:0:0:0:
471,177,71673,1,0,0:0:0:0:
471,177,71988,6,0,B|476:254|476:254|475:256|475:256|483:355,1,157.500006008148,4|2,3:1|0:0,0:0:0:0:
363,363,72462,1,0,0:0:0:0:
363,363,72620,2,0,L|369:289,1,52.5,2|0,2:0|0:0,0:0:0:0:
372,231,72936,1,2,0:0:0:0:
372,231,73567,6,0,P|316:277|295:274,1,52.5,2|0,2:0|0:0,0:0:0:0:
311,337,73883,2,0,P|238:329|226:312,1,52.5,0|0,0:0|0:0,0:0:0:0:
181,311,74199,2,0,B|178:231|178:231|177:229|177:229|172:128,2,157.500006008148,2|4|2,0:0|3:1|0:0,0:0:0:0:
133,373,74988,5,0,0:0:0:0:
133,373,75146,2,0,P|101:334|105:295,1,52.5,0|0,3:0|0:0,0:0:0:0:
27,265,75462,2,0,P|22:315|-8:339,1,52.5,2|0,0:0|0:0,0:0:0:0:
22,182,75778,6,0,L|14:103,2,78.7500030040742,0|2|2,3:0|2:0|0:0,0:0:0:0:
96,218,76252,1,0,0:0:0:0:
171,255,76409,2,0,L|269:229,1,52.5,0|0,3:1|0:0,0:0:0:0:
261,157,76725,2,0,L|166:151,1,52.5,0|0,0:0|0:0,0:0:0:0:
136,73,77041,6,0,L|336:61,1,157.500006008148,2|0,2:2|3:0,0:0:0:0:
302,54,77515,1,0,0:0:0:0:
423,172,77673,6,0,L|223:160,1,157.500006008148,2|0,0:0|3:0,0:0:0:0:
261,146,78146,1,0,0:0:0:0:
280,291,78304,2,0,L|289:332,3,39.3750015020371,2|0|2|0,0:0|0:0|0:0|0:0,0:0:0:0:
176,352,78936,6,0,P|180:333|198:308,1,39.3750015020371,0|0,2:0|0:0,0:0:0:0:
79,270,79252,2,0,P|104:254|135:250,1,52.5,0|0,3:0|0:0,0:0:0:0:
207,168,79567,2,0,P|141:140|34:149,1,157.500006008148,4|2,3:1|0:0,0:0:0:0:
51,154,80041,5,0,0:0:0:0:
0,50,80199,2,0,P|66:22|173:31,1,157.500006008148,0|2,3:0|2:0,0:0:0:0:
151,37,80673,1,0,0:0:0:0:
234,109,80830,2,0,P|302:122|362:42,1,157.500006008148,0|2,3:0|0:0,0:0:0:0:
277,36,81252,1,0,0:0:0:0:
253,34,81357,1,0,0:0:0:0:
228,30,81462,6,0,L|237:148,1,78.7500030040742,0|0,3:0|0:0,0:0:0:0:
290,168,81778,2,0,L|280:268,1,52.5,2|0,0:0|0:0,0:0:0:0:
230,289,82094,1,4,2:1:0:0:
33,365,84620,6,0,L|24:267,2,78.7500030040742,2|0|0,2:0|3:0|0:0,0:0:0:0:
25,286,87146,6,0,L|33:365,1,78.7500030040742,2|0,0:0|3:0,0:0:0:0:
17,211,87778,1,0,0:0:0:0:
122,152,89673,6,0,L|118:254,1,78.7500030040742,2|0,0:0|3:0,0:0:0:0:
127,73,90304,1,0,0:0:0:0:
127,73,90936,6,0,P|149:114|162:120,1,39.3750015020371,0|0,3:0|0:0,0:0:0:0:
163,180,91252,2,0,P|209:181|221:173,1,39.3750015020371,2|0,2:0|0:0,0:0:0:0:
289,269,91567,2,0,P|252:297|248:311,1,39.3750015020371,0|0,3:0|0:0,0:0:0:0:
226,357,91883,1,2,0:0:0:0:
