osu file format v14

[General]
AudioFilename: audio.mp3
AudioLeadIn: 0
PreviewTime: 366
Countdown: 0
SampleSet: Soft
StackLeniency: 0.2
Mode: 0
LetterboxInBreaks: 0
WidescreenStoryboard: 0

[Editor]
Bookmarks: 24648,36648,48648,54648,92148,113148,125148,131148,180648,216648,239898,246648
DistanceSpacing: 1.2
BeatDivisor: 4
GridSize: 16
TimelineZoom: 2.2

[Metadata]
Title:Runway Drive
TitleUnicode:Runway Drive
Artist:FELT
ArtistUnicode:FELT
Creator:bor
Version:Insane
Source:東方永夜抄 ~ Imperishable Night.
Tags:bor touhou eiyashou th8 keine kamishirasawa 上白沢 慧音 plain asia プレインエイジア Silver Drive Maika 舞花 NAGI☆
BeatmapID:1155066
BeatmapSetID:545150

[Difficulty]
HPDrainRate:6
CircleSize:4.2
OverallDifficulty:7.6
ApproachRate:8.8
SliderMultiplier:1.6
SliderTickRate:1

[Events]
//Background and Video events
0,0,"bg.jpg",0,0
//Break Periods
2,207648,215710
//Storyboard Layer 0 (Background)
//Storyboard Layer 1 (Fail)
//Storyboard Layer 2 (Pass)
//Storyboard Layer 3 (Foreground)
//Storyboard Sound Samples

[TimingPoints]
648,375,4,2,1,35,1,0
648,-133.333333333333,4,2,1,35,0,0
12273,-111.111111111111,4,2,1,45,0,0
12460,-100,4,2,2,45,0,0
14335,-100,4,2,1,45,0,0
14523,-100,4,2,2,45,0,0
15648,-95.2380952380952,4,2,1,45,0,0
16398,-100,4,2,1,45,0,0
18648,-95.2380952380952,4,2,1,45,0,0
19398,-100,4,2,1,45,0,0
21648,-95.2380952380952,4,2,1,45,0,0
22398,-100,4,2,1,45,0,0
24648,-263.157894736842,4,2,1,35,0,0
27648,-263.157894736842,4,2,2,35,0,0
36648,-133.333333333333,4,2,1,35,0,0
42273,-111.111111111111,4,2,1,35,0,0
42648,-100,4,2,1,45,0,0
53898,-200,4,2,2,35,0,0
54648,-100,4,2,1,45,0,0
59898,-100,4,2,2,45,0,0
64023,-200,4,2,2,30,0,0
64398,-83.3333333333333,4,2,1,35,0,0
65148,-83.3333333333333,4,2,1,75,0,1
67116,-83.3333333333333,4,2,1,5,0,1
67210,-83.3333333333333,4,2,1,75,0,1
69460,-83.3333333333333,4,2,2,75,0,1
69835,-83.3333333333333,4,2,1,75,0,1
70023,-83.3333333333333,4,2,2,75,0,1
70398,-83.3333333333333,4,2,1,75,0,1
76398,-200,4,2,1,75,0,1
76773,-200,4,2,2,75,0,1
77148,-83.3333333333333,4,2,1,75,0,1
81460,-83.3333333333333,4,2,2,75,0,1
81835,-83.3333333333333,4,2,1,75,0,1
83523,-83.3333333333333,4,2,2,75,0,1
83898,-83.3333333333333,4,2,1,75,0,1
85210,-83.3333333333333,4,2,2,75,0,1
85398,-83.3333333333333,4,2,1,75,0,1
85960,-83.3333333333333,4,2,2,75,0,1
87085,-83.3333333333333,4,2,1,75,0,1
90648,-83.3333333333333,4,2,2,60,0,1
91210,-83.3333333333333,4,2,1,60,0,1
91398,-83.3333333333333,4,2,1,50,0,1
92148,-200,4,2,1,30,0,0
101148,-133.333333333333,4,2,1,40,0,0
113148,-95.2380952380952,4,2,1,45,0,0
113898,-100,4,2,1,45,0,0
116148,-95.2380952380952,4,2,1,45,0,0
116898,-100,4,2,1,45,0,0
119148,-95.2380952380952,4,2,1,45,0,0
119898,-100,4,2,1,45,0,0
122148,-95.2380952380952,4,2,1,45,0,0
122898,-100,4,2,1,45,0,0
128148,-100,4,2,2,45,0,0
128710,-100,4,2,1,45,0,0
130398,-200,4,2,2,45,0,0
131148,-100,4,2,1,45,0,0
132648,-133.333333333333,4,2,1,45,0,0
134148,-100,4,2,1,45,0,0
135835,-100,4,2,2,45,0,0
137054,-100,4,2,1,45,0,0
140335,-133.333333333333,4,2,1,45,0,0
140898,-100,4,2,2,45,0,0
141648,-100,4,2,1,75,0,1
142960,-100,4,2,2,75,0,1
143335,-100,4,2,1,75,0,1
144273,-100,4,2,2,75,0,1
145210,-100,4,2,1,75,0,1
145960,-100,4,2,2,75,0,1
146898,-100,4,2,1,75,0,1
149148,-100,4,2,2,75,0,1
149898,-100,4,2,1,75,0,1
151585,-100,4,2,2,75,0,1
152335,-100,4,2,1,75,0,1
152898,-133.333333333333,4,2,2,75,0,1
153648,-100,4,2,1,75,0,1
154960,-100,4,2,2,75,0,1
155148,-100,4,2,1,75,0,1
155335,-100,4,2,2,75,0,1
157023,-100,4,2,1,75,0,1
157398,-100,4,2,2,75,0,1
157585,-100,4,2,1,75,0,1
157960,-100,4,2,2,75,0,1
158335,-100,4,2,1,75,0,1
160398,-100,4,2,2,75,0,1
162085,-100,4,2,1,75,0,1
162273,-100,4,2,2,75,0,1
162460,-100,4,2,1,75,0,1
165835,-100,4,2,1,50,0,1
166398,-100,4,2,1,80,0,1
167148,-100,4,2,1,75,0,1
168648,-100,4,2,1,75,0,0
170335,-100,4,2,2,75,0,0
170710,-100,4,2,1,75,0,0
173335,-100,4,2,2,75,0,0
173523,-100,4,2,1,75,0,0
179335,-100,4,2,2,75,0,0
181023,-100,4,2,1,75,0,0
187585,-100,4,2,2,75,0,0
188335,-100,4,2,1,75,0,0
194523,-100,4,2,2,75,0,0
194804,-100,4,2,1,75,0,0
197148,-100,4,2,2,75,0,0
197335,-100,4,2,1,75,0,0
197710,-100,4,2,2,75,0,0
198648,-100,4,2,1,75,0,0
201648,-200,4,2,1,45,0,0
203148,-200,4,2,2,45,0,0
217210,-133.333333333333,4,2,1,30,0,0
217773,-133.333333333333,4,2,1,50,0,0
217960,-133.333333333333,4,2,1,75,0,0
218523,-100,4,2,1,75,0,0
219085,-133.333333333333,4,2,2,45,0,0
219648,-83.3333333333333,4,2,1,85,0,1
223960,-83.3333333333333,4,2,2,85,0,1
226585,-83.3333333333333,4,2,1,85,0,1
227148,-83.3333333333333,4,2,2,85,0,1
229210,-83.3333333333333,4,2,1,85,0,1
230710,-83.3333333333333,4,2,2,85,0,1
231273,-83.3333333333333,4,2,1,85,0,1
231835,-83.3333333333333,4,2,1,50,0,1
233148,-83.3333333333333,4,2,1,70,0,1
233523,-83.3333333333333,4,2,1,80,0,1
234648,-133.333333333333,4,2,1,85,0,0
235023,-133.333333333333,4,2,1,70,0,0
235210,-133.333333333333,4,2,1,45,0,0
236898,-133.333333333333,4,2,1,20,0,0
236991,-133.333333333333,4,2,1,45,0,0
237273,-133.333333333333,4,2,1,20,0,0
237460,-133.333333333333,4,2,1,45,0,0
237835,-133.333333333333,4,2,1,30,0,0
238210,-133.333333333333,4,2,1,45,0,0
239710,-133.333333333333,4,2,1,30,0,0
239898,-133.333333333333,4,2,1,45,0,0
240273,-133.333333333333,4,2,1,30,0,0
240554,-133.333333333333,4,2,1,45,0,0
240835,-133.333333333333,4,2,1,30,0,0
241023,-133.333333333333,4,2,1,45,0,0
241866,-133.333333333333,4,2,1,30,0,0
241960,-133.333333333333,4,2,1,45,0,0
242898,-133.333333333333,4,2,1,30,0,0
244210,-133.333333333333,4,2,1,45,0,0
244773,-133.333333333333,4,2,1,30,0,0
244960,-133.333333333333,4,2,1,40,0,0
245523,-133.333333333333,4,2,1,25,0,0
246273,-133.333333333333,4,2,1,30,0,0
246366,-133.333333333333,4,2,1,25,0,0

[Colours]
Combo1 : 255,193,255
Combo2 : 159,159,255
Combo3 : 192,192,192

[HitObjects]
134,120,648,6,0,P|140:184|137:259,1,120.000004577637,4|2,0:0|0:0,0:0:0:0:
232,153,1398,2,0,P|224:216|206:289,1,120.000004577637,2|2,0:0|0:0,0:0:0:0:
320,205,2148,2,0,P|299:265|266:333,1,120.000004577637,2|2,0:0|0:0,0:0:0:0:
395,274,2898,2,0,P|362:329|315:388,1,120.000004577637,2|2,0:0|0:0,0:0:0:0:
308,155,3648,6,0,P|322:107|361:35,1,120.000004577637,2|2,0:0|0:0,0:0:0:0:
222,144,4398,2,0,P|226:93|248:15,1,120.000004577637,2|2,0:0|0:0,0:0:0:0:
135,151,5148,2,0,P|129:101|134:19,1,120.000004577637,2|2,0:0|0:0,0:0:0:0:
24,183,5898,6,0,L|37:248,1,60.0000022888184,2|0,0:0|0:0,0:0:0:0:
102,300,6273,1,0,0:0:0:0:
102,300,6366,1,0,0:0:0:0:
102,300,6460,1,2,3:0:0:0:
232,354,6648,6,0,P|234:319|234:279,1,60.0000022888184,0|0,3:0|0:0,0:0:0:0:
237,297,7023,1,2,2:0:0:0:
335,351,7210,1,0,0:0:0:0:
335,351,7304,1,0,0:0:0:0:
335,351,7398,2,0,P|347:323|363:294,1,60.0000022888184,2|0,0:0|0:0,0:0:0:0:
474,276,7773,2,0,P|493:272|509:266,2,30.0000011444092,2|0|0,0:0|0:0|0:0,0:0:0:0:
389,208,8148,2,0,P|341:207|318:215,1,60.0000022888184,2|0,0:0|0:0,0:0:0:0:
327,213,8523,1,2,0:0:0:0:
274,136,8710,1,0,0:0:0:0:
274,136,8804,1,0,0:0:0:0:
274,136,8898,5,2,0:0:0:0:
369,77,9085,1,0,0:0:0:0:
369,77,9179,1,0,0:0:0:0:
369,77,9273,2,0,L|379:119,2,30.0000011444092,2|0|0,0:0|0:0|0:0,0:0:0:0:
195,18,9648,6,0,L|192:88,1,60.0000022888184,2|0,0:0|0:0,0:0:0:0:
93,160,10023,2,0,P|37:176|27:176,1,60.0000022888184,2|0,0:0|0:0,0:0:0:0:
28,171,10304,1,0,0:0:0:0:
21,165,10398,1,2,0:0:0:0:
0,93,10585,1,0,0:0:0:0:
86,39,10773,2,0,L|116:77,1,30.0000011444092,2|0,0:0|0:0,0:0:0:0:
190,165,10960,1,12,3:2:0:0:
190,165,11335,1,8,3:0:0:0:
292,37,11523,1,8,0:0:0:0:
182,88,11710,1,4,3:0:0:0:
325,166,11898,5,2,3:0:0:0:
455,216,12085,2,0,L|434:165,1,30.0000011444092,0|0,1:0|3:0,0:0:0:0:
390,300,12273,2,0,L|397:261,1,35.9999989013672,0|0,1:0|3:0,0:0:0:0:
470,384,12460,2,0,L|459:335,1,40,0|0,1:0|3:0,0:0:0:0:
321,254,12648,5,6,1:0:0:0:
325,166,12835,2,0,L|321:109,2,40,0|0|0,3:0|3:0|3:0,3:0:0:0:
213,275,13210,1,8,0:0:0:0:
133,298,13585,2,0,P|136:246|112:134,1,160,6|8,3:0|0:0,0:0:0:0:
47,90,14335,2,0,P|42:65|43:23,1,40,2|2,0:0|0:0,0:0:0:0:
5,221,14523,2,0,P|77:229|161:207,1,160,2|0,3:0|0:0,0:0:0:0:
160,207,15085,1,2,0:0:0:0:
253,291,15273,1,8,0:0:0:0:
257,299,15366,1,2,0:0:0:0:
341,180,15554,1,2,0:0:0:0:
350,187,15648,6,0,P|346:143|294:40,2,125.999996154785,4|2|2,0:0|0:0|0:0,0:0:0:0:
342,270,16585,1,2,0:0:0:0:
210,40,16960,1,8,0:0:0:0:
153,101,17335,1,0,3:0:0:0:
153,101,17429,1,0,3:0:0:0:
153,101,17523,2,0,P|142:162|75:249,1,160,2|0,3:0|0:0,0:0:0:0:
17,141,18085,1,2,0:0:0:0:
34,273,18273,1,8,0:0:0:0:
48,282,18366,2,0,P|108:291|138:322,1,80,8|0,3:0|0:0,0:0:0:0:
136,310,18648,6,0,P|227:280|291:289,2,125.999996154785,6|2|8,0:0|0:0|0:0,0:0:0:0:
92,381,19585,1,2,0:0:0:0:
341,227,19960,1,8,0:0:0:0:
418,279,20336,1,2,0:0:0:0:
418,279,20429,1,0,3:0:0:0:
418,279,20523,2,0,P|421:205|475:105,1,160,2|0,3:0|0:0,0:0:0:0:
512,188,21085,1,2,0:0:0:0:
476,340,21273,1,8,0:0:0:0:
468,351,21366,1,2,0:0:0:0:
325,255,21554,1,8,3:0:0:0:
317,266,21648,6,0,P|290:219|280:133,2,125.999996154785,4|2|2,0:0|0:0|3:0,0:0:0:0:
394,287,22585,1,2,3:0:0:0:
204,89,22960,1,12,0:0:0:0:
139,34,23335,1,0,3:0:0:0:
139,34,23429,1,0,3:0:0:0:
139,34,23523,2,0,P|119:91|115:128,1,80,4|0,0:0|0:0,0:0:0:0:
3,156,23898,1,4,3:0:0:0:
36,331,24085,1,8,3:0:0:0:
139,278,24273,2,0,P|119:335|115:372,1,80,8|0,0:0|3:0,0:0:0:0:
124,365,24554,1,4,3:0:0:0:
136,370,24648,6,0,B|169:316|161:266|158:258|156:250|145:205|169:159|169:159|128:176|93:187|63:177|49:153|53:117|85:98|112:99|130:120|110:146,1,425.599994804688,2|0,1:0|0:0,0:0:0:0:
94,246,27648,6,0,B|156:249|194:211|194:211|201:246|171:280|160:323|192:361|224:357|277:354|287:324|267:299|228:282|228:256|256:216|298:233|313:280|295:302|273:293,1,425.599994804688,2|0,0:0|0:0,0:0:0:0:
327,194,30460,1,0,0:0:0:0:
462,257,30648,6,0,B|453:258|430:253|410:229|387:216|350:214|312:263|332:318|372:338|432:316|439:287|435:257|402:224|396:218|391:213|375:188|399:160|405:155|410:148|427:130|455:100|448:68|397:53|360:82|386:106,1,425.599994804688,2|0,3:0|0:0,0:0:0:0:
306,64,33648,6,0,B|340:34|328:-4|274:-4|241:22|254:89|255:97|256:105|264:167|246:201|224:229|194:247|153:254|132:240|120:217|124:189|139:163,1,425.599994804688,2|8,0:0|0:0,0:0:0:0:
0,225,36460,1,0,3:0:0:0:
30,290,36648,6,0,L|149:317,1,120.000004577637,4|2,0:0|0:0,0:0:0:0:
234,335,37210,1,0,3:0:0:0:
320,353,37398,2,0,P|352:336|378:297,1,60.0000022888184,2|8,0:0|0:0,0:0:0:0:
472,288,37773,2,0,L|465:330,2,30.0000011444092,0|0|0,3:0|3:0|3:0,0:0:0:0:
455,176,38148,2,0,L|316:197,1,120.000004577637,2|2,0:0|0:0,0:0:0:0:
336,193,38710,1,2,3:0:0:0:
367,116,38898,2,0,L|228:137,1,120.000004577637,2|8,0:0|0:0,0:0:0:0:
248,133,39460,1,0,3:0:0:0:
239,128,39554,1,0,3:0:0:0:
229,122,39648,2,0,P|182:121|114:66,1,120.000004577637,2|2,0:0|0:0,0:0:0:0:
204,25,40398,1,2,0:0:0:0:
47,62,40585,2,0,L|59:121,1,60.0000022888184,8|0,0:0|0:0,0:0:0:0:
56,131,40866,1,0,0:0:0:0:
50,140,40960,1,2,3:0:0:0:
50,140,41523,1,2,1:0:0:0:
50,140,41898,2,0,L|55:208,1,60.0000022888184,0|0,3:0|0:0,0:0:0:0:
109,280,42273,2,0,P|119:233|151:185,1,71.9999978027344,8|0,0:0|0:0,0:0:0:0:
37,299,42554,1,8,0:0:0:0:
39,306,42648,6,0,L|201:346,1,160,4|2,0:0|0:0,0:0:0:0:
307,352,43210,2,0,P|281:325|255:279,1,80,0|2,0:0|0:0,0:0:0:0:
297,131,43585,1,8,0:0:0:0:
297,131,43679,1,0,3:0:0:0:
297,131,43773,1,2,0:0:0:0:
379,64,43960,2,0,P|369:135|391:230,2,160,0|0|0,3:0|3:0|3:0,0:0:0:0:
451,23,45085,1,0,3:0:0:0:
297,131,45273,1,8,0:0:0:0:
239,89,45460,2,0,P|228:66|230:37,1,40
222,42,45648,6,0,P|192:126|115:184,1,160,4|2,0:0|0:0,0:0:0:0:
63,160,46398,1,2,0:0:0:0:
0,301,46585,2,0,L|81:313,1,80,8|2,0:0|3:0,0:0:0:0:
79,312,46960,1,2,3:0:0:0:
133,374,47335,1,2,0:0:0:0:
181,195,47523,5,8,0:0:0:0:
232,136,47898,1,2,0:0:0:0:
291,315,48085,1,8,0:0:0:0:
185,245,48273,2,0,P|158:245|131:241,1,40,2|0,3:0|0:0,0:0:0:0:
62,223,48460,2,0,P|26:208|16:199,1,40,2|0,0:0|0:0,0:0:0:0:
90,289,48648,5,4,0:0:0:0:
116,177,48835,1,0,0:0:0:0:
142,65,49023,1,2,0:0:0:0:
353,24,49210,2,0,L|312:201,1,160,4|8,0:0|0:0,0:0:0:0:
403,138,49773,1,2,0:0:0:0:
363,303,49960,2,0,L|205:332,2,160,4|0|2,0:0|3:0|3:0,0:0:0:0:
363,303,51085,1,4,0:0:0:0:
176,254,51273,1,4,0:0:0:0:
344,16,51648,6,0,L|337:100,1,80,8|8,0:0|0:0,0:0:0:0:
383,173,52023,1,2,3:0:0:0:
333,260,52210,1,4,3:0:0:0:
124,374,52585,2,0,P|127:328|114:290,1,80,2|0,3:0|0:0,0:0:0:0:
21,296,52866,1,2,0:0:0:0:
17,308,52960,2,0,P|80:317|166:281,1,160,4|0,0:0|0:0,0:0:0:0:
166,280,53523,1,0,3:0:0:0:
221,135,53710,1,2,0:0:0:0:
221,135,53898,6,0,L|225:111,1,20,2|0,0:0|0:0,0:0:0:0:
150,171,54085,2,0,L|145:147,1,20,2|0,0:0|0:0,0:0:0:0:
166,280,54273,2,0,L|170:256,1,20,6|0,0:0|0:0,0:0:0:0:
100,384,54460,2,0,L|95:360,1,20,2|0,0:0|0:0,0:0:0:0:
61,278,54648,6,0,P|138:294|202:341,1,160,12|2,1:0|0:0,0:0:0:0:
382,144,55398,2,0,P|335:208|318:285,1,160,8|2,0:0|0:0,0:0:0:0:
122,190,55960,2,0,P|91:171|55:161,1,40,2|0,0:0|0:0,0:0:0:0:
146,121,56148,2,0,P|151:162|165:213,1,80,2|2,0:0|0:0,0:0:0:0:
83,277,56523,1,2,3:0:0:0:
83,277,56616,1,2,0:0:0:0:
83,277,56710,1,2,0:0:0:0:
19,148,56898,2,0,L|7:240,1,80,2|0,3:0|0:0,0:0:0:0:
145,63,57273,1,12,0:0:0:0:
37,343,57648,6,0,P|96:352|168:322,1,120,4|0,1:3|0:0,0:0:0:0:
181,315,58023,1,8,0:0:0:0:
131,223,58210,2,0,L|148:39,1,160,8|8,3:0|3:0,0:0:0:0:
145,63,58773,1,8,0:0:0:0:
266,99,58960,1,2,0:0:0:0:
266,99,59054,1,2,0:0:0:0:
266,99,59148,1,2,0:0:0:0:
348,53,59335,5,2,3:0:0:0:
331,150,59523,1,8,0:0:0:0:
378,316,59710,1,4,0:0:0:0:
287,375,59898,1,2,0:0:0:0:
378,316,60085,2,0,P|383:273|384:224,1,80,2|0,1:0|0:0,0:0:0:0:
348,53,60460,2,0,P|329:42|306:24,1,40
266,99,60648,6,0,P|253:162|158:229,1,160,4|8,0:0|0:0,0:0:0:0:
83,235,61210,1,4,3:0:0:0:
20,129,61398,2,0,L|41:45,1,80,8|8,0:0|3:0,0:0:0:0:
83,235,61773,1,2,0:0:0:0:
39,51,61960,1,4,0:0:0:0:
39,51,62335,1,8,3:0:0:0:
20,129,62523,1,8,0:0:0:0:
83,235,62710,2,0,L|186:230,1,80,4|0,0:0|0:0,0:0:0:0:
363,127,63085,2,0,L|466:122,1,80,4|2,0:0|3:0,0:0:0:0:
442,123,63648,5,2,0:0:0:0:
442,123,63835,1,2,0:0:0:0:
442,123,64023,2,0,L|447:99,1,20,2|0,0:0|0:0,0:0:0:0:
360,206,64210,2,0,L|355:182,1,20,2|0,0:0|0:0,0:0:0:0:
443,370,64398,2,0,P|449:318|489:248,1,95.9999970703126,2|0,1:0|0:0,0:0:0:0:
367,23,64773,2,0,P|361:75|321:145,1,95.9999970703126,2|0,1:0|0:0,0:0:0:0:
199,161,65054,1,2,3:0:0:0:
171,157,65148,6,0,P|133:118|103:66,1,95.9999970703126,4|0,0:0|0:0,0:0:0:0:
24,251,65523,2,0,P|72:291|102:350,1,95.9999970703126,4|0,3:0|0:0,0:0:0:0:
173,377,65898,1,2,0:0:0:0:
270,351,66085,1,2,0:0:0:0:
94,214,66273,1,8,0:0:0:0:
24,251,66460,1,2,0:0:0:0:
63,89,66648,2,0,P|132:117|169:140,1,95.9999970703126,4|0,3:0|0:0,0:0:0:0:
41,22,67023,2,0,P|75:21|94:26,1,47.9999985351563,2|0,3:0|0:0,0:0:0:0:
252,146,67210,2,0,P|307:141|427:78,1,191.999994140625,2|0,1:0|0:0,0:0:0:0:
239,134,67773,1,8,0:0:0:0:
135,225,67960,1,2,0:0:0:0:
288,384,68148,6,0,P|311:294|357:217,1,143.999995605469,4|0,0:0|0:0,0:0:0:0:
361,223,68523,1,8,0:0:0:0:
465,117,68710,2,0,P|481:50|472:-8,1,95.9999970703126,2|0,0:0|0:0,0:0:0:0:
479,23,68991,1,2,0:0:0:0:
479,23,69085,1,2,0:0:0:0:
385,4,69273,1,8,0:0:0:0:
280,69,69460,2,0,P|202:60|110:29,1,143.999995605469,2|0,0:0|0:0,0:0:0:0:
112,18,69835,1,2,0:0:0:0:
42,112,70023,1,10,0:0:0:0:
253,297,70398,2,0,P|292:273|355:258,1,95.9999970703126,2|2,0:0|0:0,0:0:0:0:
164,359,70772,1,8,0:0:0:0:
23,293,70960,1,8,3:0:0:0:
28,264,71053,1,8,0:0:0:0:
33,235,71148,5,4,0:0:0:0:
120,178,71335,1,0,0:0:0:0:
29,48,71523,1,8,0:0:0:0:
1,135,71710,1,2,0:0:0:0:
1,135,71804,1,2,0:0:0:0:
1,135,71898,2,0,P|51:140|104:155,1,95.9999970703126,2|0,0:0|0:0,0:0:0:0:
252,104,72273,1,8,0:0:0:0:
329,159,72460,1,2,0:0:0:0:
365,308,72648,2,0,P|372:251|393:200,1,95.9999970703126,2|2,0:0|0:0,0:0:0:0:
488,88,73023,1,8,0:0:0:0:
507,159,73210,1,0,0:0:0:0:
466,329,73398,2,0,P|425:367|365:387,1,95.9999970703126,2|0,0:0|0:0,0:0:0:0:
218,312,73773,2,0,P|184:267|170:205,1,95.9999970703126,8|0,0:0|0:0,0:0:0:0:
190,384,74148,6,0,P|234:337|329:318,1,143.999995605469,4|0,0:0|0:0,0:0:0:0:
342,325,74523,1,8,0:0:0:0:
320,179,74710,2,0,P|357:142|377:74,1,95.9999970703126,2|0,0:0|0:0,0:0:0:0:
208,10,75085,1,2,0:0:0:0:
208,10,75179,1,2,0:0:0:0:
208,10,75273,1,8,0:0:0:0:
78,13,75460,2,0,P|143:79|158:204,1,191.999994140625,4|0,0:0|0:0,0:0:0:0:
13,135,76023,1,12,0:0:0:0:
126,74,76210,1,2,0:0:0:0:
48,230,76398,2,0,L|16:224,1,20,2|0,3:0|0:0,0:0:0:0:
115,289,76585,2,0,L|83:296,1,20,2|0,3:0|0:0,0:0:0:0:
267,334,76773,2,0,L|286:337,1,20,2|0,0:0|0:0,0:0:0:0:
353,226,76960,2,0,L|321:233,1,20,2|0,0:0|0:0,0:0:0:0:
270,133,77148,6,0,P|244:231|134:302,1,191.999994140625,4|2,0:0|0:0,0:0:0:0:
32,321,77710,1,2,3:0:0:0:
26,304,77804,2,0,P|34:250|62:207,1,95.9999970703126,2|0,0:0|0:0,0:0:0:0:
72,201,78085,1,2,0:0:0:0:
177,288,78273,2,0,P|220:303|283:334,1,95.9999970703126,8|0,0:0|0:0,0:0:0:0:
129,369,78648,2,0,P|116:339|115:304,1,47.9999985351563,2|0,0:0|0:0,0:0:0:0:
149,172,78835,2,0,P|152:143|121:74,1,95.9999970703126,2|0,1:0|0:0,0:0:0:0:
3,185,79210,2,2,P|78:198|195:176,1,191.999994140625,2|0,1:0|0:0,0:0:0:0:
397,81,79773,1,8,0:0:0:0:
496,140,79960,1,2,0:0:0:0:
483,313,80148,6,0,P|464:253|384:178,1,143.999995605469,4|0,0:0|0:0,0:0:0:0:
377,182,80523,1,8,0:0:0:0:
248,100,80710,2,0,P|215:47|203:6,1,95.9999970703126,2|0,0:0|0:0,0:0:0:0:
237,0,80991,2,0,P|265:6|297:20,1,47.9999985351563,2|2,0:0|0:0,0:0:0:0:
176,186,81273,1,8,0:0:0:0:
84,179,81460,2,0,P|107:247|227:299,1,191.999994140625,2|2,0:0|0:0,0:0:0:0:
369,266,82023,2,0,P|418:250|478:249,1,95.9999970703126,8|0,0:0|0:0,0:0:0:0:
389,384,82398,1,2,0:0:0:0:
282,320,82585,1,2,0:0:0:0:
330,148,82773,1,8,0:0:0:0:
489,114,82960,2,0,P|482:137|463:176,1,47.9999985351563,2|0,0:0|0:0,0:0:0:0:
406,207,83148,6,0,P|406:103|453:9,1,191.999994140625,4|2,0:0|0:0,0:0:0:0:
280,102,83710,1,2,3:0:0:0:
280,102,83804,1,0,0:0:0:0:
280,102,83898,1,2,0:0:0:0:
176,31,84085,2,0,P|182:75|192:133,1,95.9999970703126,2|8,0:0|0:0,0:0:0:0:
165,309,84460,2,0,P|168:225|158:187,1,95.9999970703126,2|0,3:0|0:0,0:0:0:0:
79,70,84835,1,0,3:0:0:0:
79,70,84929,1,0,3:0:0:0:
79,70,85023,1,8,0:0:0:0:
54,215,85210,2,0,L|36:327,1,95.9999970703126,2|2,0:0|0:0,0:0:0:0:
59,254,85585,1,2,3:0:0:0:
166,214,85773,1,8,0:0:0:0:
300,162,85960,1,2,0:0:0:0:
377,319,86148,6,0,P|294:321|190:379,1,191.999994140625,4|8,0:0|0:0,0:0:0:0:
127,100,86710,2,0,P|125:183|67:287,1,191.999994140625,4|2,3:0|0:0,0:0:0:0:
75,278,87273,1,8,0:0:0:0:
223,333,87460,2,0,P|209:260|236:143,1,191.999994140625,4|0,0:0|0:0,0:0:0:0:
414,243,88023,2,0,P|362:280|313:291,1,95.9999970703126,2|2,3:0|0:0,0:0:0:0:
331,288,88585,1,2,0:0:0:0:
358,200,88773,1,2,0:0:0:0:
290,51,88960,6,0,P|197:64|113:120,1,191.999994140625,4|0,0:0|0:0,0:0:0:0:
43,204,89523,2,0,L|148:228,1,95.9999970703126,8|2,0:0|0:0,0:0:0:0:
230,315,89898,2,0,L|335:291,1,95.9999970703126,8|2,0:0|0:0,0:0:0:0:
323,293,90273,1,8,0:0:0:0:
398,334,90460,1,2,3:0:0:0:
483,184,90648,2,0,P|435:153|369:152,1,95.9999970703126,2|0,0:0|0:0,0:0:0:0:
316,158,91023,1,8,0:0:0:0:
265,106,91210,1,2,0:0:0:0:
141,156,91398,1,8,0:0:0:0:
125,225,91585,1,2,0:0:0:0:
231,328,91773,1,8,0:0:0:0:
252,217,92148,6,0,L|341:240,1,80,4|2,0:0|3:0,0:0:0:0:
461,242,92898,2,0,P|451:178|455:106,2,120,8|2|2,0:0|0:0|0:0,0:0:0:0:
455,324,94398,2,0,L|403:336,1,40,8|0,0:0|0:0,0:0:0:0:
335,298,94773,2,0,L|290:287,1,40,0|2,3:0|3:0,0:0:0:0:
193,378,95148,6,0,L|177:296,1,80,4|2,0:0|0:0,0:0:0:0:
145,189,95898,2,0,P|85:212|15:211,2,120,8|4|2,0:0|0:0|3:0,0:0:0:0:
223,85,97398,2,0,L|210:45,1,40,8|2,0:0|0:0,0:0:0:0:
210,46,97773,1,8,3:0:0:0:
50,99,98148,6,0,L|137:110,1,80,4|2,0:0|0:0,0:0:0:0:
283,19,98898,2,0,P|279:68|287:141,2,120,8|2|2,0:0|3:2|3:0,0:0:0:0:
283,19,100210,1,0,3:0:0:0:
283,19,101148,6,0,P|293:78|285:152,1,120.000004577637,2|2,0:0|0:0,0:0:0:0:
166,183,101898,2,0,L|342:248,1,180.000006866455,8|2,0:0|0:0,0:0:0:0:
425,282,102835,1,2,0:0:0:0:
407,194,103210,1,2,0:0:0:0:
335,320,103398,2,0,L|268:329,1,60.0000022888184,8|0,0:0|0:0,0:0:0:0:
154,290,103773,1,2,3:0:0:0:
101,228,103960,1,2,3:0:0:0:
3,284,104148,6,0,P|15:230|7:144,1,120.000004577637,6|2,0:0|0:0,0:0:0:0:
76,49,104898,2,0,L|101:234,1,180.000006866455,8|2,0:0|3:0,0:0:0:0:
87,316,105835,1,2,0:0:0:0:
232,287,106023,1,2,3:0:0:0:
232,287,106398,2,0,P|268:301|299:305,1,60.0000022888184,8|2,0:0|0:0,0:0:0:0:
385,244,106773,2,0,P|426:255|459:278,1,60.0000022888184,2|8,3:0|0:0,0:0:0:0:
446,272,107054,1,8,0:0:0:0:
448,281,107148,6,0,P|451:240|425:144,1,120.000004577637,6|2,0:0|0:0,0:0:0:0:
512,67,107898,2,0,L|320:97,1,180.000006866455,10|2,0:0|0:3,0:0:0:0:
230,123,108835,1,2,0:0:0:0:
331,172,109210,1,2,0:0:0:0:
263,31,109398,2,0,P|213:44|184:58,1,60.0000022888184,8|2,0:0|0:0,0:0:0:0:
129,108,109773,2,0,P|94:118|45:124,1,60.0000022888184,0|2,3:0|3:0,0:0:0:0:
30,25,110148,6,0,P|34:103|20:162,1,120.000004577637,6|2,0:0|0:0,0:0:0:0:
52,290,110898,2,0,L|97:112,1,180.000006866455,8|2,0:0|3:0,0:0:0:0:
130,35,111835,1,2,0:0:0:0:
206,133,112023,1,2,3:0:0:0:
211,144,112116,1,8,0:0:0:0:
216,155,112210,1,2,0:0:0:0:
130,245,112398,2,0,P|107:286|97:321,1,60.0000022888184,8|2,0:0|0:0,0:0:0:0:
101,307,112679,1,8,0:0:0:0:
97,316,112773,2,0,P|76:329|54:336,1,30.0000011444092,8|8,0:0|3:0,0:0:0:0:
0,311,112960,1,4,3:0:0:0:
177,186,113148,6,0,P|179:115|199:64,2,125.999996154785,4|2|8,0:0|0:0|0:0,0:0:0:0:
198,266,114085,1,2,3:0:0:0:
278,21,114460,1,8,0:0:0:0:
349,86,114835,1,0,3:0:0:0:
349,86,114929,1,0,3:0:0:0:
349,86,115023,2,0,P|342:172|368:248,1,160,2|0,3:0|3:0,0:0:0:0:
429,295,115585,1,2,0:0:0:0:
295,344,115773,1,8,0:0:0:0:
286,349,115866,1,2,0:0:0:0:
181,275,116054,1,8,0:0:0:0:
178,266,116148,6,0,P|103:235|41:224,2,125.999996154785,4|2|2,0:0|0:0|0:3,0:0:0:0:
203,346,117085,1,2,0:3:0:0:
49,132,117460,1,8,0:0:0:0:
22,60,117835,1,0,3:0:0:0:
22,60,117929,1,0,3:0:0:0:
22,60,118023,2,0,P|74:52|184:93,1,160,8|0,0:0|0:0,0:0:0:0:
183,169,118585,1,2,0:0:0:0:
243,11,118773,1,8,0:0:0:0:
251,20,118866,1,2,0:0:0:0:
402,73,119054,1,8,0:0:0:0:
392,80,119148,6,0,P|397:148|437:224,2,125.999996154785,4|2|8,0:0|0:0|0:0,0:0:0:0:
433,0,120085,1,2,0:3:0:0:
460,217,120460,1,8,0:0:0:0:
377,242,120835,1,2,0:0:0:0:
377,242,120929,1,0,3:0:0:0:
377,242,121023,2,0,P|316:306|313:384,1,160,8|0,0:0|3:0,0:0:0:0:
391,384,121585,1,2,0:0:0:0:
265,286,121773,1,8,0:0:0:0:
256,292,121866,1,2,0:0:0:0:
105,340,122054,1,8,0:0:0:0:
112,348,122148,6,0,P|103:282|63:196,2,125.999996154785,4|2|2,0:0|0:0|0:3,0:0:0:0:
45,384,123085,1,2,0:3:0:0:
0,185,123460,2,0,P|55:176|159:121,1,160,4|0,0:0|3:0,0:0:0:0:
153,118,123929,1,2,0:0:0:0:
156,105,124023,1,4,0:0:0:0:
88,66,124398,1,8,3:0:0:0:
217,0,124585,1,8,0:0:0:0:
259,61,124773,2,0,L|352:46,1,80,8|0,3:0|3:0,0:0:0:0:
353,55,125054,1,2,0:0:0:0:
369,61,125148,5,4,0:0:0:0:
405,140,125335,1,0,3:0:0:0:
443,219,125523,1,0,3:0:0:0:
210,364,125710,2,0,L|168:206,1,160,4|8,0:0|0:0,0:0:0:0:
79,249,126273,1,2,0:0:0:0:
198,89,126460,2,0,L|38:73,2,160,4|2|2,0:0|3:0|3:0,0:0:0:0:
11,138,127585,1,4,0:0:0:0:
188,178,127773,1,2,3:0:0:0:
28,325,128148,6,0,L|109:336,1,80,2|8,0:0|0:0,0:0:0:0:
243,293,128523,1,2,3:0:0:0:
352,354,128710,1,2,0:0:0:0:
419,100,129085,2,0,P|366:98|334:91,1,80,4|0,0:0|0:0,0:0:0:0:
216,40,129366,1,8,3:0:0:0:
204,28,129460,2,0,P|157:56|100:152,1,160,4|0,0:0|3:0,0:0:0:0:
101,143,130023,1,0,0:0:0:0:
134,309,130210,1,2,0:0:0:0:
134,309,130398,6,0,L|129:332,1,20,2|0,0:0|0:0,0:0:0:0:
181,227,130585,2,0,L|185:250,1,20,2|0,0:0|0:0,0:0:0:0:
24,170,130773,2,0,L|19:193,1,20,4|0,0:0|0:0,0:0:0:0:
129,109,130960,2,0,L|133:132,1,20,2|2,0:0|0:0,0:0:0:0:
60,14,131148,6,0,P|131:41|249:46,1,160,4|2,0:0|0:0,0:0:0:0:
407,71,131710,2,0,P|419:48|436:22,1,40
354,27,131898,2,0,P|372:69|380:133,1,80,8|0,0:0|0:0,0:0:0:0:
365,188,132273,1,2,0:0:0:0:
365,188,132366,1,2,0:0:0:0:
365,188,132460,1,2,0:0:0:0:
340,293,132648,2,0,L|292:282,1,30.0000011444092
276,289,132835,2,0,L|232:341,1,60.0000022888184
232,344,133116,1,2,0:0:0:0:
227,352,133210,1,2,0:0:0:0:
111,258,133398,2,0,L|185:239,1,60.0000022888184,2|0,3:0|0:0,0:0:0:0:
0,168,133773,1,12,0:0:0:0:
241,4,134148,6,0,P|300:55|343:135,1,160,4|2,1:0|0:0,0:0:0:0:
355,276,134710,2,0,L|183:316,1,160,8|2,0:0|0:0,0:0:0:0:
80,341,135273,1,8,0:0:0:0:
148,244,135460,1,2,0:0:0:0:
148,244,135554,1,2,0:0:0:0:
148,244,135648,1,2,0:0:0:0:
14,147,135835,5,2,0:0:0:0:
108,73,136023,1,8,0:0:0:0:
255,93,136210,1,4,0:0:0:0:
308,35,136398,2,0,P|339:97|341:121,1,80,2|0,1:0|0:0,0:0:0:0:
343,267,136773,2,0,P|368:302|403:328,1,80,12|0,0:0|0:0,0:0:0:0:
410,324,137054,1,2,0:0:0:0:
423,322,137148,6,0,P|435:266|403:149,1,160,4|8,0:0|0:0,0:0:0:0:
340,106,137710,1,2,0:0:0:0:
217,41,137898,2,0,L|134:58,1,80,8|0,0:0|0:0,0:0:0:0:
340,106,138273,1,2,0:0:0:0:
138,57,138460,1,12,0:0:0:0:
138,57,138835,1,8,0:0:0:0:
217,41,139022,1,8,0:0:0:0:
340,106,139210,2,0,P|337:153|323:204,1,80,4|0,0:0|0:0,0:0:0:0:
248,329,139585,2,0,P|208:351|158:360,1,80,4|2,0:0|3:0,0:0:0:0:
174,358,140148,5,0,3:0:0:0:
174,358,140335,2,0,L|166:313,3,30.0000011444092,0|0|0|0,3:0|3:0|3:0|0:0,0:0:0:0:
109,116,140898,2,0,P|95:153|92:193,1,80,2|0,0:0|0:0,0:0:0:0:
251,347,141273,2,0,P|290:339|325:321,1,80,2|0,0:0|0:0,0:0:0:0:
330,71,141648,6,0,P|293:135|288:171,1,80,4|0,0:0|0:0,0:0:0:0:
321,211,141929,1,8,0:0:0:0:
338,237,142023,1,8,0:0:0:0:
437,318,142210,2,0,P|498:340|535:337,1,80,2|0,0:0|0:0,0:0:0:0:
437,240,142585,1,2,0:0:0:0:
325,320,142773,1,8,0:0:0:0:
238,311,142960,2,0,P|194:293|155:243,1,80,2|0,0:0|0:0,0:0:0:0:
154,234,143241,2,0,L|159:183,1,40,0|2,0:0|0:0,0:0:0:0:
249,39,143523,1,8,0:0:0:0:
321,163,143710,2,0,P|394:152|481:92,1,160,2|0,1:0|0:0,0:0:0:0:
249,39,144273,1,10,0:0:0:0:
123,169,144460,1,2,0:0:0:0:
239,319,144648,6,0,P|282:270|336:238,1,120,4|8,0:0|0:0,0:0:0:0:
366,240,145023,1,8,0:0:0:0:
418,371,145210,2,0,P|346:375|316:369,1,80,2|0,0:0|0:0,0:0:0:0:
266,342,145491,1,0,3:0:0:0:
239,319,145585,1,2,0:0:0:0:
120,208,145773,1,8,0:0:0:0:
71,290,145960,2,0,P|86:229|53:112,1,160,2|2,0:0|0:0,0:0:0:0:
25,296,146523,2,0,P|76:332|101:341,1,80,8|0,0:0|0:0,0:0:0:0:
196,333,146898,2,0,P|244:347|289:381,1,80,2|2,0:0|3:0,0:0:0:0:
92,338,147273,2,0,P|94:287|108:252,1,80,8|8,0:0|0:0,0:0:0:0:
151,180,147554,1,8,0:0:0:0:
167,158,147648,6,0,P|211:115|256:89,1,80,4|2,0:0|0:0,0:0:0:0:
393,129,148023,2,0,L|399:79,1,40,8|0,0:0|0:0,0:0:0:0:
474,76,148210,2,0,P|447:173|366:217,1,160,2|2,0:0|0:0,0:0:0:0:
156,273,148773,2,0,P|124:327|120:372,1,80,8|2,0:0|0:0,0:0:0:0:
39,194,149148,2,0,P|49:277|96:339,1,160,2|8,0:0|0:0,0:0:0:0:
200,355,149710,1,2,0:0:0:0:
326,243,149898,2,0,P|345:193|345:153,1,80,2|0,0:0|0:0,0:0:0:0:
243,76,150273,1,8,0:0:0:0:
317,28,150460,2,0,P|326:50|340:96,1,40,2|0,0:0|0:0,0:0:0:0:
327,198,150648,6,0,P|269:239|172:258,1,160,4|8,0:0|0:0,0:0:0:0:
100,139,151210,2,0,L|13:164,1,80
3,187,151491,2,0,L|-11:249,1,40,0|2,0:0|0:0,0:0:0:0:
183,258,151773,1,8,0:0:0:0:
327,198,151960,2,0,P|293:284|299:359,1,160,4|2,0:0|0:0,0:0:0:0:
512,267,152523,2,0,P|469:236|421:227,1,80,4|2,0:0|0:0,0:0:0:0:
366,315,152898,6,0,L|359:346,1,30.0000011444092,2|0,0:0|0:0,0:0:0:0:
286,281,153085,2,0,L|292:310,1,30.0000011444092,2|0,0:0|0:0,0:0:0:0:
364,188,153273,2,0,L|357:219,1,30.0000011444092,8|0,0:0|0:0,0:0:0:0:
228,112,153460,2,0,L|234:143,1,30.0000011444092,2|2,0:0|0:0,0:0:0:0:
392,51,153648,6,0,P|350:29|285:18,1,80,14|8,0:0|0:0,0:0:0:0:
234,18,153929,1,2,0:0:0:0:
210,33,154023,1,2,0:0:0:0:
101,103,154210,2,0,P|79:153|70:197,1,80,2|0,0:0|0:0,0:0:0:0:
228,112,154585,1,2,0:0:0:0:
89,20,154773,1,8,0:0:0:0:
228,112,154960,2,0,P|274:104|310:87,1,80,2|0,0:0|0:0,0:0:0:0:
330,72,155241,2,2,L|352:14,1,40
101,103,155523,1,8,0:0:0:0:
20,172,155710,2,0,P|-1:238|23:336,1,160,2|2,1:0|0:0,0:0:0:0:
194,377,156273,1,8,0:0:0:0:
322,245,156460,1,2,3:0:0:0:
412,384,156648,6,0,P|428:336|417:236,1,120,4|2,0:0|0:0,0:0:0:0:
414,233,157023,1,8,0:0:0:0:
237,283,157210,2,0,P|186:251|161:216,1,80,0|2,0:0|0:0,0:0:0:0:
129,157,157491,1,0,0:0:0:0:
127,131,157585,1,2,0:0:0:0:
275,0,157773,1,8,0:0:0:0:
391,54,157960,2,0,P|433:122|444:201,1,160,2|2,0:0|0:0,0:0:0:0:
352,331,158523,2,0,P|304:355|248:362,1,80,8|0,0:0|0:0,0:0:0:0:
195,316,158898,2,0,P|150:321|110:346,1,80,2|0,0:0|0:0,0:0:0:0:
278,360,159273,2,0,P|310:321|323:284,1,80
359,198,159554,1,2,0:0:0:0:
372,172,159648,6,0,P|391:98|389:22,1,120,12|8,0:0|0:0,0:0:0:0:
320,46,160023,2,0,L|262:59,1,40
194,146,160210,1,2,3:0:0:0:
173,134,160304,2,0,L|68:121,1,80,0|2,3:0|0:0,0:0:0:0:
73,112,160585,1,2,0:0:0:0:
145,0,160773,1,8,0:0:0:0:
239,0,160960,2,0,L|257:99,1,80,2|0,3:0|3:0,3:0:0:0:
347,140,161335,1,2,3:0:0:0:
347,140,161429,1,2,3:0:0:0:
347,140,161523,1,8,0:0:0:0:
405,27,161710,2,0,P|381:98|405:205,1,160,2|2,0:0|0:0,0:0:0:0:
455,302,162273,1,2,0:0:0:0:
384,354,162460,1,2,0:0:0:0:
316,280,162648,6,0,P|259:323|188:347,1,120,4|8,0:0|0:0,0:0:0:0:
170,339,163023,1,8,0:0:0:0:
82,232,163210,2,0,P|74:180|50:138,1,80,2|0,0:0|0:0,0:0:0:0:
19,90,163585,1,2,0:0:0:0:
19,90,163679,1,8,3:0:0:0:
19,90,163773,1,8,0:0:0:0:
0,262,163960,2,0,P|67:236|158:244,1,160,4|0,0:0|0:0,0:0:0:0:
304,361,164523,2,0,P|355:342|392:315,1,80,4|0,0:0|0:0,0:0:0:0:
418,139,164898,1,8,0:0:0:0:
348,96,165085,1,4,3:0:0:0:
392,27,165273,1,2,0:0:0:0:
329,254,165460,1,4,0:0:0:0:
329,254,165835,5,2,0:0:0:0:
376,194,166023,1,8,0:0:0:0:
380,197,166210,1,2,0:0:0:0:
308,128,166398,1,8,0:0:0:0:
380,106,166585,1,2,0:0:0:0:
440,35,166773,1,8,0:0:0:0:
315,9,166960,1,2,3:0:0:0:
233,81,167148,6,0,P|175:66|132:34,1,80,2|8,1:0|0:0,0:0:0:0:
103,0,167523,1,4,0:0:0:0:
159,253,167898,2,0,L|179:167,1,80,8|2,3:0|0:0,0:0:0:0:
113,130,168179,1,8,3:0:0:0:
106,135,168273,2,0,L|95:192,1,40,8|2,0:0|0:0,0:0:0:0:
22,198,168460,2,0,L|29:247,1,40,2|4,0:0|3:0,0:0:0:0:
83,297,168648,6,0,P|171:289|240:330,1,160,4|2,0:0|0:0,0:0:0:0:
177,175,169210,2,0,P|242:156|310:86,1,160,4|2,0:0|0:0,0:0:0:0:
272,18,169773,1,2,0:0:0:0:
102,122,169960,2,0,P|102:191|153:268,2,160,4|2|2,0:0|0:0|0:0,0:0:0:0:
163,61,170804,1,8,3:0:0:0:
163,61,170898,2,0,L|179:103,2,40,8|4|2,0:0|3:0|0:0,0:0:0:0:
9,3,171273,1,8,3:0:0:0:
347,3,171648,6,0,L|334:121,1,80,4|0,0:0|0:0,0:0:0:0:
319,234,172023,1,2,0:0:0:0:
428,251,172210,2,0,L|244:283,1,160,8|8,0:0|3:0,0:0:0:0:
147,266,172773,1,4,0:0:0:0:
319,234,172960,1,4,1:0:0:0:
319,234,173335,2,0,L|350:151,1,80,2|2,0:0|0:0,0:0:0:0:
268,5,173710,2,0,L|241:48,1,40,8|8,3:0|3:0,0:0:0:0:
178,62,173898,2,0,L|171:111,1,40,4|4,3:0|3:0,0:0:0:0:
129,170,174085,1,2,0:0:0:0:
22,106,174273,1,10,0:0:0:0:
0,183,174460,1,8,3:0:0:0:
0,183,174554,1,8,3:0:0:0:
0,183,174648,5,4,0:0:0:0:
36,271,174835,1,8,0:0:0:0:
74,359,175023,1,2,0:0:0:0:
276,326,175210,2,0,L|330:169,1,160,4|2,0:0|3:0,0:0:0:0:
255,114,175773,1,8,0:0:0:0:
255,114,175866,1,8,0:0:0:0:
255,114,175960,1,4,0:0:0:0:
85,7,176335,1,2,3:0:0:0:
154,15,176523,1,2,3:0:0:0:
264,30,176710,1,2,0:0:0:0:
379,87,176898,1,2,0:0:0:0:
371,97,176991,1,8,3:0:0:0:
357,215,177179,1,2,0:0:0:0:
365,225,177273,2,0,L|423:232,1,40,8|2,0:0|0:0,0:0:0:0:
475,304,177460,1,8,3:0:0:0:
475,304,177554,1,8,3:0:0:0:
475,304,177648,5,4,3:0:0:0:
376,375,177835,1,8,3:0:0:0:
368,365,177928,1,4,3:0:0:0:
193,265,178210,2,0,L|361:239,1,160,4|8,0:0|3:0,0:0:0:0:
413,179,178773,1,4,0:0:0:0:
294,330,178960,1,4,1:0:0:0:
360,77,179335,2,0,L|351:116,1,40,2|0,0:0|0:0,0:0:0:0:
259,37,179523,2,0,L|267:76,1,40,2|0,3:0|0:0,0:0:0:0:
397,0,179710,1,2,0:0:0:0:
397,0,180085,1,8,3:0:0:0:
482,140,180273,2,0,P|445:155|397:202,1,80,4|0,1:0|0:0,0:0:0:0:
346,301,180648,6,0,P|345:214|300:136,1,160,4|2,0:0|0:0,0:0:0:0:
221,16,181210,2,0,P|209:98|201:111,1,80,12|0,0:0|0:0,0:0:0:0:
128,207,181585,2,0,P|57:250|42:252,1,80,4|0,3:0|0:0,0:0:0:0:
11,61,181960,1,12,0:0:0:0:
11,61,182335,2,0,P|36:116|66:152,1,80,0|2,0:0|0:0,0:0:0:0:
185,262,182710,2,0,P|191:309|184:368,1,80,0|2,0:0|3:0,0:0:0:0:
180,352,182991,1,8,0:0:0:0:
167,356,183085,1,8,0:0:0:0:
81,271,183273,1,8,3:0:0:0:
140,166,183460,1,2,0:0:0:0:
198,61,183648,6,0,P|202:100|221:134,1,80,4|8,0:0|3:0,0:0:0:0:
234,138,183929,1,8,0:0:0:0:
248,138,184023,1,4,3:0:0:0:
346,230,184210,2,0,L|179:277,1,160,4|2,0:0|3:0,0:0:0:0:
120,240,184773,1,4,0:0:0:0:
296,288,184960,1,4,1:0:0:0:
296,288,185335,2,0,P|322:323|367:347,1,80,0|2,3:0|3:0,0:0:0:0:
395,255,185710,1,8,3:0:0:0:
395,255,185804,1,8,3:0:0:0:
395,255,185898,2,0,L|382:217,2,40,4|0|0,3:0|0:0|0:0,0:0:0:0:
458,319,186273,1,8,3:0:0:0:
502,218,186460,1,8,3:0:0:0:
502,218,186554,1,8,3:0:0:0:
502,218,186648,6,0,P|486:174|458:127,1,80,4|0,0:0|0:0,0:0:0:0:
353,54,187023,1,2,3:0:0:0:
432,6,187210,2,0,P|388:87|395:176,2,160,4|2|12,0:0|0:0|0:0,0:0:0:0:
465,13,188054,2,0,L|535:2,1,40
512,87,188335,1,2,0:0:0:0:
446,146,188523,1,2,0:0:0:0:
303,104,188710,1,2,3:0:0:0:
239,24,188898,1,2,0:0:0:0:
239,24,188991,1,8,3:0:0:0:
239,24,189085,1,4,3:0:0:0:
168,65,189273,2,0,L|151:105,1,40,2|2,0:0|0:0,0:0:0:0:
121,121,189460,2,0,L|123:192,1,40,2|2,0:0|0:0,0:0:0:0:
88,189,189648,5,8,0:0:0:0:
88,189,189741,1,8,3:0:0:0:
88,189,189835,2,0,L|37:198,2,40,4|2|2,3:0|0:0|0:0,0:0:0:0:
231,279,190210,2,4,P|298:238|388:215,1,160,4|6,0:0|0:0,0:0:0:0:
454,176,190773,1,4,0:0:0:0:
287,276,190960,1,4,1:0:0:0:
372,323,191335,1,2,3:0:0:0:
450,268,191523,1,4,0:0:0:0:
375,216,191710,1,2,0:0:0:0:
442,107,191898,1,8,0:0:0:0:
363,38,192085,1,8,0:0:0:0:
363,38,192179,1,8,3:0:0:0:
363,38,192273,2,0,L|350:86,2,40,4|2|2,3:0|0:0|0:0,0:0:0:0:
183,13,192648,5,0,3:0:0:0:
249,103,192835,1,2,3:0:0:0:
143,170,193023,1,2,3:0:0:0:
192,284,193210,1,4,0:0:0:0:
79,366,193398,1,4,0:0:0:0:
143,170,193585,2,0,P|130:118|94:75,1,80,4|0,1:0|0:0,0:0:0:0:
65,253,193960,2,0,P|131:297|167:375,1,160,4|2,0:0|0:0,0:0:0:0:
309,384,194523,2,0,P|358:379|403:366,1,80,2|4,0:0|3:0,0:0:0:0:
397,364,194804,1,2,0:0:0:0:
402,356,194898,1,2,0:0:0:0:
477,275,195085,2,0,L|490:321,2,40,8|8|8,3:0|3:0|0:0,0:0:0:0:
368,231,195460,1,4,3:0:0:0:
466,111,195648,5,8,3:0:0:0:
466,111,195741,1,8,3:0:0:0:
466,111,195835,2,0,L|461:167,2,40,8|4|4,3:0|3:0|3:0,0:0:0:0:
348,4,196210,2,0,P|336:66|251:160,1,160,4|0,0:0|0:0,0:0:0:0:
84,183,196773,1,2,3:0:0:0:
133,111,196960,2,0,P|172:99|210:69,1,80,4|2,0:0|0:0,0:0:0:0:
80,43,197335,1,2,0:0:0:0:
189,147,197523,2,0,P|179:193|152:253,1,80,2|2,3:0|0:0,0:0:0:0:
88,295,197898,1,8,0:0:0:0:
88,295,197991,1,8,3:0:0:0:
88,295,198085,1,4,3:0:0:0:
202,374,198273,2,0,P|223:318|216:269,1,80,4|0,0:0|0:0,0:0:0:0:
282,133,198648,6,0,P|290:232|337:296,1,160,6|2,0:0|3:0,0:0:0:0:
405,311,199210,1,12,0:3:0:0:
177,160,199585,1,8,0:3:0:0:
424,44,199960,1,4,0:0:0:0:
424,44,200335,1,0,0:0:0:0:
341,71,200523,1,4,0:0:0:0:
415,138,200710,1,8,0:0:0:0:
364,206,200898,2,0,P|378:256|382:294,1,80,0|8,0:0|3:0,0:0:0:0:
377,293,201179,1,8,3:0:0:0:
372,299,201273,1,8,0:0:0:0:
274,340,201460,1,8,3:0:0:0:
274,340,201554,1,8,3:0:0:0:
274,340,201648,6,0,P|208:335|130:195,1,240,2|0,1:0|0:0,0:0:0:0:
252,217,203148,1,2,0:3:0:0:
252,217,204648,5,2,0:0:0:0:
252,217,216648,6,0,P|243:268|245:311,1,80,2|0,3:0|0:0,0:0:0:0:
353,381,217210,2,0,P|357:340|355:305,1,60.0000022888184,8|2,0:0|0:0,0:0:0:0:
327,253,217585,1,8,0:0:0:0:
388,185,217773,1,8,0:0:0:0:
343,38,217960,1,4,0:0:0:0:
343,38,218523,2,0,P|337:84|350:136,1,80,4|0,0:0|0:0,0:0:0:0:
388,185,218898,1,4,3:0:0:0:
298,271,219085,2,0,P|272:285|259:288,1,30.0000011444092,2|0,0:0|0:0,0:0:0:0:
185,227,219273,2,0,P|185:197|189:184,1,30.0000011444092,0|8,0:0|3:0,0:0:0:0:
279,156,219460,2,0,P|304:170|313:181,1,30.0000011444092,8|8,0:0|0:0,0:0:0:0:
189,363,219648,6,0,P|157:348|100:277,1,95.9999970703126,4|0,1:0|0:0,0:0:0:0:
107,281,219929,1,2,0:0:0:0:
101,250,220023,1,8,0:0:0:0:
172,158,220210,1,2,0:0:0:0:
201,166,220304,1,4,3:0:0:0:
341,286,220585,1,2,0:0:0:0:
372,195,220773,2,0,P|380:140|358:74,1,95.9999970703126,8|0,0:0|0:0,0:0:0:0:
234,15,221148,1,2,0:0:0:0:
234,15,221241,1,2,0:0:0:0:
234,15,221335,1,2,0:0:0:0:
141,52,221523,1,8,0:0:0:0:
97,198,221710,2,0,P|102:105|54:14,1,191.999994140625,2|2,1:0|0:0,0:0:0:0:
0,213,222273,1,8,0:0:0:0:
26,363,222460,1,8,3:0:0:0:
168,256,222648,6,0,P|248:234|375:269,1,191.999994140625,4|8,0:0|0:0,0:0:0:0:
486,333,223210,2,0,P|506:285|508:225,1,95.9999970703126,2|0,0:0|0:0,0:0:0:0:
420,161,223585,1,2,0:0:0:0:
270,300,223773,1,8,0:0:0:0:
184,244,223960,2,0,P|201:161|296:98,1,191.999994140625,2|0,0:0|0:0,0:0:0:0:
428,168,224523,1,8,0:0:0:0:
428,168,224616,1,4,3:0:0:0:
428,168,224710,1,2,0:0:0:0:
474,93,224898,2,0,L|476:39,2,47.9999985351563,0|0|0,3:0|3:0|3:0,0:0:0:0:
375,30,225273,1,8,3:0:0:0:
225,16,225460,1,8,3:0:0:0:
236,43,225554,1,4,3:0:0:0:
244,71,225648,6,0,P|234:131|108:216,1,191.999994140625,4|8,0:0|0:0,0:0:0:0:
15,120,226210,1,2,3:0:0:0:
37,106,226304,1,2,3:0:0:0:
138,212,226491,1,2,3:0:0:0:
127,236,226585,1,2,0:0:0:0:
0,249,226773,1,8,0:0:0:0:
103,355,226960,1,2,3:0:0:0:
103,355,227054,1,0,3:0:0:0:
103,355,227148,2,0,P|158:344|196:313,1,95.9999970703126,2|2,0:0|3:0,0:0:0:0:
200,302,227429,1,0,3:0:0:0:
206,282,227523,1,0,3:0:0:0:
301,384,227710,2,0,P|294:280|334:202,1,191.999994140625,2|0,1:0|0:0,0:0:0:0:
448,72,228273,1,8,0:0:0:0:
510,185,228460,1,2,3:0:0:0:
456,304,228648,6,0,P|400:230|385:115,1,191.999994140625,4|8,0:0|0:0,0:0:0:0:
375,0,229210,2,0,P|388:53|305:194,1,191.999994140625,2|0,0:0|0:0,0:0:0:0:
144,299,229773,1,8,0:0:0:0:
17,130,229960,2,0,P|76:109|197:165,1,191.999994140625,4|0,0:0|0:0,0:0:0:0:
144,299,230523,1,4,0:0:0:0:
321,363,230710,2,0,P|397:337|476:258,1,191.999994140625,2|0,0:0|0:0,0:0:0:0:
512,110,231273,1,2,0:0:0:0:
339,38,231460,1,4,1:0:0:0:
339,38,231835,5,0,0:0:0:0:
221,32,232023,1,8,0:0:0:0:
248,115,232210,1,2,0:0:0:0:
110,53,232398,1,8,0:0:0:0:
138,106,232585,1,2,3:0:0:0:
5,96,232773,1,8,0:0:0:0:
25,128,232960,1,2,3:0:0:0:
61,233,233148,1,2,0:0:0:0:
75,226,233335,1,8,0:0:0:0:
76,319,233523,1,8,3:0:0:0:
142,279,233710,1,8,0:0:0:0:
171,384,233898,1,2,3:0:0:0:
196,156,234273,1,4,1:0:0:0:
252,217,234648,5,4,0:0:0:0:
344,306,235023,1,2,0:0:0:0:
344,306,235210,2,0,L|358:172,2,120.000004577637,12|2|8,0:0|0:0|0:0,0:0:0:0:
205,345,236335,1,2,0:0:0:0:
134,307,236710,1,2,0:0:0:0:
134,307,236898,2,0,L|121:357,2,30.0000011444092,8|2|2,0:0|0:0|0:0,0:0:0:0:
137,230,237273,2,0,P|102:235|72:253,1,60.0000022888184,8|2,0:0|0:0,0:0:0:0:
0,294,237648,2,0,P|12:244|12:218,1,60.0000022888184,4|8,0:0|0:0,0:0:0:0:
10,229,237929,1,8,0:0:0:0:
7,223,238023,1,8,3:0:0:0:
20,150,238210,2,0,L|144:137,2,120.000004577637,4|8|4,0:0|3:0|1:0,0:0:0:0:
73,15,239335,1,2,0:0:0:0:
179,68,239710,2,0,L|171:111,1,30.0000011444092,2|2,0:0|0:0,0:0:0:0:
183,118,239898,2,0,L|166:158,2,30.0000011444092,8|2|2,3:0|0:0|0:0,0:0:0:0:
257,82,240273,1,8,0:0:0:0:
324,146,240460,1,8,0:0:0:0:
324,146,240554,1,8,3:0:0:0:
324,146,240648,2,0,P|356:130|389:108,1,60.0000022888184,4|8,0:0|0:0,0:0:0:0:
423,58,241023,1,2,0:3:0:0:
468,131,241210,2,0,L|431:251,1,120.000004577637,4|2,0:0|3:0,0:0:0:0:
457,328,241773,1,2,0:0:0:0:
457,328,241866,1,8,0:0:0:0:
457,328,241960,2,0,L|319:340,1,120.000004577637,4|2,0:0|0:0,0:0:0:0:
330,343,242429,1,0,3:0:0:0:
324,348,242523,1,0,3:0:0:0:
254,305,242710,2,0,L|212:297,1,30.0000011444092,2|0,0:0|3:0,0:0:0:0:
207,311,242898,2,0,L|165:319,2,30.0000011444092,8|8|8,3:0|0:0|3:0,0:0:0:0:
172,238,243273,2,0,L|163:200,1,30.0000011444092,8|8,0:0|3:0,0:0:0:0:
146,202,243460,2,0,L|150:170,2,30.0000011444092,2|8|4,0:0|3:0|3:0,0:0:0:0:
90,260,243835,2,0,L|100:303,2,30.0000011444092,2|4|4,0:0|3:0|3:0,0:0:0:0:
154,338,244210,2,0,P|226:338|291:324,1,120.000004577637,4|8,0:0|3:0,0:0:0:0:
339,286,244773,1,4,2:0:0:0:
390,357,244960,1,4,1:0:0:0:
492,236,245335,2,0,L|412:244,1,60.0000022888184,2|8,0:0|0:0,0:0:0:0:
298,149,245898,1,4,3:0:0:0:
202,80,246085,2,0,L|203:130,1,30.0000011444092,8|8,3:0|0:0,0:0:0:0:
190,132,246273,2,0,L|201:180,2,30.0000011444092,4|8|4,0:0|3:0|3:0,0:0:0:0:
128,86,246648,5,4,0:0:0:0:
