osu file format v14

[General]
AudioFilename: audio.mp3
AudioLeadIn: 0
PreviewTime: 155966
Countdown: 0
SampleSet: None
StackLeniency: 0.5
Mode: 0
LetterboxInBreaks: 0
WidescreenStoryboard: 1

[Editor]
Bookmarks: 10429,97702,220429
DistanceSpacing: 1.2
BeatDivisor: 4
GridSize: 16
TimelineZoom: 2.2

[Metadata]
Title:Ribbon
TitleUnicode:Ribbon
Artist:FELT
ArtistUnicode:FELT
Creator:samosita
Version:Deneb's Hard
Source:東方永夜抄 ~ Imperishable Night.
Tags:Illstared Dive reimu hakurei 東方永夜抄より 蓮台野夜行 ~ Ghostly Field Club 幻視の夜 〜 Ghostly Eyes Genshi no Yoru ~ Illusionary Night 美歌 mika 舞花 maika Maurits"禅"Cornelis mzc 東方Project touhou reitasai 16 deneb
BeatmapID:2471180
BeatmapSetID:971992

[Difficulty]
HPDrainRate:4
CircleSize:4
OverallDifficulty:4
ApproachRate:8
SliderMultiplier:1.4
SliderTickRate:1

[Events]
//Background and Video events
0,0,"red.jpg",0,0
//Break Periods
//Storyboard Layer 0 (Background)
//Storyboard Layer 1 (Fail)
//Storyboard Layer 2 (Pass)
//Storyboard Layer 3 (Foreground)
//Storyboard Layer 4 (Overlay)
//Storyboard Sound Samples

[TimingPoints]
512,495.867768595041,4,2,1,65,1,0
10429,-100,4,2,1,65,0,0
10433,-100,4,2,1,75,0,0
61875,-100,4,2,1,75,0,0
61999,-100,4,2,1,75,0,0
63983,-83.3333333333333,4,2,1,85,0,1
86421,-83.3333333333333,4,2,1,20,0,1
86545,-83.3333333333333,4,2,1,85,0,1
95098,-83.3333333333333,4,2,1,85,0,0
95222,-100,4,2,1,85,0,0
95718,-100,4,2,1,65,0,0
97454,-100,4,2,1,65,0,0
103652,-100,4,2,1,65,0,0
107619,-100,4,2,1,65,0,0
107867,-100,4,2,1,65,0,0
119520,-100,4,2,1,65,0,0
119768,-100,4,2,1,65,0,0
131421,-100,4,2,1,65,0,0
131916,-100,4,2,1,65,0,0
139354,-100,4,2,1,75,0,0
151255,-100,4,2,1,75,0,0
151379,-100,4,2,1,75,0,0
156214,-100,4,1,1,75,0,0
157206,-100,4,1,1,85,0,0
157702,-83.3333333333333,4,1,1,85,0,1
188693,-83.3333333333333,4,1,1,85,0,0
188941,-83.3333333333333,4,1,1,100,0,1
220181,-83.3333333333333,4,2,1,100,0,1
222288,-83.3333333333333,4,2,1,65,0,1
222660,-83.3333333333333,4,2,1,65,0,0
228673,-83.3333333333333,4,2,1,5,0,0

[Colours]
Combo1 : 80,68,227
Combo2 : 216,103,185
Combo3 : 255,140,143
Combo4 : 95,200,239

[HitObjects]
84,26,10429,6,0,L|160:30,1,70,2|0,0:0|0:0,0:0:0:0:
176,110,10925,2,0,L|252:114,1,70,0|2,0:0|0:0,0:0:0:0:
310,59,11421,1,0,0:0:0:0:
310,59,11916,1,0,0:0:0:0:
391,37,12164,2,0,P|397:113|375:191,1,140,2|0,0:0|0:0,0:0:0:0:
341,248,12908,1,0,0:0:0:0:
424,251,13156,1,2,0:0:0:0:
448,332,13404,2,0,P|413:335|381:323,1,70,0|0,0:0|0:0,0:0:0:0:
302,354,13900,2,0,P|269:365|234:363,1,70,0|0,0:0|0:0,0:0:0:0:
258,282,14396,6,0,L|182:286,1,70,2|0,0:0|0:0,0:0:0:0:
125,342,14892,2,0,L|55:338,1,70,0|2,0:0|0:0,0:0:0:0:
51,253,15388,1,0,0:0:0:0:
51,253,15883,1,0,0:0:0:0:
133,261,16131,6,0,P|145:191|143:103,1,140,2|0,0:0|0:0,0:0:0:0:
56,121,16875,1,0,0:0:0:0:
108,42,17123,1,2,0:0:0:0:
108,42,17867,6,0,L|112:112,1,70,0|0,0:0|0:0,0:0:0:0:
195,121,18363,2,0,L|191:191,1,70,4|0,0:0|0:0,0:0:0:0:
153,266,18859,1,0,0:0:0:0:
209,327,19107,2,0,P|284:298|350:298,1,140,2|0,0:0|0:0,0:0:0:0:
406,351,19850,1,0,0:0:0:0:
479,309,20098,6,0,P|482:263|443:159,1,140,2|0,0:0|0:0,0:0:0:0:
375,143,20842,1,0,0:0:0:0:
298,172,21090,1,0,0:0:0:0:
255,99,21338,2,0,P|301:86|341:97,1,70,2|0,0:0|0:0,0:0:0:0:
379,27,21834,2,0,P|426:38|455:68,1,70,0|0,0:0|0:0,0:0:0:0:
468,142,22330,6,0,L|303:158,1,140,2|0,0:0|0:0,0:0:0:0:
275,222,23073,2,0,L|227:197,1,35,2|0,0:0|0:0,0:0:0:0:
178,83,23569,1,0,0:0:0:0:
110,148,23817,1,0,0:0:0:0:
47,266,24313,6,0,P|118:269|146:275,1,70,2|0,0:0|0:0,0:0:0:0:
197,294,24809,2,0,P|194:223|188:195,1,70,0|0,0:0|0:0,0:0:0:0:
132,166,25305,2,0,P|148:145|157:107,1,35,2|0,0:0|0:0,0:0:0:0:
133,14,25801,1,0,0:0:0:0:
133,14,26297,6,0,P|183:40|207:73,1,70,4|0,0:0|0:0,0:0:0:0:
270,20,26792,2,0,P|292:46|305:78,1,70,0|2,0:0|0:0,0:0:0:0:
378,121,27288,2,0,P|323:187|291:267,1,140,0|0,0:0|0:0,0:0:0:0:
230,290,28032,6,0,L|220:150,1,140,2|0,0:0|0:0,0:0:0:0:
161,95,28776,1,0,0:0:0:0:
141,176,29024,1,2,0:0:0:0:
197,238,29272,1,0,0:0:0:0:
280,232,29520,1,0,0:0:0:0:
331,165,29768,1,0,0:0:0:0:
331,165,30264,6,0,P|341:223|338:319,1,140,2|0,0:0|0:0,0:0:0:0:
201,369,31255,2,0,P|191:311|194:215,1,140,0|0,0:0|0:0,0:0:0:0:
229,154,31999,6,0,P|171:164|75:161,1,140,2|0,0:0|0:0,0:0:0:0:
69,81,32743,1,0,0:0:0:0:
120,14,32991,1,2,0:0:0:0:
460,113,34231,5,4,0:0:0:0:
495,188,34478,1,0,0:0:0:0:
468,267,34726,2,0,P|419:279|395:271,1,70,0|0,0:0|0:0,0:0:0:0:
339,224,35222,1,2,0:0:0:0:
413,171,35470,1,0,0:0:0:0:
436,87,35718,2,0,P|401:81|369:94,1,70,0|0,0:0|0:0,0:0:0:0:
310,168,36214,1,2,0:0:0:0:
229,143,36462,1,0,0:0:0:0:
151,180,36710,2,0,P|102:175|79:153,1,70,0|0,0:0|0:0,0:0:0:0:
82,78,37206,6,0,P|115:84|149:108,1,70,2|0,0:0|0:0,0:0:0:0:
151,180,37702,1,0,0:0:0:0:
86,233,37950,1,0,0:0:0:0:
19,181,38197,6,0,L|35:22,1,140,4|0,0:0|0:0,0:0:0:0:
108,4,38941,2,0,L|109:42,1,35,2|0,0:0|0:0,0:0:0:0:
108,38,39437,1,0,0:0:0:0:
155,107,39685,1,0,0:0:0:0:
224,154,39933,6,0,P|277:129|365:129,1,140,0|0,0:0|0:0,0:0:0:0:
427,174,40677,2,0,L|432:265,1,70,0|0,0:0|0:0,0:0:0:0:
348,264,41173,2,0,L|343:355,1,70,2|0,0:0|0:0,0:0:0:0:
260,343,41669,1,0,0:0:0:0:
260,343,42164,6,0,P|188:327|117:328,1,140,2|0,0:0|0:0,0:0:0:0:
97,246,42908,2,0,P|94:199|63:249,1,140,0|0,0:0|0:0,0:0:0:0:
58,328,43652,1,2,0:0:0:0:
225,317,44148,2,0,B|199:243|250:264|215:175,1,140,2|0,0:0|0:0,0:0:0:0:
374,241,45140,2,0,P|363:206|364:159,1,70,0|0,0:0|0:0,0:0:0:0:
381,96,45635,2,0,P|415:94|449:83,1,70,0|0,0:0|0:0,0:0:0:0:
388,13,46131,6,0,P|348:21|264:95,1,140,4|0,0:0|0:0,0:0:0:0:
207,135,46875,1,0,0:0:0:0:
272,193,47123,1,0,0:0:0:0:
272,193,47867,1,0,0:0:0:0:
239,280,48115,6,0,P|202:257|180:223,1,70,2|0,0:0|0:0,0:0:0:0:
130,176,48611,1,0,0:0:0:0:
207,143,48859,1,0,0:0:0:0:
290,152,49107,2,0,L|304:74,1,70,2|0,0:0|0:0,0:0:0:0:
385,97,49602,2,0,L|371:19,1,70,0|0,0:0|0:0,0:0:0:0:
302,83,50098,6,0,L|277:220,1,140,2|0,0:0|0:0,0:0:0:0:
224,288,50842,1,0,0:0:0:0:
320,292,51090,1,0,0:0:0:0:
320,292,51586,2,0,P|261:286|230:300,1,70,0|0,0:0|0:0,0:0:0:0:
181,335,52082,2,0,P|122:341|87:323,1,70,2|0,0:0|0:0,0:0:0:0:
135,233,52826,1,0,0:0:0:0:
65,177,53073,2,0,L|70:82,1,70,2|0,0:0|0:0,0:0:0:0:
200,2,53817,1,0,0:0:0:0:
135,53,54065,6,0,L|132:122,1,70,4|0,0:0|0:0,0:0:0:0:
195,178,54561,1,0,0:0:0:0:
274,149,54809,2,0,L|276:92,1,35,2|0,0:0|0:0,0:0:0:0:
275,114,55305,1,0,0:0:0:0:
392,234,55801,1,0,0:0:0:0:
468,267,56049,6,0,P|473:222|455:181,1,70,2|0,0:0|0:0,0:0:0:0:
397,149,56545,1,0,0:0:0:0:
322,187,56792,1,0,0:0:0:0:
315,270,57040,1,2,0:0:0:0:
315,270,57536,1,0,0:0:0:0:
271,198,57784,6,0,L|366:179,1,70,0|2,0:0|0:0,0:0:0:0:
339,184,58528,1,0,0:0:0:0:
420,204,58776,1,0,0:0:0:0:
414,281,59024,2,0,L|319:262,1,70,2|0,0:0|0:0,0:0:0:0:
346,268,60016,6,0,P|273:260|306:358,1,210,4|0,0:0|0:0,0:0:0:0:
337,182,61007,2,0,P|245:192|182:324,1,245,2|2,0:0|0:0,0:0:0:0:
191,358,61999,1,4,0:0:0:0:
99,127,63983,6,0,P|149:140|192:130,1,83.9999974365235,4|0,0:0|0:0,0:0:0:0:
239,51,64478,1,2,0:0:0:0:
145,39,64726,2,0,B|119:117|194:117|145:227,1,167.999994873047,0|0,0:0|0:0,0:0:0:0:
117,319,65470,1,2,0:0:0:0:
90,236,65718,2,0,P|142:235|181:261,1,83.9999974365235,0|4,0:0|0:0,0:0:0:0:
232,316,66214,1,0,0:0:0:0:
321,317,66462,1,2,0:0:0:0:
395,287,66710,1,0,0:0:0:0:
464,239,66958,2,0,P|419:206|367:212,1,83.9999974365235,0|0,0:0|0:0,0:0:0:0:
304,242,67454,1,2,0:0:0:0:
228,198,67702,1,0,0:0:0:0:
304,162,67950,1,4,0:0:0:0:
235,56,68445,5,2,0:0:0:0:
303,10,68693,2,0,B|341:100|276:100|306:204,1,167.999994873047,0|0,0:0|0:0,0:0:0:0:
353,245,69437,1,2,0:0:0:0:
424,200,69685,2,0,L|419:93,1,83.9999974365235,0|4,0:0|0:0,0:0:0:0:
415,21,70181,1,0,0:0:0:0:
324,9,70429,2,0,L|320:109,1,83.9999974365235,2|0,0:0|0:0,0:0:0:0:
276,166,70925,1,0,0:0:0:0:
276,166,71421,2,0,P|209:144|177:116,1,83.9999974365235,2|0,0:0|0:0,0:0:0:0:
192,52,71916,6,0,L|166:251,1,167.999994873047,4|2,0:0|0:0,0:0:0:0:
137,323,72660,1,0,0:0:0:0:
204,277,72908,2,0,P|137:240|105:247,1,83.9999974365235,0|0,0:0|0:0,0:0:0:0:
41,267,73404,1,2,0:0:0:0:
41,267,73900,6,0,L|53:146,1,83.9999974365235,4|0,0:0|0:0,0:0:0:0:
60,96,74396,1,2,0:0:0:0:
146,107,74644,2,0,B|205:146|260:70|324:140,1,167.999994873047,0|0,0:0|0:0,0:0:0:0:
341,220,75388,1,2,0:0:0:0:
256,190,75635,2,0,L|266:80,1,83.9999974365235,0|4,0:0|0:0,0:0:0:0:
231,24,76131,6,0,P|183:79|183:112,1,83.9999974365235,0|2,0:0|0:0,0:0:0:0:
197,206,76627,2,0,L|163:168,1,41.9999987182618,0|0,0:0|0:0,0:0:0:0:
152,157,76875,1,0,0:0:0:0:
288,320,77371,1,2,0:0:0:0:
209,249,77619,2,0,L|216:191,1,41.9999987182618,0|0,0:0|0:0,0:0:0:0:
215,190,77867,5,4,0:0:0:0:
306,169,78115,2,0,L|302:116,1,41.9999987182618,0|0,0:0|0:0,0:0:0:0:
300,109,78363,1,2,0:0:0:0:
245,24,78611,2,0,L|212:69,1,41.9999987182618,0|0,0:0|0:0,0:0:0:0:
205,86,78859,2,0,P|196:176|191:185,1,83.9999974365235,2|0,0:0|0:0,0:0:0:0:
109,121,79354,2,0,P|194:112|310:143,1,167.999994873047,2|4,0:0|0:0,0:0:0:0:
445,254,80346,1,2,0:0:0:0:
372,216,80594,2,0,P|380:159|406:126,1,83.9999974365235,0|0,0:0|0:0,0:0:0:0:
465,82,81090,1,0,0:0:0:0:
402,29,81338,1,2,0:0:0:0:
325,65,81586,6,0,P|279:33|136:22,1,167.999994873047,0|0,0:0|0:0,0:0:0:0:
76,106,82330,2,0,P|148:106|183:86,1,83.9999974365235,2|0,0:0|0:0,0:0:0:0:
222,49,82826,2,0,P|215:113|225:166,1,83.9999974365235,0|0,0:0|0:0,0:0:0:0:
287,197,83321,1,2,0:0:0:0:
287,197,83817,6,0,P|213:202|169:215,1,83.9999974365235,4|0,0:0|0:0,0:0:0:0:
136,284,84313,1,2,0:0:0:0:
222,340,84561,2,0,P|217:266|204:227,1,83.9999974365235,2|0,0:0|0:0,0:0:0:0:
134,176,85057,1,2,0:0:0:0:
34,191,85305,1,2,0:0:0:0:
134,176,85553,2,0,P|197:138|225:108,1,83.9999974365235,0|4,0:0|0:0,0:0:0:0:
304,49,86049,6,0,P|320:125|372:187,1,125.999996154785,0|0,0:0|0:0,0:0:0:0:
379,189,86545,1,2,0:0:0:0:
475,323,87040,1,2,0:0:0:0:
500,335,87164,1,0,0:0:0:0:
486,343,87288,2,0,L|470:227,1,83.9999974365235,2|0,0:0|0:0,0:0:0:0:
449,155,87784,2,0,P|390:122|336:127,1,83.9999974365235,4|0,0:0|0:0,0:0:0:0:
288,156,88280,6,0,L|277:65,1,83.9999974365235,2|0,0:0|0:0,0:0:0:0:
179,13,88776,2,0,P|133:41|100:99,1,83.9999974365235,0|0,0:0|0:0,0:0:0:0:
200,109,89272,1,2,0:0:0:0:
200,109,89768,6,0,L|186:201,1,83.9999974365235,4|0,0:0|0:0,0:0:0:0:
131,271,90264,1,2,0:0:0:0:
230,283,90511,2,0,P|297:291|330:316,1,83.9999974365235,0|0,0:0|0:0,0:0:0:0:
337,216,91007,2,0,P|397:246|418:284,1,83.9999974365235,0|2,0:0|0:0,0:0:0:0:
401,351,91503,1,0,0:0:0:0:
483,303,91751,2,0,L|501:187,1,83.9999974365235,4|0,0:0|0:0,0:0:0:0:
457,112,92247,6,0,P|397:110|346:127,1,83.9999974365235,2|0,0:0|0:0,0:0:0:0:
336,40,92743,2,0,P|276:38|225:56,1,83.9999974365235,0|0,0:0|0:0,0:0:0:0:
149,125,93239,1,2,0:0:0:0:
149,125,93735,6,0,P|97:195|113:304,1,167.999994873047,4|0,0:0|0:0,0:0:0:0:
307,277,94726,2,0,P|248:233|168:241,1,125.999996154785,2|0,0:0|0:0,0:0:0:0:
157,248,95222,1,0,0:0:0:0:
349,162,95718,6,0,P|352:111|337:69,1,70,4|0,0:0|0:0,0:0:0:0:
288,43,96214,1,0,0:0:0:0:
357,10,96462,2,0,P|391:4|426:8,1,70,0|0,0:0|0:0,0:0:0:0:
465,81,96958,2,0,P|459:119|479:165,1,70,0|0,0:0|0:0,0:0:0:0:
439,227,97454,2,0,P|380:214|278:222,1,140,2|0,0:0|0:0,0:0:0:0:
219,227,98197,1,0,0:0:0:0:
144,247,98445,2,0,L|156:148,1,70,2|0,0:0|0:0,0:0:0:0:
150,100,98941,1,0,0:0:0:0:
78,71,99189,2,0,L|41:57,2,35,0|0|0,0:0|0:0|0:0,0:0:0:0:
150,100,99685,5,4,0:0:0:0:
90,148,99933,1,0,0:0:0:0:
44,210,100181,1,0,0:0:0:0:
119,223,100429,2,0,P|155:237|184:261,1,70,2|0,0:0|0:0,0:0:0:0:
221,320,100925,1,0,0:0:0:0:
144,330,101173,1,0,0:0:0:0:
221,320,101421,2,0,P|307:257|327:199,1,140,2|0,0:0|0:0,0:0:0:0:
327,154,102164,1,0,0:0:0:0:
388,207,102412,1,2,0:0:0:0:
473,193,103652,6,0,L|462:277,1,70,4|0,0:0|0:0,0:0:0:0:
390,324,104148,2,0,L|380:254,1,70,0|2,0:0|0:0,0:0:0:0:
335,188,104644,1,0,0:0:0:0:
335,188,105140,1,0,0:0:0:0:
305,116,105388,6,0,P|237:104|173:130,1,140,2|0,0:0|0:0,0:0:0:0:
123,188,106131,1,0,0:0:0:0:
123,188,106627,2,0,P|88:173|49:170,1,70,0|0,0:0|0:0,0:0:0:0:
88,99,107123,2,0,P|103:64|106:25,1,70,0|0,0:0|0:0,0:0:0:0:
181,49,107619,6,0,L|257:36,1,70,4|0,0:0|0:0,0:0:0:0:
301,94,108115,2,0,L|370:105,1,70,0|2,0:0|0:0,0:0:0:0:
444,124,108611,2,0,L|433:56,1,70,0|0,0:0|0:0,0:0:0:0:
361,26,109107,1,0,0:0:0:0:
292,60,109354,6,0,P|276:111|292:208,1,140,2|0,0:0|0:0,0:0:0:0:
329,259,110098,1,0,0:0:0:0:
400,288,110346,1,2,0:0:0:0:
297,346,111090,2,0,P|246:341|211:354,1,70,0|0,0:0|0:0,0:0:0:0:
159,379,111586,6,0,P|170:333|155:223,1,140,4|0,0:0|0:0,0:0:0:0:
130,170,112330,2,0,P|176:181|286:166,1,140,2|0,0:0|0:0,0:0:0:0:
323,119,113073,1,0,0:0:0:0:
348,191,113321,6,0,P|403:223|489:223,1,140,0|0,0:0|0:0,0:0:0:0:
457,151,114065,2,0,P|465:105|489:70,1,70,0|0,0:0|0:0,0:0:0:0:
425,26,114561,2,0,L|345:8,1,70,2|0,0:0|0:0,0:0:0:0:
284,55,115057,1,0,0:0:0:0:
294,135,115305,2,0,P|232:119|221:104,1,70,0|2,0:0|0:0,0:0:0:0:
158,78,115801,1,0,0:0:0:0:
96,133,116049,1,0,0:0:0:0:
27,90,116297,2,0,L|17:43,2,35,0|0|0,0:0|0:0|0:0,0:0:0:0:
96,133,116792,1,0,0:0:0:0:
150,182,117040,1,0,0:0:0:0:
81,205,117288,1,0,0:0:0:0:
150,182,117536,6,0,L|154:259,1,70,2|0,0:0|0:0,0:0:0:0:
229,239,118032,2,0,L|225:308,1,70,2|0,0:0|0:0,0:0:0:0:
150,288,118528,2,0,L|154:365,1,70,2|0,0:0|0:0,0:0:0:0:
227,384,119024,1,0,0:0:0:0:
73,378,119520,6,0,P|115:355|165:361,1,70,4|0,0:0|0:0,0:0:0:0:
178,288,120016,2,0,P|218:312|238:359,1,70,0|2,0:0|0:0,0:0:0:0:
314,334,120511,2,0,P|345:305|438:318,1,140,0|0,0:0|0:0,0:0:0:0:
380,375,121255,6,0,L|364:211,1,140,2|0,0:0|0:0,0:0:0:0:
289,224,121999,2,0,L|305:144,1,70,2|2,0:0|0:0,0:0:0:0:
380,157,122495,2,0,L|363:66,1,70,0|0,0:0|0:0,0:0:0:0:
291,74,122991,1,0,0:0:0:0:
438,29,123487,6,0,P|375:27|341:7,1,70,2|0,0:0|0:0,0:0:0:0:
294,4,123983,2,0,P|260:-4|225:-1,1,70,0|2,0:0|0:0,0:0:0:0:
245,73,124478,2,0,P|207:72|145:-16,1,140,0|0,0:0|0:0,0:0:0:0:
86,49,125222,6,0,P|59:113|69:197,1,140,2|2,0:0|0:0,0:0:0:0:
122,232,125966,1,0,0:0:0:0:
199,230,126214,1,2,0:0:0:0:
199,230,126710,1,0,0:0:0:0:
141,186,126958,1,0,0:0:0:0:
141,186,127454,2,0,P|99:171|77:151,1,70,4|0,0:0|0:0,0:0:0:0:
49,76,127950,1,0,0:0:0:0:
109,18,128197,1,0,0:0:0:0:
183,42,128445,6,0,L|257:46,1,70,2|0,0:0|0:0,0:0:0:0:
328,31,128941,1,0,0:0:0:0:
393,70,129189,1,0,0:0:0:0:
406,145,129437,2,0,L|332:149,1,70,2|0,0:0|0:0,0:0:0:0:
278,201,129933,1,0,0:0:0:0:
250,276,130181,2,0,L|324:280,1,70,0|2,0:0|0:0,0:0:0:0:
398,286,130677,1,0,0:0:0:0:
438,220,130925,2,0,P|376:211|344:228,1,70,0|0,0:0|0:0,0:0:0:0:
320,280,131421,6,0,L|313:131,1,140,4|0,0:0|0:0,0:0:0:0:
243,108,132164,2,0,L|239:155,1,35,2|0,0:0|0:0,0:0:0:0:
240,142,132660,2,0,L|232:232,1,70,0|0,0:0|0:0,0:0:0:0:
199,281,133156,6,0,P|158:289|74:233,1,140,0|0,0:0|0:0,0:0:0:0:
155,208,133900,2,0,L|179:128,1,70,0|0,0:0|0:0,0:0:0:0:
90,143,134396,2,0,L|64:66,1,70,2|0,0:0|0:0,0:0:0:0:
144,67,134892,6,0,L|164:0,1,70,2|0,0:0|0:0,0:0:0:0:
236,25,135388,1,4,0:0:0:0:
290,79,135635,1,0,0:0:0:0:
281,155,135883,1,0,0:0:0:0:
315,223,136131,1,0,0:0:0:0:
315,223,136627,1,0,0:0:0:0:
386,252,136875,2,0,P|429:245|464:228,1,70,2|0,0:0|0:0,0:0:0:0:
403,175,137371,2,0,B|437:268|390:277|344:296|389:397,1,210,2|0,0:0|0:0,0:0:0:0:
302,361,138363,2,0,P|235:368|218:377,1,70,0|0,0:0|0:0,0:0:0:0:
207,295,138859,2,0,P|152:334|142:350,1,70,0|0,0:0|0:0,0:0:0:0:
79,363,139354,6,0,P|75:293|90:225,1,140,4|0,0:0|0:0,0:0:0:0:
156,184,140098,2,0,P|195:191|228:186,1,70,0|0,0:0|0:0,0:0:0:0:
290,146,140594,1,0,0:0:0:0:
296,69,140842,1,0,0:0:0:0:
235,21,141090,1,0,0:0:0:0:
158,29,141338,6,0,P|136:57|121:99,1,70,2|0,0:0|0:0,0:0:0:0:
127,165,141834,1,0,0:0:0:0:
65,210,142082,1,0,0:0:0:0:
20,272,142330,2,0,P|61:277|92:296,1,70,2|0,0:0|0:0,0:0:0:0:
153,327,142826,1,0,0:0:0:0:
228,313,143073,1,0,0:0:0:0:
248,238,143321,6,0,P|211:236|175:250,1,70,4|0,0:0|0:0,0:0:0:0:
111,282,143817,1,0,0:0:0:0:
47,238,144065,1,0,0:0:0:0:
47,238,144809,2,0,P|90:228|141:213,1,70,0|2,0:0|0:0,0:0:0:0:
154,154,145305,2,0,P|192:169|242:179,1,81.6666666666667,0|0,0:0|0:0,0:0:0:0:
353,155,145987,5,0,0:0:0:0:
415,228,146297,5,2,0:0:0:0:
319,241,146607,5,0,0:0:0:0:
381,313,146916,5,0,0:0:0:0:
271,350,147288,6,0,P|241:347|197:352,1,70,4|0,0:0|0:0,0:0:0:0:
149,293,147784,1,0,0:0:0:0:
202,237,148032,2,0,L|198:192,2,35,0|0|0,0:0|0:0|0:0,0:0:0:0:
149,293,148528,1,0,0:0:0:0:
84,250,148776,1,0,0:0:0:0:
57,177,149024,1,0,0:0:0:0:
41,101,149272,6,0,P|80:99|115:119,1,70,2|0,0:0|0:0,0:0:0:0:
161,167,149768,1,0,0:0:0:0:
236,151,150016,1,0,0:0:0:0:
311,137,150264,2,0,P|290:101|265:78,1,70,2|0,0:0|0:0,0:0:0:0:
192,84,150759,2,0,P|201:50|219:20,1,70,0|0,0:0|0:0,0:0:0:0:
295,9,151255,6,0,P|331:35|388:128,1,140,4|0,0:0|0:0,0:0:0:0:
350,183,151999,1,0,0:0:0:0:
297,239,152247,2,0,L|157:252,1,140,0|0,0:0|0:0,0:0:0:0:
43,148,153239,6,0,L|59:316,1,140,4|0,0:0|0:0,0:0:0:0:
126,320,153983,1,0,0:0:0:0:
175,260,154231,2,0,P|226:240|336:245,1,140,0|0,0:0|0:0,0:0:0:0:
398,364,155222,2,0,L|463:347,1,35,2|0,0:0|0:0,0:0:0:0:
438,85,156214,1,0,0:0:0:0:
458,205,156462,1,2,0:0:0:0:
345,154,156834,5,2,0:0:0:0:
289,79,157206,5,4,0:0:0:0:
377,76,157454,1,0,0:0:0:0:
447,128,157702,1,2,0:0:0:0:
458,205,157950,2,0,P|384:239|277:202,1,167.999994873047,0|0,0:0|0:0,0:0:0:0:
247,147,158693,1,2,0:0:0:0:
189,69,158941,2,0,L|81:81,1,83.9999974365235,0|4,0:0|0:0,0:0:0:0:
60,167,159437,1,0,0:0:0:0:
143,150,159685,2,0,L|254:164,1,83.9999974365235,2|0,0:0|0:0,0:0:0:0:
264,241,160181,1,0,0:0:0:0:
264,241,160677,2,0,P|262:298|273:355,1,83.9999974365235,2|0,0:0|0:0,0:0:0:0:
281,338,161173,1,4,0:0:0:0:
281,338,161669,5,2,0:0:0:0:
191,383,161916,2,0,P|146:360|133:309,1,83.9999974365235,0|0,0:0|0:0,0:0:0:0:
165,214,162412,1,0,0:0:0:0:
138,106,162660,1,2,0:0:0:0:
138,106,163156,2,0,P|201:133|244:141,1,83.9999974365235,4|0,0:0|0:0,0:0:0:0:
302,36,163652,1,2,0:0:0:0:
207,50,163900,1,0,0:0:0:0:
317,136,164148,2,0,P|371:91|395:62,1,83.9999974365235,0|0,0:0|0:0,0:0:0:0:
353,5,164644,1,2,0:0:0:0:
353,5,165140,2,0,P|364:70|411:196,1,167.999994873047,4|2,0:0|0:0,0:0:0:0:
444,260,165883,5,0,0:0:0:0:
368,320,166131,2,0,P|370:249|379:209,1,83.9999974365235,0|0,0:0|0:0,0:0:0:0:
468,166,166627,2,0,P|466:237|457:269,1,83.9999974365235,2|0,0:0|0:0,0:0:0:0:
405,339,167123,1,4,0:0:0:0:
405,339,167619,1,2,0:0:0:0:
413,237,167867,6,0,P|425:183|348:64,1,167.999994873047,0|0,0:0|0:0,0:0:0:0:
288,145,168611,1,2,0:0:0:0:
200,154,168859,2,0,P|163:98|119:82,1,83.9999974365235,0|4,0:0|0:0,0:0:0:0:
113,168,169354,2,0,P|61:205|38:239,1,83.9999974365235,0|2,0:0|0:0,0:0:0:0:
161,318,169850,6,0,L|118:342,1,41.9999987182618,0|0,0:0|0:0,0:0:0:0:
103,342,170098,1,0,0:0:0:0:
120,256,170346,2,0,L|125:208,1,41.9999987182618,0|0,0:0|0:0,0:0:0:0:
115,194,170594,1,2,0:0:0:0:
43,92,170842,1,0,0:0:0:0:
115,194,171090,1,4,0:0:0:0:
244,192,171338,1,0,0:0:0:0:
273,174,171462,2,0,P|281:122|273:65,1,83.9999974365235,0|0,0:0|0:0,0:0:0:0:
259,58,171834,1,0,0:0:0:0:
186,127,172082,1,0,0:0:0:0:
93,133,172330,1,0,0:0:0:0:
27,65,172578,1,2,0:0:0:0:
27,65,173073,2,0,P|92:51|139:64,1,83.9999974365235,4|0,0:0|0:0,0:0:0:0:
195,122,173569,5,2,0:0:0:0:
115,219,173817,2,0,P|106:151|122:107,1,83.9999974365235,0|0,0:0|0:0,0:0:0:0:
206,79,174313,1,0,0:0:0:0:
293,147,174561,1,2,0:0:0:0:
380,81,174809,2,0,P|439:98|474:145,1,83.9999974365235,0|4,0:0|0:0,0:0:0:0:
379,183,175305,1,0,0:0:0:0:
312,278,175553,2,0,L|422:292,1,83.9999974365235,2|0,0:0|0:0,0:0:0:0:
287,190,176049,6,0,L|186:217,1,83.9999974365235,0|0,0:0|0:0,0:0:0:0:
208,303,176545,1,2,0:0:0:0:
208,303,177040,2,0,P|287:287|323:269,1,83.9999974365235,4|0,0:0|0:0,0:0:0:0:
287,190,177536,1,2,0:0:0:0:
189,147,177784,2,0,P|205:226|224:255,1,83.9999974365235,2|0,0:0|0:0,0:0:0:0:
306,260,178280,1,2,0:0:0:0:
394,207,178528,1,2,0:0:0:0:
409,124,178776,6,0,P|394:198|396:232,1,83.9999974365235,0|4,0:0|0:0,0:0:0:0:
278,181,179272,2,0,P|293:236|322:284,1,83.9999974365235,0|2,0:0|0:0,0:0:0:0:
413,286,179768,1,2,0:0:0:0:
413,286,180264,1,2,0:0:0:0:
306,353,180511,1,2,0:0:0:0:
306,353,181007,1,4,0:0:0:0:
306,353,181503,6,0,P|241:350|188:341,1,83.9999974365235,2|0,0:0|0:0,0:0:0:0:
97,273,181999,2,0,P|162:270|211:264,1,83.9999974365235,0|0,0:0|0:0,0:0:0:0:
354,191,182495,1,2,0:0:0:0:
354,191,182991,6,0,P|357:127|371:76,1,83.9999974365235,4|0,0:0|0:0,0:0:0:0:
451,108,183487,1,2,0:0:0:0:
500,190,183735,2,0,P|452:218|424:249,1,83.9999974365235,0|0,0:0|0:0,0:0:0:0:
345,238,184231,1,0,0:0:0:0:
315,155,184478,1,2,0:0:0:0:
231,116,184726,1,0,0:0:0:0:
144,140,184974,1,4,0:0:0:0:
144,140,185470,6,0,P|212:132|254:135,1,83.9999974365235,2|0,0:0|0:0,0:0:0:0:
301,55,185966,1,0,0:0:0:0:
301,55,186462,2,0,P|233:63|187:59,1,83.9999974365235,2|0,0:0|0:0,0:0:0:0:
54,83,186958,2,0,B|6:174|78:243|34:363,1,251.999992309571,4|2,0:0|0:0,0:0:0:0:
44,332,187950,2,0,B|63:249|157:265|156:328|156:328|197:302|236:331,1,251.999992309571,2|0,0:0|0:0,0:0:0:0:
352,328,188941,6,0,P|410:326|441:303,1,83.9999974365235,4|0,0:0|0:0,0:0:0:0:
374,231,189437,1,2,0:0:0:0:
431,314,189685,2,0,L|410:114,1,167.999994873047,0|0,0:0|0:0,0:0:0:0:
312,25,190429,1,2,0:0:0:0:
312,25,190925,6,0,P|252:24|199:0,1,83.9999974365235,4|0,0:0|0:0,0:0:0:0:
101,21,191421,1,2,0:0:0:0:
81,112,191669,2,0,B|174:149|174:149|277:135,1,167.999994873047,0|0,0:0|0:0,0:0:0:0:
397,109,192412,1,2,0:0:0:0:
397,109,192908,6,0,P|392:178|372:227,1,83.9999974365235,2|0,0:0|0:0,0:0:0:0:
346,279,193404,1,2,0:0:0:0:
415,349,193652,1,2,0:0:0:0:
415,349,194148,1,0,0:0:0:0:
293,381,194396,1,2,0:0:0:0:
293,381,194892,6,0,P|241:387|200:377,1,83.9999974365235,2|0,0:0|0:0,0:0:0:0:
101,335,195388,1,2,0:0:0:0:
186,259,195635,2,0,L|191:56,1,167.999994873047,0|0,0:0|0:0,0:0:0:0:
271,85,196379,1,2,0:0:0:0:
271,85,196875,6,0,P|198:93|162:76,1,83.9999974365235,4|0,0:0|0:0,0:0:0:0:
107,53,197371,1,2,0:0:0:0:
55,162,197619,2,0,P|128:170|165:155,1,83.9999974365235,0|0,0:0|0:0,0:0:0:0:
189,90,198115,1,0,0:0:0:0:
136,167,198363,2,0,L|126:275,1,83.9999974365235,2|0,0:0|0:0,0:0:0:0:
257,284,198859,6,0,L|243:199,1,83.9999974365235,4|0,0:0|0:0,0:0:0:0:
282,100,199354,1,2,0:0:0:0:
191,27,199602,2,0,P|121:22|85:28,1,83.9999974365235,0|0,0:0|0:0,0:0:0:0:
52,113,200098,1,0,0:0:0:0:
129,164,200346,1,2,0:0:0:0:
129,164,200842,6,0,P|68:171|25:190,1,83.9999974365235,2|0,0:0|0:0,0:0:0:0:
49,296,201338,1,2,0:0:0:0:
164,333,201586,2,0,B|170:267|170:267|200:286,1,83.9999974365235,2|0,0:0|0:0,0:0:0:0:
274,374,202082,1,0,0:0:0:0:
359,326,202330,2,0,L|345:208,1,83.9999974365235,2|0,0:0|0:0,0:0:0:0:
393,157,202826,5,0,0:0:0:0:
490,165,203073,2,0,P|480:113|453:78,1,83.9999974365235,0|2,0:0|0:0,0:0:0:0:
376,52,203569,2,0,P|324:65|291:107,1,83.9999974365235,0|2,0:0|0:0,0:0:0:0:
238,194,204065,1,2,0:0:0:0:
121,205,204313,1,2,0:0:0:0:
90,337,204809,6,0,P|120:284|125:227,1,83.9999974365235,4|0,0:0|0:0,0:0:0:0:
78,145,205305,1,2,0:0:0:0:
191,69,205553,2,0,P|166:116|164:180,1,83.9999974365235,0|0,0:0|0:0,0:0:0:0:
196,250,206049,1,0,0:0:0:0:
285,177,206297,1,2,0:0:0:0:
285,177,206792,6,0,P|376:187|400:175,1,83.9999974365235,4|0,0:0|0:0,0:0:0:0:
442,100,207288,1,2,0:0:0:0:
348,10,207536,2,0,P|341:93|347:112,1,83.9999974365235,0|0,0:0|0:0,0:0:0:0:
392,186,208032,1,0,0:0:0:0:
348,277,208280,1,2,0:0:0:0:
258,324,208528,1,0,0:0:0:0:
152,335,208776,2,0,P|146:281|170:219,1,83.9999974365235,2|0,0:0|0:0,0:0:0:0:
235,190,209272,1,2,0:0:0:0:
173,120,209520,2,0,L|67:124,1,83.9999974365235,2|0,0:0|0:0,0:0:0:0:
200,40,210016,1,0,0:0:0:0:
211,150,210264,2,0,P|272:129|308:83,1,83.9999974365235,2|0,0:0|0:0,0:0:0:0:
388,103,210759,6,0,P|359:41|313:20,1,83.9999974365235,2|0,0:0|0:0,0:0:0:0:
285,116,211255,1,2,0:0:0:0:
372,194,211503,1,2,0:0:0:0:
372,194,211999,1,2,0:0:0:0:
291,245,212247,1,2,0:0:0:0:
291,245,212743,6,0,P|224:247|171:239,1,83.9999974365235,4|0,0:0|0:0,0:0:0:0:
137,182,213239,1,2,0:0:0:0:
67,117,213487,2,0,P|99:57|132:19,1,83.9999974365235,0|0,0:0|0:0,0:0:0:0:
215,83,213983,1,0,0:0:0:0:
306,20,214231,1,2,0:0:0:0:
306,20,214726,6,0,P|300:79|306:135,1,83.9999974365235,4|0,0:0|0:0,0:0:0:0:
318,194,215222,1,2,0:0:0:0:
237,245,215470,2,0,P|261:299|291:339,1,83.9999974365235,0|0,0:0|0:0,0:0:0:0:
391,316,215966,1,0,0:0:0:0:
445,182,216214,1,2,0:0:0:0:
445,182,216710,6,0,P|376:188|339:162,1,83.9999974365235,4|0,0:0|0:0,0:0:0:0:
306,85,217206,1,2,0:0:0:0:
181,115,217454,2,0,L|192:49,1,41.9999987182618,0|0,0:0|0:0,0:0:0:0:
206,49,217702,1,0,0:0:0:0:
289,187,217950,2,0,L|280:124,1,41.9999987182618,0|0,0:0|0:0,0:0:0:0:
269,123,218197,1,2,0:0:0:0:
205,221,218445,1,0,0:0:0:0:
87,266,218693,5,2,0:0:0:0:
139,151,218941,2,0,L|148:88,1,41.9999987182618,0|0,0:0|0:0,0:0:0:0:
159,88,219189,1,0,0:0:0:0:
292,17,219437,1,0,0:0:0:0:
396,83,219685,1,2,0:0:0:0:
438,176,219933,1,0,0:0:0:0:
431,247,220181,1,0,0:0:0:0:
256,192,220243,12,0,222660,0:0:0:0:
