osu file format v14

[General]
AudioFilename: 132.mp3
AudioLeadIn: 0
PreviewTime: 176207
Countdown: 0
SampleSet: Soft
StackLeniency: 0.7
Mode: 0
LetterboxInBreaks: 0
WidescreenStoryboard: 1

[Editor]
Bookmarks: 295592
DistanceSpacing: 0.4
BeatDivisor: 3
GridSize: 4
TimelineZoom: 2.1

[Metadata]
Title:Puppet in the Dark (Part I & II)
TitleUnicode:Puppet in the Dark (Part I & II)
Artist:FELT
ArtistUnicode:FELT
Creator:ailv
Version:Marionette
Source:東方神霊廟 ~ Ten Desires.
Tags:touhou 東方神霊廟 ~ Ten Desires 豊聡耳 神子 聖徳伝説 ~ True Administrator Shoutoku Legend Toyosatomimi no Miko New Horizon Buried Away Vivenne Maurits"禅"Cornelis Renko Sevens Head Reitaisai12 例大祭12 alvi aliv
BeatmapID:1737885
BeatmapSetID:829511

[Difficulty]
HPDrainRate:6
CircleSize:4.5
OverallDifficulty:9
ApproachRate:9.5
SliderMultiplier:2.2
SliderTickRate:1

[Events]
//Background and Video events
0,0,"Toyosatomimi.no.Miko.full.729413.jpg",0,0
//Break Periods
2,307020,317347
//Storyboard Layer 0 (Background)
//Storyboard Layer 1 (Fail)
//Storyboard Layer 2 (Pass)
//Storyboard Layer 3 (Foreground)
//Storyboard Sound Samples

[TimingPoints]
1932,451.127819548872,7,2,1,40,1,0
5089,-100,7,2,1,50,0,0
55616,-100,7,2,1,60,0,0
98402,350.877192982456,7,2,1,70,1,0
98402,-166.666666666667,7,2,1,70,0,0
118051,-100,7,2,1,80,0,0
137700,-125,7,2,1,70,0,0
157349,-111.111111111111,7,2,1,70,0,0
161208,-111.111111111111,7,2,2,70,0,0
161559,-111.111111111111,7,2,1,70,0,0
162612,-111.111111111111,7,2,2,70,0,0
164717,-111.111111111111,7,2,1,70,0,0
165068,-111.111111111111,7,2,2,70,0,0
166822,-111.111111111111,7,2,1,70,0,0
168226,-111.111111111111,7,2,2,70,0,0
168577,-111.111111111111,7,2,1,70,0,0
172085,-111.111111111111,7,2,1,80,0,0
174541,350.877192982456,4,2,1,80,1,0
176295,-100,4,2,1,60,0,0
177348,-83.3333333333333,4,2,1,90,0,1
178751,-83.3333333333333,4,2,1,90,0,1
178839,-83.3333333333333,4,2,1,90,0,1
222260,350.877192982456,7,2,1,70,1,0
222260,-142.857142857143,7,2,1,70,0,0
222435,-100,7,2,2,70,0,0
222523,-100,7,2,1,70,0,0
222698,-142.857142857143,7,2,2,70,0,0
222786,-142.857142857143,7,2,1,70,0,0
226470,-142.857142857143,7,2,2,70,0,0
226646,-142.857142857143,7,2,1,70,0,0
241909,-111.111111111111,7,2,1,70,0,0
247172,-111.111111111111,7,2,2,70,0,0
249277,-111.111111111111,7,2,1,70,0,0
249628,-111.111111111111,7,2,2,70,0,0
251382,-111.111111111111,7,2,1,70,0,0
256645,-111.111111111111,7,2,1,80,0,0
259101,350.877192982456,4,2,1,80,1,0
260679,-100,4,2,1,60,0,0
261908,-83.3333333333333,4,2,1,90,0,1
284364,-100,4,2,1,90,0,0
317697,-100,4,2,1,50,0,0
317872,-333.333333333333,4,2,1,70,0,0
318048,-142.857142857143,4,2,1,70,0,0
320855,-111.111111111111,4,2,1,70,0,0
323662,-90.9090909090909,4,2,1,70,0,0
326469,-90.9090909090909,4,2,1,80,0,0
326644,-90.9090909090909,4,2,1,30,0,0
326820,-90.9090909090909,4,2,1,40,0,0
326995,-90.9090909090909,4,2,1,50,0,0
327171,-90.9090909090909,4,2,1,60,0,0
327346,-90.9090909090909,4,2,1,70,0,0
327522,-90.9090909090909,4,2,1,80,0,0
327697,-90.9090909090909,4,2,1,90,0,0
328574,-90.9090909090909,4,2,1,60,0,0
329276,-83.3333333333333,4,2,1,90,0,1
362960,350.877192982456,7,2,1,60,1,0
363310,-100,7,2,2,60,0,0
372433,-100,7,2,1,70,0,0
372784,-142.857142857143,7,2,1,70,0,0
380854,-142.857142857143,7,2,1,80,0,0
381556,-142.857142857143,7,2,1,90,0,0
382258,-250.000000000001,7,2,1,90,0,0
382609,-250.000000000001,7,2,1,50,0,0
385065,-250.000000000001,7,2,1,30,0,0
392433,-250.000000000001,7,2,1,10,0,0
394889,-250.000000000001,7,2,1,5,0,0

[Colours]
Combo1 : 230,149,147
Combo2 : 166,149,244
Combo3 : 245,130,101
Combo4 : 219,154,228

[HitObjects]
256,192,82232,12,0,97571,0:0:0:0:
317,315,98402,5,4,0:0:0:0:
327,313,98752,1,0,1:0:0:0:
338,311,99103,1,0,1:0:0:0:
349,310,99454,1,0,1:0:0:0:
360,308,99805,1,0,1:0:0:0:
371,307,100156,1,0,1:0:0:0:
382,305,100507,1,0,1:0:0:0:
195,315,100858,5,4,0:0:0:0:
184,313,101209,1,0,1:0:0:0:
173,311,101559,1,0,1:0:0:0:
162,310,101910,1,0,1:0:0:0:
151,308,102261,1,0,1:0:0:0:
140,307,102612,1,0,1:0:0:0:
129,305,102963,1,0,1:0:0:0:
314,221,103314,5,4,0:0:0:0:
331,218,103665,1,0,1:0:0:0:
348,216,104016,1,0,1:0:0:0:
365,213,104366,1,0,1:0:0:0:
382,211,104717,1,0,1:0:0:0:
399,209,105068,1,0,1:0:0:0:
416,206,105419,1,0,1:0:0:0:
198,221,105770,5,4,0:0:0:0:
181,218,106121,1,0,1:0:0:0:
164,216,106472,1,0,1:0:0:0:
147,213,106823,1,0,1:0:0:0:
130,211,107173,1,0,1:0:0:0:
113,209,107524,1,0,1:0:0:0:
96,206,107875,1,0,1:0:0:0:
304,149,108226,5,4,0:0:0:0:
337,143,108577,1,0,1:0:0:0:
370,139,108928,1,0,1:0:0:0:
404,133,109279,1,0,1:0:0:0:
437,129,109630,1,0,1:0:0:0:
471,125,109980,1,0,1:0:0:0:
504,119,110331,1,0,1:0:0:0:
208,149,110682,5,4,0:0:0:0:
175,143,111033,1,0,1:0:0:0:
142,139,111384,1,0,1:0:0:0:
108,133,111735,1,0,1:0:0:0:
75,129,112086,1,0,1:0:0:0:
41,125,112437,1,0,1:0:0:0:
8,119,112787,1,0,1:0:0:0:
264,79,113138,5,4,0:0:0:0:
303,71,113489,1,0,1:0:0:0:
340,66,113840,1,0,1:0:0:0:
379,60,114191,1,0,1:0:0:0:
416,55,114542,1,0,1:0:0:0:
455,51,114893,1,0,1:0:0:0:
492,44,115244,1,0,1:0:0:0:
248,79,115594,5,4,0:0:0:0:
209,71,115945,1,0,1:0:0:0:
172,66,116296,1,0,1:0:0:0:
133,60,116647,1,0,1:0:0:0:
96,55,116998,1,2,0:0:0:0:
57,51,117349,1,0,0:0:0:0:
20,44,117700,1,8,0:0:0:0:
137,190,118051,5,4,1:0:0:0:
115,33,118226,1,0,1:0:0:0:
279,121,118402,2,0,L|420:137,1,110,8|0,0:0|0:0,0:0:0:0:
397,157,118665,2,0,P|383:208|395:286,1,110,8|0,0:0|0:0,0:0:0:0:
405,300,118928,1,0,1:0:0:0:
512,222,119103,5,0,0:0:0:0:
298,272,119279,2,0,L|317:393,1,110,10|0,0:0|0:0,0:0:0:0:
495,306,119630,1,0,1:0:0:0:
329,172,119805,2,0,L|208:191,1,110,8|0,0:0|1:0,0:0:0:0:
220,189,120068,1,0,1:0:0:0:
220,189,120156,1,10,0:0:0:0:
417,240,120331,1,8,0:0:0:0:
432,0,120507,5,0,1:0:0:0:
486,142,120682,1,0,1:0:0:0:
322,31,120858,1,8,0:0:0:0:
391,212,121033,1,0,1:0:0:0:
391,212,121121,2,0,L|223:196,1,165,8|0,0:0|1:0,0:0:0:0:
71,166,121559,5,8,0:0:0:0:
202,5,121735,2,0,P|225:43|223:116,1,110,2|0,1:0|0:0,0:0:0:0:
39,82,122086,1,0,1:0:0:0:
39,82,122173,1,0,1:0:0:0:
39,82,122261,2,0,L|163:73,1,110,8|0,0:0|1:0,0:0:0:0:
150,258,122612,1,8,0:0:0:0:
0,223,122787,2,0,L|6:155,1,55,8|8,0:0|0:0,0:0:0:0:
150,258,122963,6,0,P|222:245|279:256,1,110,2|0,1:0|1:0,0:0:0:0:
164,384,123314,1,8,0:0:0:0:
49,304,123489,2,0,L|70:190,1,110,2|0,1:0|0:0,0:0:0:0:
146,112,123840,1,0,1:0:0:0:
360,162,124016,5,8,0:0:0:0:
146,112,124191,2,0,L|165:-9,1,110,2|0,1:0|0:0,0:0:0:0:
343,78,124542,1,0,1:0:0:0:
177,212,124717,2,0,L|56:193,1,110,10|0,0:0|1:0,0:0:0:0:
68,194,124980,1,0,1:0:0:0:
68,194,125068,1,10,0:0:0:0:
265,144,125244,1,8,0:0:0:0:
225,368,125419,5,2,1:0:0:0:
193,213,125594,1,2,1:0:0:0:
340,358,125770,1,10,0:0:0:0:
187,299,125945,1,0,1:0:0:0:
187,299,126033,2,0,L|18:270,1,165,8|2,0:0|1:0,0:0:0:0:
271,276,126472,5,10,0:0:0:0:
35,374,126647,2,0,P|14:303|39:252,1,110,2|0,0:0|0:0,0:0:0:0:
203,320,126998,1,0,1:0:0:0:
12,191,127173,2,0,L|148:171,1,110,10|0,0:0|1:0,0:0:0:0:
312,124,127524,2,0,L|176:104,1,110,10|0,0:0|0:0,0:0:0:0:
203,107,127787,1,8,0:0:0:0:
203,107,127875,6,0,P|203:55|212:-14,1,110,4|0,0:0|1:0,0:0:0:0:
384,66,128226,2,0,L|525:82,1,110,8|0,0:0|0:0,0:0:0:0:
502,102,128489,2,0,P|488:153|500:231,1,110,8|0,0:0|0:0,0:0:0:0:
510,245,128752,1,0,1:0:0:0:
329,197,128928,5,10,0:0:0:0:
168,124,129103,2,0,L|187:3,1,110,10|0,0:0|0:0,0:0:0:0:
321,103,129454,1,2,1:0:0:0:
155,237,129630,2,0,L|34:218,1,110,8|0,0:0|1:0,0:0:0:0:
46,219,129893,1,0,1:0:0:0:
46,219,129980,1,10,0:0:0:0:
243,169,130156,1,8,0:0:0:0:
76,357,130331,5,2,1:0:0:0:
138,133,130507,1,0,1:0:0:0:
244,382,130682,1,8,0:0:0:0:
314,192,130858,1,0,1:0:0:0:
314,192,130945,2,0,L|146:217,1,165,8|0,1:2|1:0,0:0:0:0:
427,208,131384,5,10,0:0:0:0:
296,369,131559,2,0,P|273:331|275:258,1,110,2|0,1:0|0:0,0:0:0:0:
459,292,131910,1,0,1:0:0:0:
459,292,131998,1,0,1:0:0:0:
459,292,132086,2,0,L|335:301,1,110,8|0,0:0|1:0,0:0:0:0:
348,116,132437,1,10,0:0:0:0:
498,151,132612,2,0,L|492:219,1,55,8|8,0:0|0:0,0:0:0:0:
257,134,132787,6,0,P|203:138|150:126,1,110,6|0,0:0|1:0,0:0:0:0:
245,0,133138,1,10,0:0:0:0:
355,56,133314,2,0,L|376:170,1,110,0|0,0:0|1:0,0:0:0:0:
149,125,133665,1,2,1:0:0:0:
340,291,133840,5,8,0:0:0:0:
146,272,134016,2,0,L|165:393,1,110,10|0,0:0|0:0,0:0:0:0:
343,306,134366,1,0,1:0:0:0:
177,172,134542,2,0,L|56:191,1,110,8|0,0:0|1:0,0:0:0:0:
68,190,134805,1,0,1:0:0:0:
68,190,134893,1,10,0:0:0:0:
265,240,135068,1,8,0:0:0:0:
296,11,135244,5,2,1:0:0:0:
253,236,135419,1,0,1:0:0:0:
398,108,135594,1,8,0:0:0:0:
160,74,135770,1,2,1:0:0:0:
160,74,135858,2,0,L|-41:121,1,165,8|0,1:2|1:0,0:0:0:0:
215,132,136296,5,10,0:0:0:0:
10,9,136472,2,0,P|-11:80|14:131,1,110,4|0,0:0|0:0,0:0:0:0:
198,51,136823,1,0,1:0:0:0:
48,213,136998,2,0,L|184:233,1,110,2|0,0:0|0:0,0:0:0:0:
343,120,137349,2,0,L|207:140,1,110,10|0,0:0|0:0,0:0:0:0:
234,136,137612,1,0,0:0:0:0:
234,136,137700,6,0,P|246:191|262:259,1,88,6|0,0:0|0:0,0:0:0:0:
342,309,138051,1,8,0:0:0:0:
342,309,138138,1,8,0:0:0:0:
342,309,138226,1,0,1:0:0:0:
450,221,138402,2,0,L|362:209,1,88,8|0,0:0|0:0,0:0:0:0:
296,86,138752,2,0,L|383:74,1,88,0|0,0:0|1:0,0:0:0:0:
201,162,139103,6,0,P|154:150|91:160,1,88,0|0,0:0|0:0,0:0:0:0:
114,153,139366,1,0,0:0:0:0:
114,153,139454,2,0,L|110:253,1,88,8|0,0:0|0:0,0:0:0:0:
178,373,139805,1,8,0:0:0:0:
234,244,139980,1,0,1:0:0:0:
94,345,140156,5,0,1:0:0:0:
258,256,140331,1,0,0:0:0:0:
94,246,140507,1,8,0:0:0:0:
94,246,140594,1,8,0:0:0:0:
94,246,140682,1,0,0:0:0:0:
254,341,140858,2,0,L|347:323,1,88,8|0,0:0|0:0,0:0:0:0:
487,270,141209,6,0,L|401:254,1,88
407,358,141559,1,0,0:0:0:0:
307,252,141735,1,0,0:0:0:0:
307,252,141823,1,0,0:0:0:0:
307,252,141910,2,0,L|311:161,1,88,0|0,1:0|0:0,0:0:0:0:
387,11,142261,2,0,P|399:68|384:113,1,88,8|0,0:0|1:0,0:0:0:0:
220,70,142612,6,0,L|335:57,1,88,4|0,0:0|0:0,0:0:0:0:
145,83,142963,1,8,0:0:0:0:
145,83,143051,1,8,0:0:0:0:
145,83,143138,1,0,1:0:0:0:
138,173,143314,2,0,L|253:160,1,88,8|0,0:0|0:0,0:0:0:0:
23,131,143665,1,0,0:0:0:0:
143,189,143840,1,0,1:0:0:0:
16,268,144016,5,0,0:0:0:0:
146,326,144191,1,0,0:0:0:0:
146,326,144279,1,0,0:0:0:0:
146,326,144366,1,0,1:0:0:0:
45,150,144542,1,0,0:0:0:0:
45,150,144630,1,0,0:0:0:0:
45,150,144717,2,0,L|54:239,1,88,8|0,0:0|1:0,0:0:0:0:
169,89,145068,5,0,0:0:0:0:
189,270,145244,1,0,0:0:0:0:
300,193,145419,1,8,0:0:0:0:
300,193,145507,1,8,0:0:0:0:
300,193,145594,1,0,1:0:0:0:
300,193,145682,1,0,0:0:0:0:
300,193,145770,2,0,L|288:87,1,88,8|0,0:0|0:0,0:0:0:0:
453,188,146121,6,0,L|443:275,1,88,0|0,0:0|1:0,0:0:0:0:
302,363,146472,1,0,0:0:0:0:
223,214,146647,2,0,L|335:202,1,88,0|0,1:0|0:0,0:0:0:0:
312,218,146910,2,0,L|304:283,1,44,0|0,1:0|0:0,0:0:0:0:
135,227,147173,1,8,0:0:0:0:
200,384,147349,1,8,0:0:0:0:
200,384,147437,1,8,0:0:0:0:
200,384,147524,6,0,L|203:296,1,88,4|0,0:0|1:0,0:0:0:0:
33,202,147875,2,0,L|37:295,1,88,8|0,0:0|1:0,0:0:0:0:
147,193,148226,1,0,0:0:0:0:
147,193,148314,1,8,0:0:0:0:
147,193,148401,1,0,0:0:0:0:
39,107,148577,1,0,0:0:0:0:
175,50,148752,1,8,0:0:0:0:
175,50,148840,1,0,0:0:0:0:
175,50,148928,6,0,P|237:39|274:48,1,88,0|0,0:0|1:0,0:0:0:0:
278,162,149279,2,0,P|216:173|179:164,1,88,8|0,0:0|1:0,0:0:0:0:
371,108,149630,1,8,0:0:0:0:
336,242,149805,1,8,0:0:0:0:
190,337,149980,6,0,B|258:337|258:337|306:353|306:353|382:348,1,176,0|8,1:0|0:0,0:0:0:0:
467,297,150507,1,0,0:0:0:0:
467,297,150594,1,8,0:0:0:0:
467,297,150682,2,0,P|471:351|469:387,1,88,0|0,0:0|1:0,0:0:0:0:
376,252,151033,2,0,P|374:208|378:164,1,88,0|8,0:0|0:0,0:0:0:0:
489,27,151384,5,0,0:0:0:0:
512,166,151559,1,0,1:0:0:0:
336,43,151735,1,8,0:0:0:0:
362,166,151910,1,0,1:0:0:0:
120,136,152086,6,0,L|251:118,1,132,8|8,0:0|0:0,0:0:0:0:
251,118,152437,2,0,P|268:172|260:227,1,88,4|0,0:0|0:0,0:0:0:0:
202,365,152787,2,0,P|202:321|217:280,1,88,8|0,0:0|0:0,0:0:0:0:
217,280,153051,1,8,0:0:0:0:
217,280,153138,2,0,L|312:284,1,88,0|0,0:0|1:0,0:0:0:0:
409,376,153489,5,0,0:0:0:0:
322,270,153665,1,8,0:0:0:0:
462,232,153840,1,0,0:0:0:0:
400,384,154016,2,0,L|304:373,1,88,0|8,1:0|0:0,0:0:0:0:
193,256,154366,1,0,0:0:0:0:
223,378,154542,1,8,0:0:0:0:
267,200,154717,1,8,0:0:0:0:
130,343,154893,6,0,L|30:334,1,88,0|0,1:0|1:0,0:0:0:0:
169,232,155244,1,8,0:0:0:0:
0,195,155419,1,0,0:0:0:0:
0,195,155507,1,8,0:0:0:0:
0,195,155594,2,0,L|89:191,1,88,0|0,0:0|1:0,0:0:0:0:
204,135,155945,1,8,0:0:0:0:
121,53,156121,2,0,P|59:130|124:207,1,176,4|0,0:0|1:0,0:0:0:0:
258,229,156647,5,8,0:0:0:0:
253,196,156735,1,0,0:0:0:0:
249,163,156823,1,0,1:0:0:0:
245,130,156910,1,0,0:0:0:0:
241,98,156998,1,8,0:0:0:0:
284,342,157173,5,0,1:0:0:0:
284,342,157261,1,0,0:0:0:0:
284,342,157349,2,0,B|262:316|262:316|276:227,1,98.9999969787599,6|0,0:0|1:0,0:0:0:0:
272,251,157700,1,0,1:0:0:0:
168,269,157875,2,0,L|66:278,2,98.9999969787599,10|0|0,0:0|0:0|0:0,0:0:0:0:
205,154,158401,5,10,0:0:0:0:
214,181,158577,1,0,0:0:0:0:
129,84,158752,1,10,0:0:0:0:
104,77,158928,1,0,1:0:0:0:
235,63,159103,2,0,L|334:51,1,98.9999969787599,10|0,0:0|0:0,0:0:0:0:
492,219,159454,5,8,3:0:0:0:
416,108,159630,1,0,0:0:0:0:
352,215,159805,1,14,0:0:0:0:
500,142,159980,1,0,1:0:0:0:
334,51,160156,2,0,P|322:86|326:151,1,98.9999969787599,8|10,0:0|0:0,0:0:0:0:
324,147,160419,1,0,0:0:0:0:
324,147,160507,5,0,0:0:0:0:
442,43,160682,1,0,0:0:0:0:
442,43,160770,1,8,0:0:0:0:
442,43,160858,1,10,0:0:0:0:
228,101,161033,1,0,0:0:0:0:
414,209,161209,6,0,P|412:273|410:307,1,98.9999969787599,10|0,0:0|1:0,0:0:0:0:
309,258,161559,2,0,P|253:289|223:304,1,98.9999969787599,0|2,1:0|1:0,0:0:0:0:
212,193,161910,2,0,P|158:160|130:141,1,98.9999969787599,2|2,0:0|0:0,0:0:0:0:
1,337,162261,6,0,P|77:384|138:308,1,197.99999395752,4|10,0:0|0:0,0:0:0:0:
74,164,162787,2,0,P|43:249|122:294,1,197.99999395752,0|0,1:0|0:0,0:0:0:0:
227,354,163314,2,0,P|241:310|217:250,2,98.9999969787599,10|0|10,0:0|0:0|0:0,0:0:0:0:
180,171,163840,6,0,P|117:127|198:90,1,197.99999395752,0|0,1:0|1:0,0:0:0:0:
295,179,164366,1,10,0:0:0:0:
226,260,164542,1,8,0:3:0:0:
301,80,164717,6,0,B|534:96,1,197.99999395752,2|10,1:0|0:0,0:0:0:0:
370,173,165244,1,0,1:0:0:0:
370,173,165419,2,0,L|268:165,1,98.9999969787599,10|0,0:0|0:0,0:0:0:0:
291,343,165770,6,0,P|376:355|388:244,1,197.99999395752,10|10,0:0|0:0,0:0:0:0:
234,265,166296,2,0,P|174:356|243:368,1,197.99999395752,0|2,1:0|1:2,0:0:0:0:
218,374,166735,1,0,0:0:0:0:
218,374,166823,1,2,1:0:0:0:
340,293,166998,1,8,0:0:0:0:
211,188,167173,6,0,L|85:197,1,98.9999969787599,6|0,0:0|0:0,0:0:0:0:
112,195,167524,1,0,1:0:0:0:
251,109,167700,2,0,L|452:120,1,197.99999395752,10|2,0:0|0:0,0:0:0:0:
358,39,168226,1,10,0:0:0:0:
339,191,168401,1,0,0:0:0:0:
471,121,168577,5,0,1:0:0:0:
343,201,168752,1,10,0:0:0:0:
468,261,168928,2,0,L|429:155,1,98.9999969787599,0|2,1:0|0:0,0:0:0:0:
390,298,169279,1,8,0:0:0:0:
512,335,169454,1,8,0:3:0:0:
377,293,169630,5,6,0:0:0:0:
511,170,169805,1,0,0:0:0:0:
378,82,169980,2,0,L|263:60,1,98.9999969787599,2|8,1:0|0:0,0:0:0:0:
238,229,170331,2,0,L|313:141,1,98.9999969787599,0|0,1:0|0:0,0:0:0:0:
178,27,170682,2,0,L|216:137,1,98.9999969787599,2|0,1:2|0:0,0:0:0:0:
32,200,171033,6,0,P|106:202|141:253,1,98.9999969787599,8|8,0:0|0:0,0:0:0:0:
122,216,171296,1,0,0:0:0:0:
122,216,171384,1,0,1:0:0:0:
198,312,171559,1,2,0:0:0:0:
79,372,171735,2,0,L|60:246,1,98.9999969787599,8|0,0:0|1:0,0:0:0:0:
477,185,172086,6,0,P|401:174|371:149,1,98.9999969787599,4|0,0:0|1:0,0:0:0:0:
392,345,172437,2,0,P|364:274|371:236,1,98.9999969787599,8|0,0:0|1:0,0:0:0:0:
203,370,172787,2,0,P|251:310|288:297,1,98.9999969787599,8|0,0:0|1:0,0:0:0:0:
107,217,173138,2,0,P|183:228|213:253,1,98.9999969787599,8|0,0:0|1:0,0:0:0:0:
370,259,173489,6,0,P|375:308|400:351,1,98.9999969787599,8|0,0:0|1:0,0:0:0:0:
398,159,173840,2,0,P|443:179|492:178,1,98.9999969787599,8|0,0:0|1:0,0:0:0:0:
260,306,174191,2,0,P|221:335|196:378,1,98.9999969787599,8|0,0:0|0:0,0:0:0:0:
93,213,174541,2,0,P|147:213|195:239,1,110,8|8,0:0|0:0,0:0:0:0:
9,238,174891,5,8,0:0:0:0:
34,147,175067,1,8,0:0:0:0:
123,307,175242,5,8,0:0:0:0:
32,331,175418,1,8,0:0:0:0:
128,172,175593,5,10,0:0:0:0:
195,239,175769,1,2,0:0:0:0:
21,345,175944,5,4,1:0:0:0:
472,365,176295,5,2,0:0:0:0:
498,285,176470,5,2,0:0:0:0:
471,168,176646,5,2,0:0:0:0:
373,54,176821,5,2,0:0:0:0:
162,25,176997,5,2,0:0:0:0:
36,315,177172,5,2,0:0:0:0:
36,315,177260,1,2,0:0:0:0:
36,315,177348,2,0,P|54:245|58:171,1,131.99999597168,6|0,0:0|0:0,0:0:0:0:
221,101,177698,2,0,P|226:166|243:230,1,131.99999597168,8|0,0:0|1:0,0:0:0:0:
73,79,178049,1,0,0:0:0:0:
73,79,178137,1,8,0:0:0:0:
73,79,178225,1,0,1:0:0:0:
261,34,178400,1,8,0:0:0:0:
61,161,178576,1,0,1:0:0:0:
325,152,178751,5,0,0:0:0:0:
325,152,178839,1,8,0:0:0:0:
325,152,178926,1,0,1:0:0:0:
512,212,179102,2,0,P|447:207|356:209,1,131.99999597168,8|0,0:0|1:0,0:0:0:0:
237,337,179453,1,0,0:0:0:0:
237,337,179541,1,8,0:0:0:0:
237,337,179628,1,0,1:0:0:0:
405,283,179804,1,8,0:0:0:0:
307,140,179979,1,0,0:0:0:0:
307,140,180067,1,8,0:0:0:0:
307,140,180155,6,0,P|300:220|290:280,1,131.99999597168,0|0,1:0|0:0,0:0:0:0:
502,375,180505,2,0,P|491:309|486:244,1,131.99999597168,8|0,0:0|0:0,0:0:0:0:
288,384,180856,1,0,0:0:0:0:
288,384,180944,1,8,0:0:0:0:
288,384,181032,1,0,1:0:0:0:
461,256,181207,1,8,0:0:0:0:
252,147,181383,1,0,1:0:0:0:
374,366,181558,5,0,0:0:0:0:
374,366,181646,1,8,0:0:0:0:
374,366,181733,2,0,L|381:295,1,65.9999979858399,0|0,1:0|0:0,0:0:0:0:
189,237,181909,2,0,P|271:246|336:248,1,131.99999597168,8|0,0:0|1:0,0:0:0:0:
480,174,182260,6,0,P|472:142|455:106,1,65.9999979858399,0|8,1:0|0:0,0:0:0:0:
340,0,182435,2,0,P|316:22|293:55,1,65.9999979858399,0|0,1:0|1:0,0:0:0:0:
189,237,182611,5,8,0:0:0:0:
145,260,182698,1,0,1:0:0:0:
96,259,182786,1,0,1:0:0:0:
54,234,182874,1,8,0:0:0:0:
29,192,182962,6,0,P|28:129|30:49,1,131.99999597168,4|0,0:0|0:0,0:0:0:0:
189,237,183312,2,0,P|190:302|189:368,1,131.99999597168,8|0,0:0|1:0,0:0:0:0:
3,208,183663,1,0,0:0:0:0:
3,208,183751,1,8,0:0:0:0:
3,208,183839,1,0,1:0:0:0:
207,118,184014,1,8,0:0:0:0:
47,313,184190,1,0,1:0:0:0:
303,323,184365,5,0,0:0:0:0:
303,323,184453,1,8,0:0:0:0:
303,323,184541,1,0,1:0:0:0:
227,120,184716,2,0,P|216:180|207:270,1,131.99999597168,8|0,0:0|1:0,0:0:0:0:
324,348,185067,1,0,1:0:0:0:
324,348,185155,1,8,0:0:0:0:
324,348,185242,2,0,P|266:340|227:335,1,65.9999979858399,0|0,1:0|1:0,0:0:0:0:
20,334,185418,2,0,P|88:322|172:315,1,131.99999597168,8|0,0:0|0:0,0:0:0:0:
130,289,185681,1,8,0:0:0:0:
130,289,185769,6,0,P|117:250|111:142,1,131.99999597168,0|0,1:0|0:0,0:0:0:0:
251,21,186119,2,0,B|294:76|294:76|273:141,1,131.99999597168,8|0,0:0|0:0,0:0:0:0:
68,76,186470,1,0,0:0:0:0:
191,99,186646,1,0,1:0:0:0:
19,195,186821,1,8,0:0:0:0:
206,215,186997,2,0,P|249:210|300:219,1,65.9999979858399
73,316,187172,5,0,0:0:0:0:
74,335,187260,1,8,0:0:0:0:
76,357,187348,1,0,1:0:0:0:
209,174,187523,5,8,0:0:0:0:
208,193,187611,1,0,0:0:0:0:
206,215,187698,1,0,1:0:0:0:
0,209,187874,6,0,P|39:211|65:217,1,65.9999979858399,0|8,0:0|0:0,0:0:0:0:
183,293,188049,2,0,P|222:291|248:285,1,65.9999979858399,0|0,1:0|1:0,0:0:0:0:
504,194,188225,5,8,0:0:0:0:
466,162,188312,1,8,0:0:0:0:
418,156,188400,1,0,1:0:0:0:
374,178,188488,1,0,1:0:0:0:
350,221,188576,6,0,P|351:274|347:368,1,131.99999597168,4|0,0:0|0:0,0:0:0:0:
167,196,188926,2,0,P|164:130|165:64,1,131.99999597168,8|0,0:0|1:0,0:0:0:0:
239,378,189277,1,0,0:0:0:0:
239,378,189365,1,8,0:0:0:0:
239,378,189453,1,0,1:0:0:0:
8,280,189628,1,8,0:0:0:0:
232,162,189804,1,0,1:0:0:0:
45,203,189979,5,0,0:0:0:0:
45,203,190067,1,8,0:0:0:0:
45,203,190155,1,0,1:0:0:0:
259,289,190330,2,0,P|203:282|101:277,1,131.99999597168,8|0,0:0|1:0,0:0:0:0:
266,161,190681,1,0,1:0:0:0:
266,161,190769,1,8,0:0:0:0:
266,161,190856,2,0,P|308:154|355:153,1,65.9999979858399,0|0,1:0|0:0,0:0:0:0:
440,58,191032,2,0,P|467:91|491:131,1,65.9999979858399,8|0,0:0|0:0,0:0:0:0:
435,326,191207,1,0,0:0:0:0:
435,326,191295,1,8,0:0:0:0:
435,326,191383,6,0,P|427:233|424:177,1,131.99999597168,0|0,1:0|1:0,0:0:0:0:
236,246,191733,2,0,P|231:311|225:377,1,131.99999597168,8|0,0:0|1:0,0:0:0:0:
325,165,192084,2,0,B|278:140|278:140|174:147,1,131.99999597168,0|0,0:0|1:0,0:0:0:0:
36,283,192435,1,8,0:0:0:0:
236,246,192611,1,0,1:0:0:0:
1,169,192786,5,0,0:0:0:0:
1,169,192874,1,8,0:0:0:0:
1,169,192962,1,0,1:0:0:0:
235,271,193137,2,0,P|150:261|91:258,1,131.99999597168,8|0,0:0|1:0,0:0:0:0:
337,216,193488,5,0,0:0:0:0:
337,216,193576,1,8,0:0:0:0:
337,216,193663,1,0,1:0:0:0:
103,258,193839,2,0,P|85:292|70:348,1,65.9999979858399,8|0,0:0|1:0,0:0:0:0:
244,164,194014,2,0,P|232:132|217:103,1,65.9999979858399,0|8,1:0|0:0,0:0:0:0:
293,352,194190,6,0,P|373:343|458:337,1,131.99999597168,4|0,0:0|0:0,0:0:0:0:
235,271,194541,2,0,P|155:262|70:256,1,131.99999597168,8|0,0:0|1:0,0:0:0:0:
298,179,194891,2,0,P|378:170|463:164,1,131.99999597168,0|0,0:0|1:0,0:0:0:0:
206,353,195242,1,8,0:0:0:0:
284,150,195418,1,0,1:0:0:0:
454,369,195593,5,0,0:0:0:0:
454,369,195681,1,8,0:0:0:0:
454,369,195769,1,0,1:0:0:0:
174,340,195944,1,8,0:0:0:0:
433,144,196119,1,0,1:0:0:0:
325,377,196295,1,0,0:0:0:0:
325,377,196383,1,8,0:0:0:0:
325,377,196470,1,0,1:0:0:0:
227,92,196646,6,0,P|259:93|291:103,1,65.9999979858399,8|0,0:0|1:0,0:0:0:0:
354,240,196821,2,0,P|336:267|311:289,1,65.9999979858399,0|8,1:0|0:0,0:0:0:0:
118,245,196997,6,0,P|107:175|177:115,1,131.99999597168,4|0,0:0|0:0,0:0:0:0:
366,144,197348,1,8,0:0:0:0:
182,325,197523,1,0,1:0:0:0:
245,82,197698,2,0,P|234:149|229:228,1,131.99999597168,0|0,0:0|1:0,0:0:0:0:
384,218,198049,1,8,0:0:0:0:
178,42,198225,1,0,1:0:0:0:
44,243,198400,6,0,P|98:235|133:226,1,65.9999979858399,10|0,0:0|0:0,0:0:0:0:
196,374,198576,2,0,P|205:320|207:284,1,65.9999979858399,10|0,0:0|0:0,0:0:0:0:
443,299,198751,2,0,P|394:273|361:260,1,65.9999979858399,10|0,0:0|0:0,0:0:0:0:
395,0,198926,2,0,P|356:38|332:66,1,65.9999979858399,10|0,0:0|0:0,0:0:0:0:
142,29,199102,5,0,1:0:0:0:
111,85,199190,1,0,1:0:0:0:
124,149,199277,1,0,1:0:0:0:
175,188,199365,1,0,1:0:0:0:
241,181,199453,2,0,P|323:169|384:186,1,131.99999597168,10|0,0:0|0:0,0:0:0:0:
478,227,199804,5,4,0:0:0:0:
410,331,199979,1,0,0:0:0:0:
483,305,200155,5,8,0:0:0:0:
337,92,200330,1,0,1:0:0:0:
411,127,200505,5,8,0:0:0:0:
258,363,200681,1,0,1:0:0:0:
329,320,200856,5,8,0:0:0:0:
183,87,201032,1,0,1:0:0:0:
259,144,201207,5,8,0:0:0:0:
293,137,201383,1,0,1:0:0:0:
79,191,201558,5,8,0:0:0:0:
45,184,201733,1,0,1:0:0:0:
216,271,201909,5,8,0:0:0:0:
107,114,202084,1,0,1:0:0:0:
107,94,202172,1,0,1:0:0:0:
108,73,202260,5,8,0:0:0:0:
1,253,202435,1,0,1:0:0:0:
64,214,202611,5,8,0:0:0:0:
125,323,202786,1,0,1:0:0:0:
60,291,202962,5,8,0:0:0:0:
175,75,203137,1,0,1:0:0:0:
115,131,203312,5,8,0:0:0:0:
306,339,203488,1,0,1:0:0:0:
229,314,203663,5,8,0:0:0:0:
355,45,203839,1,0,1:0:0:0:
185,149,204014,5,8,0:0:0:0:
115,131,204190,1,0,1:0:0:0:
425,94,204365,5,8,0:0:0:0:
495,76,204541,1,0,1:0:0:0:
245,250,204716,5,8,0:0:0:0:
455,184,204891,1,0,1:0:0:0:
477,188,204979,1,0,1:0:0:0:
498,192,205067,5,8,0:0:0:0:
267,60,205242,1,0,1:0:0:0:
274,93,205330,1,0,1:0:0:0:
281,126,205418,5,4,1:0:0:0:
363,7,205593,1,0,1:0:0:0:
382,96,205769,5,8,0:0:0:0:
100,193,205944,1,0,1:0:0:0:
80,117,206119,5,8,0:0:0:0:
420,280,206295,1,0,1:0:0:0:
411,203,206470,5,8,0:0:0:0:
121,375,206646,1,0,1:0:0:0:
353,348,206821,5,8,0:0:0:0:
433,375,206997,1,0,1:0:0:0:
150,273,207172,5,8,0:0:0:0:
70,300,207348,1,0,1:0:0:0:
369,200,207523,5,8,0:0:0:0:
192,374,207698,1,0,1:0:0:0:
161,365,207786,1,0,1:0:0:0:
131,355,207874,5,8,0:0:0:0:
461,327,208049,1,0,1:0:0:0:
382,377,208225,5,8,0:0:0:0:
424,247,208400,1,0,1:0:0:0:
335,285,208576,5,8,0:0:0:0:
476,58,208751,1,0,1:0:0:0:
506,128,208926,5,8,0:0:0:0:
241,74,209102,1,0,1:0:0:0:
314,37,209277,5,8,0:0:0:0:
198,267,209453,1,0,1:0:0:0:
412,167,209628,5,4,0:0:0:0:
389,22,209804,1,0,1:0:0:0:
287,290,209979,5,4,0:0:0:0:
117,136,210155,1,0,1:0:0:0:
351,178,210330,5,8,0:0:0:0:
319,157,210418,1,8,0:0:0:0:
282,153,210505,1,0,1:0:0:0:
247,166,210593,1,0,1:0:0:0:
208,200,210681,5,8,0:0:0:0:
171,223,210769,1,8,0:0:0:0:
128,228,210856,1,8,0:0:0:0:
87,213,210944,1,8,0:0:0:0:
38,169,211032,5,4,0:0:0:0:
87,40,211207,1,0,1:0:0:0:
26,86,211383,5,8,0:0:0:0:
158,348,211558,1,0,1:0:0:0:
79,307,211733,5,8,0:0:0:0:
273,43,211909,1,0,1:0:0:0:
197,86,212084,5,8,0:0:0:0:
352,348,212260,1,0,1:0:0:0:
411,125,212435,5,8,0:0:0:0:
397,40,212611,1,0,1:0:0:0:
277,295,212786,5,8,0:0:0:0:
263,380,212962,1,0,1:0:0:0:
439,249,213137,5,8,0:0:0:0:
196,321,213312,1,0,1:0:0:0:
165,316,213400,1,0,1:0:0:0:
134,313,213488,5,8,0:0:0:0:
417,381,213663,1,0,1:0:0:0:
361,264,213839,5,8,0:0:0:0:
512,295,214014,1,0,1:0:0:0:
460,175,214190,5,8,0:0:0:0:
231,380,214365,1,0,1:0:0:0:
320,356,214541,5,8,0:0:0:0:
42,161,214716,1,0,1:0:0:0:
73,239,214891,5,8,0:0:0:0:
293,22,215067,1,0,1:0:0:0:
104,313,215242,5,8,0:0:0:0:
9,298,215418,1,0,1:0:0:0:
316,276,215593,5,8,0:0:0:0:
411,261,215769,1,0,1:0:0:0:
104,169,215944,5,8,0:0:0:0:
381,355,216119,1,0,1:0:0:0:
413,353,216207,1,0,1:0:0:0:
445,350,216295,5,8,0:0:0:0:
71,384,216470,1,0,1:0:0:0:
186,337,216646,5,12,0:0:0:0:
18,266,216821,1,0,1:0:0:0:
98,308,216997,5,8,0:0:0:0:
158,65,217172,1,0,1:0:0:0:
82,100,217348,5,8,0:0:0:0:
312,366,217523,1,0,1:0:0:0:
226,348,217698,5,8,0:0:0:0:
375,39,217874,1,0,1:0:0:0:
154,177,218049,5,8,0:0:0:0:
42,158,218225,1,0,1:0:0:0:
370,139,218400,5,8,0:0:0:0:
482,120,218576,1,0,1:0:0:0:
248,324,218751,5,8,0:0:0:0:
189,88,218926,1,0,1:0:0:0:
197,60,219014,1,0,1:0:0:0:
205,30,219102,5,8,0:0:0:0:
37,237,219277,1,0,1:0:0:0:
277,89,219453,5,8,0:0:0:0:
309,83,219540,1,0,0:0:0:0:
342,85,219628,1,0,1:0:0:0:
373,96,219716,1,0,1:0:0:0:
400,114,219804,1,8,0:0:0:0:
422,138,219891,1,0,0:0:0:0:
437,167,219979,1,0,1:0:0:0:
444,200,220067,1,0,1:0:0:0:
443,232,220155,6,0,L|338:223,1,65.9999979858399,8|0,0:0|0:0,0:0:0:0:
164,231,220330,2,0,L|268:222,1,65.9999979858399,0|0,1:0|1:0,0:0:0:0:
386,374,220505,2,0,L|377:269,1,65.9999979858399,8|0,0:0|0:0,0:0:0:0:
295,63,220681,2,0,L|289:128,1,65.9999979858399,0|0,1:0|1:0,0:0:0:0:
96,335,220856,6,0,L|247:320,1,131.99999597168,10|10,0:0|0:0,0:0:0:0:
512,253,221207,1,10,0:0:0:0:
312,153,221383,1,10,0:0:0:0:
312,153,221470,1,0,0:0:0:0:
312,153,221558,1,0,1:0:0:0:
436,335,221733,1,2,0:0:0:0:
436,335,221821,1,2,0:0:0:0:
436,335,221909,2,0,L|426:197,1,131.99999597168,2|0,1:0|0:0,0:0:0:0:
272,60,222260,6,0,B|332:80|332:80|398:59,2,115.49999647522,4|0|0,0:0|1:0|1:0,0:0:0:0:
171,13,222961,2,0,P|161:69|171:110,1,76.9999976501466,0|8,0:0|0:0,0:0:0:0:
268,154,223312,2,0,P|278:210|268:251,1,76.9999976501466,0|0,0:0|1:0,0:0:0:0:
173,198,223663,6,0,L|116:191,3,38.4999988250733,8|0|0|8,3:0|3:0|3:0|3:0,3:0:0:0:
158,271,224014,2,0,L|101:264,3,38.4999988250733,0|0|8|0,1:0|1:0|0:0|1:0,0:0:0:0:
201,349,224365,1,0,0:0:0:0:
201,349,224540,2,0,L|17:325,1,153.999995300293,4|0,0:0|0:0,0:0:0:0:
284,339,225067,5,8,0:0:0:0:
284,339,225154,1,8,0:0:0:0:
284,339,225242,1,0,1:0:0:0:
362,363,225417,2,0,B|367:327|367:327|351:276,1,76.9999976501466,8|0,0:0|0:0,0:0:0:0:
245,203,225768,2,0,B|297:216|297:216|480:178,1,230.99999295044,4|0,0:0|0:0,0:0:0:0:
445,100,226470,2,0,L|347:120,1,76.9999976501466,8|12,0:0|0:0,0:0:0:0:
268,96,226821,6,0,P|270:58|259:29,2,51.3333317667644,0|0|0,1:0|1:0|1:0,0:0:0:0:
255,120,227172,2,0,L|155:111,1,76.9999976501466,4|0,0:0|0:0,0:0:0:0:
99,175,227523,1,8,0:0:0:0:
99,175,227610,1,8,0:0:0:0:
99,175,227698,1,0,1:0:0:0:
163,244,227874,2,0,L|263:235,1,76.9999976501466,8|0,0:0|1:0,0:0:0:0:
108,357,228224,5,0,0:0:0:0:
70,247,228400,2,0,B|86:189|86:189|61:85,1,153.999995300293,2|0,1:0|0:0,0:0:0:0:
139,83,228926,6,0,L|124:29,2,51.3333317667644,0|0|8,1:0|1:0|0:0,0:0:0:0:
228,77,229277,2,0,L|214:126,2,51.3333317667644,0|0|8,1:0|1:0|0:0,0:0:0:0:
319,108,229628,5,4,0:0:0:0:
396,55,229803,2,0,L|479:60,1,76.9999976501466,0|8,0:0|0:0,0:0:0:0:
472,59,230067,1,8,0:0:0:0:
472,59,230154,1,0,1:0:0:0:
406,140,230330,6,0,L|418:217,1,76.9999976501466,8|0,0:0|1:0,0:0:0:0:
462,295,230681,2,0,P|500:286|531:286,2,51.3333317667644,0|0|0,1:0|1:0|1:0,0:0:0:0:
432,381,231031,2,0,P|394:372|363:372,2,51.3333317667644,8|0|0,1:2|1:0|1:0,0:0:0:0:
312,362,231382,2,0,P|273:362|236:354,1,76.9999976501466,0|0,1:0|1:0,0:0:0:0:
196,238,231733,1,8,0:0:0:0:
99,355,231909,5,8,0:0:0:0:
99,355,231996,1,8,0:0:0:0:
99,355,232084,2,0,L|111:274,1,76.9999976501466,4|0,0:0|1:0,0:0:0:0:
15,178,232435,1,8,0:0:0:0:
17,281,232610,1,0,1:0:0:0:
148,194,232786,6,0,P|208:218|246:211,1,76.9999976501466,8|0,0:0|1:0,0:0:0:0:
153,95,233137,2,0,P|115:99|81:118,1,76.9999976501466,0|8,0:0|0:0,0:0:0:0:
254,116,233488,2,0,L|243:14,1,76.9999976501466,0|0,0:0|1:0,0:0:0:0:
358,172,233838,2,0,L|349:248,1,76.9999976501466,8|0,0:0|1:0,0:0:0:0:
435,349,234189,5,8,0:0:0:0:
312,384,234365,2,0,B|286:350|286:350|162:343,1,153.999995300293,8|0,0:0|1:0,0:0:0:0:
52,304,234891,2,0,P|40:360|49:395,1,76.9999976501466,8|0,0:0|1:0,0:0:0:0:
174,343,235154,1,8,0:0:0:0:
174,343,235242,2,0,P|186:287|177:252,1,76.9999976501466,0|0,0:0|1:0,0:0:0:0:
32,172,235593,2,0,P|90:201|177:130,1,153.999995300293,0|0,0:0|0:0,0:0:0:0:
87,78,236119,1,0,1:0:0:0:
179,10,236295,6,0,L|276:22,1,76.9999976501466,8|0,0:0|1:0,0:0:0:0:
323,117,236645,2,0,L|399:107,1,76.9999976501466,12|0,0:0|0:0,0:0:0:0:
399,107,236909,1,8,0:0:0:0:
399,107,236996,5,4,0:0:0:0:
228,237,237172,1,0,1:0:0:0:
228,237,237347,2,0,L|234:121,2,115.49999647522,8|8|0,0:0|0:0|1:0,0:0:0:0:
310,324,238049,1,0,0:0:0:0:
165,377,238224,2,0,L|65:364,1,76.9999976501466,8|8,0:0|0:0,0:0:0:0:
325,316,238575,5,0,1:0:0:0:
190,370,238751,2,0,L|90:357,1,76.9999976501466,8|0,0:0|1:0,0:0:0:0:
302,233,239102,1,8,0:0:0:0:
363,384,239277,1,8,0:0:0:0:
501,298,239452,5,0,1:0:0:0:
246,323,239628,1,0,0:0:0:0:
246,323,239803,2,0,B|286:307|286:307|372:311,2,115.49999647522,8|8|0,0:0|0:0|1:0,0:0:0:0:
431,362,240505,5,8,0:0:0:0:
343,226,240681,2,0,P|341:188|344:140,1,76.9999976501466,4|0,0:0|0:0,0:0:0:0:
452,191,241031,1,0,1:0:0:0:
285,274,241207,2,0,P|238:265|135:263,1,115.49999647522,8|0,0:0|0:0,0:0:0:0:
153,291,241558,2,0,P|139:242|143:194,1,76.9999976501466,8|8,0:0|0:0,0:0:0:0:
228,42,241909,6,0,B|250:68|250:68|236:157,1,98.9999969787599,6|0,0:0|0:0,0:0:0:0:
239,132,242260,1,0,1:0:0:0:
66,99,242435,2,0,L|168:90,2,98.9999969787599,8|0|0,0:0|0:0|0:0,0:0:0:0:
24,202,242961,5,2,1:0:0:0:
15,175,243137,1,8,0:0:0:0:
141,224,243312,1,8,0:0:0:0:
148,199,243488,1,2,1:0:0:0:
0,311,243663,2,0,L|105:298,1,98.9999969787599,8|0,0:0|0:0,0:0:0:0:
302,379,244014,5,8,3:0:0:0:
226,268,244189,1,0,0:0:0:0:
162,375,244365,1,6,0:0:0:0:
310,302,244540,1,0,0:0:0:0:
144,211,244716,2,0,P|132:246|136:311,1,98.9999969787599,0|10,0:0|0:0,0:0:0:0:
134,307,244979,1,0,0:0:0:0:
134,307,245067,5,0,0:0:0:0:
47,201,245242,1,8,0:0:0:0:
208,268,245417,1,0,1:0:0:0:
46,354,245593,1,8,0:0:0:0:
35,209,245768,6,0,P|37:145|39:111,1,98.9999969787599,8|2,0:0|1:0,0:0:0:0:
140,160,246119,2,0,P|196:129|226:114,1,98.9999969787599,8|2,0:0|1:0,0:0:0:0:
237,225,246470,2,0,P|291:258|319:277,1,98.9999969787599,8|2,0:0|0:0,0:0:0:0:
491,171,246821,6,0,P|415:124|354:200,1,197.99999395752,6|10,0:0|0:0,0:0:0:0:
464,352,247347,2,0,B|499:326|499:326|491:151,1,197.99999395752,0|0,0:0|0:0,0:0:0:0:
388,265,247874,2,0,P|374:309|398:369,2,98.9999969787599,10|0|10,0:0|0:0|0:0,0:0:0:0:
225,169,248400,6,0,P|288:213|279:331,1,197.99999395752,0|0,0:0|0:0,0:0:0:0:
118,212,248926,1,10,0:0:0:0:
165,122,249102,1,0,0:0:0:0:
191,349,249277,6,0,B|161:313|161:313|10:308,1,197.99999395752,2|10,1:0|0:0,0:0:0:0:
44,228,249803,1,0,0:0:0:0:
44,228,249979,2,0,L|145:231,1,98.9999969787599,10|0,0:0|0:0,0:0:0:0:
299,116,250330,6,0,P|259:42|221:133,1,197.99999395752,10|10,0:0|0:0,0:0:0:0:
350,190,250856,2,0,P|378:143|349:2,1,197.99999395752,0|0,0:0|0:0,0:0:0:0:
354,8,251295,1,0,0:0:0:0:
354,8,251382,1,2,1:0:0:0:
251,92,251558,1,8,0:0:0:0:
367,211,251733,6,0,L|493:202,1,98.9999969787599,6|0,0:0|0:0,0:0:0:0:
465,203,252084,1,2,1:0:0:0:
288,287,252260,2,0,L|87:276,1,197.99999395752,8|2,0:0|0:0,0:0:0:0:
0,235,252786,1,2,1:0:0:0:
28,352,252961,1,8,0:0:0:0:
151,190,253137,5,0,1:0:0:0:
9,249,253312,1,8,0:0:0:0:
44,123,253488,2,0,L|83:229,1,98.9999969787599,2|0,0:0|1:0,0:0:0:0:
122,86,253838,1,8,3:0:0:0:
0,49,254014,1,0,0:0:0:0:
135,91,254189,5,6,0:0:0:0:
1,214,254365,1,0,0:0:0:0:
170,265,254540,2,0,L|285:250,1,98.9999969787599,2|8,1:0|0:0,0:0:0:0:
257,82,254891,2,0,L|212:189,1,98.9999969787599,0|8,0:0|0:0,0:0:0:0:
377,255,255242,2,0,L|306:162,1,98.9999969787599,2|8,1:0|0:0,0:0:0:0:
347,340,255593,6,0,P|421:338|456:287,1,98.9999969787599,0|8,1:0|0:0,0:0:0:0:
437,324,255856,1,0,0:0:0:0:
437,324,255944,1,0,1:0:0:0:
335,173,256119,1,0,1:0:0:0:
208,286,256295,2,0,L|227:412,1,98.9999969787599,8|0,0:0|0:0,0:0:0:0:
35,199,256645,6,0,P|111:210|141:235,1,98.9999969787599,12|0,0:0|1:0,0:0:0:0:
120,39,256996,2,0,P|148:110|141:148,1,98.9999969787599,8|0,0:0|1:0,0:0:0:0:
309,14,257347,2,0,P|261:74|224:87,1,98.9999969787599,8|0,0:0|1:0,0:0:0:0:
405,167,257698,2,0,P|329:156|299:131,1,98.9999969787599,8|0,0:0|1:0,0:0:0:0:
142,125,258049,6,0,P|137:76|112:33,1,98.9999969787599,8|0,0:0|1:0,0:0:0:0:
114,225,258400,2,0,P|69:205|20:206,1,98.9999969787599,8|0,0:0|1:0,0:0:0:0:
252,78,258751,2,0,P|291:49|316:6,1,98.9999969787599,8|0,0:0|1:0,0:0:0:0:
419,171,259101,2,0,P|365:171|317:145,1,110,8|8,0:0|0:0,0:0:0:0:
503,146,259451,5,8,0:0:0:0:
478,237,259627,1,8,0:0:0:0:
296,66,259802,5,8,0:0:0:0:
387,42,259978,1,8,0:0:0:0:
225,207,260153,5,10,0:0:0:0:
158,140,260329,1,2,0:0:0:0:
340,58,260504,5,4,1:0:0:0:
118,0,260679,5,2,0:0:0:0:
40,19,260855,5,2,0:0:0:0:
14,99,261030,5,2,0:0:0:0:
41,216,261206,5,2,0:0:0:0:
139,330,261381,5,2,0:0:0:0:
350,359,261557,5,2,0:0:0:0:
509,109,261732,5,2,0:0:0:0:
509,109,261820,1,2,0:0:0:0:
509,109,261908,2,0,P|491:179|487:253,1,131.99999597168,4|0,0:0|0:0,0:0:0:0:
302,142,262258,2,0,P|297:77|280:13,1,131.99999597168,8|0,0:0|1:0,0:0:0:0:
440,66,262609,1,0,0:0:0:0:
440,66,262697,1,8,0:0:0:0:
440,66,262785,1,0,1:0:0:0:
208,134,262960,1,8,0:0:0:0:
405,229,263136,1,0,1:0:0:0:
327,43,263311,5,0,0:0:0:0:
327,43,263399,1,8,0:0:0:0:
327,43,263486,1,0,1:0:0:0:
319,290,263662,2,0,P|324:225|322:134,1,131.99999597168,8|0,0:0|1:0,0:0:0:0:
207,187,264013,1,0,0:0:0:0:
207,187,264101,1,8,0:0:0:0:
207,187,264188,1,0,1:0:0:0:
412,251,264364,1,8,0:0:0:0:
251,355,264539,1,0,0:0:0:0:
251,355,264627,1,8,0:0:0:0:
251,355,264715,6,0,P|171:348|111:338,1,131.99999597168,0|0,0:0|0:0,0:0:0:0:
0,211,265065,2,0,P|66:200|131:195,1,131.99999597168,8|0,0:0|1:0,0:0:0:0:
224,0,265416,1,0,1:0:0:0:
224,0,265504,1,0,1:0:0:0:
224,0,265592,1,0,1:0:0:0:
51,128,265767,1,8,0:0:0:0:
260,237,265943,1,0,1:0:0:0:
129,21,266118,5,0,1:0:0:0:
129,21,266206,1,8,1:2:0:0:
129,21,266293,2,0,L|122:92,1,65.9999979858399,0|0,1:0|0:0,0:0:0:0:
317,162,266469,2,0,P|235:153|170:151,1,131.99999597168,8|0,0:0|1:0,0:0:0:0:
98,242,266820,6,0,P|84:211|76:179,1,65.9999979858399,0|8,0:0|0:0,0:0:0:0:
255,300,266995,2,0,P|247:332|234:363,1,65.9999979858399,0|0,1:0|0:0,0:0:0:0:
323,147,267171,5,8,0:0:0:0:
367,124,267258,1,0,1:0:0:0:
416,125,267346,1,0,1:0:0:0:
458,150,267434,1,8,0:0:0:0:
483,192,267522,6,0,P|484:255|482:335,1,131.99999597168,4|0,0:0|0:0,0:0:0:0:
255,300,267872,2,0,P|254:235|255:169,1,131.99999597168,8|0,0:0|1:0,0:0:0:0:
457,211,268223,1,0,0:0:0:0:
457,211,268311,1,8,0:0:0:0:
457,211,268399,1,0,1:0:0:0:
285,189,268574,1,8,0:0:0:0:
512,125,268750,1,0,1:0:0:0:
241,107,268925,5,0,0:0:0:0:
241,107,269013,1,8,0:0:0:0:
241,107,269101,1,0,1:0:0:0:
372,285,269276,2,0,P|383:225|392:135,1,131.99999597168,8|0,0:0|1:0,0:0:0:0:
189,185,269627,1,0,0:0:0:0:
189,185,269715,1,8,0:0:0:0:
189,185,269802,2,0,P|247:193|286:198,1,65.9999979858399,0|0,1:0|0:0,0:0:0:0:
492,50,269978,2,0,P|424:62|340:69,1,131.99999597168,8|0,0:0|0:0,0:0:0:0:
382,95,270241,1,8,0:0:0:0:
382,95,270329,6,0,P|395:134|401:242,1,131.99999597168,0|0,0:0|1:0,0:0:0:0:
215,350,270679,2,0,P|217:284|235:220,1,131.99999597168,8|0,0:0|1:0,0:0:0:0:
437,334,271030,1,0,0:0:0:0:
302,317,271206,1,0,1:0:0:0:
474,222,271381,1,8,0:0:0:0:
258,137,271557,2,0,P|253:180|262:231,1,65.9999979858399,0|0,1:0|0:0,0:0:0:0:
446,71,271732,5,2,0:0:0:0:
382,85,271820,1,10,0:0:0:0:
321,61,271908,1,2,1:0:0:0:
259,41,271995,1,2,0:0:0:0:
194,49,272083,1,10,0:0:0:0:
88,222,272258,1,0,1:0:0:0:
344,171,272434,6,0,P|377:177|410:180,1,65.9999979858399,0|8,0:0|0:0,0:0:0:0:
130,113,272609,2,0,P|97:114|64:121,1,65.9999979858399,0|0,1:0|1:0,0:0:0:0:
16,341,272785,5,8,0:0:0:0:
54,373,272872,1,8,0:0:0:0:
102,379,272960,1,0,1:0:0:0:
146,357,273048,1,0,1:0:0:0:
170,314,273136,6,0,P|169:261|173:167,1,131.99999597168,4|0,0:0|0:0,0:0:0:0:
361,36,273486,2,0,P|364:102|363:168,1,131.99999597168,8|0,0:0|1:0,0:0:0:0:
196,111,273837,1,0,0:0:0:0:
196,111,273925,1,8,0:0:0:0:
196,111,274013,1,0,1:0:0:0:
445,47,274188,1,8,0:0:0:0:
201,11,274364,1,0,1:0:0:0:
487,129,274539,5,0,0:0:0:0:
487,129,274627,1,8,0:0:0:0:
487,129,274715,1,0,1:0:0:0:
254,95,274890,2,0,P|310:102|412:107,1,131.99999597168,8|0,0:0|1:0,0:0:0:0:
502,231,275241,1,0,0:0:0:0:
502,231,275329,1,8,0:0:0:0:
502,231,275416,2,0,P|460:238|413:239,1,65.9999979858399,0|0,1:0|0:0,0:0:0:0:
360,350,275592,2,0,P|333:317|309:277,1,65.9999979858399,8|0,0:0|0:0,0:0:0:0:
203,97,275767,1,0,0:0:0:0:
203,97,275855,1,8,0:0:0:0:
203,97,275943,6,0,P|211:190|214:246,1,131.99999597168,0|0,1:0|1:0,0:0:0:0:
46,364,276293,2,0,P|51:299|57:233,1,131.99999597168,8|0,0:0|1:0,0:0:0:0:
291,309,276644,2,0,B|244:334|244:334|165:328,1,131.99999597168,0|0,0:0|1:0,0:0:0:0:
85,134,276995,1,8,0:0:0:0:
298,95,277171,1,0,1:0:0:0:
50,246,277346,5,0,0:0:0:0:
50,246,277434,1,8,0:0:0:0:
50,246,277522,1,0,1:0:0:0:
333,211,277697,2,0,P|248:229|182:221,1,131.99999597168,8|0,0:0|1:0,0:0:0:0:
249,25,278048,5,0,0:0:0:0:
249,25,278136,1,8,0:0:0:0:
249,25,278223,1,0,1:0:0:0:
398,161,278399,2,0,P|413:189|424:220,1,65.9999979858399,8|8,0:0|0:0,0:0:0:0:
244,313,278574,2,0,P|228:283|217:252,1,65.9999979858399,0|0,1:0|1:0,0:0:0:0:
343,78,278750,6,0,P|408:72|474:64,1,131.99999597168,4|0,0:0|1:0,0:0:0:0:
225,148,279101,2,0,P|159:142|93:134,1,131.99999597168,8|0,0:0|1:0,0:0:0:0:
352,245,279451,2,0,P|417:239|483:231,1,131.99999597168,0|0,0:0|1:0,0:0:0:0:
307,31,279802,1,8,0:0:0:0:
229,234,279978,1,0,1:0:0:0:
480,133,280153,5,0,0:0:0:0:
480,133,280241,1,8,0:0:0:0:
480,133,280329,1,0,1:0:0:0:
218,71,280504,1,8,0:0:0:0:
366,260,280679,1,0,1:0:0:0:
468,33,280855,1,0,0:0:0:0:
468,33,280943,1,8,0:0:0:0:
468,33,281030,1,0,1:0:0:0:
221,204,281206,6,0,P|189:203|157:193,1,65.9999979858399,8|0,0:0|0:0,0:0:0:0:
36,260,281381,2,0,P|20:231|13:199,1,65.9999979858399,0|8,1:0|0:0,0:0:0:0:
192,12,281557,6,0,P|230:80|160:140,1,131.99999597168,0|0,0:0|1:0,0:0:0:0:
76,73,281908,1,8,0:0:0:0:
304,12,282083,1,0,1:0:0:0:
210,249,282258,2,0,P|221:182|226:103,1,131.99999597168,0|0,0:0|1:0,0:0:0:0:
77,226,282609,1,8,0:0:0:0:
269,318,282785,1,0,1:0:0:0:
469,141,282960,6,0,P|415:149|380:158,1,65.9999979858399,10|0,0:0|0:0,0:0:0:0:
317,10,283136,2,0,P|308:64|306:100,1,65.9999979858399,10|0,0:0|0:0,0:0:0:0:
64,91,283311,2,0,P|113:117|146:130,1,65.9999979858399,10|0,0:0|0:0,0:0:0:0:
114,360,283486,2,0,P|153:322|177:294,1,65.9999979858399,10|0,0:0|0:0,0:0:0:0:
371,355,283662,5,0,1:0:0:0:
402,299,283750,1,0,1:0:0:0:
389,235,283837,1,0,1:0:0:0:
338,196,283925,1,0,1:0:0:0:
272,203,284013,2,0,P|190:215|129:198,1,131.99999597168,10|0,0:0|0:0,0:0:0:0:
482,140,284364,6,0,L|480:197,1,55,14|0,0:0|0:0,0:0:0:0:
497,133,284539,2,0,L|491:320,1,165,0|0,1:0|1:0,0:0:0:0:
500,58,284890,5,14,0:0:0:0:
252,141,285592,5,0,1:0:0:0:
252,141,285679,1,0,1:0:0:0:
252,141,285767,2,0,L|375:135,1,110,10|0,0:0|0:0,0:0:0:0:
255,222,286030,2,0,L|378:216,1,110,10|0,0:0|0:0,0:0:0:0:
184,181,286293,6,0,L|74:186,1,110,14|0,0:0|0:0,0:0:0:0:
18,270,286644,1,0,1:0:0:0:
72,356,286820,1,8,0:0:0:0:
166,357,286995,1,0,0:0:0:0:
195,346,287083,1,0,0:0:0:0:
223,328,287171,5,8,0:0:0:0:
218,291,287258,1,0,0:0:0:0:
213,255,287346,1,0,1:0:0:0:
208,218,287434,1,0,0:0:0:0:
204,182,287522,5,0,1:0:0:0:
254,124,287609,1,0,0:0:0:0:
314,75,287697,1,10,0:0:0:0:
314,75,288048,6,0,L|170:68,1,110,8|0,0:0|1:0,0:0:0:0:
399,38,288399,6,0,P|349:54|370:184,1,165,4|0,0:0|0:0,0:0:0:0:
349,178,288750,1,0,1:0:0:0:
507,105,288925,2,0,L|389:115,1,110,8|0,0:0|1:0,0:0:0:0:
464,214,289276,5,8,0:0:0:0:
468,218,289451,5,0,1:0:0:0:
461,294,289539,1,0,1:0:0:0:
453,370,289627,2,0,L|338:354,1,110,10|0,0:0|1:0,0:0:0:0:
165,300,289978,6,0,L|95:293,1,55,14|0,0:0|0:0,0:0:0:0:
46,221,290153,1,0,1:0:0:0:
42,207,290241,1,0,1:0:0:0:
39,194,290329,1,0,1:0:0:0:
36,180,290416,1,0,1:0:0:0:
33,167,290504,6,0,L|154:154,1,110,14|0,0:0|0:0,0:0:0:0:
226,54,290855,1,2,0:0:0:0:
83,74,291030,1,2,0:0:0:0:
260,198,291206,1,2,0:0:0:0:
260,198,291293,1,0,0:0:0:0:
260,198,291381,6,0,L|272:120,2,73.3333333333333,0|0|0,1:0|1:0|1:0,0:0:0:0:
356,178,291732,2,0,L|405:116,2,73.3333333333333,0|0|0,1:0|1:0|0:0,0:0:0:0:
443,204,292083,5,10,0:0:0:0:
382,282,292258,1,0,1:0:0:0:
382,282,292346,1,0,0:0:0:0:
382,282,292434,1,10,0:0:0:0:
475,302,292609,1,0,0:0:0:0:
259,363,292785,6,0,L|133:349,1,110,8|0,0:0|1:0,0:0:0:0:
0,343,293136,1,8,0:0:0:0:
128,271,293311,1,10,0:0:0:0:
126,250,293399,1,0,0:0:0:0:
120,226,293486,2,0,L|60:204,1,55,2|0,1:0|0:0,0:0:0:0:
76,345,293662,1,8,0:0:0:0:
221,177,293837,1,10,0:0:0:0:
215,150,293925,1,0,0:0:0:0:
210,123,294013,1,2,1:0:0:0:
205,96,294101,1,0,0:0:0:0:
199,69,294188,6,0,P|259:53|307:78,1,110,14|0,0:0|1:0,0:0:0:0:
123,182,294539,1,8,0:0:0:0:
287,243,294715,1,0,1:0:0:0:
302,242,294802,1,0,1:0:0:0:
302,243,294890,1,8,0:0:0:0:
330,230,294978,1,8,0:0:0:0:
361,229,295065,1,0,1:0:0:0:
390,237,295153,1,0,1:0:0:0:
412,256,295241,5,8,0:0:0:0:
389,198,295329,1,8,0:0:0:0:
383,137,295416,1,8,0:0:0:0:
398,77,295504,1,8,0:0:0:0:
429,24,295592,6,0,P|493:76|511:140,1,110,4|0,0:0|0:0,0:0:0:0:
326,258,295943,1,8,0:0:0:0:
402,128,296118,1,0,1:0:0:0:
489,266,296293,1,8,0:0:0:0:
288,172,296469,1,0,1:0:0:0:
402,366,296644,2,0,L|404:227,1,110,8|0,0:0|1:0,0:0:0:0:
184,345,296995,6,0,P|261:350|300:308,1,110,8|0,0:0|1:0,0:0:0:0:
131,190,297346,1,8,0:0:0:0:
89,368,297522,1,0,1:0:0:0:
83,341,297609,1,0,1:0:0:0:
78,313,297697,1,8,0:0:0:0:
228,278,297872,1,0,1:0:0:0:
234,251,297960,1,0,1:0:0:0:
239,223,298048,1,8,0:0:0:0:
27,188,298223,1,0,1:0:0:0:
22,206,298311,1,0,1:0:0:0:
17,221,298399,6,0,L|130:226,1,110,8|0,0:0|1:0,0:0:0:0:
287,123,298750,1,8,0:0:0:0:
97,103,298925,1,0,1:0:0:0:
245,197,299101,1,8,0:0:0:0:
163,53,299276,1,0,1:0:0:0:
115,226,299451,1,8,0:0:0:0:
194,65,299627,1,0,1:0:0:0:
288,274,299802,6,0,L|408:264,1,110,8|0,0:0|1:0,0:0:0:0:
312,165,300153,1,8,0:0:0:0:
222,346,300329,1,0,1:0:0:0:
222,346,300416,1,0,1:0:0:0:
222,346,300504,1,8,0:0:0:0:
449,313,300679,2,0,L|379:303,1,55,0|0,1:0|1:0,0:0:0:0:
210,247,300855,5,8,0:0:0:0:
211,214,300943,1,0,1:0:0:0:
214,185,301030,1,0,1:0:0:0:
216,155,301118,1,0,1:0:0:0:
219,125,301206,6,0,P|174:103|97:129,1,110,14|0,0:0|0:0,0:0:0:0:
104,338,301557,1,8,0:0:0:0:
283,180,301732,1,0,1:0:0:0:
31,218,301908,1,8,0:0:0:0:
240,299,302083,1,0,1:0:0:0:
116,113,302258,2,0,L|140:244,1,110,8|0,0:0|1:0,0:0:0:0:
377,154,302609,6,0,P|310:141|268:168,1,110,8|0,0:0|1:0,0:0:0:0:
425,285,302960,1,8,0:0:0:0:
465,109,303136,1,0,1:0:0:0:
465,109,303223,1,0,1:0:0:0:
465,109,303311,1,8,0:0:0:0:
327,267,303486,2,0,L|331:201,1,55,0|0,1:0|1:0,0:0:0:0:
340,48,303662,5,8,0:0:0:0:
303,41,303750,1,0,1:0:0:0:
267,34,303837,1,0,1:0:0:0:
230,26,303925,1,0,1:0:0:0:
194,18,304013,5,0,1:0:0:0:
196,24,304101,1,0,1:0:0:0:
198,29,304188,1,0,1:0:0:0:
200,34,304276,2,0,L|197:96,1,55,0|8,1:0|0:0,0:0:0:0:
75,213,304539,6,0,L|69:103,1,110,8|0,0:0|1:0,0:0:0:0:
46,291,304802,1,0,1:0:0:0:
95,295,304890,1,0,1:0:0:0:
139,271,304978,1,0,1:0:0:0:
163,227,305065,5,8,0:0:0:0:
171,255,305153,1,0,1:0:0:0:
178,283,305241,1,0,1:0:0:0:
186,310,305329,1,0,1:0:0:0:
219,384,305416,6,0,P|246:363|257:345,1,55,10|0,0:0|0:0,0:0:0:0:
466,274,305592,2,0,P|454:241|440:225,1,55,10|0,0:0|0:0,0:0:0:0:
389,49,305767,2,0,P|354:50|335:58,1,55,10|0,0:0|0:0,0:0:0:0:
224,19,305943,2,0,P|214:51|216:72,1,55,10|0,0:0|0:0,0:0:0:0:
358,305,306118,5,0,1:0:0:0:
368,192,306293,1,0,0:0:0:0:
321,127,306469,1,0,1:0:0:0:
280,124,306644,1,0,1:0:0:0:
268,136,306820,5,4,0:0:0:0:
89,224,317872,6,0,L|109:220,1,16.49999949646,8|0,0:0|0:0,0:0:0:0:
132,218,318048,6,0,P|123:159|101:123,1,76.9999976501466,4|0,0:0|0:0,0:0:0:0:
219,177,318399,2,0,P|240:121|239:79,1,76.9999976501466,0|0,1:0|0:0,0:0:0:0:
319,194,318750,2,0,P|365:156|385:119,1,76.9999976501466,0|0,1:0|0:0,0:0:0:0:
397,247,319101,2,0,P|456:238|492:216,1,76.9999976501466,0|0,1:0|0:0,0:0:0:0:
132,218,319451,6,0,P|123:159|101:123,1,76.9999976501466,0|0,1:0|0:0,0:0:0:0:
219,177,319802,2,0,P|240:121|239:79,1,76.9999976501466,0|0,1:0|0:0,0:0:0:0:
319,194,320153,2,0,P|365:156|385:119,1,76.9999976501466,0|0,1:0|0:0,0:0:0:0:
397,247,320504,2,0,P|456:238|492:216,1,76.9999976501466,0|0,1:0|0:0,0:0:0:0:
244,366,320855,6,0,P|184:368|145:386,1,98.9999969787599,0|0,1:0|0:0,0:0:0:0:
211,274,321206,2,0,P|158:246|116:243,1,98.9999969787599,0|0,1:0|0:0,0:0:0:0:
242,168,321557,2,0,P|210:118|175:94,1,98.9999969787599,0|0,1:0|0:0,0:0:0:0:
308,94,321908,2,0,P|305:34|287:-4,1,98.9999969787599,0|0,1:0|0:0,0:0:0:0:
244,366,322258,6,0,P|184:368|145:386,1,98.9999969787599,0|0,1:0|0:0,0:0:0:0:
211,274,322609,2,0,P|158:246|116:243,1,98.9999969787599,0|0,1:0|0:0,0:0:0:0:
242,168,322960,2,0,P|210:118|175:94,1,98.9999969787599,0|0,1:0|0:0,0:0:0:0:
308,94,323311,2,0,P|305:34|287:-4,1,98.9999969787599,0|0,1:0|0:0,0:0:0:0:
417,169,323662,6,0,P|450:208|485:287,1,121.000003692627,0|0,1:0|0:0,0:0:0:0:
343,278,324013,2,0,P|325:326|274:395,1,121.000003692627,0|0,1:0|0:0,0:0:0:0:
205,272,324364,2,0,P|154:281|68:271,1,121.000003692627,0|0,1:0|0:0,0:0:0:0:
147,153,324715,2,0,P|114:114|78:35,1,121.000003692627,0|0,1:0|0:0,0:0:0:0:
359,256,325065,6,0,P|392:217|427:138,1,121.000003692627,0|0,1:0|0:0,0:0:0:0:
285,147,325416,2,0,P|267:98|216:29,1,121.000003692627,0|0,1:0|0:0,0:0:0:0:
147,153,325767,2,0,P|96:143|10:153,1,121.000003692627,0|0,1:0|0:0,0:0:0:0:
89,272,326118,2,0,P|56:311|20:390,1,121.000003692627,8|0,0:0|0:0,0:0:0:0:
395,384,326469,5,8,0:0:0:0:
395,384,326820,5,8,0:0:0:0:
458,335,326995,1,8,0:0:0:0:
483,247,327171,1,8,0:0:0:0:
433,110,327346,1,8,0:0:0:0:
244,31,327522,1,8,0:0:0:0:
242,253,327872,5,10,0:0:0:0:
337,229,328048,1,0,1:0:0:0:
337,229,328223,1,0,1:0:0:0:
157,205,328399,1,12,0:0:0:0:
479,356,328574,5,2,0:0:0:0:
470,236,328750,5,2,0:0:0:0:
391,108,328925,5,2,0:0:0:0:
187,46,329101,5,2,0:0:0:0:
109,362,329276,6,0,P|127:292|131:218,1,131.99999597168,4|0,0:0|0:0,0:0:0:0:
308,123,329627,2,0,P|313:188|330:252,1,131.99999597168,8|0,0:0|1:0,0:0:0:0:
190,158,329978,1,0,0:0:0:0:
190,158,330065,1,8,0:0:0:0:
190,158,330153,1,0,1:0:0:0:
435,104,330329,1,8,0:0:0:0:
213,23,330504,1,0,1:0:0:0:
449,244,330679,5,0,0:0:0:0:
449,244,330767,1,8,0:0:0:0:
449,244,330855,1,0,1:0:0:0:
189,270,331030,2,0,P|254:273|320:281,1,131.99999597168,8|0,0:0|1:0,0:0:0:0:
211,139,331381,1,0,0:0:0:0:
211,139,331469,1,8,0:0:0:0:
211,139,331557,2,0,P|169:132|122:131,1,65.9999979858399,0|0,1:0|0:0,0:0:0:0:
55,33,331732,2,0,P|28:66|4:106,1,65.9999979858399,8|0,0:0|0:0,0:0:0:0:
76,281,331908,1,0,1:0:0:0:
76,281,331995,1,8,0:0:0:0:
76,281,332083,6,0,P|68:188|65:132,1,131.99999597168,0|0,0:0|1:0,0:0:0:0:
321,251,332434,2,0,P|316:316|310:382,1,131.99999597168,8|0,0:0|1:0,0:0:0:0:
32,383,332785,2,0,P|96:371|144:327,1,131.99999597168,0|0,0:0|1:0,0:0:0:0:
178,146,333136,1,8,0:0:0:0:
287,367,333311,1,0,1:0:0:0:
54,285,333486,5,0,0:0:0:0:
54,285,333574,1,8,0:0:0:0:
54,285,333662,1,0,1:0:0:0:
333,242,333837,2,0,P|248:232|189:229,1,131.99999597168,8|0,0:0|1:0,0:0:0:0:
36,164,334188,5,0,0:0:0:0:
36,164,334276,1,8,0:0:0:0:
36,164,334364,1,0,1:0:0:0:
201,229,334539,2,0,P|183:263|168:319,1,65.9999979858399,8|0,0:0|1:0,0:0:0:0:
137,128,334715,2,0,P|125:96|110:67,1,65.9999979858399,0|8,1:0|0:0,0:0:0:0:
323,127,334890,6,0,P|403:118|488:112,1,131.99999597168,4|0,0:0|1:0,0:0:0:0:
201,229,335241,2,0,P|121:220|36:214,1,131.99999597168,8|0,0:0|1:0,0:0:0:0:
323,329,335592,2,0,P|403:320|488:314,1,131.99999597168,0|0,0:0|1:0,0:0:0:0:
139,358,335943,1,8,0:0:0:0:
323,234,336118,1,0,1:0:0:0:
135,131,336293,5,0,0:0:0:0:
135,131,336381,1,8,0:0:0:0:
135,131,336469,1,0,1:0:0:0:
164,356,336644,1,8,0:0:0:0:
357,94,336820,1,0,1:0:0:0:
311,350,336995,1,0,0:0:0:0:
311,350,337083,1,8,0:0:0:0:
311,350,337171,1,0,1:0:0:0:
207,89,337346,6,0,P|239:90|271:100,1,65.9999979858399,8|0,0:0|0:0,0:0:0:0:
424,34,337522,2,0,P|438:63|444:95,1,65.9999979858399,0|8,1:0|0:0,0:0:0:0:
131,136,337697,6,0,P|120:66|190:6,1,131.99999597168,4|0,0:0|1:0,0:0:0:0:
198,234,338048,1,8,0:0:0:0:
0,137,338223,1,0,1:0:0:0:
337,104,338399,2,0,P|270:93|191:88,1,131.99999597168,0|0,1:0|1:0,0:0:0:0:
7,145,338750,1,8,0:0:0:0:
218,233,338925,1,0,1:0:0:0:
484,224,339101,6,0,P|430:216|395:207,1,65.9999979858399,10|0,0:0|0:0,0:0:0:0:
316,374,339276,2,0,P|307:320|305:284,1,65.9999979858399,10|0,0:0|0:0,0:0:0:0:
63,293,339451,2,0,P|112:267|145:254,1,65.9999979858399,10|0,0:0|0:0,0:0:0:0:
109,3,339627,2,0,P|148:41|172:69,1,65.9999979858399,10|0,0:0|0:0,0:0:0:0:
370,29,339802,5,0,1:0:0:0:
401,85,339890,1,0,1:0:0:0:
388,149,339978,1,0,1:0:0:0:
337,188,340065,1,0,1:0:0:0:
271,181,340153,2,0,P|189:169|128:186,1,131.99999597168,10|0,0:0|0:0,0:0:0:0:
203,362,340504,5,12,0:0:0:0:
319,252,340679,1,0,0:0:0:0:
350,320,340855,5,8,0:0:0:0:
40,214,341030,1,0,1:0:0:0:
0,278,341206,5,8,0:0:0:0:
300,125,341381,1,0,1:0:0:0:
327,202,341557,5,8,0:0:0:0:
28,82,341732,1,0,1:0:0:0:
333,127,341908,5,8,0:0:0:0:
313,30,342083,1,0,1:0:0:0:
31,208,342258,5,8,0:0:0:0:
11,305,342434,1,0,1:0:0:0:
295,206,342609,5,8,0:0:0:0:
111,110,342785,1,0,1:0:0:0:
84,101,342872,1,0,1:0:0:0:
59,94,342960,5,8,0:0:0:0:
329,21,343136,1,0,1:0:0:0:
132,38,343311,5,8,0:0:0:0:
147,175,343486,1,0,1:0:0:0:
37,108,343662,5,8,0:0:0:0:
135,372,343837,1,0,1:0:0:0:
58,336,344013,5,8,0:0:0:0:
230,70,344188,1,0,1:0:0:0:
160,95,344364,5,8,0:0:0:0:
329,338,344539,1,0,1:0:0:0:
140,174,344715,5,8,0:0:0:0:
31,145,344890,1,0,1:0:0:0:
244,81,345065,5,8,0:0:0:0:
353,52,345241,1,0,1:0:0:0:
140,200,345416,5,8,0:0:0:0:
323,346,345592,1,0,1:0:0:0:
350,352,345679,1,0,1:0:0:0:
380,359,345767,5,8,0:0:0:0:
82,383,345943,1,0,1:3:0:0:
219,189,346118,5,8,0:0:0:0:
127,288,346293,1,0,1:0:0:0:
227,279,346469,5,8,0:0:0:0:
132,26,346644,1,0,1:0:0:0:
64,92,346820,5,8,0:0:0:0:
322,335,346995,1,0,1:0:0:0:
250,368,347171,5,8,0:0:0:0:
383,55,347346,1,0,1:0:0:0:
373,256,347522,5,8,0:0:0:0:
405,383,347697,1,0,1:0:0:0:
246,127,347872,5,8,0:0:0:0:
278,0,348048,1,0,1:0:0:0:
369,200,348223,5,8,0:0:0:0:
192,374,348399,1,0,1:0:0:0:
161,365,348486,1,0,1:0:0:0:
136,357,348574,5,8,0:0:0:0:
461,327,348750,1,0,1:0:0:0:
382,377,348925,5,8,0:0:0:0:
424,247,349100,1,0,1:0:0:0:
335,285,349276,5,8,0:0:0:0:
270,45,349451,1,0,1:0:0:0:
347,33,349627,5,8,0:0:0:0:
134,323,349802,1,0,1:0:0:0:
222,370,349978,5,8,0:0:0:0:
73,81,350153,1,0,1:0:0:0:
442,74,350329,5,12,0:0:0:0:
446,82,350416,1,0,0:0:0:0:
450,90,350504,1,0,1:0:0:0:
452,99,350592,1,0,0:0:0:0:
428,132,350679,5,12,0:0:0:0:
417,145,350767,1,0,0:0:0:0:
410,163,350855,1,0,1:0:0:0:
407,180,350943,1,0,0:0:0:0:
433,226,351030,5,8,0:0:0:0:
398,252,351118,1,8,0:0:0:0:
355,256,351206,1,0,1:0:0:0:
317,235,351293,1,0,1:0:0:0:
270,188,351381,5,8,0:0:0:0:
220,149,351469,1,8,0:0:0:0:
159,144,351557,1,8,0:0:0:0:
106,173,351644,1,8,0:0:0:0:
53,239,351732,5,12,0:0:0:0:
188,226,351908,1,0,0:0:0:0:
140,315,352083,5,8,0:0:0:0:
152,32,352258,1,0,1:0:0:0:
89,84,352434,5,8,0:0:0:0:
290,357,352609,1,0,1:0:0:0:
215,331,352785,5,8,0:0:0:0:
379,56,352960,1,0,1:0:0:0:
377,151,353136,5,8,0:0:0:0:
502,190,353311,1,0,1:0:0:0:
164,119,353486,5,8,0:0:0:0:
39,158,353662,1,0,1:0:0:0:
242,199,353837,5,8,0:0:0:0:
206,34,354013,1,0,1:0:0:0:
363,300,354188,5,8,0:0:0:0:
366,250,354276,1,0,0:0:0:0:
369,201,354364,1,0,1:0:0:0:
372,151,354451,1,0,1:0:0:0:
375,102,354539,5,8,0:0:0:0:
470,152,354715,1,0,1:0:0:0:
457,76,354890,5,8,0:0:0:0:
312,337,355065,1,0,1:0:0:0:
387,363,355241,5,8,0:0:0:0:
228,58,355416,1,0,1:0:0:0:
306,89,355592,5,8,0:0:0:0:
156,347,355767,1,0,1:0:0:0:
176,153,355943,5,8,0:0:0:0:
40,100,356118,1,0,1:0:0:0:
296,126,356293,5,8,0:0:0:0:
409,34,356469,1,0,1:0:0:0:
273,241,356644,5,8,0:0:0:0:
296,384,356820,1,0,1:0:0:0:
96,196,356995,5,8,0:0:0:0:
155,167,357083,1,0,1:0:0:0:
219,153,357171,1,0,1:0:0:0:
285,155,357258,1,0,1:0:0:0:
349,171,357346,5,12,0:0:0:0:
487,143,357522,1,0,1:0:0:0:
443,243,357697,5,8,0:0:0:0:
90,325,357872,1,0,1:0:0:0:
149,381,358048,5,8,0:0:0:0:
378,126,358223,1,0,1:0:0:0:
421,206,358399,5,8,0:0:0:0:
50,141,358574,1,0,1:0:0:0:
355,151,358750,5,8,0:0:0:0:
512,117,358925,1,0,1:0:0:0:
139,113,359100,5,8,0:0:0:0:
0,66,359276,1,0,1:0:0:0:
261,298,359451,5,8,0:0:0:0:
320,62,359627,1,0,1:0:0:0:
312,34,359715,1,0,1:0:0:0:
304,4,359802,5,8,0:0:0:0:
487,216,359978,1,0,1:0:0:0:
133,28,360153,5,8,1:0:0:0:
97,61,360241,1,0,1:0:0:0:
79,107,360329,1,0,1:0:0:0:
83,156,360416,1,0,1:0:0:0:
108,198,360504,5,8,1:0:0:0:
159,259,360592,1,0,1:0:0:0:
137,335,360679,1,0,1:0:0:0:
62,360,360767,1,0,1:0:0:0:
0,312,360855,5,8,1:0:0:0:
68,266,360943,1,0,1:0:0:0:
149,257,361030,1,0,1:0:0:0:
226,284,361118,1,0,1:0:0:0:
282,343,361206,6,0,L|280:272,1,65.9999979858399,8|0,0:0|0:0,0:0:0:0:
372,22,361381,2,0,L|369:87,1,65.9999979858399,0|0,1:0|1:0,0:0:0:0:
499,296,361557,5,10,0:0:0:0:
491,121,361732,1,10,0:0:0:0:
235,31,361908,1,10,0:0:0:0:
70,271,362083,1,10,0:0:0:0:
474,296,362434,5,8,0:0:0:0:
54,254,362609,1,8,0:0:0:0:
310,317,362960,5,4,1:0:0:0:
309,309,363310,1,8,0:0:0:0:
308,301,363661,1,8,0:0:0:0:
307,293,364012,1,8,0:0:0:0:
306,285,364363,1,8,0:0:0:0:
305,277,364714,1,8,0:0:0:0:
304,270,365065,1,8,0:0:0:0:
226,179,365240,1,0,0:0:0:0:
411,256,365416,5,8,0:0:0:0:
410,248,365767,1,8,0:0:0:0:
409,240,366117,1,8,0:0:0:0:
408,232,366468,1,8,0:0:0:0:
407,224,366819,1,8,0:0:0:0:
406,216,367170,1,8,0:0:0:0:
405,209,367521,1,8,0:0:0:0:
327,118,367696,1,0,0:0:0:0:
241,219,367872,5,12,0:0:0:0:
231,217,368223,1,8,0:0:0:0:
221,216,368574,1,8,0:0:0:0:
211,215,368924,1,8,0:0:0:0:
201,214,369275,1,8,0:0:0:0:
191,212,369626,1,8,0:0:0:0:
182,211,369977,1,8,0:0:0:0:
70,115,370152,1,0,0:0:0:0:
253,324,370328,5,8,0:0:0:0:
266,321,370679,1,8,0:0:0:0:
280,319,371030,1,8,0:0:0:0:
294,318,371381,1,8,0:0:0:0:
308,317,371731,1,8,0:0:0:0:
321,314,372082,1,8,0:0:0:0:
334,312,372433,1,0,1:0:0:0:
488,180,372609,1,8,0:0:0:0:
357,347,372784,6,0,P|286:338|188:333,1,153.999995300293,4|0,0:0|1:0,0:0:0:0:
97,375,373310,1,0,0:0:0:0:
144,258,373486,2,0,L|223:250,1,76.9999976501466,0|0,1:0|0:0,0:0:0:0:
11,289,373837,2,0,L|3:210,1,76.9999976501466,2|2,1:0|0:0,0:0:0:0:
176,88,374188,5,0,1:0:0:0:
92,200,374363,1,2,0:0:0:0:
0,103,374538,2,0,L|80:112,1,76.9999976501466,2|0,1:0|0:0,0:0:0:0:
243,61,374889,2,0,L|103:29,1,115.49999647522,2|0,1:0|0:0,0:0:0:0:
104,42,375240,5,2,1:0:0:0:
278,122,375416,1,0,0:0:0:0:
166,217,375591,2,0,L|153:139,1,76.9999976501466,0|0,1:0|0:0,0:0:0:0:
297,206,375942,2,0,L|284:281,1,76.9999976501466,0|0,1:0|0:0,0:0:0:0:
152,230,376293,5,2,1:0:0:0:
273,305,376468,1,2,0:0:0:0:
155,378,376644,2,0,P|112:378|48:370,1,76.9999976501466,0|0,1:0|0:0,0:0:0:0:
83,251,376995,2,0,P|126:251|190:259,1,76.9999976501466,0|0,1:0|0:0,0:0:0:0:
9,321,377345,1,0,1:0:0:0:
82,164,377521,1,8,0:0:0:0:
82,164,377609,1,8,0:0:0:0:
82,164,377696,6,0,L|58:24,1,115.49999647522,2|0,1:0|0:0,0:0:0:0:
178,29,378047,1,2,1:0:0:0:
178,29,378223,1,0,0:0:0:0:
28,107,378398,1,0,1:0:0:0:
182,159,378574,1,2,0:0:0:0:
34,226,378749,5,0,1:0:0:0:
193,138,378924,2,0,L|181:57,1,76.9999976501466,2|0,0:0|1:0,0:0:0:0:
109,209,379275,2,0,L|28:221,1,76.9999976501466,0|0,0:0|1:0,0:0:0:0:
282,315,379626,1,2,0:0:0:0:
145,384,379802,2,0,L|157:240,1,115.49999647522,0|0,1:0|0:0,0:0:0:0:
164,243,380152,6,0,P|230:244|254:258,1,76.9999976501466,2|0,1:0|0:0,0:0:0:0:
393,345,380503,2,0,P|327:344|303:330,1,76.9999976501466,0|2,1:0|0:0,0:0:0:0:
474,269,380854,5,8,0:0:0:0:
407,70,381030,1,8,0:0:0:0:
469,107,381205,5,8,0:0:0:0:
303,325,381381,1,10,0:0:0:0:
379,354,381556,5,8,0:0:0:0:
20,198,381731,1,8,0:0:0:0:
381,73,381907,5,10,0:0:0:0:
5,218,382082,1,8,0:0:0:0:
416,275,382258,6,0,B|334:261,1,66,0|0,0:0|0:0,0:0:0:0:
339,270,382609,5,0,0:0:0:0:
256,192,382696,12,0,394889,0:0:0:0:
