osu file format v14

[General]
AudioFilename: audio.mp3
AudioLeadIn: 0
PreviewTime: 174579
Countdown: 0
SampleSet: Normal
StackLeniency: 0.7
Mode: 1
LetterboxInBreaks: 0
WidescreenStoryboard: 0

[Editor]
Bookmarks: 3556,28820,41451,54083,79346,96862,116511,136160,155809,175808,198265,220720,240369,260369,282824,294052,305280,316508,327736,338965,361421,381070
DistanceSpacing: 0.8
BeatDivisor: 4
GridSize: 32
TimelineZoom: 1.2

[Metadata]
Title:Puppet in the Dark (Part I & II)
TitleUnicode:Puppet in the Dark (Part I & II)
Artist:FELT
ArtistUnicode:FELT
Creator:Nepuri
Version:Oni
Source:東方神霊廟 ~ Ten Desires.
Tags:東方神霊廟より “聖徳伝説 ~+True+Administrator”Touhou Project Maurits"禅"Cornelis Vivienne Renko W.nova Sevens Head Toho Arrange 016 New Horizon Buried Away shinreibyou yori seitoku densetsu
BeatmapID:1584703
BeatmapSetID:752723

[Difficulty]
HPDrainRate:5
CircleSize:2
OverallDifficulty:5.5
ApproachRate:5
SliderMultiplier:1.4
SliderTickRate:1

[Events]
//Background and Video events
0,0,"Unbenannt.png",0,0
//Break Periods
//Storyboard Layer 0 (Background)
//Storyboard Layer 1 (Fail)
//Storyboard Layer 2 (Pass)
//Storyboard Layer 3 (Foreground)
//Storyboard Sound Samples

[TimingPoints]
3556,451.127819548872,7,1,0,75,1,0
3556,-142.857142857143,7,1,0,75,0,0
28593,-133.333333333333,7,1,0,75,0,0
28819,-125,7,1,0,75,0,0
54082,-111.111111111111,7,1,0,85,0,0
91751,-111.111111111111,7,1,0,70,0,0
91977,-100,7,1,0,60,0,0
96862,350.877192982456,7,1,0,100,1,0
96862,-111.111111111111,7,1,0,100,0,0
116160,-100,7,1,0,100,0,0
116511,-90.9090909090909,7,1,0,100,0,0
116862,-100,7,1,0,100,0,0
134932,-90.9090909090909,7,1,0,100,0,0
135809,-100,7,1,0,100,0,0
136686,-125,7,1,0,100,0,0
145370,-119.047619047619,7,1,0,100,0,0
145633,-111.111111111111,7,1,0,100,0,0
145809,-105.263157894737,7,1,0,100,0,0
145897,-102.564102564103,7,1,0,100,0,0
145984,-100,7,1,0,100,0,0
155809,-90.9090909090909,7,1,0,100,0,0
156160,-100,7,1,0,100,0,0
174404,350.877192982456,4,1,0,100,1,0
175807,-95.2380952380952,4,1,0,100,0,1
198263,-90.9090909090909,4,1,0,100,0,0
219842,-95.2380952380952,4,1,0,100,0,0
220193,-105.263157894737,4,1,0,100,0,0
220281,-108.108108108108,4,1,0,100,0,0
220368,-111.111111111111,4,1,0,100,0,0
220719,350.877192982456,7,1,0,100,1,0
220719,-125,7,1,0,100,0,0
230192,-111.111111111111,7,1,0,100,0,0
230368,-100,7,1,0,100,0,0
230543,-90.9090909090909,7,1,0,100,0,0
230894,-100,7,1,0,100,0,0
240368,-90.9090909090909,7,1,0,100,0,0
240719,-100,7,1,0,100,0,0
258965,350.877192982456,4,1,0,100,1,0
260368,-95.2380952380952,4,1,0,100,0,1
282824,-90.9090909090909,4,1,0,100,0,0
283175,-100,4,1,0,100,0,0
305631,-125,4,1,0,100,0,0
316508,-111.111111111111,4,1,0,100,0,0
324228,-108.695652173913,4,1,0,100,0,0
324403,-106.382978723404,4,1,0,100,0,0
324579,-104.166666666667,4,1,0,100,0,0
324754,-102.040816326531,4,1,0,100,0,0
324929,-100,4,1,0,100,0,0
327736,-95.2380952380952,4,1,0,100,0,1
338965,-90.9090909090909,4,1,0,100,0,0
360894,-95.2380952380952,4,1,0,100,0,0
360982,-97.5609756097561,4,1,0,100,0,0
361070,-100,4,1,0,100,0,0
361421,350.877192982456,7,1,0,100,1,0
361421,-111.111111111111,7,1,0,100,0,0
371245,-100,7,1,0,100,0,0
381333,-100,7,1,0,50,0,0
382824,-100,7,1,0,40,0,0
384228,-100,7,1,0,30,0,0

[HitObjects]
160,96,3556,5,0,0:0:0:0:
352,96,4459,1,8,0:0:0:0:
160,96,5135,1,0,0:0:0:0:
352,96,6038,1,8,0:0:0:0:
160,96,6714,1,0,0:0:0:0:
352,96,7617,1,8,0:0:0:0:
160,96,8293,1,0,0:0:0:0:
352,96,9196,1,8,0:0:0:0:
160,96,9872,1,0,0:0:0:0:
160,96,10323,1,0,0:0:0:0:
352,96,10775,1,8,0:0:0:0:
160,96,11451,1,0,0:0:0:0:
160,96,11901,1,0,0:0:0:0:
352,96,12353,1,8,0:0:0:0:
160,96,13030,1,0,0:0:0:0:
160,96,13481,1,0,0:0:0:0:
352,96,13932,1,8,0:0:0:0:
160,96,14609,1,0,0:0:0:0:
160,96,15286,1,0,0:0:0:0:
352,96,15511,1,8,0:0:0:0:
160,96,16188,1,0,0:0:0:0:
160,96,16639,1,0,0:0:0:0:
352,96,17090,1,8,0:0:0:0:
160,96,17767,1,0,0:0:0:0:
160,96,18218,1,0,0:0:0:0:
160,96,18444,1,0,0:0:0:0:
352,96,18669,1,8,0:0:0:0:
160,96,19346,1,0,0:0:0:0:
160,96,19797,1,0,0:0:0:0:
352,96,20248,1,8,0:0:0:0:
160,96,20925,1,0,0:0:0:0:
352,96,21376,1,8,0:0:0:0:
160,96,21602,1,0,0:0:0:0:
352,96,21827,1,8,0:0:0:0:
352,96,22277,1,8,0:0:0:0:
160,96,22504,1,0,0:0:0:0:
160,96,22729,1,0,0:0:0:0:
160,96,22955,1,0,0:0:0:0:
352,96,23406,1,8,0:0:0:0:
160,96,23857,1,0,0:0:0:0:
160,96,24083,1,0,0:0:0:0:
352,96,24534,1,8,0:0:0:0:
160,96,24760,1,0,0:0:0:0:
352,96,24985,1,8,0:0:0:0:
160,96,25436,1,0,0:0:0:0:
160,96,25662,1,0,0:0:0:0:
160,96,26113,1,0,0:0:0:0:
352,96,26564,1,8,0:0:0:0:
160,96,27015,1,0,0:0:0:0:
160,96,27241,1,0,0:0:0:0:
352,96,27692,1,8,0:0:0:0:
160,96,27917,1,0,0:0:0:0:
352,96,28143,1,8,0:0:0:0:
160,96,28594,1,0,0:0:0:0:
352,96,28820,1,8,0:0:0:0:
160,96,29271,1,0,0:0:0:0:
160,96,29496,1,0,0:0:0:0:
352,96,29722,1,8,0:0:0:0:
160,96,29947,1,0,0:0:0:0:
352,96,30173,1,8,0:0:0:0:
160,96,30399,1,0,0:0:0:0:
352,96,30624,1,8,0:0:0:0:
160,96,30850,1,0,0:0:0:0:
352,96,31075,1,8,0:0:0:0:
160,96,31300,1,0,0:0:0:0:
352,96,31525,1,8,0:0:0:0:
160,96,31752,1,0,0:0:0:0:
352,96,31978,1,8,0:0:0:0:
160,96,32203,1,0,0:0:0:0:
352,96,32429,1,8,0:0:0:0:
352,96,32880,1,8,0:0:0:0:
160,96,33556,1,0,0:0:0:0:
352,96,34008,1,8,0:0:0:0:
160,96,34233,1,0,0:0:0:0:
352,96,34459,1,8,0:0:0:0:
352,96,34910,1,8,0:0:0:0:
160,96,35135,1,0,0:0:0:0:
160,96,35361,1,0,0:0:0:0:
160,96,35587,1,0,0:0:0:0:
352,96,36038,1,8,0:0:0:0:
160,96,36489,1,0,0:0:0:0:
160,96,36714,1,0,0:0:0:0:
352,96,37166,1,8,0:0:0:0:
160,96,37391,1,0,0:0:0:0:
352,96,37617,1,8,0:0:0:0:
352,96,38068,1,8,0:0:0:0:
160,96,38293,1,0,0:0:0:0:
160,96,38519,1,0,0:0:0:0:
160,96,38744,1,0,0:0:0:0:
352,96,39196,1,8,0:0:0:0:
352,96,39647,1,8,0:0:0:0:
160,96,39872,1,0,0:0:0:0:
352,96,40323,1,8,0:0:0:0:
160,96,40549,1,0,0:0:0:0:
352,96,40775,1,8,0:0:0:0:
352,96,41226,1,8,0:0:0:0:
160,96,41451,1,0,0:0:0:0:
160,96,41902,1,0,0:0:0:0:
160,96,42128,1,0,0:0:0:0:
352,96,42353,1,8,0:0:0:0:
160,96,42579,1,0,0:0:0:0:
352,96,42805,1,8,0:0:0:0:
160,96,43030,1,0,0:0:0:0:
352,96,43256,1,8,0:0:0:0:
160,96,43481,1,0,0:0:0:0:
352,96,43707,1,8,0:0:0:0:
160,96,43932,1,0,0:0:0:0:
352,96,44158,1,8,0:0:0:0:
160,96,44384,1,0,0:0:0:0:
352,96,44609,1,8,0:0:0:0:
160,96,44835,1,0,0:0:0:0:
352,96,45060,1,8,0:0:0:0:
352,96,45511,1,8,0:0:0:0:
160,96,46188,1,0,0:0:0:0:
352,96,46639,1,8,0:0:0:0:
160,96,46865,1,0,0:0:0:0:
352,96,47090,1,8,0:0:0:0:
352,96,47541,1,8,0:0:0:0:
160,96,47767,1,0,0:0:0:0:
160,96,47993,1,0,0:0:0:0:
160,96,48218,1,0,0:0:0:0:
352,96,48669,1,8,0:0:0:0:
352,96,49120,1,8,0:0:0:0:
160,96,49346,1,0,0:0:0:0:
352,96,49797,1,8,0:0:0:0:
160,96,50023,1,0,0:0:0:0:
352,96,50248,1,8,0:0:0:0:
352,96,50699,1,8,0:0:0:0:
160,96,50925,1,0,0:0:0:0:
160,96,51150,1,0,0:0:0:0:
160,96,51376,1,0,0:0:0:0:
352,96,51827,1,8,0:0:0:0:
352,96,52278,1,8,0:0:0:0:
160,96,52504,1,0,0:0:0:0:
160,96,52729,1,0,0:0:0:0:
352,96,52955,1,8,0:0:0:0:
160,96,53181,1,0,0:0:0:0:
352,96,53406,1,8,0:0:0:0:
352,96,53857,1,8,0:0:0:0:
352,288,54083,1,12,0:0:0:0:
160,96,54534,1,0,0:0:0:0:
352,96,54985,1,8,0:0:0:0:
352,96,55211,1,8,0:0:0:0:
160,96,55436,1,0,0:0:0:0:
160,96,55662,1,0,0:0:0:0:
160,96,56113,1,0,0:0:0:0:
160,96,56338,1,0,0:0:0:0:
352,96,56790,1,8,0:0:0:0:
160,96,57241,1,0,0:0:0:0:
160,96,57692,1,0,0:0:0:0:
352,96,58143,1,8,0:0:0:0:
352,96,58369,1,8,0:0:0:0:
160,96,58594,1,0,0:0:0:0:
160,96,58820,1,0,0:0:0:0:
160,96,59271,1,0,0:0:0:0:
160,96,59496,1,0,0:0:0:0:
160,96,59722,5,0,0:0:0:0:
352,96,59947,1,8,0:0:0:0:
352,96,60399,1,8,0:0:0:0:
160,96,60850,1,0,0:0:0:0:
352,96,61301,1,8,0:0:0:0:
352,96,61526,1,8,0:0:0:0:
160,96,61752,1,0,0:0:0:0:
160,96,61978,1,0,0:0:0:0:
160,96,62429,1,0,0:0:0:0:
160,96,62654,1,0,0:0:0:0:
352,96,63105,1,8,0:0:0:0:
160,96,63556,1,0,0:0:0:0:
160,96,64008,1,0,0:0:0:0:
352,96,64459,1,8,0:0:0:0:
352,96,64684,1,8,0:0:0:0:
160,96,64910,1,0,0:0:0:0:
160,96,65135,1,0,0:0:0:0:
160,96,65587,1,0,0:0:0:0:
160,96,65812,1,0,0:0:0:0:
160,96,66038,1,0,0:0:0:0:
352,96,66263,1,8,0:0:0:0:
352,288,66714,1,12,0:0:0:0:
352,288,67166,1,12,0:0:0:0:
352,96,67617,1,8,0:0:0:0:
352,96,67842,1,8,0:0:0:0:
160,96,68068,1,0,0:0:0:0:
160,96,68293,1,0,0:0:0:0:
160,96,68744,1,0,0:0:0:0:
160,96,68970,1,0,0:0:0:0:
352,96,69421,1,8,0:0:0:0:
160,96,69872,1,0,0:0:0:0:
160,96,70323,1,0,0:0:0:0:
352,96,70775,1,8,0:0:0:0:
352,96,71000,1,8,0:0:0:0:
160,96,71226,1,0,0:0:0:0:
160,96,71451,1,0,0:0:0:0:
160,96,71902,1,0,0:0:0:0:
160,96,72128,1,0,0:0:0:0:
160,96,72353,5,0,0:0:0:0:
352,96,72579,1,8,0:0:0:0:
352,96,73030,1,8,0:0:0:0:
160,96,73481,1,0,0:0:0:0:
352,96,73932,1,8,0:0:0:0:
352,96,74158,1,8,0:0:0:0:
160,96,74384,1,0,0:0:0:0:
160,96,74609,1,0,0:0:0:0:
160,96,75060,1,0,0:0:0:0:
160,96,75286,1,0,0:0:0:0:
352,96,75737,1,8,0:0:0:0:
160,96,76188,1,0,0:0:0:0:
160,96,76639,1,0,0:0:0:0:
352,96,77090,1,8,0:0:0:0:
352,96,77316,1,8,0:0:0:0:
160,96,77541,1,0,0:0:0:0:
160,96,77767,1,0,0:0:0:0:
352,96,78218,1,8,0:0:0:0:
160,96,78444,1,0,0:0:0:0:
160,96,78669,1,0,0:0:0:0:
352,96,78895,1,8,0:0:0:0:
352,288,79346,1,12,0:0:0:0:
160,96,79797,1,0,0:0:0:0:
160,96,80023,1,0,0:0:0:0:
352,96,80248,1,8,0:0:0:0:
160,96,80474,1,0,0:0:0:0:
352,96,80699,1,8,0:0:0:0:
160,96,80925,1,0,0:0:0:0:
352,96,81150,1,8,0:0:0:0:
160,96,81376,1,0,0:0:0:0:
352,96,81602,1,8,0:0:0:0:
160,96,81827,1,0,0:0:0:0:
352,96,82053,1,8,0:0:0:0:
160,96,82278,1,0,0:0:0:0:
352,96,82504,1,8,0:0:0:0:
160,96,82729,1,0,0:0:0:0:
352,96,82955,1,8,0:0:0:0:
352,96,83406,1,8,0:0:0:0:
160,96,84083,1,0,0:0:0:0:
352,96,84534,1,0,0:0:0:0:
352,96,84985,1,8,0:0:0:0:
352,96,85436,1,8,0:0:0:0:
160,96,85661,1,0,0:0:0:0:
160,96,86113,1,0,0:0:0:0:
352,96,86564,1,8,0:0:0:0:
160,96,87015,1,0,0:0:0:0:
160,96,87241,1,0,0:0:0:0:
352,96,87692,1,8,0:0:0:0:
352,96,88143,1,8,0:0:0:0:
352,96,88594,1,8,0:0:0:0:
160,96,88820,1,0,0:0:0:0:
160,96,89271,1,0,0:0:0:0:
352,96,89722,1,8,0:0:0:0:
352,96,90173,1,8,0:0:0:0:
160,96,90399,1,0,0:0:0:0:
352,96,90850,1,8,0:0:0:0:
160,96,91075,1,0,0:0:0:0:
352,96,91301,1,8,0:0:0:0:
352,96,91752,1,8,0:0:0:0:
256,192,91978,12,0,96489,0:0:0:0:
352,288,96862,5,12,0:0:0:0:
160,96,97212,1,0,0:0:0:0:
352,96,97563,1,8,0:0:0:0:
160,96,97914,1,0,0:0:0:0:
160,96,98090,1,0,0:0:0:0:
352,96,98265,1,8,0:0:0:0:
352,96,98616,1,8,0:0:0:0:
352,96,98791,1,8,0:0:0:0:
160,96,98967,1,0,0:0:0:0:
160,96,99318,1,0,0:0:0:0:
352,96,99669,1,8,0:0:0:0:
352,96,100019,1,8,0:0:0:0:
352,96,100195,1,0,0:0:0:0:
160,96,100370,1,8,0:0:0:0:
160,96,100721,1,0,0:0:0:0:
160,96,101072,1,0,0:0:0:0:
352,96,101423,1,8,0:0:0:0:
352,96,101774,1,8,0:0:0:0:
160,96,101949,1,8,0:0:0:0:
160,96,102125,1,0,0:0:0:0:
160,96,102476,1,0,0:0:0:0:
352,96,102826,1,8,0:0:0:0:
352,96,103002,1,0,0:0:0:0:
160,96,103177,1,0,0:0:0:0:
160,96,103528,1,0,0:0:0:0:
352,96,103879,1,8,0:0:0:0:
352,96,104230,1,8,0:0:0:0:
160,96,104405,1,8,0:0:0:0:
160,96,104581,1,0,0:0:0:0:
352,96,104932,1,8,0:0:0:0:
352,96,105283,1,8,0:0:0:0:
160,96,105633,1,0,0:0:0:0:
352,96,105809,1,8,0:0:0:0:
160,96,105984,1,0,0:0:0:0:
352,96,106160,1,8,0:0:0:0:
160,96,106335,1,0,0:0:0:0:
352,288,106686,1,12,0:0:0:0:
160,96,107037,1,0,0:0:0:0:
352,96,107388,1,8,0:0:0:0:
160,96,107739,1,0,0:0:0:0:
160,96,107915,1,0,0:0:0:0:
352,96,108090,1,8,0:0:0:0:
352,96,108441,1,8,0:0:0:0:
352,96,108616,1,8,0:0:0:0:
160,96,108792,1,0,0:0:0:0:
160,96,109143,1,0,0:0:0:0:
352,96,109494,1,8,0:0:0:0:
352,96,109844,1,8,0:0:0:0:
352,96,110020,1,0,0:0:0:0:
160,96,110195,1,8,0:0:0:0:
160,96,110546,1,0,0:0:0:0:
160,96,110897,1,0,0:0:0:0:
352,96,111248,1,8,0:0:0:0:
352,96,111599,1,8,0:0:0:0:
160,96,111774,1,8,0:0:0:0:
160,96,111950,1,0,0:0:0:0:
160,96,112301,1,0,0:0:0:0:
352,96,112651,1,8,0:0:0:0:
352,96,112827,1,0,0:0:0:0:
160,96,113002,1,0,0:0:0:0:
160,96,113353,1,0,0:0:0:0:
352,96,113704,1,8,0:0:0:0:
352,96,114055,1,8,0:0:0:0:
160,96,114230,1,8,0:0:0:0:
160,96,114406,1,0,0:0:0:0:
352,96,114757,1,8,0:0:0:0:
0,128,115107,2,0,L|288:256,1,314.999990386963
352,288,116160,1,12,0:0:0:0:
352,288,116511,1,12,0:0:0:0:
352,96,116862,1,8,0:0:0:0:
160,96,117037,1,0,0:0:0:0:
352,96,117125,1,8,0:0:0:0:
160,96,117212,1,0,0:0:0:0:
160,96,117388,1,0,0:0:0:0:
352,96,117563,1,8,0:0:0:0:
352,96,117739,1,8,0:0:0:0:
160,96,118090,1,0,0:0:0:0:
352,96,118265,1,8,0:0:0:0:
160,96,118440,1,0,0:0:0:0:
352,96,118616,1,8,0:0:0:0:
352,96,118791,1,8,0:0:0:0:
160,96,118967,1,0,0:0:0:0:
160,96,119142,1,0,0:0:0:0:
352,96,119318,1,8,0:0:0:0:
160,96,119493,1,0,0:0:0:0:
352,96,119581,1,8,0:0:0:0:
160,96,119669,1,0,0:0:0:0:
160,96,119844,1,0,0:0:0:0:
352,96,120019,1,8,0:0:0:0:
352,96,120195,1,8,0:0:0:0:
160,96,120546,1,0,0:0:0:0:
352,96,120721,1,8,0:0:0:0:
160,96,120897,1,0,0:0:0:0:
352,96,121072,1,8,0:0:0:0:
352,96,121247,1,8,0:0:0:0:
352,96,121335,1,8,0:0:0:0:
160,96,121423,1,0,0:0:0:0:
160,96,121598,1,0,0:0:0:0:
352,96,121774,1,8,0:0:0:0:
160,96,121949,1,0,0:0:0:0:
160,96,122300,1,0,0:0:0:0:
352,96,122476,1,8,0:0:0:0:
160,96,122651,1,0,0:0:0:0:
160,96,123002,1,0,0:0:0:0:
352,96,123177,1,8,0:0:0:0:
160,96,123353,1,0,0:0:0:0:
352,96,123528,1,8,0:0:0:0:
352,96,123704,1,8,0:0:0:0:
160,96,123879,1,0,0:0:0:0:
352,96,124230,1,8,0:0:0:0:
160,96,124405,1,0,0:0:0:0:
352,96,124493,1,8,0:0:0:0:
160,96,124581,1,0,0:0:0:0:
160,96,124756,1,0,0:0:0:0:
352,96,124932,1,8,0:0:0:0:
352,96,125107,1,8,0:0:0:0:
160,96,125458,1,0,0:0:0:0:
352,96,125633,1,8,0:0:0:0:
160,96,125809,1,0,0:0:0:0:
352,96,125984,1,8,0:0:0:0:
160,96,126160,1,0,0:0:0:0:
352,96,126247,1,8,0:0:0:0:
160,96,126335,1,0,0:0:0:0:
352,96,126686,1,8,0:0:0:0:
160,96,126861,1,0,0:0:0:0:
352,96,126949,1,8,0:0:0:0:
160,96,127036,1,0,0:0:0:0:
160,96,127212,1,0,0:0:0:0:
352,96,127387,1,8,0:0:0:0:
352,96,127563,1,8,0:0:0:0:
160,96,127914,1,0,0:0:0:0:
352,96,128089,1,8,0:0:0:0:
160,96,128264,1,0,0:0:0:0:
352,96,128440,1,8,0:0:0:0:
352,96,128615,1,8,0:0:0:0:
160,96,128791,1,0,0:0:0:0:
160,96,128966,1,0,0:0:0:0:
352,96,129142,1,8,0:0:0:0:
160,96,129317,1,0,0:0:0:0:
352,96,129405,1,8,0:0:0:0:
160,96,129493,1,0,0:0:0:0:
160,96,129668,1,0,0:0:0:0:
352,96,129844,1,0,0:0:0:0:
352,96,130019,1,8,0:0:0:0:
160,96,130370,1,0,0:0:0:0:
352,96,130545,1,8,0:0:0:0:
160,96,130721,1,0,0:0:0:0:
352,96,130896,1,8,0:0:0:0:
352,96,131071,1,8,0:0:0:0:
352,96,131159,1,8,0:0:0:0:
160,96,131247,1,0,0:0:0:0:
160,96,131422,1,0,0:0:0:0:
352,96,131598,1,8,0:0:0:0:
160,96,131773,1,0,0:0:0:0:
160,96,132124,1,0,0:0:0:0:
352,96,132300,1,8,0:0:0:0:
160,96,132475,1,0,0:0:0:0:
160,96,132826,1,0,0:0:0:0:
352,96,133001,1,8,0:0:0:0:
160,96,133177,1,0,0:0:0:0:
352,96,133352,1,8,0:0:0:0:
352,96,133528,1,8,0:0:0:0:
160,96,133703,1,0,0:0:0:0:
352,96,134054,1,8,0:0:0:0:
160,96,134229,1,0,0:0:0:0:
352,96,134317,1,8,0:0:0:0:
160,96,134405,1,0,0:0:0:0:
160,96,134581,1,0,0:0:0:0:
352,96,134756,1,8,0:0:0:0:
352,288,134932,1,12,0:0:0:0:
352,96,135809,1,8,0:0:0:0:
160,96,135984,1,0,0:0:0:0:
160,288,136160,1,4,0:0:0:0:
160,96,136686,1,0,0:0:0:0:
352,96,136862,1,8,0:0:0:0:
160,96,137388,1,0,0:0:0:0:
160,96,137914,1,0,0:0:0:0:
352,96,138265,1,8,0:0:0:0:
160,96,138440,1,0,0:0:0:0:
160,96,138616,1,0,0:0:0:0:
160,96,139142,1,0,0:0:0:0:
352,96,139318,1,8,0:0:0:0:
160,96,139669,1,0,0:0:0:0:
160,96,139844,1,0,0:0:0:0:
160,96,140370,1,0,0:0:0:0:
352,96,140721,1,8,0:0:0:0:
160,96,140897,1,0,0:0:0:0:
352,288,141072,1,12,0:0:0:0:
160,96,141598,1,0,0:0:0:0:
352,96,141774,1,8,0:0:0:0:
160,96,142300,1,0,0:0:0:0:
160,96,142826,1,0,0:0:0:0:
352,96,143177,1,8,0:0:0:0:
160,96,143353,1,0,0:0:0:0:
160,96,143528,1,0,0:0:0:0:
160,96,144054,1,0,0:0:0:0:
352,96,144230,1,8,0:0:0:0:
160,96,144756,1,0,0:0:0:0:
160,96,145107,1,0,0:0:0:0:
160,96,145370,1,0,0:0:0:0:
352,96,145633,1,8,0:0:0:0:
352,96,145809,1,8,0:0:0:0:
352,96,145897,1,8,0:0:0:0:
160,96,145984,1,0,0:0:0:0:
160,96,146160,1,0,0:0:0:0:
352,96,146335,1,8,0:0:0:0:
160,96,146510,1,0,0:0:0:0:
160,96,146861,1,0,0:0:0:0:
352,96,147212,1,8,0:0:0:0:
160,96,147563,1,0,0:0:0:0:
352,96,147738,1,8,0:0:0:0:
160,96,147914,1,0,0:0:0:0:
352,96,148089,1,8,0:0:0:0:
352,96,148265,1,8,0:0:0:0:
160,96,148440,1,0,0:0:0:0:
160,96,148616,1,0,0:0:0:0:
352,96,148791,1,8,0:0:0:0:
160,96,148967,1,0,0:0:0:0:
352,96,149054,1,8,0:0:0:0:
160,96,149317,1,0,0:0:0:0:
352,96,149668,1,8,0:0:0:0:
160,96,150019,1,0,0:0:0:0:
352,96,150195,1,8,0:0:0:0:
160,96,150370,1,0,0:0:0:0:
352,96,150545,1,8,0:0:0:0:
352,96,150809,1,8,0:0:0:0:
160,96,150896,1,0,0:0:0:0:
160,96,151072,1,0,0:0:0:0:
352,96,151247,1,8,0:0:0:0:
160,96,151423,1,0,0:0:0:0:
160,96,151510,1,0,0:0:0:0:
160,96,151774,1,0,0:0:0:0:
352,96,152124,1,8,0:0:0:0:
160,96,152475,1,0,0:0:0:0:
352,96,152651,1,8,0:0:0:0:
160,96,152826,1,0,0:0:0:0:
352,96,153002,1,8,0:0:0:0:
352,96,153177,1,8,0:0:0:0:
160,96,153352,1,0,0:0:0:0:
160,96,153528,1,0,0:0:0:0:
352,96,153703,1,8,0:0:0:0:
160,96,153879,1,0,0:0:0:0:
352,96,153967,1,8,0:0:0:0:
160,96,154230,1,0,0:0:0:0:
352,96,154405,1,8,0:0:0:0:
352,96,154581,1,8,0:0:0:0:
160,96,154931,1,0,0:0:0:0:
352,96,155107,1,8,0:0:0:0:
160,96,155282,1,0,0:0:0:0:
352,96,155458,1,8,0:0:0:0:
352,288,155809,1,12,0:0:0:0:
160,96,156160,1,0,0:0:0:0:
352,96,156335,1,8,0:0:0:0:
160,96,156686,1,0,0:0:0:0:
352,96,156861,1,8,0:0:0:0:
160,96,157037,1,0,0:0:0:0:
160,96,157124,1,0,0:0:0:0:
352,96,157212,1,8,0:0:0:0:
160,96,157388,1,0,0:0:0:0:
352,96,157563,1,8,0:0:0:0:
160,96,157914,1,0,0:0:0:0:
160,96,158089,1,0,0:0:0:0:
352,288,158265,1,12,0:0:0:0:
160,96,158440,1,0,0:0:0:0:
160,96,158616,1,0,0:0:0:0:
160,96,158703,1,0,0:0:0:0:
352,96,158791,1,8,0:0:0:0:
160,96,158967,1,0,0:0:0:0:
160,96,159142,1,0,0:0:0:0:
160,96,159230,1,0,0:0:0:0:
352,96,159317,1,8,0:0:0:0:
160,96,159493,1,0,0:0:0:0:
352,96,159668,1,8,0:0:0:0:
160,96,159844,1,8,0:0:0:0:
160,96,160019,1,0,0:0:0:0:
160,96,160195,1,0,0:0:0:0:
192,64,160370,1,8,0:0:0:0:
160,96,160545,1,0,0:0:0:0:
352,288,160721,1,12,0:0:0:0:
160,96,160896,1,0,0:0:0:0:
160,96,161072,1,0,0:0:0:0:
352,96,161247,1,8,0:0:0:0:
160,96,161598,1,0,0:0:0:0:
352,96,161774,1,8,0:0:0:0:
160,96,162124,1,0,0:0:0:0:
352,96,162300,1,8,0:0:0:0:
160,96,162651,1,0,0:0:0:0:
352,96,162826,1,8,0:0:0:0:
160,96,163002,1,0,0:0:0:0:
352,96,163177,1,8,0:0:0:0:
352,96,163528,1,8,0:0:0:0:
160,96,163703,1,0,0:0:0:0:
160,96,164054,1,0,0:0:0:0:
352,96,164230,1,8,0:0:0:0:
160,96,164405,1,0,0:0:0:0:
160,96,164756,1,0,0:0:0:0:
352,96,164931,1,8,0:0:0:0:
352,96,165282,1,8,0:0:0:0:
352,288,165633,1,12,0:0:0:0:
160,96,165809,1,0,0:0:0:0:
160,96,165984,1,0,0:0:0:0:
352,96,166160,1,8,0:0:0:0:
160,96,166510,1,0,0:0:0:0:
352,96,166686,1,8,0:0:0:0:
160,96,166861,1,0,0:0:0:0:
352,96,167037,1,8,0:0:0:0:
352,96,167124,1,8,0:0:0:0:
160,96,167212,1,0,0:0:0:0:
352,96,167388,1,8,0:0:0:0:
160,96,167738,1,0,0:0:0:0:
160,96,167914,1,0,0:0:0:0:
352,288,168089,1,12,0:0:0:0:
160,96,168265,1,0,0:0:0:0:
160,96,168440,1,0,0:0:0:0:
160,96,168528,1,0,0:0:0:0:
352,96,168616,1,8,0:0:0:0:
160,96,168791,1,0,0:0:0:0:
160,96,168967,1,0,0:0:0:0:
160,96,169054,1,0,0:0:0:0:
352,96,169142,1,8,0:0:0:0:
352,96,169317,1,8,0:0:0:0:
352,96,169493,1,8,0:0:0:0:
160,96,169668,1,0,0:0:0:0:
160,96,169844,1,0,0:0:0:0:
352,96,170019,1,8,0:0:0:0:
352,96,170195,1,8,0:0:0:0:
160,96,170370,1,0,0:0:0:0:
352,288,170545,1,12,0:0:0:0:
160,96,170721,1,0,0:0:0:0:
160,96,170809,1,0,0:0:0:0:
160,96,170896,1,0,0:0:0:0:
352,96,171072,1,8,0:0:0:0:
160,96,171247,1,0,0:0:0:0:
352,96,171423,1,8,0:0:0:0:
352,96,171598,1,8,0:0:0:0:
352,96,171686,1,8,0:0:0:0:
160,96,171774,1,0,0:0:0:0:
160,96,171949,1,0,0:0:0:0:
352,96,172124,1,8,0:0:0:0:
160,96,172300,1,0,0:0:0:0:
160,96,172388,1,0,0:0:0:0:
160,96,172475,1,0,0:0:0:0:
352,96,172651,1,8,0:0:0:0:
160,96,172826,1,0,0:0:0:0:
160,96,172914,1,0,0:0:0:0:
352,96,173002,1,8,0:0:0:0:
160,96,173177,1,0,0:0:0:0:
160,96,173265,1,0,0:0:0:0:
160,96,173352,1,0,0:0:0:0:
352,96,173528,1,8,0:0:0:0:
160,96,173703,1,0,0:0:0:0:
160,96,173791,1,0,0:0:0:0:
160,96,173879,1,0,0:0:0:0:
160,96,173967,1,0,0:0:0:0:
352,96,174054,1,8,0:0:0:0:
160,96,174230,1,0,0:0:0:0:
352,288,174405,1,12,0:0:0:0:
352,288,175807,5,12,0:0:0:0:
352,96,176158,1,8,0:0:0:0:
160,96,176333,1,0,0:0:0:0:
352,96,176509,1,8,0:0:0:0:
352,96,176684,1,8,0:0:0:0:
160,96,176860,1,0,0:0:0:0:
352,96,177035,1,8,0:0:0:0:
352,96,177123,1,8,0:0:0:0:
352,96,177211,1,8,0:0:0:0:
160,96,177386,1,0,0:0:0:0:
352,96,177561,1,8,0:0:0:0:
352,96,177912,1,8,0:0:0:0:
160,96,178088,1,0,0:0:0:0:
352,96,178263,1,8,0:0:0:0:
160,96,178439,1,0,0:0:0:0:
160,96,178526,1,0,0:0:0:0:
160,96,178614,1,0,0:0:0:0:
160,96,178789,1,0,0:0:0:0:
352,96,178965,1,8,0:0:0:0:
160,96,179140,1,0,0:0:0:0:
352,96,179316,1,8,0:0:0:0:
352,96,179491,1,8,0:0:0:0:
160,96,179667,1,0,0:0:0:0:
352,96,179842,1,8,0:0:0:0:
160,96,180193,1,0,0:0:0:0:
352,96,180368,1,8,0:0:0:0:
352,96,180719,1,8,0:0:0:0:
352,96,180895,1,8,0:0:0:0:
160,96,181070,1,0,0:0:0:0:
352,96,181246,1,8,0:0:0:0:
352,96,181333,1,8,0:0:0:0:
352,96,181421,1,8,0:0:0:0:
160,96,181596,1,0,0:0:0:0:
352,96,181772,1,8,0:0:0:0:
352,96,182123,1,8,0:0:0:0:
160,96,182298,1,0,0:0:0:0:
160,96,182474,1,0,0:0:0:0:
352,96,182649,1,8,0:0:0:0:
352,96,182737,1,8,0:0:0:0:
352,96,182825,1,8,0:0:0:0:
160,96,183000,1,0,0:0:0:0:
352,96,183175,1,8,0:0:0:0:
352,96,183526,1,8,0:0:0:0:
352,96,183702,1,8,0:0:0:0:
160,96,183877,1,0,0:0:0:0:
352,96,184053,1,8,0:0:0:0:
160,96,184404,1,0,0:0:0:0:
352,96,184579,1,8,0:0:0:0:
352,96,184930,1,8,0:0:0:0:
160,96,185105,1,0,0:0:0:0:
160,96,185281,1,0,0:0:0:0:
352,96,185456,1,8,0:0:0:0:
160,96,185807,1,0,0:0:0:0:
352,96,185982,1,8,0:0:0:0:
352,96,186333,1,8,0:0:0:0:
352,96,186509,1,8,0:0:0:0:
320,96,186596,1,8,0:0:0:0:
160,96,186684,1,0,0:0:0:0:
352,96,186860,1,0,0:0:0:0:
352,288,187035,1,12,0:0:0:0:
160,96,187211,1,0,0:0:0:0:
352,96,187386,1,8,0:0:0:0:
352,96,187737,1,8,0:0:0:0:
160,96,187912,1,0,0:0:0:0:
160,96,188000,1,0,0:0:0:0:
352,96,188088,1,8,0:0:0:0:
352,96,188263,1,8,0:0:0:0:
352,96,188351,1,8,0:0:0:0:
352,96,188439,1,8,0:0:0:0:
160,96,188614,1,0,0:0:0:0:
352,96,188789,1,8,0:0:0:0:
352,96,189140,1,8,0:0:0:0:
352,96,189228,1,8,0:0:0:0:
160,96,189316,1,0,0:0:0:0:
352,96,189491,1,8,0:0:0:0:
160,96,189667,1,0,0:0:0:0:
160,96,189754,1,0,0:0:0:0:
160,96,189842,1,0,0:0:0:0:
160,96,190018,1,0,0:0:0:0:
352,96,190193,1,8,0:0:0:0:
160,96,190368,1,0,0:0:0:0:
160,96,190456,1,0,0:0:0:0:
352,96,190544,1,8,0:0:0:0:
160,96,190719,1,0,0:0:0:0:
352,96,190895,1,8,0:0:0:0:
352,96,191070,1,8,0:0:0:0:
160,96,191421,1,0,0:0:0:0:
352,96,191596,1,8,0:0:0:0:
160,96,191947,1,0,0:0:0:0:
352,96,192123,1,8,0:0:0:0:
160,96,192298,1,0,0:0:0:0:
352,96,192474,1,8,0:0:0:0:
160,96,192825,1,0,0:0:0:0:
352,96,193000,1,8,0:0:0:0:
160,96,193175,1,0,0:0:0:0:
160,96,193526,1,0,0:0:0:0:
352,96,193702,1,8,0:0:0:0:
352,96,193789,1,8,0:0:0:0:
160,96,193877,1,0,0:0:0:0:
160,96,194053,1,0,0:0:0:0:
352,96,194228,1,8,0:0:0:0:
352,96,194404,1,8,0:0:0:0:
160,96,194579,1,0,0:0:0:0:
352,96,194754,1,8,0:0:0:0:
352,96,194842,1,8,0:0:0:0:
160,96,194930,1,0,0:0:0:0:
352,96,195105,1,8,0:0:0:0:
160,96,195281,1,0,0:0:0:0:
352,96,195456,1,12,0:0:0:0:
352,96,195807,1,8,0:0:0:0:
160,96,195982,1,0,0:0:0:0:
160,96,196333,1,0,0:0:0:0:
352,96,196509,1,8,0:0:0:0:
160,96,196684,1,0,0:0:0:0:
352,96,196860,1,8,0:0:0:0:
160,96,197211,1,0,0:0:0:0:
352,96,197386,1,8,0:0:0:0:
160,96,197737,1,0,0:0:0:0:
352,96,197912,1,8,0:0:0:0:
352,288,198263,1,12,0:0:0:0:
352,96,198614,1,8,0:0:0:0:
160,96,198789,1,0,0:0:0:0:
352,96,198965,1,8,0:0:0:0:
160,96,199140,1,0,0:0:0:0:
352,96,199316,1,8,0:0:0:0:
352,96,199667,1,8,0:0:0:0:
160,96,199842,1,0,0:0:0:0:
352,96,200018,1,8,0:0:0:0:
160,96,200193,1,0,0:0:0:0:
352,96,200368,1,8,0:0:0:0:
160,96,200544,1,0,0:0:0:0:
160,96,200632,1,0,0:0:0:0:
352,96,200719,1,8,0:0:0:0:
352,96,200895,1,8,0:0:0:0:
160,96,201070,1,0,0:0:0:0:
352,96,201421,1,8,0:0:0:0:
160,96,201596,1,0,0:0:0:0:
160,96,201684,1,0,0:0:0:0:
352,96,201772,1,8,0:0:0:0:
160,96,201947,1,0,0:0:0:0:
352,96,202123,1,8,0:0:0:0:
352,96,202474,1,8,0:0:0:0:
160,96,202649,1,0,0:0:0:0:
352,96,202825,1,8,0:0:0:0:
160,96,203000,1,0,0:0:0:0:
352,96,203175,1,8,0:0:0:0:
160,96,203351,1,0,0:0:0:0:
352,96,203526,1,8,0:0:0:0:
352,96,203702,1,8,0:0:0:0:
352,96,203789,1,8,0:0:0:0:
160,96,203877,1,0,0:0:0:0:
352,96,204228,1,8,0:0:0:0:
160,96,204404,1,0,0:0:0:0:
352,96,204579,1,8,0:0:0:0:
160,96,204754,1,0,0:0:0:0:
352,96,204930,1,8,0:0:0:0:
352,96,205281,1,8,0:0:0:0:
160,96,205456,1,0,0:0:0:0:
352,96,205632,1,8,0:0:0:0:
160,96,205807,1,0,0:0:0:0:
352,96,205982,1,8,0:0:0:0:
160,96,206158,1,0,0:0:0:0:
160,96,206246,1,0,0:0:0:0:
352,96,206333,1,8,0:0:0:0:
352,96,206509,1,8,0:0:0:0:
160,96,206684,1,0,0:0:0:0:
352,96,207035,1,8,0:0:0:0:
160,96,207211,1,0,0:0:0:0:
352,96,207386,1,8,0:0:0:0:
160,96,207561,1,0,0:0:0:0:
352,96,207737,1,8,0:0:0:0:
160,96,207912,1,0,0:0:0:0:
352,288,208088,1,12,0:0:0:0:
352,96,208439,1,8,0:0:0:0:
160,96,208614,1,0,0:0:0:0:
160,96,208789,1,0,0:0:0:0:
160,96,208965,1,0,0:0:0:0:
160,96,209053,1,0,0:0:0:0:
352,96,209140,1,8,0:0:0:0:
352,96,209228,1,8,0:0:0:0:
352,96,209316,1,8,0:0:0:0:
352,288,209491,1,12,0:0:0:0:
352,96,209842,1,8,0:0:0:0:
160,96,210018,1,0,0:0:0:0:
352,96,210193,1,8,0:0:0:0:
160,96,210368,1,0,0:0:0:0:
352,96,210544,1,8,0:0:0:0:
352,96,210895,1,8,0:0:0:0:
160,96,211070,1,0,0:0:0:0:
352,96,211246,1,8,0:0:0:0:
160,96,211421,1,0,0:0:0:0:
352,96,211596,1,8,0:0:0:0:
160,96,211772,1,0,0:0:0:0:
160,96,211860,1,0,0:0:0:0:
352,96,211947,1,8,0:0:0:0:
352,96,212123,1,8,0:0:0:0:
160,96,212298,1,0,0:0:0:0:
352,96,212649,1,8,0:0:0:0:
160,96,212825,1,0,0:0:0:0:
160,96,212912,1,0,0:0:0:0:
352,96,213000,1,8,0:0:0:0:
160,96,213175,1,0,0:0:0:0:
352,96,213351,1,8,0:0:0:0:
352,96,213702,1,8,0:0:0:0:
160,96,213877,1,0,0:0:0:0:
352,96,214053,1,8,0:0:0:0:
160,96,214228,1,0,0:0:0:0:
352,96,214404,1,8,0:0:0:0:
160,96,214579,1,0,0:0:0:0:
352,96,214754,1,8,0:0:0:0:
352,96,214930,1,8,0:0:0:0:
352,96,215018,1,8,0:0:0:0:
160,96,215105,1,0,0:0:0:0:
352,96,215456,1,8,0:0:0:0:
160,96,215632,1,0,0:0:0:0:
352,96,215807,1,8,0:0:0:0:
160,96,215982,1,0,0:0:0:0:
352,96,216158,1,8,0:0:0:0:
352,96,216509,1,8,0:0:0:0:
160,96,216684,1,0,0:0:0:0:
352,96,216860,1,8,0:0:0:0:
160,96,217035,1,0,0:0:0:0:
352,96,217211,1,8,0:0:0:0:
160,96,217386,1,0,0:0:0:0:
160,96,217474,1,0,0:0:0:0:
352,96,217561,1,8,0:0:0:0:
352,96,217737,1,8,0:0:0:0:
160,96,217912,1,0,0:0:0:0:
160,160,218088,1,0,0:0:0:0:
192,192,218175,1,0,0:0:0:0:
352,96,218263,1,8,0:0:0:0:
192,192,218439,1,0,0:0:0:0:
352,96,218614,1,8,0:0:0:0:
352,128,218702,1,8,0:0:0:0:
192,192,218789,1,0,0:0:0:0:
352,96,218965,1,8,0:0:0:0:
192,192,219140,1,0,0:0:0:0:
352,288,219316,1,12,0:0:0:0:
160,96,219667,1,0,0:0:0:0:
352,96,219842,1,8,0:0:0:0:
160,96,220193,1,0,0:0:0:0:
160,96,220281,1,0,0:0:0:0:
160,96,220368,1,0,0:0:0:0:
352,288,220719,1,12,0:0:0:0:
160,96,220894,1,0,0:0:0:0:
160,96,221157,1,0,0:0:0:0:
160,96,221420,1,0,0:0:0:0:
160,96,221508,1,0,0:0:0:0:
352,96,221596,1,8,0:0:0:0:
160,96,221947,1,0,0:0:0:0:
352,96,222122,1,8,0:0:0:0:
160,96,222297,1,0,0:0:0:0:
352,96,222385,1,8,0:0:0:0:
160,96,222561,1,0,0:0:0:0:
352,96,222648,1,8,0:0:0:0:
160,96,222999,1,0,0:0:0:0:
160,96,223526,1,0,0:0:0:0:
160,96,223613,1,0,0:0:0:0:
160,96,223701,1,0,0:0:0:0:
352,96,223876,1,8,0:0:0:0:
160,96,224403,1,0,0:0:0:0:
160,96,224929,1,0,0:0:0:0:
352,96,225104,1,8,0:0:0:0:
160,96,225397,1,0,0:0:0:0:
160,96,225514,1,0,0:0:0:0:
352,96,225631,1,8,0:0:0:0:
352,96,225982,1,8,0:0:0:0:
160,96,226069,1,0,0:0:0:0:
160,96,226157,1,0,0:0:0:0:
352,96,226333,1,8,0:0:0:0:
160,96,226859,1,0,0:0:0:0:
160,96,227385,1,0,0:0:0:0:
352,96,227619,1,8,0:0:0:0:
160,96,227736,1,0,0:0:0:0:
352,96,227970,1,8,0:0:0:0:
352,96,228087,1,8,0:0:0:0:
160,96,228438,1,0,0:0:0:0:
127,202,228526,1,0,0:0:0:0:
160,96,228613,1,0,0:0:0:0:
352,96,228789,1,8,0:0:0:0:
352,96,229140,1,8,0:0:0:0:
160,96,229373,1,0,0:0:0:0:
352,96,229490,1,8,0:0:0:0:
160,96,229724,1,0,0:0:0:0:
160,96,229841,1,0,0:0:0:0:
352,96,230192,1,8,0:0:0:0:
352,96,230368,1,8,0:0:0:0:
352,288,230543,1,12,0:0:0:0:
352,96,230894,1,8,0:0:0:0:
160,96,231069,1,0,0:0:0:0:
160,96,231420,1,0,0:0:0:0:
352,96,231771,1,8,0:0:0:0:
160,96,232122,1,0,0:0:0:0:
352,96,232297,1,8,0:0:0:0:
160,96,232473,1,0,0:0:0:0:
352,96,232648,1,8,0:0:0:0:
352,96,232824,1,8,0:0:0:0:
160,96,232999,1,0,0:0:0:0:
160,96,233175,1,0,0:0:0:0:
352,96,233350,1,8,0:0:0:0:
160,96,233526,1,0,0:0:0:0:
352,96,233613,1,8,0:0:0:0:
160,96,233876,1,0,0:0:0:0:
352,96,234227,1,8,0:0:0:0:
160,96,234578,1,0,0:0:0:0:
352,96,234754,1,8,0:0:0:0:
160,96,234929,1,0,0:0:0:0:
352,96,235104,1,8,0:0:0:0:
352,96,235368,1,8,0:0:0:0:
160,96,235455,1,0,0:0:0:0:
160,96,235631,1,0,0:0:0:0:
352,96,235806,1,8,0:0:0:0:
160,96,235982,1,0,0:0:0:0:
160,96,236069,1,0,0:0:0:0:
160,96,236333,1,0,0:0:0:0:
352,96,236683,1,8,0:0:0:0:
160,96,237034,1,0,0:0:0:0:
352,96,237210,1,8,0:0:0:0:
160,96,237385,1,0,0:0:0:0:
352,96,237561,1,8,0:0:0:0:
352,96,237736,1,8,0:0:0:0:
160,96,237911,1,0,0:0:0:0:
160,96,238087,1,0,0:0:0:0:
352,96,238262,1,8,0:0:0:0:
160,96,238438,1,0,0:0:0:0:
352,96,238526,1,8,0:0:0:0:
160,96,238789,1,0,0:0:0:0:
352,96,238964,1,8,0:0:0:0:
352,96,239140,1,8,0:0:0:0:
160,96,239490,1,0,0:0:0:0:
352,96,239666,1,8,0:0:0:0:
160,96,239841,1,0,0:0:0:0:
352,96,240017,1,8,0:0:0:0:
352,288,240368,1,12,0:0:0:0:
160,96,240719,1,0,0:0:0:0:
352,96,240894,1,8,0:0:0:0:
160,96,241245,1,0,0:0:0:0:
352,96,241420,1,8,0:0:0:0:
160,96,241596,1,0,0:0:0:0:
160,96,241683,1,0,0:0:0:0:
352,96,241771,1,8,0:0:0:0:
160,96,241947,1,0,0:0:0:0:
352,96,242122,1,8,0:0:0:0:
160,96,242473,1,0,0:0:0:0:
160,96,242648,1,0,0:0:0:0:
352,288,242824,1,12,0:0:0:0:
160,96,242999,1,0,0:0:0:0:
160,96,243175,1,0,0:0:0:0:
160,96,243262,1,0,0:0:0:0:
352,96,243350,1,8,0:0:0:0:
160,96,243526,1,0,0:0:0:0:
160,96,243701,1,0,0:0:0:0:
160,96,243789,1,0,0:0:0:0:
352,96,243876,1,8,0:0:0:0:
160,96,244052,1,0,0:0:0:0:
352,96,244227,1,8,0:0:0:0:
160,96,244403,1,8,0:0:0:0:
160,96,244578,1,0,0:0:0:0:
160,96,244754,1,0,0:0:0:0:
96,128,244929,1,8,0:0:0:0:
160,96,245104,1,0,0:0:0:0:
352,288,245280,1,12,0:0:0:0:
160,96,245455,1,0,0:0:0:0:
160,96,245631,1,0,0:0:0:0:
352,96,245806,1,8,0:0:0:0:
160,96,246157,1,0,0:0:0:0:
352,96,246333,1,8,0:0:0:0:
160,96,246683,1,0,0:0:0:0:
352,96,246859,1,8,0:0:0:0:
160,96,247210,1,0,0:0:0:0:
352,96,247385,1,8,0:0:0:0:
160,96,247561,1,0,0:0:0:0:
352,96,247736,1,8,0:0:0:0:
352,96,248087,1,8,0:0:0:0:
160,96,248262,1,0,0:0:0:0:
160,96,248613,1,0,0:0:0:0:
352,96,248789,1,8,0:0:0:0:
160,96,248964,1,0,0:0:0:0:
160,96,249315,1,0,0:0:0:0:
352,96,249490,1,8,0:0:0:0:
352,96,249841,1,8,0:0:0:0:
352,288,250192,1,12,0:0:0:0:
160,96,250368,1,0,0:0:0:0:
160,96,250543,1,0,0:0:0:0:
352,96,250719,1,8,0:0:0:0:
160,96,251069,1,0,0:0:0:0:
352,96,251245,1,8,0:0:0:0:
160,96,251420,1,0,0:0:0:0:
352,96,251596,1,8,0:0:0:0:
352,96,251683,1,8,0:0:0:0:
160,96,251771,1,0,0:0:0:0:
352,96,251947,1,8,0:0:0:0:
160,96,252297,1,0,0:0:0:0:
160,96,252473,1,0,0:0:0:0:
352,288,252648,1,12,0:0:0:0:
160,96,252824,1,0,0:0:0:0:
160,96,252999,1,0,0:0:0:0:
160,96,253087,1,0,0:0:0:0:
352,96,253175,1,8,0:0:0:0:
160,96,253350,1,0,0:0:0:0:
160,96,253526,1,0,0:0:0:0:
160,96,253613,1,0,0:0:0:0:
352,96,253701,1,8,0:0:0:0:
352,96,253876,1,8,0:0:0:0:
352,96,254052,1,8,0:0:0:0:
160,96,254227,1,0,0:0:0:0:
160,96,254403,1,0,0:0:0:0:
352,96,254578,1,8,0:0:0:0:
352,96,254754,1,8,0:0:0:0:
160,96,254929,1,0,0:0:0:0:
352,288,255104,1,12,0:0:0:0:
160,96,255280,1,0,0:0:0:0:
160,96,255368,1,0,0:0:0:0:
160,96,255455,1,0,0:0:0:0:
352,96,255631,1,8,0:0:0:0:
160,96,255806,1,0,0:0:0:0:
352,96,255982,1,8,0:0:0:0:
352,96,256157,1,8,0:0:0:0:
352,96,256245,1,8,0:0:0:0:
160,96,256333,1,0,0:0:0:0:
160,96,256508,1,0,0:0:0:0:
352,96,256683,1,8,0:0:0:0:
160,96,256859,1,0,0:0:0:0:
160,96,256947,1,0,0:0:0:0:
160,96,257034,1,0,0:0:0:0:
352,96,257210,1,8,0:0:0:0:
160,96,257385,1,0,0:0:0:0:
160,96,257473,1,0,0:0:0:0:
352,96,257561,1,8,0:0:0:0:
160,96,257736,1,0,0:0:0:0:
160,96,257824,1,0,0:0:0:0:
160,96,257911,1,0,0:0:0:0:
352,96,258087,1,8,0:0:0:0:
160,96,258262,1,0,0:0:0:0:
160,96,258350,1,0,0:0:0:0:
160,96,258438,1,0,0:0:0:0:
160,96,258526,1,0,0:0:0:0:
352,96,258613,1,8,0:0:0:0:
160,96,258789,1,0,0:0:0:0:
352,288,258964,1,12,0:0:0:0:
352,288,260368,5,12,0:0:0:0:
352,96,260719,1,8,0:0:0:0:
160,96,260894,1,0,0:0:0:0:
352,96,261070,1,8,0:0:0:0:
352,96,261245,1,8,0:0:0:0:
160,96,261421,1,0,0:0:0:0:
352,96,261596,1,8,0:0:0:0:
352,96,261684,1,8,0:0:0:0:
352,96,261772,1,8,0:0:0:0:
160,96,261947,1,0,0:0:0:0:
352,96,262122,1,8,0:0:0:0:
352,96,262473,1,8,0:0:0:0:
160,96,262649,1,0,0:0:0:0:
352,96,262824,1,8,0:0:0:0:
160,96,263000,1,0,0:0:0:0:
160,96,263087,1,0,0:0:0:0:
160,96,263175,1,0,0:0:0:0:
160,96,263350,1,0,0:0:0:0:
352,96,263526,1,8,0:0:0:0:
160,96,263701,1,0,0:0:0:0:
160,96,263789,1,0,0:0:0:0:
352,96,263877,1,8,0:0:0:0:
352,96,264052,1,8,0:0:0:0:
160,96,264228,1,0,0:0:0:0:
352,96,264403,1,8,0:0:0:0:
160,96,264754,1,0,0:0:0:0:
352,96,264929,1,8,0:0:0:0:
352,96,265280,1,8,0:0:0:0:
352,96,265456,1,8,0:0:0:0:
160,96,265631,1,0,0:0:0:0:
352,96,265807,1,8,0:0:0:0:
352,96,265894,1,8,0:0:0:0:
352,96,265982,1,8,0:0:0:0:
160,96,266157,1,0,0:0:0:0:
352,96,266333,1,8,0:0:0:0:
352,96,266684,1,8,0:0:0:0:
160,96,266859,1,0,0:0:0:0:
160,96,266947,1,0,0:0:0:0:
160,96,267035,1,0,0:0:0:0:
352,96,267210,1,8,0:0:0:0:
352,96,267298,1,8,0:0:0:0:
352,96,267386,1,8,0:0:0:0:
160,96,267561,1,0,0:0:0:0:
352,96,267736,1,8,0:0:0:0:
352,96,268087,1,8,0:0:0:0:
352,96,268263,1,8,0:0:0:0:
160,96,268438,1,0,0:0:0:0:
160,96,268526,1,0,0:0:0:0:
352,96,268614,1,8,0:0:0:0:
160,96,268965,1,0,0:0:0:0:
352,96,269140,1,8,0:0:0:0:
352,96,269491,1,8,0:0:0:0:
160,96,269666,1,0,0:0:0:0:
160,96,269842,1,0,0:0:0:0:
160,96,269929,1,0,0:0:0:0:
352,96,270017,1,8,0:0:0:0:
160,96,270368,1,0,0:0:0:0:
352,96,270543,1,8,0:0:0:0:
352,96,270894,1,8,0:0:0:0:
352,96,271070,1,8,0:0:0:0:
160,96,271245,1,8,0:0:0:0:
352,96,271421,1,0,0:0:0:0:
352,288,271596,1,12,0:0:0:0:
160,96,271772,1,0,0:0:0:0:
352,96,271947,1,8,0:0:0:0:
352,96,272298,1,8,0:0:0:0:
160,96,272473,1,0,0:0:0:0:
160,96,272561,1,0,0:0:0:0:
352,96,272649,1,8,0:0:0:0:
352,96,272824,1,8,0:0:0:0:
352,96,272912,1,8,0:0:0:0:
352,96,273000,1,8,0:0:0:0:
160,96,273175,1,0,0:0:0:0:
352,96,273350,1,8,0:0:0:0:
352,96,273701,1,8,0:0:0:0:
352,96,273789,1,8,0:0:0:0:
160,96,273877,1,0,0:0:0:0:
352,96,274052,1,8,0:0:0:0:
160,96,274228,1,0,0:0:0:0:
160,96,274315,1,0,0:0:0:0:
160,96,274403,1,0,0:0:0:0:
160,96,274579,1,0,0:0:0:0:
352,96,274754,1,8,0:0:0:0:
160,96,274929,1,0,0:0:0:0:
160,96,275017,1,0,0:0:0:0:
352,96,275105,1,8,0:0:0:0:
160,96,275280,1,0,0:0:0:0:
352,96,275456,1,8,0:0:0:0:
160,96,275543,1,0,0:0:0:0:
352,96,275631,1,8,0:0:0:0:
160,96,275982,1,0,0:0:0:0:
352,96,276157,1,8,0:0:0:0:
160,96,276508,1,0,0:0:0:0:
352,96,276684,1,8,0:0:0:0:
160,96,276859,1,0,0:0:0:0:
352,96,277035,1,8,0:0:0:0:
160,96,277386,1,0,0:0:0:0:
352,96,277561,1,8,0:0:0:0:
160,96,277736,1,0,0:0:0:0:
160,96,278087,1,0,0:0:0:0:
352,96,278263,1,8,0:0:0:0:
352,96,278350,1,8,0:0:0:0:
160,96,278438,1,0,0:0:0:0:
160,96,278614,1,0,0:0:0:0:
352,96,278789,1,8,0:0:0:0:
352,96,278965,1,8,0:0:0:0:
160,96,279140,1,0,0:0:0:0:
352,96,279315,1,8,0:0:0:0:
352,96,279403,1,8,0:0:0:0:
160,96,279491,1,0,0:0:0:0:
352,96,279666,1,8,0:0:0:0:
160,96,279842,1,0,0:0:0:0:
352,96,280017,1,12,0:0:0:0:
352,96,280368,1,8,0:0:0:0:
160,96,280543,1,0,0:0:0:0:
160,96,280894,1,0,0:0:0:0:
352,96,281070,1,8,0:0:0:0:
160,96,281245,1,0,0:0:0:0:
352,96,281421,1,8,0:0:0:0:
160,96,281772,1,0,0:0:0:0:
352,96,281947,1,8,0:0:0:0:
160,96,282298,1,0,0:0:0:0:
352,96,282473,1,8,0:0:0:0:
352,288,282824,1,12,0:0:0:0:
160,96,283175,1,0,0:0:0:0:
352,288,283350,1,12,0:0:0:0:
160,96,284052,1,0,0:0:0:0:
160,96,284140,1,0,0:0:0:0:
352,96,284228,1,8,0:0:0:0:
352,96,284491,1,8,0:0:0:0:
352,96,284754,1,8,0:0:0:0:
160,96,285105,1,0,0:0:0:0:
352,96,285280,1,8,0:0:0:0:
160,96,285368,1,0,0:0:0:0:
160,96,285456,1,0,0:0:0:0:
160,96,285543,1,0,0:0:0:0:
352,96,285631,1,8,0:0:0:0:
160,96,285807,1,0,0:0:0:0:
160,96,285982,1,8,0:0:0:0:
160,96,286070,1,0,0:0:0:0:
352,96,286157,1,8,0:0:0:0:
352,96,286508,1,8,0:0:0:0:
160,96,286684,1,0,0:0:0:0:
160,288,286859,1,12,0:0:0:0:
160,96,287210,1,0,0:0:0:0:
352,96,287386,1,8,0:0:0:0:
160,96,287561,1,0,0:0:0:0:
352,96,287736,1,8,0:0:0:0:
160,96,287912,1,0,0:0:0:0:
352,96,288087,1,8,0:0:0:0:
160,96,288263,1,0,0:0:0:0:
352,288,288438,1,12,0:0:0:0:
160,96,288614,1,0,0:0:0:0:
160,96,288789,1,0,0:0:0:0:
352,288,288965,1,12,0:0:0:0:
160,96,289666,1,0,0:0:0:0:
352,96,289842,1,8,0:0:0:0:
160,96,290076,1,0,0:0:0:0:
352,96,290193,1,8,0:0:0:0:
160,96,290426,1,0,0:0:0:0:
352,96,290543,1,8,0:0:0:0:
352,96,290894,1,8,0:0:0:0:
160,288,291245,1,4,0:0:0:0:
160,96,291421,1,0,0:0:0:0:
352,96,291596,1,8,0:0:0:0:
352,96,291772,1,8,0:0:0:0:
352,96,291859,1,8,0:0:0:0:
160,96,291947,1,0,0:0:0:0:
160,96,292122,1,0,0:0:0:0:
352,96,292298,1,8,0:0:0:0:
160,96,292473,1,0,0:0:0:0:
352,288,292649,1,12,0:0:0:0:
352,96,293000,1,8,0:0:0:0:
160,96,293175,1,0,0:0:0:0:
160,96,293526,1,0,0:0:0:0:
352,96,293701,1,8,0:0:0:0:
352,96,293789,1,8,0:0:0:0:
352,96,293877,1,8,0:0:0:0:
160,288,294052,1,4,0:0:0:0:
160,96,294403,1,0,0:0:0:0:
352,96,294579,1,8,0:0:0:0:
352,96,294666,1,0,0:0:0:0:
160,96,294754,1,0,0:0:0:0:
160,96,295105,1,0,0:0:0:0:
352,96,295280,1,8,0:0:0:0:
352,96,295368,1,8,0:0:0:0:
160,96,295456,1,0,0:0:0:0:
160,96,295807,1,0,0:0:0:0:
352,96,295982,1,8,0:0:0:0:
160,96,296157,1,8,0:0:0:0:
352,96,296333,1,8,0:0:0:0:
160,96,296421,1,0,0:0:0:0:
160,96,296508,1,0,0:0:0:0:
352,96,296684,1,8,0:0:0:0:
352,96,296772,1,8,0:0:0:0:
160,96,296859,1,0,0:0:0:0:
43,157,297035,1,8,0:0:0:0:
160,96,297210,1,8,0:0:0:0:
352,96,297386,1,8,0:0:0:0:
352,96,297473,1,0,0:0:0:0:
160,96,297561,1,0,0:0:0:0:
50,120,297736,1,0,0:0:0:0:
160,96,297912,1,0,0:0:0:0:
352,96,298087,1,8,0:0:0:0:
352,96,298175,1,8,0:0:0:0:
160,96,298263,1,0,0:0:0:0:
160,96,298614,1,0,0:0:0:0:
352,96,298789,1,0,0:0:0:0:
352,96,298877,1,0,0:0:0:0:
160,96,298965,1,8,0:0:0:0:
352,96,299140,1,0,0:0:0:0:
160,96,299228,1,0,0:0:0:0:
160,96,299315,1,8,0:0:0:0:
352,96,299491,1,8,0:0:0:0:
352,288,299666,1,4,0:0:0:0:
352,96,300017,1,8,0:0:0:0:
160,96,300193,1,0,0:0:0:0:
160,96,300280,1,0,0:0:0:0:
352,96,300368,1,8,0:0:0:0:
210,160,300543,1,0,0:0:0:0:
352,96,300719,1,8,0:0:0:0:
160,96,300894,1,0,0:0:0:0:
160,96,300982,1,0,0:0:0:0:
160,96,301070,1,8,0:0:0:0:
352,96,301421,1,8,0:0:0:0:
160,96,301596,1,0,0:0:0:0:
160,96,301684,1,0,0:0:0:0:
160,96,301772,1,0,0:0:0:0:
352,96,301947,1,8,0:0:0:0:
160,96,302035,1,0,0:0:0:0:
352,96,302122,1,8,0:0:0:0:
160,96,302298,1,0,0:0:0:0:
352,96,302473,1,8,0:0:0:0:
160,96,302824,1,8,0:0:0:0:
160,96,303000,1,0,0:0:0:0:
160,96,303087,1,0,0:0:0:0:
160,96,303175,1,0,0:0:0:0:
160,96,303350,1,0,0:0:0:0:
160,96,303438,1,0,0:0:0:0:
352,96,303526,1,8,0:0:0:0:
352,96,303614,1,8,0:0:0:0:
160,96,303701,1,0,0:0:0:0:
352,96,303877,1,8,0:0:0:0:
160,96,304052,1,0,0:0:0:0:
352,96,304228,1,8,0:0:0:0:
288,256,304403,2,0,L|320:192,3,70
160,96,305280,1,0,0:0:0:0:
160,96,306684,1,0,0:0:0:0:
160,96,308087,1,0,0:0:0:0:
160,96,309491,1,0,0:0:0:0:
160,96,310894,1,0,0:0:0:0:
160,96,312298,1,0,0:0:0:0:
160,96,313701,1,0,0:0:0:0:
160,96,315105,1,0,0:0:0:0:
256,192,315456,12,0,316333,0:0:0:0:
160,96,316508,5,0,0:0:0:0:
160,96,316859,1,0,0:0:0:0:
352,96,317210,1,8,0:0:0:0:
352,96,317386,1,8,0:0:0:0:
160,96,317561,1,0,0:0:0:0:
352,96,317736,1,8,0:0:0:0:
160,96,318087,1,0,0:0:0:0:
352,96,318263,1,8,0:0:0:0:
352,96,318614,1,8,0:0:0:0:
160,96,318789,1,0,0:0:0:0:
160,96,318965,1,0,0:0:0:0:
352,96,319140,1,8,0:0:0:0:
352,96,319666,1,8,0:0:0:0:
352,96,320017,1,8,0:0:0:0:
160,96,320368,1,0,0:0:0:0:
352,96,320543,1,8,0:0:0:0:
352,96,320894,1,8,0:0:0:0:
160,96,321070,1,0,0:0:0:0:
352,96,321421,1,8,0:0:0:0:
352,96,321596,1,8,0:0:0:0:
160,96,321772,1,0,0:0:0:0:
352,96,321947,1,8,0:0:0:0:
352,96,322298,1,8,0:0:0:0:
160,96,322473,1,0,0:0:0:0:
352,96,322824,1,8,0:0:0:0:
160,96,323000,1,0,0:0:0:0:
160,96,323175,1,0,0:0:0:0:
352,96,323350,1,8,0:0:0:0:
160,96,323701,1,0,0:0:0:0:
352,96,323877,1,8,0:0:0:0:
352,96,324228,1,8,0:0:0:0:
352,96,324403,1,8,0:0:0:0:
160,96,324579,1,0,0:0:0:0:
352,96,324754,1,8,0:0:0:0:
352,96,324929,1,8,0:0:0:0:
160,96,325105,1,0,0:0:0:0:
160,96,325193,1,0,0:0:0:0:
160,96,325280,1,0,0:0:0:0:
160,96,325456,1,0,0:0:0:0:
160,96,325631,1,0,0:0:0:0:
160,96,325807,1,0,0:0:0:0:
160,96,325894,1,0,0:0:0:0:
160,96,325982,1,0,0:0:0:0:
160,96,326157,1,0,0:0:0:0:
352,96,326333,1,8,0:0:0:0:
160,96,326508,1,0,0:0:0:0:
160,96,326684,1,0,0:0:0:0:
352,96,326859,1,8,0:0:0:0:
352,288,327736,1,12,0:0:0:0:
160,96,327912,1,0,0:0:0:0:
352,96,328087,1,8,0:0:0:0:
352,96,328438,1,8,0:0:0:0:
160,96,328614,1,0,0:0:0:0:
160,96,328701,1,0,0:0:0:0:
352,96,328789,1,8,0:0:0:0:
352,96,328965,1,8,0:0:0:0:
352,96,329052,1,8,0:0:0:0:
352,96,329140,1,8,0:0:0:0:
160,96,329315,1,0,0:0:0:0:
352,96,329491,1,8,0:0:0:0:
352,96,329842,1,8,0:0:0:0:
352,96,329929,1,8,0:0:0:0:
160,96,330017,1,0,0:0:0:0:
352,96,330193,1,8,0:0:0:0:
160,96,330368,1,0,0:0:0:0:
160,96,330456,1,0,0:0:0:0:
160,96,330543,1,0,0:0:0:0:
160,96,330719,1,0,0:0:0:0:
352,96,330894,1,8,0:0:0:0:
160,96,331070,1,0,0:0:0:0:
160,96,331157,1,0,0:0:0:0:
352,96,331245,1,8,0:0:0:0:
160,96,331421,1,0,0:0:0:0:
352,96,331596,1,8,0:0:0:0:
160,96,331684,1,0,0:0:0:0:
352,96,331772,1,8,0:0:0:0:
160,96,332122,1,0,0:0:0:0:
352,96,332298,1,8,0:0:0:0:
160,96,332649,1,0,0:0:0:0:
352,96,332824,1,8,0:0:0:0:
160,96,333000,1,0,0:0:0:0:
352,96,333175,1,8,0:0:0:0:
160,96,333526,1,0,0:0:0:0:
352,96,333701,1,8,0:0:0:0:
160,96,333877,1,0,0:0:0:0:
160,96,334228,1,0,0:0:0:0:
352,96,334403,1,8,0:0:0:0:
352,96,334491,1,8,0:0:0:0:
160,96,334579,1,0,0:0:0:0:
160,96,334754,1,0,0:0:0:0:
352,96,334929,1,8,0:0:0:0:
352,96,335105,1,8,0:0:0:0:
160,96,335280,1,0,0:0:0:0:
352,96,335456,1,8,0:0:0:0:
352,96,335543,1,8,0:0:0:0:
160,96,335631,1,0,0:0:0:0:
352,96,335807,1,8,0:0:0:0:
160,96,335982,1,0,0:0:0:0:
352,96,336157,1,12,0:0:0:0:
352,96,336508,1,8,0:0:0:0:
160,96,336684,1,0,0:0:0:0:
160,96,337035,1,0,0:0:0:0:
352,96,337210,1,8,0:0:0:0:
160,96,337386,1,0,0:0:0:0:
352,96,337561,1,8,0:0:0:0:
160,96,337912,1,0,0:0:0:0:
352,96,338087,1,8,0:0:0:0:
160,96,338438,1,0,0:0:0:0:
352,96,338614,1,8,0:0:0:0:
352,288,338965,1,12,0:0:0:0:
352,96,339315,1,8,0:0:0:0:
160,96,339491,1,0,0:0:0:0:
160,96,339579,1,0,0:0:0:0:
352,96,339666,1,8,0:0:0:0:
160,96,339842,1,0,0:0:0:0:
352,96,340017,1,8,0:0:0:0:
352,96,340368,1,8,0:0:0:0:
160,96,340543,1,0,0:0:0:0:
160,96,340631,1,0,0:0:0:0:
352,96,340719,1,8,0:0:0:0:
160,96,340894,1,0,0:0:0:0:
352,96,341070,1,8,0:0:0:0:
160,96,341245,1,0,0:0:0:0:
160,96,341333,1,0,0:0:0:0:
352,96,341421,1,8,0:0:0:0:
352,96,341596,1,8,0:0:0:0:
160,96,341772,1,0,0:0:0:0:
352,96,342122,1,8,0:0:0:0:
160,96,342298,1,0,0:0:0:0:
160,96,342386,1,0,0:0:0:0:
352,96,342473,1,8,0:0:0:0:
160,96,342649,1,0,0:0:0:0:
352,96,342824,1,8,0:0:0:0:
352,96,343175,1,8,0:0:0:0:
160,96,343350,1,0,0:0:0:0:
160,96,343438,1,0,0:0:0:0:
352,96,343526,1,8,0:0:0:0:
160,96,343701,1,0,0:0:0:0:
352,96,343877,1,8,0:0:0:0:
160,96,344052,1,0,0:0:0:0:
352,96,344228,1,8,0:0:0:0:
352,96,344403,1,8,0:0:0:0:
352,96,344491,1,8,0:0:0:0:
160,96,344579,1,0,0:0:0:0:
352,96,344929,1,8,0:0:0:0:
160,96,345105,1,0,0:0:0:0:
160,96,345193,1,0,0:0:0:0:
352,96,345280,1,8,0:0:0:0:
160,96,345456,1,0,0:0:0:0:
352,96,345631,1,8,0:0:0:0:
352,96,345982,1,8,0:0:0:0:
160,96,346157,1,0,0:0:0:0:
160,96,346245,1,0,0:0:0:0:
352,96,346333,1,8,0:0:0:0:
160,96,346508,1,0,0:0:0:0:
352,96,346684,1,8,0:0:0:0:
160,96,346859,1,0,0:0:0:0:
160,96,346947,1,0,0:0:0:0:
352,96,347035,1,8,0:0:0:0:
352,96,347210,1,8,0:0:0:0:
160,96,347386,1,0,0:0:0:0:
352,96,347736,1,8,0:0:0:0:
160,96,347912,1,0,0:0:0:0:
160,96,348000,1,0,0:0:0:0:
352,96,348087,1,8,0:0:0:0:
160,96,348263,1,0,0:0:0:0:
352,96,348438,1,8,0:0:0:0:
160,96,348614,1,0,0:0:0:0:
352,288,348789,1,12,0:0:0:0:
352,96,349140,1,8,0:0:0:0:
160,96,349315,1,0,0:0:0:0:
160,96,349491,1,0,0:0:0:0:
160,96,349666,1,0,0:0:0:0:
160,96,349754,1,0,0:0:0:0:
352,96,349842,1,8,0:0:0:0:
352,96,349929,1,8,0:0:0:0:
352,96,350017,1,8,0:0:0:0:
352,288,350193,1,12,0:0:0:0:
352,96,350543,1,8,0:0:0:0:
160,96,350719,1,0,0:0:0:0:
160,96,350807,1,0,0:0:0:0:
352,96,350894,1,8,0:0:0:0:
160,96,351070,1,0,0:0:0:0:
352,96,351245,1,8,0:0:0:0:
352,96,351596,1,8,0:0:0:0:
160,96,351772,1,0,0:0:0:0:
160,96,351859,1,0,0:0:0:0:
352,96,351947,1,8,0:0:0:0:
160,96,352122,1,0,0:0:0:0:
352,96,352298,1,8,0:0:0:0:
160,96,352473,1,0,0:0:0:0:
160,96,352561,1,0,0:0:0:0:
352,96,352649,1,8,0:0:0:0:
352,96,352824,1,8,0:0:0:0:
160,96,353000,1,0,0:0:0:0:
352,96,353350,1,8,0:0:0:0:
160,96,353526,1,0,0:0:0:0:
160,96,353614,1,0,0:0:0:0:
352,96,353701,1,8,0:0:0:0:
160,96,353877,1,0,0:0:0:0:
352,96,354052,1,8,0:0:0:0:
352,96,354403,1,8,0:0:0:0:
160,96,354579,1,0,0:0:0:0:
160,96,354666,1,0,0:0:0:0:
352,96,354754,1,8,0:0:0:0:
160,96,354929,1,0,0:0:0:0:
352,96,355105,1,8,0:0:0:0:
160,96,355280,1,0,0:0:0:0:
352,96,355456,1,8,0:0:0:0:
352,96,355631,1,8,0:0:0:0:
352,96,355719,1,8,0:0:0:0:
160,96,355807,1,0,0:0:0:0:
352,96,356157,1,8,0:0:0:0:
160,96,356333,1,0,0:0:0:0:
160,96,356421,1,0,0:0:0:0:
352,96,356508,1,8,0:0:0:0:
160,96,356684,1,0,0:0:0:0:
352,96,356859,1,8,0:0:0:0:
352,96,357210,1,8,0:0:0:0:
160,96,357386,1,0,0:0:0:0:
160,96,357473,1,0,0:0:0:0:
352,96,357561,1,8,0:0:0:0:
160,96,357736,1,0,0:0:0:0:
352,96,357912,1,8,0:0:0:0:
160,96,358087,1,0,0:0:0:0:
160,96,358175,1,0,0:0:0:0:
352,96,358263,1,8,0:0:0:0:
352,96,358438,1,8,0:0:0:0:
160,96,358614,1,0,0:0:0:0:
160,160,358789,1,0,0:0:0:0:
160,160,358877,1,0,0:0:0:0:
352,96,358964,1,8,0:0:0:0:
160,160,359140,1,0,0:0:0:0:
352,96,359315,1,8,0:0:0:0:
320,96,359403,1,8,0:0:0:0:
160,160,359491,1,0,0:0:0:0:
352,96,359666,1,8,0:0:0:0:
160,160,359842,1,0,0:0:0:0:
352,288,360017,1,12,0:0:0:0:
160,96,360368,1,0,0:0:0:0:
352,96,360543,1,8,0:0:0:0:
160,96,360894,1,0,0:0:0:0:
160,96,360982,1,0,0:0:0:0:
160,96,361070,1,0,0:0:0:0:
352,288,361421,1,12,0:0:0:0:
160,96,361772,1,0,0:0:0:0:
160,96,362122,1,0,0:0:0:0:
352,96,362473,1,8,0:0:0:0:
160,96,362649,1,0,0:0:0:0:
160,96,363000,1,0,0:0:0:0:
352,96,363175,1,8,0:0:0:0:
352,96,363350,1,8,0:0:0:0:
160,96,363526,1,0,0:0:0:0:
160,96,363877,1,0,0:0:0:0:
160,96,364228,1,0,0:0:0:0:
160,96,364579,1,0,0:0:0:0:
352,96,364929,1,8,0:0:0:0:
160,96,365105,1,0,0:0:0:0:
160,96,365456,1,0,0:0:0:0:
352,96,365631,1,8,0:0:0:0:
160,96,365807,1,0,0:0:0:0:
352,96,365982,1,8,0:0:0:0:
352,288,366333,1,12,0:0:0:0:
160,96,366684,1,0,0:0:0:0:
160,96,367035,1,0,0:0:0:0:
352,96,367386,1,8,0:0:0:0:
352,96,367561,1,8,0:0:0:0:
160,96,367912,1,0,0:0:0:0:
352,96,368087,1,8,0:0:0:0:
352,96,368438,1,8,0:0:0:0:
160,96,368789,1,0,0:0:0:0:
160,96,369140,1,0,0:0:0:0:
160,96,369491,1,0,0:0:0:0:
352,96,369842,1,8,0:0:0:0:
160,96,370017,1,0,0:0:0:0:
160,96,370368,1,0,0:0:0:0:
352,96,370543,1,8,0:0:0:0:
160,96,370719,1,0,0:0:0:0:
352,96,370894,1,8,0:0:0:0:
352,96,371070,1,8,0:0:0:0:
352,288,371245,1,12,0:0:0:0:
160,96,371596,1,0,0:0:0:0:
352,96,371771,1,8,0:0:0:0:
160,96,371947,1,0,0:0:0:0:
352,96,372298,1,8,0:0:0:0:
160,96,372473,1,0,0:0:0:0:
160,96,372824,1,0,0:0:0:0:
352,96,372999,1,8,0:0:0:0:
352,96,373175,1,8,0:0:0:0:
160,96,373350,1,0,0:0:0:0:
352,96,373701,1,8,0:0:0:0:
352,96,373877,1,8,0:0:0:0:
160,96,374052,1,0,0:0:0:0:
160,96,374228,1,0,0:0:0:0:
352,96,374403,1,8,0:0:0:0:
352,96,374754,1,8,0:0:0:0:
160,96,374929,1,0,0:0:0:0:
160,96,375280,1,0,0:0:0:0:
352,96,375456,1,8,0:0:0:0:
160,96,375631,1,0,0:0:0:0:
352,96,375806,1,8,0:0:0:0:
352,96,376157,1,8,0:0:0:0:
352,96,376333,1,8,0:0:0:0:
160,96,376508,1,0,0:0:0:0:
352,96,376684,1,8,0:0:0:0:
352,96,376859,1,8,0:0:0:0:
160,96,377210,1,0,0:0:0:0:
352,96,377385,1,8,0:0:0:0:
160,96,377736,1,0,0:0:0:0:
352,96,377912,1,8,0:0:0:0:
160,96,378087,1,0,0:0:0:0:
352,96,378263,1,8,0:0:0:0:
160,96,378613,1,0,0:0:0:0:
160,96,378964,1,0,0:0:0:0:
160,96,379140,1,0,0:0:0:0:
352,96,379315,1,8,0:0:0:0:
160,96,379491,1,0,0:0:0:0:
352,96,379666,1,8,0:0:0:0:
160,96,379842,1,0,0:0:0:0:
352,96,380017,1,8,0:0:0:0:
189,216,380192,1,0,0:0:0:0:
352,96,380368,5,8,0:0:0:0:
352,96,380543,1,0,0:0:0:0:
352,96,380719,1,8,0:0:0:0:
256,192,381421,12,0,385280,0:0:0:0:
