osu file format v14

[General]
AudioFilename: audio.mp3
AudioLeadIn: 0
PreviewTime: 242592
Countdown: 0
SampleSet: Soft
StackLeniency: 0.5
Mode: 0
LetterboxInBreaks: 0
WidescreenStoryboard: 0

[Editor]
Bookmarks: 8531,29465,29629,58635,61526,64775,65863,65909,65954,65999,66044,66089,66135,66180,66225,66270,66315,66360,66406,66451,66496,66541,66586,66631,66677,66722,66767,66812,66857,66903,66948,66993,67038,67083,67128,67174,67219,67264,67309,67342,94342,104092,108342,115342,130092,130342,130592,139342,149842,175342,213592
DistanceSpacing: 1.4
BeatDivisor: 4
GridSize: 8
TimelineZoom: 2.5

[Metadata]
Title:Plugless & Forever
TitleUnicode:Plugless & Forever
Artist:FELT
ArtistUnicode:FELT
Creator:Inazuma
Version:Together Forever
Source:東方Project
Tags:wenect AirinCat -Sylvari piroshki NAGI☆ Illstarred Dive Vivienne 東方永夜抄 ~ Imperishable Night. Mystia Lorelei もう歌しか聞こえない Deaf to all but the Song
BeatmapID:2054077
BeatmapSetID:981477

[Difficulty]
HPDrainRate:6
CircleSize:5.4
OverallDifficulty:9.1
ApproachRate:8.8
SliderMultiplier:1.6
SliderTickRate:1

[Events]
//Background and Video events
0,0,"forever.jpg",0,0
//Break Periods
2,259342,265723
//Storyboard Layer 0 (Background)
//Storyboard Layer 1 (Fail)
//Storyboard Layer 2 (Pass)
//Storyboard Layer 3 (Foreground)
//Storyboard Sound Samples

[TimingPoints]
619,659.340659340659,4,2,1,10,1,0
1608,-100,4,2,1,10,0,0
1937,-100,4,2,1,15,0,0
2597,-100,4,2,1,15,0,0
3256,-100,4,2,1,20,0,0
3586,-100,4,2,1,20,0,0
4575,-100,4,2,1,25,0,0
4904,-100,4,2,1,25,0,0
5893,-100,4,2,1,30,0,0
6223,-100,4,2,1,30,0,0
7212,-100,4,2,1,35,0,0
8531,-100,4,2,1,40,0,0
16418,666.666666666667,4,2,1,40,1,0
19070,666.666666666667,4,2,1,40,1,0
21723,666.666666666667,4,2,1,40,1,0
23030,666.666666666667,4,2,1,40,1,0
24342,659.340659340659,4,2,1,40,1,0
26979,666.666666666667,4,2,1,40,1,0
29629,659.340659340659,4,2,1,45,1,0
29629,-83.3333333333333,4,2,1,45,0,0
50398,-83.3333333333333,4,2,1,40,0,0
50563,-83.3333333333333,4,2,1,35,0,0
50720,666.666666666667,4,2,1,30,1,0
50720,-100,4,2,1,30,0,0
52038,659.340659340659,4,2,1,30,1,0
54690,659.340659340659,4,2,1,30,1,0
56004,659.340659340659,4,2,1,30,1,0
58651,705.882352941176,4,2,1,30,1,0
59003,710.059171597633,4,2,1,30,1,0
59709,716.417910447761,4,2,1,30,1,0
60783,802.675585284281,4,2,1,30,1,0
61586,810.810810810811,4,2,1,30,1,0
67352,500,4,2,1,50,1,0
67442,-100,4,2,1,50,0,0
67602,-100,4,2,1,50,0,0
78477,-100,4,2,1,50,0,0
78602,-100,4,2,1,50,0,0
78977,-100,4,2,1,50,0,0
79102,-100,4,2,1,50,0,0
83352,-100,4,2,1,55,0,0
91352,-100,4,2,1,55,0,0
91383,-100,4,2,1,55,0,0
99352,-83.3333333333333,4,2,1,35,0,0
99602,-83.3333333333333,4,2,1,35,0,0
102352,-133.333333333333,4,2,1,35,0,0
102852,-133.333333333333,4,2,1,35,0,0
103352,-83.3333333333333,4,2,1,35,0,0
106352,-133.333333333333,4,2,1,35,0,0
106852,-153.846153846154,4,2,1,35,0,0
107352,-83.3333333333333,4,2,1,45,0,0
112852,-111.111111111111,4,2,1,45,0,0
113352,-133.333333333333,4,2,1,45,0,0
114352,-133.333333333333,4,2,1,40,0,0
114852,-133.333333333333,4,2,3,40,0,0
115352,-68.9655172413793,4,2,2,65,0,1
115477,-68.9655172413793,4,2,1,65,0,1
119352,-68.9655172413793,4,2,1,65,0,1
119383,-68.9655172413793,4,2,1,65,0,1
123352,-68.9655172413793,4,2,2,65,0,1
123383,-68.9655172413793,4,2,2,65,0,1
123477,-68.9655172413793,4,2,1,65,0,1
125352,-68.9655172413793,4,2,2,65,0,1
125383,-68.9655172413793,4,2,2,65,0,1
125477,-68.9655172413793,4,2,1,65,0,1
127352,-68.9655172413793,4,2,2,65,0,1
127477,-68.9655172413793,4,2,1,65,0,1
129102,-90.9090909090909,4,2,1,65,0,1
129352,-68.9655172413793,4,2,1,65,0,1
130102,-86.9565217391304,4,2,1,67,0,1
130352,-80,4,2,1,69,0,1
130602,-74.0740740740741,4,2,1,71,0,1
130852,-133.333333333333,4,2,1,73,0,1
131102,-133.333333333333,4,2,1,65,0,1
131352,-68.9655172413793,4,2,2,65,0,1
131477,-68.9655172413793,4,2,1,65,0,1
139352,-68.9655172413793,4,2,2,65,0,1
139383,-68.9655172413793,4,2,2,65,0,1
139477,-68.9655172413793,4,2,1,65,0,1
141352,-68.9655172413793,4,2,2,65,0,1
141383,-68.9655172413793,4,2,2,65,0,1
141477,-68.9655172413793,4,2,1,65,0,1
143352,-68.9655172413793,4,2,2,65,0,1
143477,-68.9655172413793,4,2,1,65,0,1
146102,-80,4,2,1,67,0,1
146352,-74.0740740740741,4,2,1,69,0,1
146602,-68.9655172413793,4,2,1,71,0,1
146852,-68.9655172413793,4,2,1,73,0,1
147102,-68.9655172413793,4,2,1,65,0,1
147352,-100,4,2,1,35,0,0
147852,-100,4,2,1,35,0,0
163352,-100,4,2,1,55,0,0
171352,-100,4,2,1,55,0,0
171602,-100,4,2,1,55,0,0
178352,-100,4,2,1,57,0,0
178602,-100,4,2,1,59,0,0
178852,-100,4,2,1,61,0,0
179102,-100,4,2,1,63,0,0
179352,-83.3333333333333,4,2,1,35,0,0
179602,-83.3333333333333,4,2,1,35,0,0
182352,-133.333333333333,4,2,1,35,0,0
182852,-83.3333333333333,4,2,1,35,0,0
183352,-83.3333333333333,4,2,1,35,0,0
186352,-133.333333333333,4,2,1,35,0,0
186852,-153.846153846154,4,2,1,35,0,0
187352,-83.3333333333333,4,2,1,40,0,0
193352,-133.333333333333,4,2,1,40,0,0
194852,-133.333333333333,4,2,3,40,0,0
194977,-133.333333333333,4,2,1,40,0,0
195352,-68.9655172413793,4,2,2,70,0,1
195477,-68.9655172413793,4,2,1,70,0,1
203352,-68.9655172413793,4,2,2,70,0,1
203477,-68.9655172413793,4,2,1,70,0,1
205352,-68.9655172413793,4,2,2,70,0,1
205477,-68.9655172413793,4,2,1,70,0,1
207352,-68.9655172413793,4,2,2,70,0,1
207477,-68.9655172413793,4,2,1,70,0,1
209102,-90.9090909090909,4,2,1,70,0,1
209352,-68.9655172413793,4,2,1,70,0,1
210102,-86.9565217391304,4,2,1,72,0,1
210352,-80,4,2,1,74,0,1
210602,-74.0740740740741,4,2,1,76,0,1
210852,-133.333333333333,4,2,1,78,0,1
211102,-133.333333333333,4,2,1,70,0,1
211352,-68.9655172413793,4,2,2,70,0,1
211477,-68.9655172413793,4,2,1,70,0,1
219352,-68.9655172413793,4,2,2,70,0,1
219477,-68.9655172413793,4,2,1,70,0,1
221352,-68.9655172413793,4,2,2,70,0,1
221477,-68.9655172413793,4,2,1,70,0,1
223352,-68.9655172413793,4,2,2,70,0,1
223477,-68.9655172413793,4,2,1,70,0,1
226102,-80,4,2,1,72,0,1
226352,-74.0740740740741,4,2,1,74,0,1
226602,-68.9655172413793,4,2,1,76,0,1
226852,-68.9655172413793,4,2,1,78,0,1
227102,-68.9655172413793,4,2,1,70,0,1
227352,-111.111111111111,4,2,1,35,0,0
227602,-111.111111111111,4,2,1,35,0,0
235352,-111.111111111111,4,2,1,35,0,0
242852,-111.111111111111,4,2,3,35,0,0
242977,-111.111111111111,4,2,1,35,0,0
243352,-60.6060606060606,4,2,2,70,0,1
243477,-60.6060606060606,4,2,1,70,0,1
247352,-60.6060606060606,4,2,2,70,0,1
247477,-60.6060606060606,4,2,1,70,0,1
251352,-60.6060606060606,4,2,2,70,0,1
251477,-60.6060606060606,4,2,1,70,0,1
251852,-51.2820512820513,4,2,1,70,0,1
252102,-60.6060606060606,4,2,1,70,0,1
252852,-51.2820512820513,4,2,1,70,0,1
253102,-60.6060606060606,4,2,1,70,0,1
253852,-51.2820512820513,4,2,1,70,0,1
254102,-60.6060606060606,4,2,1,70,0,1
254852,-51.2820512820513,4,2,1,70,0,1
255102,-60.6060606060606,4,2,1,70,0,1
255352,-100,4,2,1,50,0,0
255383,-100,4,2,1,50,0,0
255477,-100,4,2,2,50,0,0
258852,-100,4,2,2,35,0,0
259352,-100,4,2,1,35,0,0
266352,-111.111111111111,4,2,1,35,0,0
273352,-111.111111111111,4,2,1,30,0,0
274852,-111.111111111111,4,2,3,35,0,0
274977,-111.111111111111,4,2,1,30,0,0
275352,-133.333333333333,4,2,1,50,0,1
275414,-133.333333333333,4,2,1,50,0,0
290352,-133.333333333333,4,2,1,52,0,0
290602,-133.333333333333,4,2,1,54,0,0
290852,-133.333333333333,4,2,1,56,0,0
291102,-133.333333333333,4,2,1,58,0,0
291352,-166.666666666667,4,2,1,35,0,0
295102,-200,4,2,1,35,0,0
295133,-200,4,2,1,35,0,0
295602,-200,4,2,1,35,0,0

[Colours]
Combo1 : 197,14,73
Combo2 : 135,29,32
Combo3 : 232,153,188
Combo4 : 214,210,215

[HitObjects]
118,67,619,6,0,L|110:131,2,40,2|0|0,0:0|0:0|0:0,0:0:0:0:
177,99,1113,2,0,L|169:163,2,40,0|0|0,0:0|0:0|0:0,0:0:0:0:
241,75,1608,2,0,L|249:139,2,40,0|0|2,0:0|0:0|0:0,0:0:0:0:
308,69,2102,2,0,L|316:133,2,40,0|0|0,0:0|0:0|0:0,0:0:0:0:
374,87,2597,2,0,L|374:142,2,40,0|0|0,0:0|0:0|0:0,0:0:0:0:
441,135,3091,2,0,L|441:190,2,40,0|2|0,0:0|0:0|0:0,0:0:0:0:
384,212,3586,6,0,P|334:220|331:219,3,40,0|0|0|0,0:0|0:0|0:0|0:0,0:0:0:0:
319,285,4245,2,0,P|277:255|276:252,3,40,0|0|2|0,0:0|0:0|0:0|0:0,0:0:0:0:
218,280,4904,2,0,P|209:230|210:227,3,40,0|0|0|0,0:0|0:0|0:0|0:0,0:0:0:0:
144,215,5564,2,0,P|173:173|176:172,3,40,0|0|2|0,0:0|0:0|0:0|0:0,0:0:0:0:
134,119,6223,2,0,P|183:110|186:111,3,40,0|0|0|0,0:0|0:0|0:0|0:0,0:0:0:0:
238,122,6882,6,0,P|259:136|288:148,1,40,0|0,0:0|0:0,0:0:0:0:
284,209,7212,2,0,P|309:203|338:192,1,40,2|0,0:0|0:0,0:0:0:0:
373,245,7542,2,0,P|387:223|399:194,1,40,0|0,0:0|0:0,0:0:0:0:
461,200,7871,2,0,P|455:174|444:145,1,40,0|0,0:0|0:0,0:0:0:0:
498,111,8201,2,0,P|476:96|447:84,1,40,0|0,0:0|0:0,0:0:0:0:
395,104,8531,6,0,B|322:123|253:118|227:27|164:16|124:34|60:72|40:149|79:226|137:254|230:255|254:161,1,600,4|0,0:3|0:0,0:0:0:0:
176,149,11168,2,0,B|138:250|140:313|204:369|260:375|323:361|323:361|299:297|222:263|125:262|87:313,1,600,2|0,0:0|0:0,0:0:0:0:
31,345,13805,2,0,B|-16:182|60:22|60:22|53:131|144:150|200:86|137:17|71:75|114:183,1,600,2|0,0:0|0:0,0:0:0:0:
122,239,16418,2,0,B|135:336|216:373|216:373|182:306|176:252|184:206|213:157|213:157|233:236|264:267|312:275|380:260,1,600,2|0,0:0|0:0,0:0:0:0:
447,245,19070,6,0,B|501:227|522:172|476:90|392:101|371:203|298:187|254:143|250:119|253:94|273:73|273:73|232:103|193:101|156:99|125:83|86:32,1,600,4|0,0:3|0:0,0:0:0:0:
43,71,21723,2,0,B|102:162|215:157|215:157|232:187|262:211|304:210,1,280,2|0,0:0|0:0,0:0:0:0:
289,209,23030,2,0,B|194:243|205:338|241:362|241:362|235:321|249:292|280:274,1,280,2|0,0:0|0:0,0:0:0:0:
306,337,24342,2,0,B|398:372|481:325|481:325|428:331|374:281|356:228|374:121|417:97|417:97|481:132|468:197,1,600,2|0,0:0|0:0,0:0:0:0:
462,257,26979,2,0,B|363:265|322:196|303:144|235:148|171:197|161:266|183:312|255:334|291:314|296:271|296:271|246:304|142:279,1,600,2|0,0:0|0:0,0:0:0:0:
53,271,29629,6,0,P|50:218|70:180,1,95.9999970703126,4|0,0:3|3:0,0:0:0:0:
130,124,30123,1,8,3:0:0:0:
159,120,30288,2,0,P|191:121|214:128,1,47.9999985351563,0|0,0:0|3:0,0:0:0:0:
249,77,30618,2,0,P|270:100|282:121,1,47.9999985351563
390,114,30947,6,0,P|367:122|347:134,1,47.9999985351563,0|0,3:0|0:0,0:0:0:0:
454,188,31277,2,0,P|432:177|405:173,1,47.9999985351563,0|8,0:0|0:0,0:0:0:0:
435,280,31607,2,0,P|426:257|414:237,1,47.9999985351563,0|0,0:0|0:0,0:0:0:0:
348,329,31936,2,0,P|358:307|363:283,1,47.9999985351563,0|0,3:0|0:0,0:0:0:0:
259,300,32266,6,0,P|200:312|163:311,1,95.9999970703126,2|0,0:0|3:0,0:0:0:0:
85,291,32760,1,8,0:0:0:0:
67,278,32925,2,0,P|80:229|71:178,1,95.9999970703126,0|0,0:0|0:0,0:0:0:0:
24,136,33420,1,0,0:0:0:0:
37,115,33585,2,0,P|63:107|107:107,1,47.9999985351563,0|0,3:0|0:0,0:0:0:0:
158,111,33914,1,0,3:0:0:0:
262,73,34079,1,8,0:0:0:0:
331,106,34244,6,0,P|310:114|270:110,1,47.9999985351563,0|0,0:0|0:0,0:0:0:0:
265,176,34574,2,0,P|244:166|219:135,1,47.9999985351563,0|0,3:0|0:0,0:0:0:0:
167,44,34903,6,0,P|187:34|212:3,1,47.9999985351563,2|0,0:0|0:0,0:0:0:0:
185,105,35233,2,0,P|206:112|245:108,1,47.9999985351563,8|0,0:0|0:0,0:0:0:0:
154,164,35563,2,0,P|163:184|194:209,1,47.9999985351563,0|8,3:0|0:0,0:0:0:0:
90,190,35892,2,0,P|82:211|86:250,1,47.9999985351563,0|0,0:0|0:0,0:0:0:0:
106,310,36222,6,0,P|172:298|237:314,1,95.9999970703126,0|0,3:0|3:0,0:0:0:0:
279,328,36716,1,8,0:0:0:0:
309,318,36881,2,0,P|371:313|393:318,1,47.9999985351563,0|0,0:0|0:0,0:0:0:0:
376,251,37211,2,0,P|423:291|435:310,1,47.9999985351563,0|0,3:0|0:0,0:0:0:0:
459,349,37541,2,0,P|492:303|496:211,1,143.999995605469,2|0,0:0|0:0,0:0:0:0:
464,141,38200,1,0,3:0:0:0:
398,174,38365,2,0,P|389:194|388:225,2,47.9999985351563,8|0|0,0:0|0:0|0:0,0:0:0:0:
320,91,38859,2,0,P|329:111|330:142,2,47.9999985351563,0|0|0,3:0|0:0|3:0,0:0:0:0:
248,40,39354,1,8,0:0:0:0:
223,58,39519,2,0,L|164:67,1,47.9999985351563,0|0,0:0|0:0,0:0:0:0:
158,125,39848,2,0,L|99:134,1,47.9999985351563,0|0,3:0|0:0,0:0:0:0:
243,184,40178,6,0,P|264:252|256:287,1,95.9999970703126,4|0,0:3|3:0,0:0:0:0:
197,238,40672,2,0,P|163:300|133:320,1,95.9999970703126,8|0,0:0|3:0,0:0:0:0:
84,337,41167,1,0,0:0:0:0:
97,257,41332,1,0,0:0:0:0:
53,176,41497,2,0,P|47:127|72:74,1,95.9999970703126,0|0,3:0|0:0,0:0:0:0:
124,130,41991,2,0,P|154:91|209:71,1,95.9999970703126,8|0,0:0|0:0,0:0:0:0:
210,144,42486,2,0,P|246:135|294:153,1,47.9999985351563,0|0,3:0|0:0,0:0:0:0:
246,201,42815,6,0,P|284:231|304:286,1,95.9999970703126,2|0,0:0|3:0,0:0:0:0:
329,365,43310,2,0,P|336:295|358:256,1,95.9999970703126,8|0,0:0|3:0,0:0:0:0:
394,223,43804,1,0,0:0:0:0:
430,157,43969,1,0,0:0:0:0:
422,72,44134,2,0,P|371:51|315:45,1,95.9999970703126,0|0,3:0|0:0,0:0:0:0:
279,109,44628,2,0,P|228:130|184:165,1,95.9999970703126,8|0,0:0|0:0,0:0:0:0:
223,228,45123,2,0,P|202:279|195:335,1,95.9999970703126,0|2,3:0|0:0,0:0:0:0:
134,271,45782,5,0,3:0:0:0:
76,221,45947,2,0,L|23:229,1,47.9999985351563,8|0,0:0|0:0,0:0:0:0:
148,147,46277,2,0,L|201:155,1,47.9999985351563,0|0,3:0|0:0,0:0:0:0:
254,166,46607,1,0,0:0:0:0:
331,108,46771,1,0,3:0:0:0:
361,156,46936,1,0,0:0:0:0:
366,165,47101,1,0,3:0:0:0:
452,130,47266,2,0,P|477:195|478:243,1,95.9999970703126,8|0,0:0|0:0,0:0:0:0:
457,323,47760,1,0,3:0:0:0:
434,309,47925,1,0,0:0:0:0:
336,348,48090,6,0,P|281:358|219:347,1,95.9999970703126,2|0,0:0|3:0,0:0:0:0:
164,324,48585,1,8,0:0:0:0:
203,270,48749,1,0,0:0:0:0:
92,289,48914,2,0,P|78:267|76:239,1,47.9999985351563,0|0,3:0|0:0,0:0:0:0:
81,175,49244,1,0,0:0:0:0:
2,201,49409,2,0,L|60:191,1,47.9999985351563,0|0,3:0|0:0,0:0:0:0:
139,172,49738,1,0,0:0:0:0:
240,211,49903,2,0,L|312:220,1,47.9999985351563,8|0,0:0|0:0,0:0:0:0:
357,223,50233,1,0,0:0:0:0:
322,31,50398,5,2,3:2:0:0:
434,205,50563,1,2,0:0:0:0:
240,156,50720,6,0,B|123:139|56:241|-7:195,1,240,2|2,0:0|0:0,0:0:0:0:
58,98,52038,2,0,P|103:152|59:304,1,240,2|2,0:0|0:0,0:0:0:0:
53,209,53356,1,2,0:0:0:0:
181,241,53686,1,0,0:0:0:0:
222,132,54016,1,0,0:0:0:0:
253,305,54345,1,2,0:0:0:0:
152,101,54690,2,0,P|213:61|285:76,1,120,2|0,0:0|0:0,0:0:0:0:
291,161,55349,2,0,P|230:201|158:186,1,120
418,34,56004,6,0,B|453:117|412:192|412:192|415:157|386:99,1,240,2|2,0:0|0:0,0:0:0:0:
347,172,57322,2,0,P|224:220|105:166,1,240,2|2,0:0|0:0,0:0:0:0:
38,86,58641,5,2,0:0:0:0:
156,108,59003,1,0,0:0:0:0:
243,52,59358,1,0,0:0:0:0:
258,187,59709,2,0,L|253:268,1,80,2|2,0:0|0:0,0:0:0:0:
186,93,60783,1,2,0:0:0:0:
56,348,61586,6,0,B|219:234|298:241|342:271|359:317|354:394|284:409|210:399|183:340|160:293|271:207|304:135|251:71|251:71|237:112|237:112,1,746.666666666667,4|0,0:3|0:0,0:0:0:0:
92,72,67352,5,4,0:3:0:0:
148,130,67602,1,0,3:0:0:0:
187,29,67852,1,0,3:0:0:0:
187,29,67977,1,0,0:0:0:0:
187,29,68102,2,0,P|232:51|263:56,1,80,8|0,0:0|0:0,0:0:0:0:
377,71,68602,2,0,L|328:81,1,40,0|0,0:0|0:0,0:0:0:0:
297,125,68852,1,0,3:0:0:0:
297,125,68977,2,0,L|234:136,1,40,0|0,0:0|0:0,0:0:0:0:
164,104,69227,2,0,P|158:154|201:220,1,120,0|0,0:0|0:0,0:0:0:0:
255,254,69852,1,0,3:0:0:0:
255,254,69977,1,0,0:0:0:0:
255,254,70102,6,0,L|324:261,1,40,0|0,0:0|0:0,0:0:0:0:
281,330,70352,2,0,L|365:338,1,80,0|0,0:0|0:0,0:0:0:0:
452,384,70727,2,0,P|439:357|434:323,1,40,0|0,0:0|3:0,0:0:0:0:
469,297,70977,2,0,P|482:270|487:236,1,40,0|0,0:0|0:0,0:0:0:0:
478,193,71227,1,0,0:0:0:0:
404,244,71352,6,0,P|392:202|394:155,1,80,2|0,3:2|3:0,0:0:0:0:
441,37,71852,1,0,3:0:0:0:
275,133,72102,2,0,P|231:141|180:137,1,80,8|0,0:0|0:0,0:0:0:0:
107,102,72602,1,0,0:0:0:0:
107,102,72727,2,0,L|111:163,1,40,0|0,0:0|3:0,0:0:0:0:
45,171,72977,2,0,L|50:260,1,80,0|0,0:0|0:0,0:0:0:0:
70,270,73352,6,0,P|130:266|209:296,1,120,0|0,0:0|0:0,0:0:0:0:
230,184,73852,2,0,P|263:233|280:300,1,120,0|0,3:0|0:0,0:0:0:0:
410,275,74352,2,0,P|383:328|329:375,1,120,0|0,0:0|0:0,0:0:0:0:
329,172,74852,1,0,3:0:0:0:
220,365,75102,1,0,0:0:0:0:
47,284,75352,6,0,L|127:281,1,80,2|0,3:2|3:0,0:0:0:0:
231,217,75852,1,0,3:0:0:0:
362,308,76102,2,0,L|292:312,1,40,8|0,0:0|0:0,0:0:0:0:
266,358,76352,2,0,P|250:315|259:277,1,80,0|0,0:0|0:0,0:0:0:0:
329,188,76852,1,0,3:0:0:0:
346,167,77102,2,0,P|362:212|359:254,1,80,0|0,0:0|0:0,0:0:0:0:
343,99,77602,2,0,P|386:119|413:151,1,80,0|0,0:0|3:0,0:0:0:0:
265,129,78102,6,0,P|194:154|145:147,1,120,0|0,0:0|0:0,0:0:0:0:
119,123,78602,2,0,P|121:188|77:250,1,120,0|0,0:0|0:0,0:0:0:0:
129,231,79102,2,0,P|138:283|154:312,1,80,0|2,0:0|3:2,0:0:0:0:
203,370,79602,5,0,3:0:0:0:
344,188,79852,1,0,3:0:0:0:
323,325,80102,2,0,P|267:306|218:212,1,160,8|0,0:0|3:0,0:0:0:0:
226,99,80852,1,0,3:0:0:0:
147,165,81102,2,0,L|120:273,1,80,8|0,0:0|0:0,0:0:0:0:
91,339,81602,1,0,3:0:0:0:
9,131,81852,2,0,P|65:113|94:117,1,80,8|0,0:0|3:0,0:0:0:0:
218,162,82352,1,8,0:0:0:0:
218,162,82477,1,0,0:0:0:0:
218,162,82602,2,0,L|292:175,1,40,0|0,3:0|0:0,0:0:0:0:
297,152,82852,2,0,L|393:148,1,80,8|0,0:0|0:0,0:0:0:0:
439,146,83227,1,0,0:0:0:0:
387,223,83352,6,0,P|375:280|388:321,1,80,4|0,3:0|3:0,0:0:0:0:
408,371,83852,1,0,3:0:0:0:
408,371,83977,1,0,0:0:0:0:
337,365,84102,2,0,L|270:362,1,40,8|0,0:0|0:0,0:0:0:0:
203,303,84352,2,0,L|270:300,1,40,0|0,0:0|0:0,0:0:0:0:
343,256,84602,1,0,3:0:0:0:
343,256,84727,2,0,L|276:253,1,40,0|0,0:0|3:0,0:0:0:0:
248,203,84977,2,0,L|182:205,1,40,0|8,0:0|0:0,0:0:0:0:
134,266,85227,6,0,P|108:203|137:131,1,120,0|0,0:0|3:0,0:0:0:0:
173,66,85852,1,0,3:0:0:0:
188,58,85977,1,0,0:0:0:0:
204,54,86102,2,0,P|224:50|256:53,1,40,8|0,0:0|0:0,0:0:0:0:
316,101,86352,2,0,P|336:107|365:105,1,40,0|0,0:0|0:0,0:0:0:0:
248,157,86602,1,0,3:0:0:0:
248,157,86727,2,0,P|257:175|279:194,1,40,0|0,0:0|3:0,0:0:0:0:
172,134,86977,2,0,P|165:154|167:183,1,40,0|8,0:0|0:0,0:0:0:0:
201,250,87227,1,0,0:0:0:0:
201,250,87352,6,0,P|207:301|197:343,1,80,2|0,3:2|3:0,0:0:0:0:
59,283,87852,1,0,3:0:0:0:
59,283,87977,1,0,0:0:0:0:
59,283,88102,2,0,P|82:283|109:289,1,40,8|0,0:0|0:0,0:0:0:0:
135,226,88352,2,0,P|151:242|166:265,1,40,0|0,0:0|0:0,0:0:0:0:
235,214,88602,1,0,3:0:0:0:
235,214,88727,2,0,P|235:237|229:264,1,40,0|0,0:0|3:0,0:0:0:0:
281,364,88977,2,0,P|280:314|290:278,1,80,0|0,0:0|0:0,0:0:0:0:
330,226,89352,6,0,P|381:246|453:243,1,120,0|0,0:0|0:0,0:0:0:0:
401,187,89852,2,0,P|443:152|477:88,1,120,0|0,3:0|0:0,0:0:0:0:
394,118,90352,2,0,P|385:63|347:2,1,120,0|0,0:0|0:0,0:0:0:0:
303,75,90852,2,0,P|253:83|181:69,1,120,0|0,3:0|0:0,0:0:0:0:
114,34,91352,6,0,P|113:84|87:124,1,80,2|0,3:2|3:0,0:0:0:0:
48,169,91727,1,0,0:0:0:0:
48,169,91852,2,0,P|26:221|48:331,1,160,0|0,3:0|0:0,0:0:0:0:
151,346,92852,2,0,P|179:350|217:342,1,40,0|0,3:0|0:0,0:0:0:0:
207,278,93102,2,0,P|230:259|250:228,1,40,8|0,0:0|0:0,0:0:0:0:
285,190,93352,6,0,P|309:250|356:293,1,120,0|0,0:0|0:0,0:0:0:0:
440,290,93852,1,0,3:0:0:0:
445,294,93977,1,0,0:0:0:0:
445,294,94102,2,0,P|452:276|457:257,1,40,8|0,0:0|0:0,0:0:0:0:
466,186,94352,2,0,P|457:145|440:109,1,80,0|0,0:0|3:0,0:0:0:0:
456,78,94727,2,0,P|441:57|363:32,1,80,0|0,0:0|0:0,0:0:0:0:
321,139,95102,2,0,P|303:145|281:145,1,40,8|0,0:0|0:0,0:0:0:0:
263,118,95352,2,0,P|212:104|109:149,1,160,2|0,3:2|3:0,0:0:0:0:
45,237,96102,5,8,0:0:0:0:
134,170,96352,2,0,P|155:213|156:258,1,80,0|0,0:0|3:0,0:0:0:0:
140,320,96727,1,0,0:0:0:0:
140,320,96852,2,0,P|167:323|194:320,1,40,0|0,3:0|0:0,0:0:0:0:
263,297,97102,2,0,P|284:280|301:258,1,40,8|0,0:0|0:0,0:0:0:0:
339,195,97352,2,0,P|376:213|397:264,1,80,0|0,0:0|3:0,0:0:0:0:
429,364,97727,1,0,0:0:0:0:
429,364,97852,2,0,L|435:307,1,40,0|0,3:0|0:0,0:0:0:0:
490,272,98102,2,0,L|484:215,1,40,8|0,0:0|0:0,0:0:0:0:
434,167,98352,2,0,P|431:113|446:74,1,80,0|0,0:0|3:0,0:0:0:0:
485,18,98727,1,0,0:0:0:0:
485,18,98852,2,0,L|443:25,1,40,0|0,3:0|0:0,0:0:0:0:
372,71,99102,2,0,L|332:64,1,40,8|0,0:0|0:0,0:0:0:0:
198,24,99352,6,0,P|124:35|85:55,1,95.9999970703126,4|0,0:3|0:0,0:0:0:0:
41,89,99727,1,8,0:0:0:0:
103,129,99852,2,0,P|108:161|105:202,1,47.9999985351563,0|0,0:0|0:0,0:0:0:0:
83,241,100102,1,0,3:0:0:0:
169,290,100352,2,0,P|158:243|166:196,1,95.9999970703126,0|0,3:0|0:0,0:0:0:0:
209,141,100727,2,0,P|232:148|305:140,1,95.9999970703126,0|0,0:0|0:0,0:0:0:0:
378,97,101102,2,0,P|403:77|422:68,1,47.9999985351563,0|0,0:0|0:0,0:0:0:0:
512,96,101352,6,0,P|487:116|468:125,1,47.9999985351563,2|0,0:0|0:0,0:0:0:0:
372,169,101602,1,0,0:0:0:0:
389,189,101727,1,8,0:0:0:0:
399,213,101852,2,0,P|398:249|383:289,1,47.9999985351563,0|0,0:0|0:0,0:0:0:0:
307,262,102102,2,0,P|307:298|322:338,1,47.9999985351563,0|0,3:0|3:0,0:0:0:0:
324,343,102352,2,0,P|245:325|185:332,1,120.000004577637,0|0,3:0|0:0,0:0:0:0:
52,372,103352,6,0,P|44:323|60:271,1,95.9999970703126,2|0,0:0|0:0,0:0:0:0:
117,196,103727,1,8,0:0:0:0:
97,174,103852,2,0,L|94:116,1,47.9999985351563,0|0,0:0|0:0,0:0:0:0:
22,87,104102,2,0,L|25:29,1,47.9999985351563,0|0,3:0|3:0,0:0:0:0:
104,20,104352,6,0,P|155:17|206:32,1,95.9999970703126,0|0,3:0|0:0,0:0:0:0:
221,56,104727,2,0,P|281:37|338:40,1,95.9999970703126,0|0,0:0|0:0,0:0:0:0:
369,58,105102,2,0,P|417:66|430:67,1,47.9999985351563,0|0,0:0|0:0,0:0:0:0:
512,33,105352,6,0,P|508:108|484:141,1,95.9999970703126,2|0,0:0|0:0,0:0:0:0:
441,171,105727,1,8,0:0:0:0:
476,238,105852,2,0,P|483:260|485:292,1,47.9999985351563,0|0,0:0|0:0,0:0:0:0:
413,321,106102,2,0,P|406:343|404:375,1,47.9999985351563,0|0,3:0|3:0,0:0:0:0:
368,268,106352,2,0,B|328:258|319:301|264:280,1,105.000004005432,0|0,3:0|0:0,0:0:0:0:
250,277,106852,2,0,P|203:277|174:296,1,77.9999964294435,8|0,0:0|0:0,0:0:0:0:
109,384,107352,6,0,P|114:334|97:280,1,95.9999970703126,4|0,0:3|3:0,0:0:0:0:
29,149,107852,1,0,3:0:0:0:
25,131,107977,2,0,P|26:107|31:83,1,47.9999985351563,0|8,0:0|0:0,0:0:0:0:
81,25,108227,1,0,3:0:0:0:
98,16,108352,2,0,P|121:10|145:9,1,47.9999985351563,0|0,3:0|0:0,0:0:0:0:
131,79,108602,2,0,P|151:91|169:107,1,47.9999985351563,0|0,3:0|0:0,0:0:0:0:
110,145,108852,2,0,P|115:168|116:192,1,47.9999985351563,0|0,3:0|0:0,0:0:0:0:
87,264,109102,2,0,B|176:235|198:308|289:266,1,191.999994140625,0|0,3:0|3:0,0:0:0:0:
385,225,109852,1,0,3:0:0:0:
274,24,110102,6,0,P|243:92|271:164,1,143.999995605469,8|0,0:0|0:0,0:0:0:0:
263,154,110602,2,0,P|195:123|123:151,1,143.999995605469,8|0,0:0|0:0,0:0:0:0:
123,171,111102,2,0,B|164:248|117:349|117:349|126:274|94:240|44:245|12:261|0:299|28:346,1,383.99998828125,0|8,3:0|0:0,0:0:0:0:
35,192,112352,1,0,3:0:0:0:
93,110,112602,1,0,3:0:0:0:
93,110,112727,1,0,0:0:0:0:
93,110,112852,2,0,P|79:79|104:1,1,107.999996704102,8|0,0:0|0:0,0:0:0:0:
105,17,113352,6,0,B|155:86|281:0|349:64,1,240.000009155274,8|0,0:0|3:0,0:0:0:0:
512,213,114852,1,2,3:2:0:0:
170,329,115352,6,0,P|230:311|311:325,1,116.000003540039,6|0,0:0|3:0,0:0:0:0:
432,368,115852,1,0,3:0:0:0:
398,341,115977,1,0,0:0:0:0:
382,304,116102,2,0,P|376:260|393:205,1,58.0000017700196,8|0,0:0|0:0,0:0:0:0:
266,181,116352,2,0,P|282:115|280:65,1,116.000003540039,0|0,3:0|3:0,0:0:0:0:
230,1,116727,1,0,0:0:0:0:
56,39,116852,2,0,P|112:33|174:51,1,116.000003540039,8|0,0:0|3:0,0:0:0:0:
218,89,117227,1,0,3:0:0:0:
121,264,117352,2,0,P|102:209|105:151,1,116.000003540039,10|0,0:0|3:0,0:0:0:0:
129,96,117727,1,0,3:0:0:0:
36,162,117852,1,0,3:0:0:0:
170,198,117977,1,0,0:0:0:0:
26,311,118102,6,0,P|48:329|76:337,1,58.0000017700196,8|0,0:0|0:0,0:0:0:0:
168,333,118352,2,0,P|218:318|236:301,1,58.0000017700196,0|0,3:0|3:0,0:0:0:0:
311,206,118602,2,0,P|302:234|285:257,1,58.0000017700196,0|0,3:0|0:0,0:0:0:0:
316,79,118852,2,0,P|301:28|284:10,1,58.0000017700196,8|0,0:0|0:0,0:0:0:0:
377,149,119102,2,0,P|391:199|417:233,1,87.0000026550294,0|0,3:0|0:0,0:0:0:0:
445,245,119352,6,0,P|385:259|339:311,1,116.000003540039,10|0,0:0|3:0,0:0:0:0:
304,365,119727,1,0,3:0:0:0:
231,249,119852,1,0,3:0:0:0:
185,316,119977,1,0,0:0:0:0:
161,146,120102,6,0,P|136:215|144:258,1,116.000003540039,8|0,0:0|3:0,0:0:0:0:
330,45,120602,2,0,P|257:57|224:86,1,116.000003540039,0|8,3:0|0:0,0:0:0:0:
502,131,121102,2,0,P|454:74|413:60,1,116.000003540039,0|10,3:0|0:0,0:0:0:0:
226,84,121602,1,0,3:0:0:0:
143,255,121852,1,0,3:0:0:0:
215,209,121977,1,0,0:0:0:0:
311,283,122102,1,8,0:0:0:0:
339,260,122227,1,0,0:0:0:0:
439,298,122352,1,0,3:0:0:0:
466,272,122477,1,0,3:0:0:0:
502,191,122602,6,0,P|502:118|483:88,1,58.0000017700196,0|0,3:0|0:0,0:0:0:0:
435,84,122852,2,0,P|435:11|454:-19,1,58.0000017700196,8|0,0:0|0:0,0:0:0:0:
365,142,123102,1,0,3:0:0:0:
495,48,123227,1,0,3:0:0:0:
290,34,123352,6,0,P|236:27|156:45,1,116.000003540039,10|0,0:0|3:0,0:0:0:0:
109,80,123727,1,0,3:0:0:0:
88,106,123852,1,0,3:0:0:0:
159,156,123977,1,0,0:0:0:0:
172,186,124102,1,8,0:0:0:0:
26,238,124227,2,0,P|15:327|91:376,1,174.000005310059,0|0,0:0|3:0,0:0:0:0:
160,384,124727,1,0,0:0:0:0:
82,295,124852,6,0,P|108:281|150:271,1,58.0000017700196,8|0,0:0|0:0,0:0:0:0:
215,233,125102,2,0,P|243:241|280:264,1,58.0000017700196,0|0,3:0|3:0,0:0:0:0:
386,326,125352,6,0,P|449:286|472:224,1,116.000003540039,10|0,0:0|3:0,0:0:0:0:
475,158,125727,1,0,3:0:0:0:
465,124,125852,1,0,3:0:0:0:
382,77,125977,1,0,0:0:0:0:
392,43,126102,1,8,0:0:0:0:
305,114,126227,2,0,B|242:125|189:108|189:108|219:89|259:89,1,174.000005310059,0|0,0:0|3:0,0:0:0:0:
337,384,126852,6,0,P|347:299|329:236,1,116.000003540039,8|0,0:0|3:0,0:0:0:0:
300,206,127227,1,0,3:0:0:0:
158,337,127352,2,0,P|194:344|245:335,1,58.0000017700196,10|0,0:0|0:0,0:0:0:0:
73,273,127602,6,0,P|65:239|75:186,1,58.0000017700196,0|0,3:0|3:0,0:0:0:0:
101,111,127852,2,0,P|109:77|98:24,1,58.0000017700196,0|0,3:0|0:0,0:0:0:0:
87,269,128102,1,8,0:0:0:0:
84,108,128227,1,0,0:0:0:0:
172,203,128352,6,0,P|190:173|234:142,1,58.0000017700196,0|0,3:0|3:0,0:0:0:0:
306,108,128602,2,0,P|335:89|365:44,1,58.0000017700196,0|0,3:0|0:0,0:0:0:0:
184,210,128852,1,8,0:0:0:0:
296,94,128977,1,0,0:0:0:0:
316,258,129102,6,0,P|354:282|371:312,1,66.0000020141602,0|0,3:0|0:0,0:0:0:0:
384,320,129352,2,0,P|399:255|396:186,1,116.000003540039,10|0,0:0|3:0,0:0:0:0:
350,70,129852,1,0,3:0:0:0:
58,280,130102,6,0,P|92:275|133:279,1,46.0000008773804,8|0,0:0|0:0,0:0:0:0:
451,140,130352,6,0,P|417:134|374:141,1,50,8|0,0:0|0:0,0:0:0:0:
318,366,130602,6,0,P|313:332|318:283,1,54.0000002059937,8|0,0:0|0:0,0:0:0:0:
166,42,130852,6,0,P|171:74|167:121,1,60.0000022888184,8|0,0:0|3:0,0:0:0:0:
226,299,131352,6,0,P|270:240|166:274,1,232.000007080078,6|0,0:0|3:0,0:0:0:0:
117,371,132102,1,8,0:0:0:0:
32,338,132352,2,0,L|27:266,1,58.0000017700196,0|0,3:0|3:0,0:0:0:0:
89,246,132602,2,0,L|94:174,1,58.0000017700196,0|0,3:0|0:0,0:0:0:0:
43,67,132852,2,0,L|38:139,1,58.0000017700196,8|0,0:0|0:0,0:0:0:0:
133,21,133102,2,0,L|138:93,1,58.0000017700196,0|0,3:0|3:0,0:0:0:0:
288,20,133352,6,0,L|179:26,1,58.0000017700196,10|0,0:0|0:0,0:0:0:0:
343,72,133602,2,0,L|452:78,1,58.0000017700196,0|0,3:0|3:0,0:0:0:0:
245,113,133852,1,0,3:0:0:0:
264,131,133977,1,0,0:0:0:0:
318,279,134102,2,0,P|325:255|322:207,1,58.0000017700196,8|0,0:0|0:0,0:0:0:0:
393,368,134352,2,0,P|386:344|389:296,1,58.0000017700196,0|0,3:0|3:0,0:0:0:0:
381,245,134602,1,0,3:0:0:0:
320,345,134727,1,0,0:0:0:0:
446,203,134852,2,0,P|489:151|497:111,1,58.0000017700196,8|0,0:0|0:0,0:0:0:0:
408,129,135102,2,0,P|371:72|335:52,1,58.0000017700196,0|0,3:0|3:0,0:0:0:0:
322,153,135352,6,0,P|239:164|193:162,1,116.000003540039,10|0,0:0|3:0,0:0:0:0:
29,76,135852,1,0,3:0:0:0:
143,77,135977,1,0,0:0:0:0:
12,160,136102,6,0,B|-10:228|48:259|27:333,1,174.000005310059,8|0,0:0|3:0,0:0:0:0:
41,366,136602,2,0,P|94:347|123:345,1,58.0000017700196,0|0,3:0|0:0,0:0:0:0:
154,310,136852,2,0,P|207:329|236:331,1,58.0000017700196,8|0,0:0|0:0,0:0:0:0:
292,303,137102,2,0,P|323:301|349:294,1,58.0000017700196,0|0,3:0|3:0,0:0:0:0:
419,265,137352,1,10,0:0:0:0:
420,356,137602,2,0,P|372:352|344:356,1,58.0000017700196,0|0,3:0|3:0,0:0:0:0:
247,376,137852,1,0,3:0:0:0:
207,303,137977,1,0,0:0:0:0:
286,230,138102,2,0,P|321:228|384:238,1,58.0000017700196,8|0,0:0|0:0,0:0:0:0:
95,161,138352,2,0,P|60:159|-3:169,1,58.0000017700196,0|0,3:0|3:0,0:0:0:0:
318,271,138602,2,0,P|358:268|420:278,1,58.0000017700196,0|0,3:0|0:0,0:0:0:0:
75,130,138852,2,0,P|34:127|-28:139,1,58.0000017700196,8|0,0:0|0:0,0:0:0:0:
159,164,139102,1,0,3:0:0:0:
165,182,139227,1,0,3:0:0:0:
200,291,139352,6,0,P|228:203|263:177,1,116.000003540039,10|0,0:0|3:0,0:0:0:0:
309,151,139727,1,0,3:0:0:0:
230,84,139852,2,0,P|191:68|148:73,1,58.0000017700196,0|0,3:0|0:0,0:0:0:0:
418,67,140102,2,0,P|457:51|500:56,1,58.0000017700196,8|0,0:0|0:0,0:0:0:0:
359,208,140352,2,0,P|320:224|277:219,1,58.0000017700196,0|0,3:0|3:0,0:0:0:0:
444,62,140602,2,0,P|493:55|541:74,1,58.0000017700196,0|0,3:0|0:0,0:0:0:0:
333,205,140852,2,0,P|283:211|235:192,1,58.0000017700196,8|0,0:0|0:0,0:0:0:0:
173,169,141102,1,0,3:0:0:0:
152,152,141227,1,0,3:0:0:0:
96,233,141352,6,0,P|102:300|20:378,1,174.000005310059,10|0,0:0|3:0,0:0:0:0:
31,291,141852,1,0,3:0:0:0:
37,295,141977,1,0,0:0:0:0:
175,346,142102,2,0,P|214:354|352:317,1,174.000005310059,8|0,0:0|3:0,0:0:0:0:
424,307,142602,2,0,P|385:315|247:278,1,174.000005310059,0|0,3:0|0:0,0:0:0:0:
198,218,143102,2,0,P|207:172|253:159,1,87.0000026550294,0|0,3:0|0:0,0:0:0:0:
270,166,143352,6,0,P|340:186|405:187,1,116.000003540039,10|0,0:0|3:0,0:0:0:0:
504,168,143852,1,0,3:0:0:0:
469,97,143977,1,0,0:0:0:0:
443,234,144102,2,0,L|429:303,1,58.0000017700196,8|0,0:0|0:0,0:0:0:0:
409,377,144352,1,0,3:0:0:0:
396,365,144477,1,0,3:0:0:0:
352,350,144602,1,0,3:0:0:0:
309,364,144727,1,0,0:0:0:0:
227,380,144852,6,0,P|161:380|146:374,1,58.0000017700196,8|0,0:0|0:0,0:0:0:0:
76,351,145102,1,0,3:0:0:0:
65,342,145227,1,0,3:0:0:0:
52,286,145352,1,10,0:0:0:0:
58,270,145477,1,0,0:0:0:0:
42,176,145602,2,0,P|31:147|33:109,1,58.0000017700196,0|0,3:0|3:0,0:0:0:0:
76,30,145852,1,0,3:0:0:0:
136,82,145977,1,0,0:0:0:0:
165,215,146102,6,0,P|174:180|191:152,1,50,8|0,0:0|0:0,0:0:0:0:
492,95,146352,6,0,P|485:61|461:27,1,54.0000002059937,8|0,0:0|0:0,0:0:0:0:
228,0,146602,6,0,P|267:10|304:32,1,58.0000017700196,8|0,0:0|0:0,0:0:0:0:
392,365,146852,2,0,P|430:357|494:296,1,116.000003540039,8|0,0:0|3:0,0:0:0:0:
162,305,147352,6,0,P|201:300|240:308,2,80,4|0|0,0:3|3:0|3:0,0:0:0:0:
0,227,148102,2,0,P|16:216|44:210,1,40,0|0,3:0|0:0,0:0:0:0:
53,126,148352,2,0,P|72:129|96:145,1,40,0|0,3:0|0:0,0:0:0:0:
171,95,148602,1,0,3:0:0:0:
171,95,148727,2,0,P|181:111|186:131,1,40,0|0,0:0|3:0,0:0:0:0:
272,140,148977,2,0,P|267:158|252:182,1,40,0|0,0:0|3:0,0:0:0:0:
249,279,149227,1,0,0:0:0:0:
350,239,149352,6,0,P|400:236|426:226,1,40,2|0,3:2|0:0,0:0:0:0:
446,180,149602,2,0,P|473:250|471:280,1,80,0|0,3:0|3:0,0:0:0:0:
468,330,149977,1,0,0:0:0:0:
399,302,150102,2,0,L|342:309,1,40,0|0,3:0|0:0,0:0:0:0:
309,367,150352,2,0,L|252:360,1,40,0|0,3:0|0:0,0:0:0:0:
230,304,150602,1,0,3:0:0:0:
230,304,150727,2,0,L|173:311,1,40,0|0,0:0|3:0,0:0:0:0:
140,369,150977,2,0,L|83:362,1,40,0|0,0:0|3:0,0:0:0:0:
44,304,151227,1,0,0:0:0:0:
67,236,151352,6,0,P|121:253|156:253,1,80,2|0,3:2|3:0,0:0:0:0:
294,189,151852,1,0,3:0:0:0:
294,189,152102,2,0,P|292:245|294:248,1,40,0|0,3:0|0:0,0:0:0:0:
381,123,152352,2,0,P|383:179|381:182,1,40,0|0,3:0|0:0,0:0:0:0:
276,67,152602,1,0,3:0:0:0:
276,67,152727,2,0,P|274:123|276:126,1,40,0|0,0:0|3:0,0:0:0:0:
371,16,152977,2,0,P|409:24|449:20,1,80,0|0,0:0|0:0,0:0:0:0:
470,7,153352,6,0,P|498:61|503:143,1,120,2|0,3:2|0:0,0:0:0:0:
413,106,153852,2,0,P|380:157|311:202,1,120,0|0,3:0|0:0,0:0:0:0:
295,132,154352,2,0,P|234:129|160:92,1,120,0|0,3:0|0:0,0:0:0:0:
110,67,154852,2,0,P|90:109|88:135,1,60,0|0,3:0|0:0,0:0:0:0:
76,136,155102,2,0,P|84:180|78:226,1,80,0|2,3:0|3:2,0:0:0:0:
39,325,155602,1,0,3:0:0:0:
104,212,155852,2,0,P|152:203|181:207,1,60,0|0,3:0|0:0,0:0:0:0:
188,218,156102,6,0,P|220:225|272:220,1,80,0|0,3:0|3:0,0:0:0:0:
360,160,156602,1,0,3:0:0:0:
360,160,156727,1,0,0:0:0:0:
360,160,156852,1,0,3:0:0:0:
411,357,157102,2,0,P|441:320|453:274,1,80,0|2,3:0|3:2,0:0:0:0:
365,295,157602,2,0,P|360:247|336:206,1,80,0|0,3:0|3:0,0:0:0:0:
278,273,158102,2,0,P|241:243|195:231,1,80,0|0,3:0|3:0,0:0:0:0:
204,317,158602,2,0,P|156:321|92:369,1,120,0|0,3:0|0:0,0:0:0:0:
82,338,159102,2,0,P|85:289|80:249,1,80,0|2,3:0|3:2,0:0:0:0:
40,107,159602,5,0,3:0:0:0:
134,160,159852,1,0,3:0:0:0:
134,160,159977,1,0,0:0:0:0:
134,160,160102,1,0,3:0:0:0:
173,15,160352,1,0,3:0:0:0:
206,102,160602,1,0,3:0:0:0:
206,102,160727,1,0,0:0:0:0:
206,102,160852,1,0,3:0:0:0:
57,11,161102,1,0,3:0:0:0:
20,128,161352,5,2,3:2:0:0:
123,236,161602,1,0,3:0:0:0:
19,287,161852,1,0,3:0:0:0:
19,287,161977,1,0,0:0:0:0:
19,287,162102,1,0,3:0:0:0:
82,170,162352,1,0,3:0:0:0:
126,326,162602,1,0,3:0:0:0:
205,298,162727,1,0,0:0:0:0:
210,311,162852,1,0,3:0:0:0:
275,274,162977,1,0,0:0:0:0:
281,286,163102,1,0,3:0:0:0:
344,252,163227,1,0,0:0:0:0:
419,223,163352,5,4,3:0:0:0:
404,384,163602,1,0,3:0:0:0:
329,141,163852,1,0,3:0:0:0:
329,141,164102,2,0,L|271:137,1,40,0|0,3:0|0:0,0:0:0:0:
168,171,164352,2,0,P|149:172|131:182,1,40,0|0,3:0|0:0,0:0:0:0:
249,208,164602,1,0,3:0:0:0:
249,208,164727,2,0,P|268:209|286:219,1,40,0|0,0:0|3:0,0:0:0:0:
164,261,164977,2,0,P|149:270|117:270,1,40,0|0,0:0|3:0,0:0:0:0:
221,302,165227,2,0,B|259:338|306:298|351:342,1,120,0|0,0:0|3:0,0:0:0:0:
475,384,165852,1,0,3:0:0:0:
477,364,165977,1,0,0:0:0:0:
462,298,166102,6,0,P|466:267|458:241,1,40,0|0,3:0|0:0,0:0:0:0:
396,217,166352,2,0,P|376:192|352:179,1,40,0|0,3:0|0:0,0:0:0:0:
293,190,166602,1,0,3:0:0:0:
293,190,166727,2,0,P|262:185|236:194,1,40,0|0,0:0|3:0,0:0:0:0:
204,241,166977,2,0,P|179:260|166:284,1,40,0|0,0:0|3:0,0:0:0:0:
131,346,167227,1,0,0:0:0:0:
84,303,167352,2,0,P|73:255|79:192,1,80,2|0,3:2|3:0,0:0:0:0:
97,138,167852,2,0,P|105:102|102:63,1,60,0|0,3:0|0:0,0:0:0:0:
86,50,168102,6,0,L|146:55,1,40,0|0,3:0|0:0,0:0:0:0:
186,17,168352,2,0,L|246:22,1,40,0|0,3:0|0:0,0:0:0:0:
284,78,168602,1,0,3:0:0:0:
284,78,168727,2,0,L|344:83,1,40,0|0,0:0|3:0,0:0:0:0:
381,31,168977,2,0,L|488:37,1,80,0|0,0:0|0:0,0:0:0:0:
496,24,169352,6,0,P|474:84|481:123,1,80,2|0,3:2|3:0,0:0:0:0:
391,113,169852,2,0,P|417:170|450:193,1,80,0|0,3:0|3:0,0:0:0:0:
372,245,170352,2,0,P|431:266|471:260,1,80,0|0,3:0|3:0,0:0:0:0:
438,362,170852,2,0,P|495:335|518:302,1,80,0|0,3:0|3:0,0:0:0:0:
365,349,171352,5,2,3:2:0:0:
289,210,171602,1,0,3:0:0:0:
195,367,171852,2,0,P|180:318|188:273,1,80,0|0,3:0|3:0,0:0:0:0:
261,136,172352,1,0,3:0:0:0:
143,194,172602,1,0,3:0:0:0:
143,194,172727,1,0,0:0:0:0:
143,194,172852,6,0,P|183:198|210:208,1,40,0|0,3:0|0:0,0:0:0:0:
41,249,173102,2,0,P|1:253|-26:263,1,40,0|0,3:0|0:0,0:0:0:0:
100,359,173352,2,0,P|115:308|110:268,1,80,2|0,3:2|3:0,0:0:0:0:
60,127,173852,1,0,3:0:0:0:
237,10,174102,6,0,P|202:9|161:20,1,60,0|0,3:0|0:0,0:0:0:0:
155,23,174352,2,0,P|170:69|169:114,1,80,0|0,3:0|3:0,0:0:0:0:
142,179,174727,1,0,0:0:0:0:
142,179,174852,1,0,3:0:0:0:
228,154,175102,2,0,L|267:162,1,40,0|0,3:0|0:0,0:0:0:0:
365,200,175352,2,0,B|279:204|224:263|240:359|240:359|231:322|199:283,1,320,2|0,3:2|3:0,0:0:0:0:
133,204,176602,1,0,3:0:0:0:
104,344,176852,1,0,3:0:0:0:
31,123,177102,1,0,3:0:0:0:
138,187,177352,1,2,3:2:0:0:
109,327,177602,1,0,3:0:0:0:
36,106,177852,1,0,3:0:0:0:
232,187,178102,5,0,3:0:0:0:
374,76,178352,1,0,3:0:0:0:
419,282,178602,1,0,3:0:0:0:
170,19,178852,1,0,3:0:0:0:
93,352,179102,1,0,3:0:0:0:
198,24,179352,6,0,P|124:35|85:55,1,95.9999970703126,4|0,0:3|0:0,0:0:0:0:
41,89,179727,1,8,0:0:0:0:
8,160,179852,2,0,P|3:183|2:207,1,47.9999985351563,0|0,0:0|0:0,0:0:0:0:
27,269,180102,1,0,3:0:0:0:
34,384,180352,2,0,L|47:273,1,95.9999970703126,0|0,3:0|0:0,0:0:0:0:
95,238,180727,2,0,P|118:245|191:237,1,95.9999970703126,0|0,0:0|0:0,0:0:0:0:
223,292,181102,2,0,P|248:312|267:321,1,47.9999985351563,0|0,0:0|0:0,0:0:0:0:
342,266,181352,6,0,P|373:262|393:255,1,47.9999985351563,2|0,0:0|0:0,0:0:0:0:
445,195,181602,1,0,0:0:0:0:
462,215,181727,1,8,0:0:0:0:
472,239,181852,2,0,P|471:275|456:315,1,47.9999985351563,0|0,0:0|0:0,0:0:0:0:
411,329,182102,2,0,P|411:365|426:405,1,47.9999985351563,0|0,3:0|3:0,0:0:0:0:
342,266,182352,2,0,P|263:248|203:255,1,120.000004577637,0|0,3:0|0:0,0:0:0:0:
52,372,183352,6,0,P|44:323|60:271,1,95.9999970703126,2|0,0:0|0:0,0:0:0:0:
126,214,183727,1,8,0:0:0:0:
140,223,183852,2,0,P|165:225|187:220,1,47.9999985351563,0|0,0:0|0:0,0:0:0:0:
275,194,184102,2,0,P|298:189|322:191,1,47.9999985351563,0|0,3:0|3:0,0:0:0:0:
423,177,184352,6,0,P|412:227|385:272,1,95.9999970703126,0|0,3:0|0:0,0:0:0:0:
272,294,184727,2,0,P|332:275|389:278,1,95.9999970703126,0|0,0:0|0:0,0:0:0:0:
447,350,185102,2,0,P|420:310|391:286,1,47.9999985351563,0|0,0:0|0:0,0:0:0:0:
350,215,185352,6,0,P|275:219|242:243,1,95.9999970703126,2|0,0:0|0:0,0:0:0:0:
201,279,185727,1,8,0:0:0:0:
147,213,185852,2,0,P|149:189|156:166,1,47.9999985351563,0|0,0:0|0:0,0:0:0:0:
123,54,186102,2,0,P|116:76|114:108,1,47.9999985351563,0|0,3:0|3:0,0:0:0:0:
184,93,186352,2,0,B|250:116|288:79,1,105.000004005432,0|0,3:0|0:0,0:0:0:0:
308,59,186852,2,0,P|350:39|384:44,1,77.9999964294435,8|0,0:0|0:0,0:0:0:0:
467,110,187352,6,0,P|478:156|473:203,1,95.9999970703126,2|0,0:0|3:0,0:0:0:0:
420,294,187852,1,8,0:0:0:0:
410,309,187977,2,0,P|392:325|371:338,1,47.9999985351563,0|0,0:0|3:0,0:0:0:0:
285,312,188227,1,0,3:0:0:0:
268,303,188352,2,0,P|245:297|221:296,1,47.9999985351563,8|0,0:0|0:0,0:0:0:0:
197,223,188602,2,0,P|177:235|159:251,1,47.9999985351563,0|0,3:0|0:0,0:0:0:0:
82,208,188852,2,0,P|77:231|76:255,1,47.9999985351563,0|0,3:0|0:0,0:0:0:0:
84,346,189102,2,0,B|150:372|150:372|271:357,1,191.999994140625,0|0,3:0|3:0,0:0:0:0:
375,344,189852,1,8,0:0:0:0:
347,214,190102,6,0,P|331:164|434:126,1,167.999994873047,0|0,3:0|0:0,0:0:0:0:
439,109,190602,2,0,P|367:104|282:43,1,167.999994873047,0|0,3:0|0:0,0:0:0:0:
275,44,191102,2,0,B|242:44|116:120|119:210|181:240|228:229|251:188|258:130|155:92,1,383.99998828125,0|0,3:0|3:0,0:0:0:0:
86,49,192602,1,0,3:0:0:0:
31,272,192852,1,0,3:0:0:0:
197,318,193102,1,0,0:0:0:0:
197,318,193227,1,0,0:0:0:0:
197,318,193352,2,0,B|113:317|36:275|36:275|75:286|114:284,1,240.000009155274,8|0,0:0|3:0,0:0:0:0:
389,210,194852,1,2,3:2:0:0:
170,9,195352,6,0,P|151:62|169:124,1,116.000003540039,6|0,0:0|3:0,0:0:0:0:
271,247,195852,1,0,3:0:0:0:
303,274,195977,1,0,0:0:0:0:
343,283,196102,2,0,P|387:280|438:253,1,58.0000017700196,8|0,0:0|0:0,0:0:0:0:
270,334,196352,2,0,P|212:334|156:319,1,116.000003540039,0|0,3:0|3:0,0:0:0:0:
77,269,196727,1,0,0:0:0:0:
165,118,196852,2,0,P|171:174|153:236,1,116.000003540039,8|0,0:0|3:0,0:0:0:0:
55,335,197227,1,0,3:0:0:0:
171,343,197352,2,0,P|152:288|155:230,1,116.000003540039,10|0,0:0|3:0,0:0:0:0:
188,100,197727,1,0,3:0:0:0:
290,8,197852,1,0,3:0:0:0:
285,98,197977,1,0,0:0:0:0:
148,45,198102,6,0,P|122:91|122:116,1,58.0000017700196,8|0,0:0|0:0,0:0:0:0:
229,189,198352,2,0,P|183:163|158:163,1,58.0000017700196,0|0,3:0|3:0,0:0:0:0:
68,264,198602,2,0,P|94:218|94:193,1,58.0000017700196,0|0,3:0|0:0,0:0:0:0:
0,116,198852,2,0,P|46:142|71:142,1,58.0000017700196,8|0,0:0|0:0,0:0:0:0:
166,240,199102,2,0,P|189:286|221:314,1,87.0000026550294,0|0,3:0|0:0,0:0:0:0:
232,321,199352,6,0,P|290:302|356:322,1,116.000003540039,10|0,0:0|3:0,0:0:0:0:
388,363,199727,1,0,3:0:0:0:
320,230,199852,1,0,3:0:0:0:
283,367,199977,1,0,0:0:0:0:
459,280,200102,6,0,P|464:222|441:170,1,116.000003540039,8|0,0:0|3:0,0:0:0:0:
236,102,200602,2,0,P|282:135|339:141,1,116.000003540039,0|8,3:0|0:0,0:0:0:0:
503,14,201102,2,0,P|450:37|417:84,1,116.000003540039,0|10,3:0|0:0,0:0:0:0:
356,235,201602,1,0,3:0:0:0:
345,44,201852,1,0,3:0:0:0:
312,56,201977,1,0,0:0:0:0:
202,49,202102,1,8,0:0:0:0:
172,61,202227,1,0,0:0:0:0:
92,52,202352,1,0,3:0:0:0:
64,64,202477,1,0,3:0:0:0:
4,156,202602,6,0,P|2:184|8:212,1,58.0000017700196,0|0,3:0|0:0,0:0:0:0:
87,276,202852,2,0,P|87:203|68:173,1,58.0000017700196,8|0,0:0|0:0,0:0:0:0:
57,121,203102,1,0,3:0:0:0:
45,321,203227,1,0,3:0:0:0:
160,324,203352,6,0,P|216:335|274:328,1,116.000003540039,10|0,0:0|3:0,0:0:0:0:
382,309,203727,1,0,3:0:0:0:
403,335,203852,1,0,3:0:0:0:
455,263,203977,1,0,0:0:0:0:
468,233,204102,1,8,0:0:0:0:
506,155,204227,2,0,B|433:128|401:178|320:135,1,174.000005310059,0|0,0:0|3:0,0:0:0:0:
243,104,204727,1,0,0:0:0:0:
147,177,204852,6,0,P|133:203|123:245,1,58.0000017700196,8|0,0:0|0:0,0:0:0:0:
77,56,205102,2,0,P|91:82|101:124,1,58.0000017700196,0|0,3:0|3:0,0:0:0:0:
211,41,205352,6,0,P|279:46|315:91,1,116.000003540039,10|0,0:0|3:0,0:0:0:0:
350,153,205727,1,0,3:0:0:0:
360,187,205852,1,0,3:0:0:0:
286,284,205977,1,0,0:0:0:0:
296,250,206102,1,8,0:0:0:0:
249,181,206227,2,0,P|196:184|179:182,1,58.0000017700196,0|0,0:0|3:0,0:0:0:0:
71,226,206477,1,0,3:0:0:0:
71,226,206602,2,0,P|99:225|128:228,1,58.0000017700196,0|0,3:0|0:0,0:0:0:0:
27,10,206852,6,0,P|21:68|32:125,1,116.000003540039,8|0,0:0|3:0,0:0:0:0:
77,208,207227,1,0,3:0:0:0:
98,76,207352,2,0,P|126:69|155:69,1,58.0000017700196,10|0,0:0|0:0,0:0:0:0:
194,263,207602,6,0,P|212:233|256:202,1,58.0000017700196,0|0,3:0|3:0,0:0:0:0:
329,168,207852,2,0,P|358:149|388:104,1,58.0000017700196,0|0,3:0|0:0,0:0:0:0:
206,273,208102,1,8,0:0:0:0:
318,157,208227,1,0,0:0:0:0:
248,89,208352,6,0,P|247:123|268:173,1,58.0000017700196,0|0,3:0|3:0,0:0:0:0:
311,240,208602,2,0,P|325:271|328:325,1,58.0000017700196,0|0,3:0|0:0,0:0:0:0:
265,86,208852,1,8,0:0:0:0:
294,245,208977,1,0,0:0:0:0:
212,305,209102,6,0,P|174:329|157:359,1,66.0000020141602,0|0,3:0|0:0,0:0:0:0:
154,366,209352,2,0,P|148:299|124:234,1,116.000003540039,10|0,0:0|3:0,0:0:0:0:
50,80,209852,1,0,3:0:0:0:
27,311,210102,6,0,P|61:316|100:313,1,46.0000008773804,8|0,0:0|0:0,0:0:0:0:
447,92,210352,6,0,P|413:86|367:94,1,50,8|0,0:0|0:0,0:0:0:0:
148,66,210602,6,0,P|143:100|148:146,1,54.0000002059937,8|0,0:0|0:0,0:0:0:0:
326,352,210852,6,0,P|331:320|326:271,1,60.0000022888184,8|0,0:0|3:0,0:0:0:0:
463,143,211352,6,0,P|507:84|403:118,1,232.000007080078,6|0,0:0|3:0,0:0:0:0:
302,352,212102,1,8,0:0:0:0:
346,228,212352,2,0,P|356:193|351:157,1,58.0000017700196,0|0,3:0|3:0,0:0:0:0:
292,24,212602,2,0,P|282:51|283:80,1,58.0000017700196,0|0,3:0|0:0,0:0:0:0:
200,67,212852,2,0,P|169:60|143:71,1,58.0000017700196,8|0,0:0|0:0,0:0:0:0:
0,130,213102,2,0,P|31:123|57:134,1,58.0000017700196,0|0,3:0|3:0,0:0:0:0:
0,224,213352,6,0,P|31:231|57:220,1,58.0000017700196,10|0,0:0|0:0,0:0:0:0:
135,179,213602,2,0,P|166:172|192:182,1,58.0000017700196,0|0,3:0|3:0,0:0:0:0:
256,243,213852,1,0,3:0:0:0:
275,261,213977,1,0,0:0:0:0:
308,340,214102,2,0,P|329:327|361:291,1,58.0000017700196,8|0,0:0|0:0,0:0:0:0:
493,298,214352,2,0,P|471:285|439:249,1,58.0000017700196,0|0,3:0|3:0,0:0:0:0:
371,170,214602,1,0,3:0:0:0:
372,251,214727,1,0,0:0:0:0:
496,165,214852,2,0,P|510:99|499:60,1,58.0000017700196,8|0,0:0|0:0,0:0:0:0:
351,68,215102,2,0,P|314:11|278:-9,1,58.0000017700196,0|0,3:0|3:0,0:0:0:0:
261,258,215352,6,0,P|322:269|376:247,1,116.000003540039,10|0,0:0|3:0,0:0:0:0:
471,108,215852,1,0,3:0:0:0:
477,93,215977,1,0,0:0:0:0:
328,91,216102,6,0,B|286:95|255:37|181:58,1,116.000003540039,8|0,0:0|3:0,0:0:0:0:
197,53,216602,6,0,B|168:79|102:91,1,87.0000026550294,0|0,3:0|0:0,0:0:0:0:
84,99,216852,2,0,P|137:118|166:120,1,58.0000017700196,8|0,0:0|0:0,0:0:0:0:
218,166,217102,2,0,P|142:170|93:186,1,116.000003540039,0|10,3:0|0:0,0:0:0:0:
10,321,217602,2,0,P|38:320|67:324,1,58.0000017700196,0|0,3:0|3:0,0:0:0:0:
157,359,217852,1,0,3:0:0:0:
143,277,217977,1,0,0:0:0:0:
273,306,218102,2,0,P|265:340|239:398,1,58.0000017700196,8|0,0:0|0:0,0:0:0:0:
405,141,218352,2,0,P|415:107|422:44,1,58.0000017700196,0|0,3:0|3:0,0:0:0:0:
241,328,218602,2,0,P|233:367|207:424,1,58.0000017700196,0|0,3:0|0:0,0:0:0:0:
440,130,218852,2,0,P|453:91|457:28,1,58.0000017700196,8|0,0:0|0:0,0:0:0:0:
377,203,219102,1,0,3:0:0:0:
364,224,219227,1,0,3:0:0:0:
273,306,219352,6,0,P|185:278|159:243,1,116.000003540039,10|0,0:0|3:0,0:0:0:0:
127,181,219727,1,0,3:0:0:0:
54,252,219852,2,0,P|15:236|-28:241,1,58.0000017700196,0|0,3:0|0:0,0:0:0:0:
127,181,220102,2,0,P|152:194|181:197,1,58.0000017700196,8|0,0:0|0:0,0:0:0:0:
437,144,220352,2,0,P|411:130|382:127,1,58.0000017700196,0|0,3:0|0:0,0:0:0:0:
153,186,220602,2,0,P|181:193|209:191,1,58.0000017700196,0|0,3:0|0:0,0:0:0:0:
411,147,220852,2,0,P|382:140|352:141,1,58.0000017700196,8|0,0:0|0:0,0:0:0:0:
281,163,221102,1,0,3:0:0:0:
260,146,221227,1,0,3:0:0:0:
199,100,221352,6,0,P|144:68|33:110,1,174.000005310059,10|0,0:0|3:0,0:0:0:0:
0,170,221852,1,0,3:0:0:0:
6,174,221977,1,0,0:0:0:0:
125,131,222102,2,0,P|133:170|96:308,1,174.000005310059,8|0,0:0|3:0,0:0:0:0:
81,327,222602,2,0,B|174:358|190:311|260:337,1,174.000005310059,0|0,3:0|0:0,0:0:0:0:
285,352,223102,2,0,P|311:313|287:271,1,87.0000026550294,0|0,3:0|0:0,0:0:0:0:
283,265,223352,6,0,P|353:285|418:286,1,116.000003540039,10|0,0:0|3:0,0:0:0:0:
512,210,223852,1,0,3:0:0:0:
447,155,223977,1,0,0:0:0:0:
511,82,224102,2,0,L|499:25,1,58.0000017700196,8|0,0:0|0:0,0:0:0:0:
405,35,224352,1,0,3:0:0:0:
392,47,224477,1,0,3:0:0:0:
348,62,224602,1,0,3:0:0:0:
305,48,224727,1,0,0:0:0:0:
239,123,224852,6,0,P|200:131|163:123,1,58.0000017700196,8|0,0:0|0:0,0:0:0:0:
87,95,225102,1,0,3:0:0:0:
76,104,225227,1,0,3:0:0:0:
63,160,225352,1,10,0:0:0:0:
69,176,225477,1,0,0:0:0:0:
103,254,225602,2,0,P|117:279|139:297,1,58.0000017700196,0|0,3:0|3:0,0:0:0:0:
271,359,225852,1,0,3:0:0:0:
239,295,225977,1,0,0:0:0:0:
14,365,226102,6,0,P|23:330|41:298,1,50,8|0,0:0|0:0,0:0:0:0:
443,194,226352,6,0,P|455:219|460:249,1,54.0000002059937,8|0,0:0|0:0,0:0:0:0:
0,202,226602,6,0,P|9:167|29:134,1,58.0000017700196,8|0,0:0|0:0,0:0:0:0:
425,7,226852,2,0,P|437:33|446:125,1,116.000003540039,8|0,0:0|3:0,0:0:0:0:
47,22,227352,5,4,0:3:0:0:
97,183,227602,2,0,L|104:138,1,35.9999989013672,0|0,3:0|0:0,0:0:0:0:
139,71,227852,2,0,L|142:112,1,35.9999989013672,0|0,3:0|0:0,0:0:0:0:
154,238,228102,2,0,P|188:239|228:216,1,71.9999978027344,8|0,0:0|0:0,0:0:0:0:
316,111,228602,1,0,3:0:0:0:
382,158,228852,2,0,P|390:190|389:205,1,35.9999989013672,0|0,3:0|0:0,0:0:0:0:
309,286,229102,2,0,P|301:318|303:329,1,35.9999989013672,8|0,0:0|0:0,0:0:0:0:
327,192,229352,1,2,0:0:0:0:
200,339,229602,1,0,3:0:0:0:
156,185,229852,1,0,3:0:0:0:
13,298,230102,6,0,P|72:285|160:306,1,143.999995605469,8|0,0:0|3:0,0:0:0:0:
244,380,230852,1,8,0:0:0:0:
86,355,231102,1,0,3:0:0:0:
268,219,231352,2,0,L|341:227,1,71.9999978027344,2|0,0:0|3:0,0:0:0:0:
495,178,231852,1,0,3:0:0:0:
405,30,232102,2,0,P|384:89|410:169,1,143.999995605469,8|0,0:0|3:0,0:0:0:0:
512,267,232852,2,0,P|483:302|451:319,1,71.9999978027344,0|8,3:0|0:0,0:0:0:0:
258,268,233352,5,2,0:0:0:0:
371,374,233602,1,0,3:0:0:0:
351,176,233852,1,0,3:0:0:0:
351,176,234102,2,0,P|327:241|351:319,1,143.999995605469,8|0,0:0|3:0,0:0:0:0:
262,147,234852,2,0,P|280:78|259:23,1,125.999996154785,8|0,0:0|0:0,0:0:0:0:
243,24,235352,6,0,P|204:44|168:47,1,71.9999978027344,10|0,0:0|3:0,0:0:0:0:
58,38,235852,1,0,3:0:0:0:
107,195,236102,2,0,L|111:119,1,71.9999978027344,8|0,0:0|3:0,0:0:0:0:
6,244,236602,1,0,3:0:0:0:
178,125,236852,1,0,3:0:0:0:
14,78,237102,2,0,P|16:113|31:154,1,71.9999978027344,8|0,0:0|3:0,0:0:0:0:
111,260,237602,1,0,3:0:0:0:
249,319,237852,2,0,P|200:330|174:320,1,71.9999978027344,8|0,0:0|3:0,0:0:0:0:
327,263,238352,2,0,P|376:274|402:264,1,71.9999978027344,8|0,0:0|3:0,0:0:0:0:
457,128,238852,2,0,L|464:215,1,71.9999978027344,8|0,0:0|3:0,0:0:0:0:
283,75,239352,2,0,L|288:3,1,71.9999978027344,10|0,0:0|3:0,0:0:0:0:
349,152,239852,1,0,3:0:0:0:
240,173,240102,2,0,P|200:188|165:184,1,71.9999978027344,8|0,0:0|3:0,0:0:0:0:
70,144,240602,1,0,3:0:0:0:
84,256,240852,1,0,3:0:0:0:
176,63,241102,2,0,P|213:29|305:64,1,143.999995605469,8|0,0:0|0:0,0:0:0:0:
340,140,241852,1,0,3:0:0:0:
286,197,242102,1,0,0:0:0:0:
353,265,242352,2,0,L|360:343,1,71.9999978027344,8|0,0:0|0:0,0:0:0:0:
239,91,242852,2,0,L|232:169,1,71.9999978027344,10|0,0:0|0:0,0:0:0:0:
0,352,243352,6,0,P|99:375|214:330,1,198.000001888275,6|0,0:3|3:0,0:0:0:0:
282,275,243852,2,0,P|319:296|340:318,1,66.0000006294251,0|0,3:0|0:0,0:0:0:0:
122,134,244102,2,0,P|85:155|64:177,1,66.0000006294251,8|0,0:0|0:0,0:0:0:0:
171,78,244352,2,0,P|208:99|229:121,1,66.0000006294251,0|0,3:0|3:0,0:0:0:0:
287,204,244602,1,0,3:0:0:0:
287,204,244727,6,0,P|321:205|360:191,1,66.0000006294251,0|8,0:0|0:0,0:0:0:0:
488,88,244977,1,0,0:0:0:0:
488,88,245102,2,0,P|454:87|415:101,1,66.0000006294251,0|0,3:0|3:0,0:0:0:0:
200,303,245352,2,0,P|164:264|157:181,1,132.00000125885,10|0,0:0|3:0,0:0:0:0:
0,41,245852,2,0,P|51:29|127:64,1,132.00000125885,0|8,3:0|0:0,0:0:0:0:
338,0,246352,2,0,P|322:50|253:98,1,132.00000125885,0|0,3:0|3:0,0:0:0:0:
16,195,246852,2,0,P|45:201|76:227,1,66.0000006294251,8|0,0:0|0:0,0:0:0:0:
200,303,247102,2,0,P|171:309|140:335,1,66.0000006294251,0|0,3:0|3:0,0:0:0:0:
495,277,247352,6,0,B|430:275|430:275|381:255|381:255|297:250,1,198.000001888275,10|0,0:0|3:0,0:0:0:0:
173,217,247852,2,0,P|168:254|181:292,1,66.0000006294251,0|0,3:0|0:0,0:0:0:0:
133,132,248102,2,0,P|107:111|75:102,1,66.0000006294251,8|0,0:0|0:0,0:0:0:0:
233,139,248352,2,0,P|263:126|287:104,1,66.0000006294251,0|0,3:0|3:0,0:0:0:0:
343,20,248602,5,0,3:0:0:0:
343,20,248727,2,0,P|371:46|391:77,1,66.0000006294251,0|8,0:0|0:0,0:0:0:0:
508,129,248977,1,0,0:0:0:0:
508,129,249102,2,0,P|480:155|460:186,1,66.0000006294251,0|0,3:0|3:0,0:0:0:0:
425,318,249352,6,0,P|357:325|289:290,1,132.00000125885,10|0,0:0|3:0,0:0:0:0:
116,384,249852,2,0,P|143:321|208:280,1,132.00000125885,0|8,3:0|0:0,0:0:0:0:
215,76,250352,2,0,P|255:131|258:207,1,132.00000125885,0|0,3:0|3:0,0:0:0:0:
2,155,250852,2,0,B|68:124|108:195|208:152,1,198.000001888275,8|0,0:0|3:0,0:0:0:0:
44,212,251352,6,0,P|30:265|66:343,1,132.00000125885,10|0,0:0|3:0,0:0:0:0:
150,94,251852,2,0,P|202:90|281:104,1,117.00000044632,0|0,3:0|0:0,0:0:0:0:
278,129,252102,2,0,P|367:160|502:66,1,264.0000025177,8|0,0:0|3:0,0:0:0:0:
449,319,252852,2,0,P|442:281|452:187,1,117.00000044632,8|0,0:0|0:0,0:0:0:0:
422,215,253102,2,0,B|345:207|295:304|168:252,1,264.0000025177,0|0,3:0|3:0,0:0:0:0:
0,229,253852,2,0,P|18:175|64:139,1,117.00000044632,0|0,3:0|0:0,0:0:0:0:
95,142,254102,2,0,P|149:150|82:60,1,264.0000025177,8|0,0:0|3:0,0:0:0:0:
261,85,254852,2,0,P|324:84|381:103,1,117.00000044632,8|0,0:0|0:0,0:0:0:0:
392,118,255102,2,0,P|426:131|486:135,1,66.0000006294251,0|0,3:0|3:0,0:0:0:0:
261,85,255352,6,0,B|304:153|307:193|303:266|263:312|237:291|225:310|206:351|206:351|168:327|165:295|144:314|105:324|52:276|34:213|44:172|51:137|133:124|182:203|182:203|184:154|227:114|266:115|289:126|314:164|324:260|321:340|321:340|346:283|391:282,1,1120,6|0,0:3|0:0,0:0:0:0:
329,106,266352,5,0,3:0:0:0:
366,179,266602,2,0,P|378:231|369:262,1,71.9999978027344,0|0,3:0|3:0,0:0:0:0:
320,307,267102,1,8,0:0:0:0:
249,270,267352,1,2,0:0:0:0:
196,325,267602,1,0,3:0:0:0:
196,325,267727,2,0,P|176:333|156:335,1,35.9999989013672,0|0,0:0|3:0,0:0:0:0:
124,276,267977,2,0,P|104:267|88:254,1,35.9999989013672,0|8,0:0|0:0,0:0:0:0:
130,197,268227,2,0,P|122:177|123:121,1,71.9999978027344,0|0,0:0|0:0,0:0:0:0:
38,24,268602,6,0,P|46:44|45:100,1,71.9999978027344,0|0,0:0|0:0,0:0:0:0:
9,198,269102,1,0,3:0:0:0:
46,310,269352,1,0,3:0:0:0:
165,354,269602,1,0,3:0:0:0:
165,354,269727,2,0,P|183:360|205:358,1,35.9999989013672,0|0,0:0|3:0,0:0:0:0:
275,325,269977,2,0,P|291:316|306:299,1,35.9999989013672,0|8,0:0|0:0,0:0:0:0:
356,238,270227,2,0,P|362:220|361:161,1,71.9999978027344,0|0,0:0|0:0,0:0:0:0:
442,38,270852,6,0,P|436:89|448:133,1,71.9999978027344,0|0,0:0|3:0,0:0:0:0:
484,227,271352,1,2,0:0:0:0:
418,328,271602,2,0,P|380:342|333:341,1,71.9999978027344,0|0,3:0|3:0,0:0:0:0:
205,316,272102,1,8,0:0:0:0:
339,269,272352,2,0,P|302:252|269:218,1,71.9999978027344,0|0,3:0|0:0,0:0:0:0:
196,109,272852,1,0,0:0:0:0:
122,254,273102,1,0,3:0:0:0:
71,33,273352,2,0,P|41:124|66:183,1,143.999995605469,0|0,3:0|0:0,0:0:0:0:
435,42,274852,1,2,0:0:0:0:
499,316,275352,6,0,P|503:256|484:200,1,120.000004577637,4|0,0:3|3:0,0:0:0:0:
408,270,276102,2,0,B|329:286|241:261|241:261|290:258|327:238,1,240.000009155274,0|0,0:0|0:0,0:0:0:0:
375,212,277352,2,0,P|399:182|336:152,1,120.000004577637,2|0,0:0|3:0,0:0:0:0:
258,191,278102,1,0,0:0:0:0:
155,132,278352,1,0,0:0:0:0:
111,196,278602,1,0,0:0:0:0:
117,274,278852,1,0,3:0:0:0:
163,344,279102,6,0,P|224:338|277:351,1,105.000004005432,0|0,0:0|0:0,0:0:0:0:
289,359,279602,2,0,P|318:366|382:352,1,90.0000034332277,0|0,3:0|0:0,0:0:0:0:
426,286,280102,2,0,P|446:310|453:371,1,90.0000034332277,0|0,0:0|0:0,0:0:0:0:
374,239,280602,2,0,P|340:209|297:201,1,90.0000034332277,0|0,0:0|0:0,0:0:0:0:
231,236,281102,2,0,B|160:277|129:217|51:242,1,180.000006866455,0|0,0:0|3:0,0:0:0:0:
173,70,282102,5,0,0:0:0:0:
251,137,282352,1,0,0:0:0:0:
308,23,282602,1,0,0:0:0:0:
151,152,282852,1,0,3:0:0:0:
349,241,283102,1,0,0:0:0:0:
100,349,283352,6,0,P|138:364|216:354,1,120.000004577637,4|0,0:3|3:0,0:0:0:0:
398,195,284102,1,8,0:0:0:0:
374,298,284352,1,0,3:0:0:0:
325,121,284602,1,8,0:0:0:0:
510,159,284852,1,8,0:0:0:0:
285,244,285102,1,0,0:0:0:0:
191,61,285352,6,0,P|179:114|186:148,1,90.0000034332277,4|0,0:3|0:0,0:0:0:0:
223,238,285852,1,0,3:0:0:0:
86,276,286102,2,0,P|129:278|153:289,1,60.0000022888184,8|0,0:0|3:0,0:0:0:0:
242,330,286602,2,0,P|270:338|300:338,1,60.0000022888184,8|8,0:0|0:0,0:0:0:0:
411,324,287102,2,0,B|441:317|483:324|483:324|364:212|455:114|455:114|356:192|258:169|241:88|265:16|309:1|360:1|408:34|397:89,1,720.000027465821,8|0,0:0|0:0,0:0:0:0:
340,79,290352,1,8,0:0:0:0:
218,54,290602,1,8,0:0:0:0:
291,241,290852,1,8,0:0:0:0:
476,38,291102,1,8,0:0:0:0:
428,138,291352,6,0,P|391:159|334:170,1,95.9999970703126,4|0,0:3|0:0,0:0:0:0:
242,176,292102,1,0,0:0:0:0:
164,200,292352,1,0,0:0:0:0:
165,282,292602,1,0,0:0:0:0:
242,307,292852,1,0,0:0:0:0:
291,241,293102,1,0,0:0:0:0:
242,176,293352,6,0,L|235:107,1,47.9999985351563,2|0,0:0|0:0,0:0:0:0:
297,288,293852,1,0,0:0:0:0:
297,288,294102,2,0,L|290:219,1,47.9999985351563,0|0,0:0|0:0,0:0:0:0:
416,323,294602,1,0,0:0:0:0:
423,313,295102,6,0,L|419:233,1,80,0|0,0:0|0:0,0:0:0:0:
