osu file format v14

[General]
AudioFilename: audio.mp3
AudioLeadIn: 0
PreviewTime: 66447
Countdown: 0
SampleSet: Normal
StackLeniency: 0.7
Mode: 1
LetterboxInBreaks: 0
WidescreenStoryboard: 0

[Editor]
DistanceSpacing: 0.9
BeatDivisor: 4
GridSize: 32
TimelineZoom: 1.7

[Metadata]
Title:OUR SHIP
TitleUnicode:OUR SHIP
Artist:FELT
ArtistUnicode:FELT
Creator:igorsprite
Version:Oni
Source:東方夢時空 ~ Pantasmagria of Dim.Dream
Tags:舞花 Maika 美歌 Mika NAGI☆ Spatial Moving Comiket C89 東方夢時空 Touhou Phantasmagoria Dim Dream Yumemi Okazaki Strawberry Crisis StrawberryCrisis!! ZUN ARGENTINE DREAM _WWWWWW_WWWWWW_ _w6
BeatmapID:1499390
BeatmapSetID:709145

[Difficulty]
HPDrainRate:5
CircleSize:5
OverallDifficulty:6
ApproachRate:5
SliderMultiplier:1.4
SliderTickRate:1

[Events]
//Background and Video events
0,0,"helou.png",0,80
//Break Periods
2,107593,119108
2,207593,216399
//Storyboard Layer 0 (Background)
//Storyboard Layer 1 (Fail)
//Storyboard Layer 2 (Pass)
//Storyboard Layer 3 (Foreground)
//Storyboard Layer 4 (Overlay)
//Storyboard Sound Samples

[TimingPoints]
933,416.666666666667,4,1,0,45,1,0
933,-166.666666666667,4,1,0,45,0,0
14058,-125,4,1,0,55,0,0
27599,-100,4,1,0,80,0,0
54266,-125,4,1,0,70,0,0
62599,-100,4,1,0,75,0,0
64266,-100,4,1,0,80,0,0
67599,-90.909090909091,4,1,0,80,0,1
94266,-100,4,1,0,55,0,0
109266,-142.857142857143,4,1,0,55,0,0
120308,-117.647058823529,4,1,0,55,0,0
120933,-100,4,1,0,80,0,0
134266,-125,4,1,0,70,0,0
142599,-100,4,1,0,75,0,0
144266,-100,4,1,0,80,0,0
147599,-90.9090909090909,4,1,0,80,0,1
174266,-100,4,1,0,70,0,0
194266,-111.111111111111,4,1,0,70,0,0
217599,-100,4,1,0,80,0,0
220828,-90.9090909090909,4,1,0,80,0,0
220933,-90.9090909090909,4,1,0,80,0,1
240933,-90.9090909090909,4,1,0,80,0,0

[HitObjects]
256,192,933,5,0,0:0:0:0:
256,192,2599,1,2,0:0:0:0:
256,192,4266,1,0,0:0:0:0:
256,192,6766,1,0,0:0:0:0:
256,192,7599,1,2,0:0:0:0:
256,192,9266,1,2,0:0:0:0:
256,192,10933,1,0,0:0:0:0:
256,192,13433,1,0,0:0:0:0:
256,192,13537,1,0,0:0:0:0:
256,192,13641,1,2,0:0:0:0:
256,192,13849,1,0,0:0:0:0:
256,192,14058,1,2,0:0:0:0:
256,192,14162,1,2,0:0:0:0:
256,192,14266,1,0,0:0:0:0:
256,192,14474,1,0,0:0:0:0:
256,192,14578,1,0,0:0:0:0:
256,192,14683,1,2,0:0:0:0:
256,192,14891,1,2,0:0:0:0:
256,192,14995,1,0,0:0:0:0:
284,215,15203,1,0,0:0:0:0:
284,215,15308,1,0,0:0:0:0:
256,192,15516,1,2,0:0:0:0:
256,192,15933,1,0,0:0:0:0:
256,192,16245,1,0,0:0:0:0:
256,192,16349,1,2,0:0:0:0:
256,192,16662,1,2,0:0:0:0:
224,192,16974,1,0,0:0:0:0:
224,192,17078,1,0,0:0:0:0:
224,192,17183,1,2,0:0:0:0:
224,192,17287,1,0,0:0:0:0:
320,64,17599,1,0,0:0:0:0:
224,192,17808,1,0,0:0:0:0:
224,192,17912,1,0,0:0:0:0:
224,192,18016,1,2,0:0:0:0:
224,192,18224,1,0,0:0:0:0:
224,192,18328,1,2,0:0:0:0:
237,236,18537,1,0,0:0:0:0:
237,236,18641,1,0,0:0:0:0:
224,192,18849,1,2,0:0:0:0:
224,192,19266,1,0,0:0:0:0:
224,192,19474,1,0,0:0:0:0:
224,192,19578,1,0,0:0:0:0:
224,192,19683,1,2,0:0:0:0:
224,192,19995,1,2,0:0:0:0:
224,192,20308,1,0,0:0:0:0:
224,192,20412,1,0,0:0:0:0:
224,192,20516,1,2,0:0:0:0:
320,96,20933,1,0,0:0:0:0:
224,192,21141,1,0,0:0:0:0:
224,192,21245,1,0,0:0:0:0:
224,192,21349,1,2,0:0:0:0:
224,192,21662,1,2,0:0:0:0:
224,192,21870,1,0,0:0:0:0:
224,192,21974,1,0,0:0:0:0:
224,192,22183,1,2,0:0:0:0:
224,192,22599,1,0,0:0:0:0:
224,192,22912,1,0,0:0:0:0:
224,192,23016,1,2,0:0:0:0:
224,192,23328,1,2,0:0:0:0:
224,192,23641,1,0,0:0:0:0:
224,192,23745,1,0,0:0:0:0:
224,192,23849,1,2,0:0:0:0:
224,192,23953,1,0,0:0:0:0:
224,192,24266,1,0,0:0:0:0:
224,192,24474,1,0,0:0:0:0:
224,192,24578,1,0,0:0:0:0:
224,192,24683,1,2,0:0:0:0:
224,192,24995,1,2,0:0:0:0:
224,192,25203,1,2,0:0:0:0:
224,192,25308,1,0,0:0:0:0:
224,192,25516,1,2,0:0:0:0:
224,192,26141,1,0,0:0:0:0:
256,160,26453,1,0,0:0:0:0:
256,160,26558,1,0,0:0:0:0:
256,160,26766,1,0,0:0:0:0:
265,124,27078,1,0,0:0:0:0:
265,124,27183,1,2,0:0:0:0:
320,160,27599,1,6,0:0:0:0:
256,160,28016,1,2,0:0:0:0:
384,288,28224,1,0,0:0:0:0:
256,160,28328,1,2,0:0:0:0:
256,160,28641,1,0,0:0:0:0:
256,160,28849,1,2,0:0:0:0:
288,128,29266,1,0,0:0:0:0:
256,192,29474,1,0,0:0:0:0:
288,160,29683,1,2,0:0:0:0:
256,192,29891,1,0,0:0:0:0:
288,160,29995,1,2,0:0:0:0:
288,160,30308,1,0,0:0:0:0:
288,160,30516,1,2,0:0:0:0:
288,160,30933,1,2,0:0:0:0:
256,192,31141,1,0,0:0:0:0:
288,160,31349,1,2,0:0:0:0:
192,192,31558,1,0,0:0:0:0:
288,160,31662,1,2,0:0:0:0:
288,160,31974,1,0,0:0:0:0:
288,160,32183,1,2,0:0:0:0:
288,160,32599,1,2,0:0:0:0:
288,160,32703,1,2,0:0:0:0:
288,160,32912,1,0,0:0:0:0:
288,160,33016,1,2,0:0:0:0:
288,160,33328,1,2,0:0:0:0:
288,160,33641,1,0,0:0:0:0:
288,160,33849,1,2,0:0:0:0:
288,160,34266,1,6,0:0:0:0:
288,160,34683,1,2,0:0:0:0:
192,192,34787,1,0,0:0:0:0:
288,160,34995,1,2,0:0:0:0:
288,160,35308,1,0,0:0:0:0:
288,160,35516,1,2,0:0:0:0:
288,160,35933,1,0,0:0:0:0:
192,192,36141,1,0,0:0:0:0:
288,160,36349,1,2,0:0:0:0:
160,128,36453,1,0,0:0:0:0:
288,160,36662,1,2,0:0:0:0:
288,160,36974,1,0,0:0:0:0:
288,160,37183,1,2,0:0:0:0:
288,160,37599,1,0,0:0:0:0:
160,128,37808,1,0,0:0:0:0:
288,160,38016,1,2,0:0:0:0:
160,128,38120,1,0,0:0:0:0:
288,160,38328,1,2,0:0:0:0:
288,160,38641,1,0,0:0:0:0:
288,160,38849,1,2,0:0:0:0:
288,160,39266,1,0,0:0:0:0:
288,160,39370,1,0,0:0:0:0:
288,160,39578,1,0,0:0:0:0:
288,160,39683,1,2,0:0:0:0:
288,160,39995,1,2,0:0:0:0:
288,160,40308,1,2,0:0:0:0:
288,160,40516,1,2,0:0:0:0:
288,160,40933,1,6,0:0:0:0:
288,160,41349,1,2,0:0:0:0:
256,96,41558,1,0,0:0:0:0:
288,160,41662,1,2,0:0:0:0:
288,160,41974,1,0,0:0:0:0:
288,160,42183,1,2,0:0:0:0:
288,160,42599,1,0,0:0:0:0:
224,160,42808,1,0,0:0:0:0:
288,160,43016,1,2,0:0:0:0:
160,128,43224,1,0,0:0:0:0:
288,160,43328,1,2,0:0:0:0:
288,160,43641,1,0,0:0:0:0:
288,160,43849,1,2,0:0:0:0:
256,160,44266,1,2,0:0:0:0:
160,128,44474,1,0,0:0:0:0:
256,160,44683,1,2,0:0:0:0:
160,160,44891,1,0,0:0:0:0:
256,160,44995,1,2,0:0:0:0:
256,160,45308,1,0,0:0:0:0:
256,160,45516,1,2,0:0:0:0:
224,160,45933,1,0,0:0:0:0:
224,160,46037,1,2,0:0:0:0:
224,256,46245,1,0,0:0:0:0:
224,256,46349,1,2,0:0:0:0:
224,256,46662,1,2,0:0:0:0:
224,256,46974,1,0,0:0:0:0:
224,256,47183,1,2,0:0:0:0:
224,128,47599,1,6,0:0:0:0:
256,192,47912,1,0,0:0:0:0:
256,192,48016,1,2,0:0:0:0:
224,128,48224,1,0,0:0:0:0:
256,192,48328,1,2,0:0:0:0:
256,192,48641,1,0,0:0:0:0:
256,192,48849,1,2,0:0:0:0:
224,64,49266,1,0,0:0:0:0:
267,158,49474,1,0,0:0:0:0:
256,96,49578,1,0,0:0:0:0:
224,64,49683,1,2,0:0:0:0:
224,224,49891,1,0,0:0:0:0:
224,64,49995,1,2,0:0:0:0:
224,64,50308,1,0,0:0:0:0:
224,64,50516,1,2,0:0:0:0:
224,64,50933,1,0,0:0:0:0:
256,96,51245,1,0,0:0:0:0:
192,96,51349,1,2,0:0:0:0:
192,256,51558,1,0,0:0:0:0:
192,96,51662,1,2,0:0:0:0:
224,160,51974,1,0,0:0:0:0:
224,160,52183,1,2,0:0:0:0:
224,160,52391,1,6,0:0:0:0:
286,95,52808,1,0,0:0:0:0:
286,95,52912,1,0,0:0:0:0:
224,160,53016,1,6,0:0:0:0:
224,160,53328,1,2,0:0:0:0:
224,160,53641,1,0,0:0:0:0:
230,194,53849,1,2,0:0:0:0:
224,160,54266,1,4,0:0:0:0:
288,288,54891,1,2,0:0:0:0:
192,256,55516,1,2,0:0:0:0:
192,256,55933,1,0,0:0:0:0:
192,256,56558,1,2,0:0:0:0:
179,137,57183,1,2,0:0:0:0:
192,256,57599,1,0,0:0:0:0:
192,256,58224,1,2,0:0:0:0:
102,150,58849,1,2,0:0:0:0:
102,150,59266,1,0,0:0:0:0:
192,320,60099,1,0,0:0:0:0:
192,320,60516,1,2,0:0:0:0:
224,224,60933,1,4,0:0:0:0:
292,115,61349,1,0,0:0:0:0:
292,115,61766,1,0,0:0:0:0:
292,115,62183,1,2,0:0:0:0:
256,192,62599,1,0,0:0:0:0:
256,192,62808,1,0,0:0:0:0:
256,192,63016,1,0,0:0:0:0:
256,192,63224,1,0,0:0:0:0:
256,192,63433,1,2,0:0:0:0:
256,192,63641,1,2,0:0:0:0:
256,192,63849,1,2,0:0:0:0:
256,192,64058,1,0,0:0:0:0:
224,224,64266,1,6,0:0:0:0:
160,64,64474,1,0,0:0:0:0:
224,224,64683,1,0,0:0:0:0:
224,224,64891,1,2,0:0:0:0:
224,224,65099,1,0,0:0:0:0:
224,224,65308,1,0,0:0:0:0:
256,192,65516,1,2,0:0:0:0:
256,192,65724,1,0,0:0:0:0:
192,128,66141,1,0,0:0:0:0:
192,128,66974,1,0,0:0:0:0:
192,128,67078,1,0,0:0:0:0:
192,128,67183,1,2,0:0:0:0:
256,192,67599,1,4,0:0:0:0:
256,224,68016,1,2,0:0:0:0:
320,224,68224,1,0,0:0:0:0:
256,224,68328,1,2,0:0:0:0:
256,224,68641,1,0,0:0:0:0:
256,224,68849,1,2,0:0:0:0:
256,224,69266,1,0,0:0:0:0:
256,224,69474,1,0,0:0:0:0:
256,224,69683,1,2,0:0:0:0:
320,224,69891,1,0,0:0:0:0:
256,224,69995,1,2,0:0:0:0:
288,160,70308,1,0,0:0:0:0:
288,160,70516,1,2,0:0:0:0:
288,160,70828,1,2,0:0:0:0:
288,224,70933,1,0,0:0:0:0:
320,224,71141,1,0,0:0:0:0:
320,128,71349,1,2,0:0:0:0:
320,224,71558,1,0,0:0:0:0:
320,128,71662,1,2,0:0:0:0:
320,128,71974,1,0,0:0:0:0:
320,128,72183,1,2,0:0:0:0:
224,224,72287,1,0,0:0:0:0:
224,224,72391,1,0,0:0:0:0:
320,128,72599,1,0,0:0:0:0:
320,128,72808,1,0,0:0:0:0:
320,128,73016,1,2,0:0:0:0:
320,128,73328,1,2,0:0:0:0:
320,128,73433,1,0,0:0:0:0:
320,128,73641,1,0,0:0:0:0:
320,128,73849,1,2,0:0:0:0:
256,160,74058,1,2,0:0:0:0:
256,160,74162,1,2,0:0:0:0:
256,160,74266,1,4,0:0:0:0:
256,160,74683,1,2,0:0:0:0:
198,139,74891,1,2,0:0:0:0:
180,95,74995,1,2,0:0:0:0:
198,139,75099,1,0,0:0:0:0:
256,160,75308,1,0,0:0:0:0:
277,132,75412,1,2,0:0:0:0:
256,128,75620,1,0,0:0:0:0:
256,128,75724,1,2,0:0:0:0:
256,160,75828,1,2,0:0:0:0:
270,158,75933,1,2,0:0:0:0:
270,158,76141,1,0,0:0:0:0:
256,160,76349,1,2,0:0:0:0:
259,174,76558,1,0,0:0:0:0:
259,174,76662,1,2,0:0:0:0:
249,237,76870,1,0,0:0:0:0:
249,237,76974,1,0,0:0:0:0:
256,160,77183,1,2,0:0:0:0:
288,288,77495,1,2,0:0:0:0:
288,224,77599,1,0,0:0:0:0:
384,160,77808,1,0,0:0:0:0:
320,128,78016,1,2,0:0:0:0:
384,160,78224,1,0,0:0:0:0:
256,224,78328,1,2,0:0:0:0:
157,170,78433,1,0,0:0:0:0:
256,160,78641,1,0,0:0:0:0:
256,160,78849,1,2,0:0:0:0:
256,160,79058,1,6,0:0:0:0:
256,160,79474,1,0,0:0:0:0:
256,160,79683,1,2,0:0:0:0:
234,170,79891,1,2,0:0:0:0:
234,170,79995,1,0,0:0:0:0:
234,170,80099,1,2,0:0:0:0:
234,170,80203,1,2,0:0:0:0:
256,160,80516,1,2,0:0:0:0:
256,160,80933,1,4,0:0:0:0:
256,160,81349,1,2,0:0:0:0:
384,160,81558,1,0,0:0:0:0:
256,160,81662,1,2,0:0:0:0:
256,160,81974,1,0,0:0:0:0:
256,160,82183,1,2,0:0:0:0:
256,160,82599,1,0,0:0:0:0:
256,160,82808,1,0,0:0:0:0:
384,160,82912,1,0,0:0:0:0:
256,160,83016,1,2,0:0:0:0:
384,160,83224,1,0,0:0:0:0:
224,192,83328,1,2,0:0:0:0:
288,224,83641,1,0,0:0:0:0:
288,224,83849,1,2,0:0:0:0:
288,224,84162,1,2,0:0:0:0:
416,288,84266,1,0,0:0:0:0:
384,160,84474,1,0,0:0:0:0:
384,160,84578,1,0,0:0:0:0:
384,192,84683,1,2,0:0:0:0:
384,160,84891,1,0,0:0:0:0:
416,288,84995,1,2,0:0:0:0:
321,245,85308,1,0,0:0:0:0:
281,178,85516,1,2,0:0:0:0:
384,160,85620,1,0,0:0:0:0:
384,160,85724,1,0,0:0:0:0:
320,224,85933,1,0,0:0:0:0:
320,224,86141,1,0,0:0:0:0:
221,79,86349,1,2,0:0:0:0:
320,224,86662,1,2,0:0:0:0:
320,224,86974,1,0,0:0:0:0:
320,224,87078,1,0,0:0:0:0:
320,224,87183,1,2,0:0:0:0:
320,224,87599,1,4,0:0:0:0:
320,224,88016,1,2,0:0:0:0:
384,160,88224,1,0,0:0:0:0:
320,224,88328,1,2,0:0:0:0:
320,224,88641,1,0,0:0:0:0:
320,224,88849,1,2,0:0:0:0:
320,224,89058,1,4,0:0:0:0:
320,224,89474,1,0,0:0:0:0:
320,224,89683,1,2,0:0:0:0:
288,160,89891,1,0,0:0:0:0:
320,224,89995,1,2,0:0:0:0:
320,224,90308,1,2,0:0:0:0:
320,224,90516,1,2,0:0:0:0:
320,224,90933,1,4,0:0:0:0:
320,224,91349,1,2,0:0:0:0:
245,221,91558,1,0,0:0:0:0:
320,224,91766,1,2,0:0:0:0:
320,224,91974,1,0,0:0:0:0:
320,224,92183,1,0,0:0:0:0:
320,224,92391,1,6,0:0:0:0:
320,224,92808,1,0,0:0:0:0:
320,224,93224,1,6,0:0:0:0:
320,224,93641,1,0,0:0:0:0:
320,224,93745,1,0,0:0:0:0:
320,224,93849,1,6,0:0:0:0:
320,224,94266,1,0,0:0:0:0:
192,288,94683,1,2,0:0:0:0:
192,288,94995,1,2,0:0:0:0:
192,288,95308,1,0,0:0:0:0:
192,288,95516,1,2,0:0:0:0:
256,224,95933,1,0,0:0:0:0:
256,224,96141,1,0,0:0:0:0:
256,224,96349,1,2,0:0:0:0:
192,128,96662,1,2,0:0:0:0:
192,128,96974,1,0,0:0:0:0:
192,128,97183,1,2,0:0:0:0:
192,128,97599,1,0,0:0:0:0:
192,128,98016,1,2,0:0:0:0:
192,128,98328,1,2,0:0:0:0:
192,128,98641,1,0,0:0:0:0:
192,128,98849,1,2,0:0:0:0:
256,192,99266,1,0,0:0:0:0:
192,128,99370,1,2,0:0:0:0:
192,128,99578,1,0,0:0:0:0:
192,128,99683,1,2,0:0:0:0:
224,64,99995,1,2,0:0:0:0:
224,64,100308,1,0,0:0:0:0:
224,64,100516,1,2,0:0:0:0:
224,64,100933,1,6,0:0:0:0:
256,160,101349,1,2,0:0:0:0:
256,160,101662,1,2,0:0:0:0:
256,160,101974,1,0,0:0:0:0:
256,160,102183,1,2,0:0:0:0:
256,160,102599,1,0,0:0:0:0:
256,160,102808,1,0,0:0:0:0:
256,160,103016,1,2,0:0:0:0:
256,160,103328,1,2,0:0:0:0:
256,160,103641,1,0,0:0:0:0:
256,160,103849,1,2,0:0:0:0:
256,160,104266,1,0,0:0:0:0:
256,160,104683,1,6,0:0:0:0:
256,160,105099,1,2,0:0:0:0:
256,160,105308,1,0,0:0:0:0:
256,160,105724,1,2,0:0:0:0:
259,186,106141,1,2,0:0:0:0:
259,186,106558,1,0,0:0:0:0:
259,186,106974,1,2,0:0:0:0:
259,186,107183,1,0,0:0:0:0:
320,128,120308,5,0,0:0:0:0:
320,128,120516,1,2,0:0:0:0:
288,192,120933,1,4,0:0:0:0:
256,96,121349,1,2,0:0:0:0:
288,160,121558,1,0,0:0:0:0:
256,96,121662,1,2,0:0:0:0:
256,96,121974,1,0,0:0:0:0:
256,96,122183,1,2,0:0:0:0:
224,160,122599,1,0,0:0:0:0:
224,160,122808,1,0,0:0:0:0:
224,160,123016,1,2,0:0:0:0:
288,160,123224,1,0,0:0:0:0:
224,160,123328,1,2,0:0:0:0:
224,160,123641,1,0,0:0:0:0:
224,160,123849,1,2,0:0:0:0:
224,160,124266,1,0,0:0:0:0:
192,128,124474,1,0,0:0:0:0:
224,160,124683,1,2,0:0:0:0:
192,128,124891,1,0,0:0:0:0:
224,160,124995,1,2,0:0:0:0:
224,160,125308,1,0,0:0:0:0:
224,160,125516,1,2,0:0:0:0:
224,160,125933,1,0,0:0:0:0:
224,160,126037,1,2,0:0:0:0:
224,160,126245,1,0,0:0:0:0:
224,160,126349,1,2,0:0:0:0:
224,160,126662,1,2,0:0:0:0:
224,160,126974,1,0,0:0:0:0:
224,160,127183,1,2,0:0:0:0:
224,160,127599,1,6,0:0:0:0:
256,224,128016,1,2,0:0:0:0:
256,224,128328,1,2,0:0:0:0:
224,128,128433,1,0,0:0:0:0:
256,224,128641,1,0,0:0:0:0:
256,224,128849,1,2,0:0:0:0:
288,224,129266,1,0,0:0:0:0:
256,224,129474,1,0,0:0:0:0:
256,224,129683,1,2,0:0:0:0:
288,224,129995,1,2,0:0:0:0:
224,128,130099,1,0,0:0:0:0:
288,224,130308,1,0,0:0:0:0:
288,224,130516,1,2,0:0:0:0:
288,224,130933,1,0,0:0:0:0:
224,128,131141,1,0,0:0:0:0:
288,224,131349,1,2,0:0:0:0:
288,224,131662,1,2,0:0:0:0:
224,128,131766,1,0,0:0:0:0:
288,224,131974,1,0,0:0:0:0:
288,224,132183,1,2,0:0:0:0:
288,224,132599,1,0,0:0:0:0:
288,224,132703,1,2,0:0:0:0:
288,224,132912,1,0,0:0:0:0:
288,224,133016,1,2,0:0:0:0:
288,224,133328,1,2,0:0:0:0:
288,224,133641,1,0,0:0:0:0:
288,224,133849,1,2,0:0:0:0:
288,224,134266,1,4,0:0:0:0:
192,256,134578,1,0,0:0:0:0:
192,256,134891,1,2,0:0:0:0:
224,256,135308,1,0,0:0:0:0:
224,256,135516,1,2,0:0:0:0:
352,224,135933,1,0,0:0:0:0:
352,224,136037,1,0,0:0:0:0:
352,224,136245,1,0,0:0:0:0:
352,224,136349,1,0,0:0:0:0:
352,224,136558,1,2,0:0:0:0:
224,224,136974,1,0,0:0:0:0:
224,224,137183,1,2,0:0:0:0:
224,160,137391,1,2,0:0:0:0:
224,160,137495,1,2,0:0:0:0:
192,96,137599,1,0,0:0:0:0:
256,96,137912,1,0,0:0:0:0:
224,160,138224,1,2,0:0:0:0:
224,224,138641,1,0,0:0:0:0:
224,224,138953,1,0,0:0:0:0:
352,192,139266,1,0,0:0:0:0:
352,192,139683,1,2,0:0:0:0:
352,192,140099,1,2,0:0:0:0:
352,192,140203,1,2,0:0:0:0:
352,192,140516,1,2,0:0:0:0:
352,192,140724,1,2,0:0:0:0:
352,192,140828,1,0,0:0:0:0:
352,192,140933,1,0,0:0:0:0:
231,155,141349,1,0,0:0:0:0:
231,155,141766,1,0,0:0:0:0:
231,155,142183,1,0,0:0:0:0:
256,192,142599,1,0,0:0:0:0:
256,192,142808,1,0,0:0:0:0:
256,192,143016,1,0,0:0:0:0:
256,192,143224,1,0,0:0:0:0:
256,192,143433,1,2,0:0:0:0:
256,192,143641,1,2,0:0:0:0:
256,192,143849,1,2,0:0:0:0:
256,192,144058,1,0,0:0:0:0:
256,192,144266,1,6,0:0:0:0:
192,64,144474,1,0,0:0:0:0:
192,64,144683,1,0,0:0:0:0:
224,96,144891,1,2,0:0:0:0:
192,96,145099,1,0,0:0:0:0:
192,96,145308,1,0,0:0:0:0:
192,96,145516,1,2,0:0:0:0:
192,96,145724,1,0,0:0:0:0:
192,96,146141,1,0,0:0:0:0:
192,128,146974,1,0,0:0:0:0:
192,128,147078,1,0,0:0:0:0:
192,128,147183,1,2,0:0:0:0:
256,192,147599,1,4,0:0:0:0:
192,320,148016,1,2,0:0:0:0:
288,192,148224,1,0,0:0:0:0:
128,192,148328,1,2,0:0:0:0:
224,128,148537,1,0,0:0:0:0:
192,320,148641,1,0,0:0:0:0:
128,192,148849,1,2,0:0:0:0:
256,128,149266,1,0,0:0:0:0:
224,128,149474,1,0,0:0:0:0:
224,128,149578,1,0,0:0:0:0:
256,224,149683,1,2,0:0:0:0:
224,128,149891,1,0,0:0:0:0:
288,128,149995,1,2,0:0:0:0:
224,128,150203,1,0,0:0:0:0:
288,128,150308,1,0,0:0:0:0:
288,128,150516,1,2,0:0:0:0:
288,128,150828,1,2,0:0:0:0:
288,128,150933,1,0,0:0:0:0:
224,192,151141,1,0,0:0:0:0:
224,192,151245,1,0,0:0:0:0:
288,128,151349,1,2,0:0:0:0:
256,192,151558,1,0,0:0:0:0:
352,288,151662,1,2,0:0:0:0:
256,192,151870,1,0,0:0:0:0:
256,160,151974,1,0,0:0:0:0:
256,160,152183,1,2,0:0:0:0:
256,160,152599,1,0,0:0:0:0:
96,256,152808,1,0,0:0:0:0:
256,224,152912,1,0,0:0:0:0:
96,256,153016,1,2,0:0:0:0:
256,224,153224,1,0,0:0:0:0:
288,128,153328,1,2,0:0:0:0:
256,224,153537,1,0,0:0:0:0:
224,224,153641,1,0,0:0:0:0:
224,224,153849,1,2,0:0:0:0:
224,192,154058,1,0,0:0:0:0:
224,192,154266,1,4,0:0:0:0:
256,160,154683,1,2,0:0:0:0:
288,128,154891,1,2,0:0:0:0:
231,181,154995,1,2,0:0:0:0:
231,181,155099,1,0,0:0:0:0:
256,160,155308,1,0,0:0:0:0:
277,132,155412,1,2,0:0:0:0:
256,128,155620,1,0,0:0:0:0:
256,128,155724,1,2,0:0:0:0:
256,160,155828,1,2,0:0:0:0:
346,92,155933,1,0,0:0:0:0:
224,192,156141,1,0,0:0:0:0:
224,192,156349,1,2,0:0:0:0:
240,268,156558,1,0,0:0:0:0:
256,224,156662,1,2,0:0:0:0:
320,224,156766,1,0,0:0:0:0:
224,160,156974,1,0,0:0:0:0:
171,115,157183,1,2,0:0:0:0:
171,115,157287,1,0,0:0:0:0:
128,192,157495,1,2,0:0:0:0:
128,192,157599,1,0,0:0:0:0:
128,192,158016,1,2,0:0:0:0:
320,128,158224,1,0,0:0:0:0:
128,192,158328,1,2,0:0:0:0:
320,128,158537,1,0,0:0:0:0:
128,192,158641,1,0,0:0:0:0:
128,192,158849,1,2,0:0:0:0:
128,192,159058,1,4,0:0:0:0:
128,192,159474,1,0,0:0:0:0:
128,192,159683,1,6,0:0:0:0:
301,162,159891,1,2,0:0:0:0:
301,162,159995,1,0,0:0:0:0:
301,162,160099,1,2,0:0:0:0:
301,162,160203,1,2,0:0:0:0:
128,192,160516,1,2,0:0:0:0:
128,192,160933,1,4,0:0:0:0:
128,192,161349,1,2,0:0:0:0:
316,213,161453,1,0,0:0:0:0:
188,100,161558,1,0,0:0:0:0:
224,128,161662,1,2,0:0:0:0:
249,148,161870,1,2,0:0:0:0:
249,148,161974,1,0,0:0:0:0:
224,128,162183,1,2,0:0:0:0:
226,133,162599,1,2,0:0:0:0:
237,153,162808,1,0,0:0:0:0:
224,160,163016,1,2,0:0:0:0:
320,96,163224,1,0,0:0:0:0:
352,288,163328,1,2,0:0:0:0:
208,148,163537,1,0,0:0:0:0:
352,256,163641,1,0,0:0:0:0:
352,256,163849,1,2,0:0:0:0:
343,204,164162,1,2,0:0:0:0:
343,204,164266,1,0,0:0:0:0:
232,154,164474,1,2,0:0:0:0:
384,224,164683,1,2,0:0:0:0:
320,160,164787,1,0,0:0:0:0:
320,160,164891,1,0,0:0:0:0:
384,224,164995,1,2,0:0:0:0:
391,238,165203,1,0,0:0:0:0:
384,224,165308,1,0,0:0:0:0:
384,224,165516,1,2,0:0:0:0:
258,219,165933,1,0,0:0:0:0:
362,227,166141,1,0,0:0:0:0:
258,219,166349,1,2,0:0:0:0:
258,219,166453,1,0,0:0:0:0:
258,219,166558,1,0,0:0:0:0:
258,219,166662,1,2,0:0:0:0:
259,173,166974,1,0,0:0:0:0:
183,81,167078,1,0,0:0:0:0:
259,173,167183,1,2,0:0:0:0:
257,129,167391,1,2,0:0:0:0:
288,192,167599,1,4,0:0:0:0:
288,192,168016,1,2,0:0:0:0:
320,160,168224,1,0,0:0:0:0:
288,192,168328,1,2,0:0:0:0:
320,160,168537,1,0,0:0:0:0:
320,192,168641,1,0,0:0:0:0:
288,192,168849,1,2,0:0:0:0:
288,192,169058,1,4,0:0:0:0:
288,192,169474,1,0,0:0:0:0:
288,192,169683,1,2,0:0:0:0:
320,160,169787,1,0,0:0:0:0:
256,178,169891,1,0,0:0:0:0:
288,192,169995,1,2,0:0:0:0:
296,115,170203,1,2,0:0:0:0:
296,115,170308,1,0,0:0:0:0:
256,160,170516,1,2,0:0:0:0:
256,160,170933,1,4,0:0:0:0:
256,160,171349,1,2,0:0:0:0:
352,256,171558,1,0,0:0:0:0:
352,256,171766,1,2,0:0:0:0:
320,128,171974,1,0,0:0:0:0:
320,128,172183,1,0,0:0:0:0:
320,128,172391,1,6,0:0:0:0:
416,224,172808,1,0,0:0:0:0:
224,320,173224,1,6,0:0:0:0:
320,128,173641,1,0,0:0:0:0:
320,128,173745,1,0,0:0:0:0:
320,128,173849,1,6,0:0:0:0:
416,224,174266,1,0,0:0:0:0:
320,224,174683,1,0,0:0:0:0:
256,160,175099,1,0,0:0:0:0:
256,160,175516,1,0,0:0:0:0:
256,160,175933,1,0,0:0:0:0:
246,152,176349,1,2,0:0:0:0:
246,152,176766,1,2,0:0:0:0:
256,160,177183,1,0,0:0:0:0:
246,152,177599,1,2,0:0:0:0:
256,160,178016,1,0,0:0:0:0:
246,152,178433,1,2,0:0:0:0:
246,152,178849,1,2,0:0:0:0:
256,160,179266,1,0,0:0:0:0:
224,160,179683,1,0,0:0:0:0:
224,160,180099,1,0,0:0:0:0:
224,160,180308,1,2,0:0:0:0:
224,160,180516,1,0,0:0:0:0:
256,256,180933,1,4,0:0:0:0:
256,256,181349,1,0,0:0:0:0:
256,256,181766,1,0,0:0:0:0:
256,256,182183,1,0,0:0:0:0:
256,256,182599,1,0,0:0:0:0:
256,256,182808,1,2,0:0:0:0:
256,256,183016,1,2,0:0:0:0:
256,256,183120,1,2,0:0:0:0:
256,256,183224,1,2,0:0:0:0:
256,256,183433,1,2,0:0:0:0:
288,192,183849,1,2,0:0:0:0:
288,192,184266,1,0,0:0:0:0:
256,256,184683,1,0,0:0:0:0:
256,256,185099,1,0,0:0:0:0:
256,256,185516,1,0,0:0:0:0:
256,256,185933,1,0,0:0:0:0:
256,256,186141,1,2,0:0:0:0:
256,256,186349,1,0,0:0:0:0:
256,256,186766,1,0,0:0:0:0:
256,256,186974,1,0,0:0:0:0:
256,256,187183,1,2,0:0:0:0:
256,256,187599,1,4,0:0:0:0:
256,256,188016,1,0,0:0:0:0:
266,247,188224,1,2,0:0:0:0:
266,247,188433,1,2,0:0:0:0:
266,247,188849,1,2,0:0:0:0:
256,256,189266,1,0,0:0:0:0:
266,247,189683,1,2,0:0:0:0:
266,247,190099,1,0,0:0:0:0:
154,230,190516,1,2,0:0:0:0:
256,256,190933,1,6,0:0:0:0:
256,192,191349,1,0,0:0:0:0:
256,192,191766,1,0,0:0:0:0:
256,192,192183,1,0,0:0:0:0:
256,192,192391,1,2,0:0:0:0:
256,192,192495,1,2,0:0:0:0:
256,192,192599,1,0,0:0:0:0:
256,192,192808,1,0,0:0:0:0:
256,192,193016,1,2,0:0:0:0:
256,192,193433,1,2,0:0:0:0:
256,192,193849,1,2,0:0:0:0:
256,192,194266,1,4,0:0:0:0:
256,192,194891,1,0,0:0:0:0:
256,192,194995,1,0,0:0:0:0:
256,192,195099,1,2,0:0:0:0:
256,96,195724,1,0,0:0:0:0:
256,96,196141,1,0,0:0:0:0:
256,96,196558,1,0,0:0:0:0:
297,192,196662,1,0,0:0:0:0:
256,96,196766,1,2,0:0:0:0:
256,96,197391,1,0,0:0:0:0:
288,160,197599,1,4,0:0:0:0:
288,160,198224,1,0,0:0:0:0:
288,160,198328,1,0,0:0:0:0:
288,160,198433,1,2,0:0:0:0:
256,256,199058,1,0,0:0:0:0:
256,256,199474,1,2,0:0:0:0:
256,256,199891,1,0,0:0:0:0:
256,256,199995,1,0,0:0:0:0:
256,256,200099,1,2,0:0:0:0:
256,256,200516,1,2,0:0:0:0:
256,256,200933,1,4,0:0:0:0:
256,256,201558,1,0,0:0:0:0:
256,256,201662,1,0,0:0:0:0:
256,256,201766,1,2,0:0:0:0:
256,128,202391,1,0,0:0:0:0:
256,128,202808,1,0,0:0:0:0:
256,128,203224,1,0,0:0:0:0:
256,128,203328,1,0,0:0:0:0:
256,128,203433,1,2,0:0:0:0:
256,128,204058,1,0,0:0:0:0:
256,128,204266,1,4,0:0:0:0:
256,128,204891,1,0,0:0:0:0:
256,128,204995,1,0,0:0:0:0:
256,128,205099,1,2,0:0:0:0:
224,192,205724,1,2,0:0:0:0:
256,192,217599,5,6,0:0:0:0:
256,192,217808,1,0,0:0:0:0:
256,192,217912,1,0,0:0:0:0:
288,192,218016,1,0,0:0:0:0:
288,192,218224,1,6,0:0:0:0:
256,192,218433,1,0,0:0:0:0:
256,192,218537,1,0,0:0:0:0:
288,192,218641,1,0,0:0:0:0:
288,192,218849,1,0,0:0:0:0:
288,192,219058,1,6,0:0:0:0:
288,160,219474,1,4,0:0:0:0:
288,160,220308,1,0,0:0:0:0:
288,160,220412,1,0,0:0:0:0:
288,160,220516,1,2,0:0:0:0:
288,160,220933,1,4,0:0:0:0:
224,288,221349,1,2,0:0:0:0:
288,160,221453,1,0,0:0:0:0:
288,160,221558,1,0,0:0:0:0:
224,288,221662,1,2,0:0:0:0:
256,192,221766,1,0,0:0:0:0:
224,256,221974,1,0,0:0:0:0:
224,288,222183,1,2,0:0:0:0:
224,288,222599,1,0,0:0:0:0:
224,288,222808,1,0,0:0:0:0:
224,288,223016,1,2,0:0:0:0:
323,248,223120,1,0,0:0:0:0:
323,248,223224,1,2,0:0:0:0:
323,248,223328,1,2,0:0:0:0:
323,248,223433,1,0,0:0:0:0:
224,288,223641,1,0,0:0:0:0:
224,288,223849,1,2,0:0:0:0:
224,288,224162,1,2,0:0:0:0:
288,160,224266,1,0,0:0:0:0:
288,160,224474,1,0,0:0:0:0:
224,288,224683,1,2,0:0:0:0:
288,160,224787,1,0,0:0:0:0:
288,160,224891,1,0,0:0:0:0:
224,288,224995,1,2,0:0:0:0:
288,160,225099,1,0,0:0:0:0:
224,288,225308,1,0,0:0:0:0:
224,288,225516,1,2,0:0:0:0:
288,160,225828,1,0,0:0:0:0:
224,288,225933,1,0,0:0:0:0:
224,288,226141,1,0,0:0:0:0:
224,288,226349,1,2,0:0:0:0:
288,160,226453,1,0,0:0:0:0:
288,160,226558,1,2,0:0:0:0:
224,288,226662,1,2,0:0:0:0:
288,160,226766,1,0,0:0:0:0:
224,288,226974,1,0,0:0:0:0:
224,288,227183,1,2,0:0:0:0:
224,288,227599,1,4,0:0:0:0:
224,288,228016,1,2,0:0:0:0:
224,288,228328,1,0,0:0:0:0:
288,160,228433,1,2,0:0:0:0:
160,192,228641,1,0,0:0:0:0:
224,288,228849,1,2,0:0:0:0:
224,288,229058,1,0,0:0:0:0:
192,160,229474,1,0,0:0:0:0:
224,160,229578,1,0,0:0:0:0:
224,288,229683,1,2,0:0:0:0:
224,160,229787,1,0,0:0:0:0:
224,288,229995,1,2,0:0:0:0:
224,96,230099,1,0,0:0:0:0:
288,160,230308,1,0,0:0:0:0:
128,192,230516,1,2,0:0:0:0:
128,192,230933,1,0,0:0:0:0:
192,224,231141,1,0,0:0:0:0:
192,224,231245,1,0,0:0:0:0:
128,192,231349,1,2,0:0:0:0:
224,160,231453,1,0,0:0:0:0:
128,192,231662,1,2,0:0:0:0:
320,160,231766,1,0,0:0:0:0:
128,192,231974,1,0,0:0:0:0:
320,128,232183,1,0,0:0:0:0:
128,192,232391,1,2,0:0:0:0:
128,192,232808,1,0,0:0:0:0:
128,192,233224,1,0,0:0:0:0:
128,192,233433,1,2,0:0:0:0:
128,192,233849,1,2,0:0:0:0:
128,192,234058,1,2,0:0:0:0:
128,192,234162,1,2,0:0:0:0:
128,192,234266,1,4,0:0:0:0:
192,160,234891,1,0,0:0:0:0:
192,160,235099,1,2,0:0:0:0:
192,160,235308,1,0,0:0:0:0:
192,160,235724,1,0,0:0:0:0:
192,160,236141,1,0,0:0:0:0:
192,160,236558,1,0,0:0:0:0:
192,160,236662,1,0,0:0:0:0:
192,160,236766,1,2,0:0:0:0:
192,160,236974,1,0,0:0:0:0:
192,160,237183,1,2,0:0:0:0:
192,160,237599,1,0,0:0:0:0:
192,160,238016,1,2,0:0:0:0:
320,224,238120,1,0,0:0:0:0:
320,224,238224,1,0,0:0:0:0:
192,160,238433,1,2,0:0:0:0:
320,224,238641,1,0,0:0:0:0:
352,192,238849,1,0,0:0:0:0:
192,160,239058,1,6,0:0:0:0:
192,160,239474,1,0,0:0:0:0:
192,160,239683,1,0,0:0:0:0:
192,160,239891,1,0,0:0:0:0:
192,160,240099,1,2,0:0:0:0:
192,160,240308,1,2,0:0:0:0:
166,176,240516,1,0,0:0:0:0:
192,160,240933,1,2,0:0:0:0:
