osu file format v14

[General]
AudioFilename: OUR SHIP FELT.mp3
AudioLeadIn: 0
PreviewTime: 66343
Countdown: 0
SampleSet: Soft
StackLeniency: 0.5
Mode: 0
LetterboxInBreaks: 0
WidescreenStoryboard: 0

[Editor]
Bookmarks: 27593,40927,54260,60927,107593,120927,134260,147593,180927,194260,207593,220927
DistanceSpacing: 1
BeatDivisor: 4
GridSize: 8
TimelineZoom: 0.8999999

[Metadata]
Title:OUR SHIP
TitleUnicode:OUR SHIP
Artist:FELT
ArtistUnicode:FELT
Creator:MokouSmoke
Version:Normal
Source:東方Project
Tags:舞花 Maika 美歌 Mika NAGI☆ Spatial Moving Comiket89 東方夢時空 Touhou Phantasmagoria Dim Dream Yumemi Okazaki Strawberry Crisis StrawberryCrisis!! ZUN
BeatmapID:876675
BeatmapSetID:403065

[Difficulty]
HPDrainRate:3
CircleSize:3.5
OverallDifficulty:4
ApproachRate:5
SliderMultiplier:1.2
SliderTickRate:1

[Events]
//Background and Video events
0,0,"yumemi okazaki.jpg",0,0
//Break Periods
2,54460,59727
2,174459,179727
2,207593,216393
//Storyboard Layer 0 (Background)
//Storyboard Layer 1 (Fail)
//Storyboard Layer 2 (Pass)
//Storyboard Layer 3 (Foreground)
//Storyboard Sound Samples

[TimingPoints]
927.23108616857,416.666666666667,4,2,1,50,1,0
25927,-100,4,2,1,20,0,0
27593,-100,4,2,1,50,0,0
60927,-100,4,2,1,50,0,0
62593,-100,4,2,1,60,0,0
66968,-100,4,2,1,35,0,0
67593,-100,4,2,1,70,0,1
94260,-100,4,2,1,35,0,0
104885,-100,4,3,0,35,0,0
107593,-100,4,2,2,40,0,0
119468,-100,4,2,2,15,0,0
120927,-100,4,2,1,50,0,0
134260,-100,4,2,1,85,0,0
134468,-100,4,2,1,50,0,0
134573,-100,4,2,1,70,0,0
134781,-100,4,2,1,50,0,0
135927,-100,4,2,1,85,0,0
136135,-100,4,2,1,50,0,0
136239,-100,4,2,1,70,0,0
136448,-100,4,2,1,50,0,0
137593,-100,4,2,1,85,0,0
137802,-100,4,2,1,50,0,0
137906,-100,4,2,1,70,0,0
138114,-100,4,2,1,50,0,0
142593,-100,4,2,1,60,0,0
146968,-100,4,2,1,30,0,0
147593,-100,4,2,1,70,0,1
174260,-100,4,2,1,35,0,0
180927,-100,4,2,1,50,0,0
183843,-100,4,3,0,50,0,0
184260,-100,4,2,1,75,0,0
184468,-100,4,2,1,55,0,0
187177,-100,4,2,1,45,0,0
187593,-100,4,2,1,75,0,0
187802,-100,4,2,1,60,0,0
190927,-100,4,2,1,75,0,0
191135,-100,4,2,1,70,0,0
204052,-100,4,2,1,60,0,0
204260,-100,4,2,1,70,0,0
205718,-100,4,2,1,50,0,0
206135,-100,4,2,1,30,0,0
217593,-100,4,2,1,55,0,0
220927,-100,4,2,1,80,0,1
232385,-100,4,2,1,70,0,0
234260,-100,4,2,1,70,0,1
240510,-100,4,2,1,50,0,1
240927,-100,4,2,1,50,0,0

[Colours]
Combo1 : 172,193,100
Combo2 : 204,66,66
Combo3 : 130,181,163
Combo4 : 165,143,171

[HitObjects]
256,192,24260,12,0,25927,0:0:0:0:
194,298,27593,5,6,0:0:0:0:
72,302,28010,1,8,0:0:0:0:
138,198,28427,2,0,P|170:185|207:183,1,60,0|2,0:0|0:0,0:0:0:0:
253,198,28843,1,8,0:0:0:0:
359,255,29260,1,2,0:0:0:0:
456,186,29677,1,8,0:0:0:0:
469,298,30093,2,0,P|436:346|382:372,1,120,0|8,0:0|0:0,0:0:0:0:
268,334,30927,6,0,L|244:216,1,120,6|8,0:0|0:0,0:0:0:0:
127,188,31760,2,0,L|139:247,2,60,0|2|8,0:0|0:0|0:0,0:0:0:0:
101,69,32593,2,0,P|163:82|237:76,1,120,2|8,0:0|0:0,0:0:0:0:
332,38,33427,1,0,0:0:0:0:
442,84,33843,1,12,0:0:0:0:
433,204,34260,6,0,P|395:253|327:278,1,120,6|8,0:0|0:0,0:0:0:0:
228,239,35093,2,0,P|185:239|144:255,1,60,0|2,0:0|0:0,0:0:0:0:
118,275,35510,1,8,0:0:0:0:
6,230,35927,2,0,B|-4:171|-4:171|16:113,1,120,2|8,0:0|0:0,0:0:0:0:
116,49,36760,1,0,0:0:0:0:
202,132,37177,2,0,P|230:134|264:129,1,60,8|0,0:0|0:0,0:0:0:0:
316,106,37593,5,6,0:0:0:0:
421,46,38010,1,8,0:0:0:0:
452,161,38427,2,0,P|456:191|452:227,2,60,0|2|8,0:0|0:0|0:0,0:0:0:0:
335,181,39260,2,0,P|331:242|341:301,1,120,2|8,0:0|0:0,0:0:0:0:
452,343,40093,1,4,0:0:0:0:
452,343,40302,2,0,L|452:282,1,60,2|2,0:3|0:3,0:0:0:0:
453,162,40927,6,0,P|394:176|335:181,1,120,6|8,0:0|0:0,0:0:0:0:
217,155,41760,2,0,L|210:89,1,60,0|2,0:0|0:0,0:0:0:0:
183,41,42177,1,8,0:0:0:0:
91,118,42593,2,0,P|89:176|96:240,1,120,0|8,0:0|0:0,0:0:0:0:
153,343,43427,1,0,0:0:0:0:
212,239,43843,1,8,0:0:0:0:
311,306,44260,6,0,P|374:312|444:300,1,120,6|8,0:0|0:0,0:0:0:0:
503,209,45093,2,0,L|505:137,1,60,0|2,0:0|0:0,0:0:0:0:
496,90,45510,1,8,0:0:0:0:
400,163,45927,2,0,L|398:222,2,60,2|0|8,0:0|0:0|0:0,0:0:0:0:
377,44,46760,2,0,P|319:32|261:44,1,120,0|12,0:0|0:0,0:0:0:0:
146,77,47593,6,0,P|176:129|230:160,1,120,6|8,0:0|0:0,0:0:0:0:
347,147,48427,2,0,P|384:139|431:139,2,60,0|2|8,0:0|0:0|0:0,0:0:0:0:
295,255,49260,2,0,P|351:269|410:257,1,120,2|8,0:0|0:0,0:0:0:0:
512,192,50093,1,0,0:0:0:0:
511,312,50510,2,0,P|497:338|474:357,1,60,8|0,0:0|0:0,0:0:0:0:
413,370,50927,6,0,B|352:370|302:345|302:345|274:356|231:359,1,180,6|0,0:0|0:0,0:0:0:0:
123,322,51968,2,0,P|115:282|117:242,1,60,2|8,0:0|0:0,0:0:0:0:
168,235,52385,2,0,P|234:227|285:210,1,120,4|2,0:0|0:0,0:0:0:0:
333,175,53010,2,0,L|333:79,2,90,8|8|2,0:0|0:0|0:0,0:0:0:0:
381,210,53843,2,0,P|418:223|448:230,1,60,8|0,0:0|0:0,0:0:0:0:
497,234,54260,1,14,0:0:0:0:
148,144,60927,6,0,L|131:280,1,120,12|2,1:0|0:0,0:0:0:0:
220,345,61760,2,0,L|234:225,1,120,8|2,1:0|0:0,0:0:0:0:
248,105,62593,1,8,1:0:0:0:
345,177,63010,1,2,0:0:0:0:
331,297,63427,1,8,1:0:0:0:
442,249,63843,1,2,0:0:0:0:
512,151,64260,6,0,B|449:135|449:135,1,60,12|2,1:0|0:0,0:0:0:0:
394,142,64677,1,2,0:0:0:0:
345,177,64885,2,0,B|282:191|282:191|191:177,1,120,12|2,1:0|0:0,0:0:0:0:
173,156,65510,2,0,L|115:101,1,60,8|14,1:0|1:0,0:0:0:0:
54,23,66135,1,10,1:0:0:0:
286,98,66968,2,0,P|353:97|434:51,1,120,4|0,0:0|0:0,0:0:0:0:
456,51,67593,6,0,L|451:170,1,120,4|8,1:0|0:0,0:0:0:0:
448,291,68427,2,0,P|496:283|522:268,2,60,2|2|8,0:0|0:0|0:0,0:0:0:0:
395,261,69052,1,0,0:0:0:0:
346,227,69260,2,0,P|287:216|227:216,1,120,4|8,1:0|0:0,0:0:0:0:
112,246,70093,2,0,P|109:217|113:187,1,60,2|2,0:0|0:0,0:0:0:0:
119,126,70510,2,0,P|119:97|112:68,1,60,8|2,0:0|0:0,0:0:0:0:
90,11,70927,5,4,1:0:0:0:
16,103,71343,1,8,0:0:0:0:
0,219,71760,2,0,P|13:278|96:335,1,120,2|8,0:0|0:0,0:0:0:0:
106,291,72385,1,0,0:0:0:0:
162,271,72593,2,0,P|194:268|245:275,1,60,4|2,1:0|0:0,0:0:0:0:
280,281,73010,1,8,0:0:0:0:
400,275,73427,2,0,P|428:256|454:222,1,60,0|2,0:0|0:0,0:0:0:0:
467,181,73843,2,0,P|470:148|468:112,1,60,8|2,0:0|0:0,0:0:0:0:
436,72,74260,5,4,1:2:0:0:
325,122,74677,1,8,0:0:0:0:
215,73,75093,1,8,0:0:0:0:
113,136,75510,2,0,L|58:108,1,60,8|2,0:0|0:0,0:0:0:0:
6,79,75927,1,8,0:0:0:0:
34,195,76343,1,8,0:0:0:0:
150,223,76760,2,0,L|224:165,2,60,8|2|8,0:0|0:0|0:0,0:0:0:0:
65,308,77593,6,0,P|116:339|183:339,1,120,4|2,1:0|0:0,0:0:0:0:
223,305,78218,1,2,0:0:0:0:
223,305,78427,2,0,P|274:274|345:269,1,120,2|8,0:0|0:0,0:0:0:0:
392,277,79052,1,12,0:0:0:0:
432,164,79468,1,8,0:0:0:0:
407,46,79885,1,8,0:0:0:0:
353,73,80093,2,8,P|322:82|271:89,1,60
235,87,80510,2,8,P|205:81|176:72,1,60
123,46,80927,5,4,1:0:0:0:
146,163,81343,1,8,0:0:0:0:
52,237,81760,2,0,P|28:183|33:124,1,120,2|8,0:0|0:0,0:0:0:0:
123,46,82593,2,0,P|125:92|132:128,1,60,4|2,1:0|0:0,0:0:0:0:
146,163,83010,1,8,0:0:0:0:
257,200,83427,2,0,P|294:201|323:211,2,60,2|2|8,0:0|0:0|0:0,0:0:0:0:
226,252,84052,1,2,0:0:0:0:
209,310,84260,6,0,P|242:339|321:353,1,120,4|8,1:0|0:0,0:0:0:0:
363,244,85093,2,0,P|330:215|251:201,1,120,2|8,0:0|0:0,0:0:0:0:
198,212,85718,1,0,0:0:0:0:
140,228,85927,2,0,P|130:188|134:153,1,60,4|2,1:0|0:0,0:0:0:0:
142,110,86343,1,8,0:0:0:0:
257,70,86760,2,0,P|297:70|338:80,1,60,2|2,0:0|0:0,0:0:0:0:
372,97,87177,1,8,0:0:0:0:
454,184,87593,6,0,P|404:213|310:200,1,120,4|8,1:0|0:0,0:0:0:0:
290,184,88218,2,0,P|231:171|171:172,1,120,2|2,0:0|0:0,0:0:0:0:
112,186,88843,2,0,P|78:185|19:170,1,60,8|6,0:0|0:0,0:0:0:0:
28,67,89468,1,2,0:0:0:0:
28,67,89677,1,8,0:0:0:0:
146,89,90093,2,0,P|147:56|142:20,2,60,2|2|8,0:0|0:0|0:0,0:0:0:0:
143,149,90718,1,0,0:0:0:0:
128,208,90927,5,4,1:2:0:0:
243,176,91343,2,0,L|306:176,1,60,8|2,0:0|0:0,0:0:0:0:
357,201,91760,2,0,L|420:201,1,60,8|2,0:0|0:0,0:0:0:0:
512,128,92385,1,12,0:0:0:0:
462,18,92802,1,2,0:0:0:0:
375,100,93218,1,12,0:0:0:0:
273,45,93635,1,2,0:0:0:0:
273,45,93843,2,0,P|219:67|127:79,1,120,8|6,0:0|0:0,0:0:0:0:
41,104,94677,6,0,L|43:213,2,90,8|8|2,0:0|0:0|0:0,0:0:0:0:
40,43,95510,1,8,0:0:0:0:
153,80,95927,1,2,0:0:0:0:
264,123,96343,2,0,B|269:80|269:80|254:20,2,90,8|8|2,0:0|0:0|0:0,0:0:0:0:
248,178,97177,1,8,0:0:0:0:
195,285,97593,5,2,0:0:0:0:
140,178,98010,2,0,B|92:178|92:178|29:193,2,90,8|8|2,0:0|0:0|0:0,0:0:0:0:
197,194,98843,1,8,0:0:0:0:
301,253,99260,2,0,B|343:272|343:272|377:249|442:239,2,120,2|8|0,0:0|0:0|0:0,0:0:0:0:
266,203,100302,2,0,L|266:141,1,60,4|8,0:0|0:0,0:0:0:0:
206,38,100927,5,6,0:0:0:0:
164,150,101343,2,0,B|124:133|124:133|88:88,2,90,8|8|2,0:0|0:0|0:0,0:0:0:0:
223,161,102177,1,8,0:0:0:0:
341,146,102593,2,0,L|340:64,1,60,2|2,0:0|0:0,0:0:0:0:
352,27,103010,2,0,B|392:12|392:12|449:20,2,90,8|8|2,0:0|0:0|0:0,0:0:0:0:
298,53,103843,1,8,0:0:0:0:
201,125,104260,5,2,0:0:0:0:
243,237,104677,2,0,P|299:254|368:230,1,120,12|0,0:0|0:0,0:0:0:0:
405,203,105302,1,0,0:0:0:0:
394,322,105718,1,2,0:0:0:0:
107,118,107593,6,0,B|100:90|121:38|209:31|237:100|201:160|201:160|158:230|196:289,1,360,2|0,0:0|0:0,0:0:0:0:
316,289,109260,2,0,B|354:230|311:160|311:160|275:100|303:31|391:38|412:90|405:118,1,360
454,228,110927,6,0,P|523:142|481:24,1,240,2|0,0:0|0:0,0:0:0:0:
405,117,112177,1,0,0:0:0:0:
324,206,112593,2,0,P|286:97|356:6,1,240
411,240,114260,6,0,B|444:294|327:382|327:382|207:298|240:242,1,360,2|0,0:0|0:0,0:0:0:0:
290,132,115927,2,0,P|297:73|276:17,1,120,2|0,0:0|0:0,0:0:0:0:
178,88,116760,2,0,P|171:146|192:202,1,120,2|0,0:0|0:0,0:0:0:0:
275,289,117593,6,0,B|240:323|192:324|192:324|160:292|107:293,2,180,2|2|0,0:0|0:0|0:0,0:0:0:0:
323,178,119260,1,0,0:0:0:0:
355,138,120927,6,0,P|297:141|227:127,1,120,6|8,0:0|0:0,0:0:0:0:
122,92,121760,2,0,P|115:130|117:174,1,60,2|2,0:0|0:0,0:0:0:0:
121,211,122177,1,8,0:0:0:0:
181,314,122593,1,2,0:0:0:0:
241,210,123010,1,8,0:0:0:0:
354,171,123427,2,0,P|388:169|435:172,2,60,2|2|8,0:0|0:0|0:0,0:0:0:0:
236,150,124260,6,0,L|229:30,1,120,6|8,0:0|0:0,0:0:0:0:
126,92,125093,2,0,L|133:212,1,120,2|8,0:0|0:0,0:0:0:0:
165,331,125927,1,2,0:0:0:0:
277,290,126343,1,8,0:0:0:0:
321,179,126760,2,0,L|316:119,1,60,2|6,0:0|0:0,0:0:0:0:
323,60,127177,1,8,0:0:0:0:
408,145,127593,6,0,B|413:205|413:205|378:266,1,120,6|8,0:0|0:0,0:0:0:0:
268,293,128427,2,8,P|233:286|182:286,1,60,2|2,0:0|0:0,0:0:0:0:
148,285,128843,1,8,0:0:0:0:
29,264,129260,2,0,P|19:237|10:200,2,60,2|2|8,0:0|0:0|0:0,0:0:0:0:
101,360,130093,2,0,P|160:370|238:367,1,120,2|8,0:0|0:0,0:0:0:0:
277,352,130718,1,2,0:0:0:0:
334,332,130927,6,0,B|393:323|393:323|457:335,1,120,6|8,0:0|0:0,0:0:0:0:
481,219,131760,2,0,B|408:203|408:203|361:211,1,120,2|8,0:0|0:0,0:0:0:0:
254,266,132593,1,2,0:0:0:0:
240,146,133010,1,8,0:0:0:0:
134,204,133427,2,0,P|124:177|120:147,1,60,2|2,0:0|0:0,0:0:0:0:
120,87,133843,2,0,P|123:57|134:29,1,60,8|2,0:0|0:0,0:0:0:0:
194,36,134260,6,0,P|234:32|303:13,2,90,14|6|10,0:3|0:3|0:0,0:0:0:0:
74,28,135302,2,0,P|64:68|68:112,1,60,2|2,0:0|0:0,0:0:0:0:
86,204,135927,6,0,P|41:205|-5:184,2,90,6|6|10,0:3|0:3|0:0,0:0:0:0:
198,163,136968,2,0,P|204:193|203:223,1,60,2|8,0:0|0:0,0:0:0:0:
183,340,137593,6,0,P|226:339|283:313,2,90,14|6|10,0:3|0:3|0:0,0:0:0:0:
71,295,138635,2,0,P|68:265|69:235,1,60,2|2,0:0|0:0,0:0:0:0:
93,117,139260,2,0,P|161:146|230:150,1,120,2|12,0:0|0:0,0:0:0:0:
325,123,140093,2,8,P|323:85|318:55,2,60,8|0|8,1:0|0:0|1:0,1:0:0:0:
325,183,140718,1,8,1:0:0:0:
320,243,140927,6,0,P|338:301|398:346,1,120,12|2,1:0|0:0,0:0:0:0:
438,236,141760,2,0,L|436:117,1,120,8|2,1:0|0:0,0:0:0:0:
350,31,142593,1,12,1:0:0:0:
329,149,143010,1,2,0:0:0:0:
213,114,143427,1,8,1:0:0:0:
200,233,143843,1,2,0:0:0:0:
101,164,144260,6,0,L|49:230,2,60,12|2|2,1:0|0:0|0:0,0:0:0:0:
108,104,144885,1,8,1:0:0:0:
219,54,145302,2,0,L|212:113,1,60,2|8,0:0|1:0,0:0:0:0:
206,173,145718,1,14,1:0:0:0:
193,292,146135,1,14,1:0:0:0:
102,71,146968,2,0,P|158:52|231:57,1,120,4|0,0:0|0:0,0:0:0:0:
265,91,147593,6,0,P|322:108|381:104,1,120,4|8,1:0|0:0,0:0:0:0:
491,54,148427,2,0,P|491:105|485:138,1,60,2|2,0:0|0:0,0:0:0:0:
477,172,148843,1,8,0:0:0:0:
430,282,149260,2,0,L|447:364,2,60,4|2|8,1:0|0:0|0:0,0:0:0:0:
318,239,150093,2,0,P|288:237|258:244,1,60,2|2,0:0|0:0,0:0:0:0:
200,260,150510,2,0,P|171:260|142:253,1,60,8|2,0:0|0:0,0:0:0:0:
106,203,150927,6,0,L|107:135,1,60,4|0,1:0|0:0,0:0:0:0:
107,83,151343,1,8,0:0:0:0:
5,20,151760,2,0,L|2:139,1,120,2|8,0:0|0:0,0:0:0:0:
0,200,152385,1,0,0:0:0:0:
7,259,152593,2,0,B|31:288|73:295,1,60,4|2,1:0|0:0,0:0:0:0:
116,291,153010,1,8,0:0:0:0:
230,255,153427,2,0,P|267:256|313:271,1,60,0|2,0:0|0:0,0:0:0:0:
334,301,153843,2,0,P|370:310|418:310,1,60,8|2,0:0|0:0,0:0:0:0:
450,296,154260,5,4,1:2:0:0:
434,177,154677,1,8,0:0:0:0:
314,177,155093,1,8,0:0:0:0:
274,64,155510,1,8,0:0:0:0:
156,88,155927,2,0,P|154:56|159:23,2,60,8|2|8,0:0|0:0|0:0,0:0:0:0:
165,147,156552,1,2,0:0:0:0:
177,205,156760,2,0,P|179:266|165:334,1,120,8|8,0:0|0:0,0:0:0:0:
59,272,157593,6,0,P|57:211|71:143,1,120,4|2,1:0|0:0,0:0:0:0:
84,95,158218,1,2,0:0:0:0:
144,99,158427,2,0,P|204:94|284:59,1,120,2|8,0:0|0:0,0:0:0:0:
317,58,159052,2,0,L|314:200,1,120,12|8,0:0|0:0,0:0:0:0:
238,270,159885,1,8,0:0:0:0:
190,236,160093,2,8,P|185:203|187:169,1,60
198,118,160510,2,8,P|205:83|207:44,1,60
243,11,160927,6,0,P|300:37|356:43,1,120,4|8,1:0|0:0,0:0:0:0:
474,22,161760,1,2,0:0:0:0:
512,136,162177,2,0,P|482:154|423:167,1,60,8|2,0:0|0:0,0:0:0:0:
400,148,162593,2,0,P|364:142|320:146,1,60,4|2,1:0|0:0,0:0:0:0:
280,158,163010,1,8,0:0:0:0:
199,246,163427,2,0,P|164:251|117:246,1,60,2|2,0:0|0:0,0:0:0:0:
80,239,163843,2,0,P|47:225|9:196,1,60,8|2,0:0|0:0,0:0:0:0:
4,156,164260,5,4,1:0:0:0:
33,39,164677,1,8,0:0:0:0:
143,85,165093,2,0,B|203:109|277:86,1,120,2|8,0:0|0:0,0:0:0:0:
315,64,165718,1,0,0:0:0:0:
366,32,165927,2,0,P|398:19|449:17,2,60,4|2|8,1:0|0:0|0:0,0:0:0:0:
293,127,166760,2,0,L|292:203,1,60,2|2,0:0|0:0,0:0:0:0:
293,247,167177,1,8,0:0:0:0:
356,348,167593,6,0,P|404:287|406:212,1,120,4|8,1:0|0:0,0:0:0:0:
388,191,168218,2,0,P|379:126|386:63,1,120,2|2,0:0|0:0,0:0:0:0:
327,88,168843,2,0,P|297:92|267:93,1,60,8|6,0:0|0:0,0:0:0:0:
153,54,169468,2,0,P|123:51|92:54,1,60,2|8,0:0|0:0,0:0:0:0:
58,169,170093,2,0,P|116:174|183:168,1,120,2|8,0:0|0:0,0:0:0:0:
267,93,170927,5,4,1:2:0:0:
384,122,171343,2,0,L|374:190,1,60,8|2,0:0|0:0,0:0:0:0:
339,228,171760,2,0,L|329:295,1,60,8|2,0:0|0:0,0:0:0:0:
241,368,172385,1,12,0:0:0:0:
176,267,172802,1,2,0:0:0:0:
241,166,173218,1,12,0:0:0:0:
179,61,173635,1,2,0:0:0:0:
179,61,173843,2,0,P|136:102|119:159,1,120,8|4,0:0|0:0,0:0:0:0:
147,285,180927,6,0,P|301:349|408:220,1,360,2|2,0:0|0:0,0:0:0:0:
382,101,182593,2,0,P|227:36|120:165,1,360,2|2,0:0|0:0,0:0:0:0:
146,284,184260,6,0,B|207:270|233:209|233:209|291:241|348:214,1,240,6|2,0:0|0:0,0:0:0:0:
296,106,185510,1,2,0:0:0:0:
415,114,185927,2,0,P|466:195|404:321,1,240,2|2,0:0|0:0,0:0:0:0:
348,214,187177,1,8,0:0:0:0:
290,319,187593,6,0,P|232:331|173:323,1,120,6|2,0:0|0:0,0:0:0:0:
110,220,188427,2,0,L|107:80,1,120,2|2,0:0|0:0,0:0:0:0:
199,22,189260,2,0,L|201:141,1,120,2|2,0:0|0:0,0:0:0:0:
299,211,190093,2,0,L|296:91,1,120,2|10,0:0|0:0,0:0:0:0:
384,8,190927,5,6,0:0:0:0:
467,95,191343,1,2,0:0:0:0:
379,176,191760,1,2,0:0:0:0:
296,91,192177,2,8,L|224:80,1,60,2|8,0:0|0:0,0:0:0:0:
177,76,192593,1,12,0:0:0:0:
82,149,193010,2,0,L|140:162,1,60,12|2,0:0|0:0,0:0:0:0:
187,199,193427,2,0,L|245:212,1,60,8|2,0:0|0:0,0:0:0:0:
292,249,193843,2,0,L|350:262,1,60,8|2,0:0|0:0,0:0:0:0:
397,299,194260,5,12,1:0:0:0:
423,120,194885,1,2,0:0:0:0:
366,139,195093,2,8,B|305:151|305:151|253:126|253:126|177:146,1,180,8|8,1:0|1:0,1:0:0:0:
155,254,196135,1,8,1:0:0:0:
37,230,196552,2,8,L|46:324,1,60,8|8,1:0|1:0,1:0:0:0:
283,293,197593,6,0,L|292:111,1,180,12|2,1:0|0:0,0:0:0:0:
289,53,198427,2,0,B|235:66|235:66|183:24|116:46,1,180,8|8,1:0|1:0,0:0:0:0:
159,159,199468,1,8,1:0:0:0:
247,242,199885,1,8,1:0:0:0:
199,277,200093,2,0,P|140:281|86:257,1,120,8|4,1:0|0:0,0:0:0:0:
47,141,200927,6,0,B|108:122|160:160|160:160|228:124,1,180,12|2,1:0|0:0,0:0:0:0:
273,131,201760,2,0,B|327:159|327:159|379:121|440:140,1,180,8|8,1:0|1:0,0:0:0:0:
401,257,202802,1,8,1:0:0:0:
294,310,203218,2,8,L|288:244,1,60,8|8,1:0|1:0,1:0:0:0:
273,131,203843,1,0,0:0:0:0:
176,60,204260,6,8,B|140:113|161:174|161:174|182:235|146:288,1,240,8|8,1:0|1:0,1:0:0:0:
49,218,205510,1,0,0:0:0:0:
49,218,205718,2,0,P|33:145|38:93,1,120,8|0,1:0|0:0,0:0:0:0:
193,173,217593,6,0,L|140:117,2,60,12|2|2,0:0|0:0|0:0,0:0:0:0:
234,214,218218,2,0,L|227:293,2,60,12|2|2,0:0|0:0|0:0,0:0:0:0:
281,178,218843,1,12,0:0:0:0:
328,141,219052,1,12,0:0:0:0:
446,122,219468,1,8,0:0:0:0:
445,242,219885,1,2,0:0:0:0:
424,290,220093,2,0,P|399:308|348:323,1,60,2|2,0:0|0:0,0:0:0:0:
315,302,220510,2,0,P|285:304|257:314,1,60,8|2,0:0|0:0,0:0:0:0:
201,340,220927,6,0,L|196:194,1,120,4|8,1:0|0:0,0:0:0:0:
286,139,221760,2,0,L|288:198,2,60,2|2|8,0:0|0:0|0:0,0:0:0:0:
283,79,222385,1,2,0:0:0:0:
279,19,222593,2,0,P|225:44|167:58,1,120,4|8,1:0|0:0,0:0:0:0:
50,31,223427,2,2,L|58:109,1,60
84,143,223843,2,0,L|92:221,1,60,8|2,0:0|0:0,0:0:0:0:
118,255,224260,5,4,1:0:0:0:
180,152,224677,1,8,0:0:0:0:
214,264,225093,2,0,L|198:329,2,60,2|0|8,0:0|0:0|0:0,0:0:0:0:
244,212,225718,1,0,0:0:0:0:
298,183,225927,2,0,P|333:178|382:189,1,60,6|2,0:0|0:0,0:0:0:0:
413,205,226343,1,8,0:0:0:0:
489,297,226760,2,2,P|464:313|424:323,1,60
375,317,227177,1,8,0:0:0:0:
258,289,227593,6,0,P|211:326|153:339,1,120,4|8,1:0|0:0,0:0:0:0:
109,298,228218,2,2,L|109:223,2,60
66,340,228843,2,0,P|33:337|-5:320,1,60,8|6,0:0|0:0,0:0:0:0:
18,208,229468,2,0,P|24:177|27:148,1,60,2|8,0:0|0:0,0:0:0:0:
72,38,230093,2,0,P|106:51|138:52,1,60,2|0,0:0|0:0,0:0:0:0:
189,46,230510,1,8,0:0:0:0:
306,22,230927,6,0,P|302:85|258:145,1,120,4|8,1:0|0:0,0:0:0:0:
222,165,231552,2,0,L|137:145,1,60,2|8,0:0|0:0,0:0:0:0:
105,136,231968,1,2,0:0:0:0:
139,252,232385,1,12,0:0:0:0:
256,281,232802,2,0,L|320:268,1,60,2|0,0:0|0:0,0:0:0:0:
421,209,233427,2,0,L|421:135,2,60,8|2|8,0:0|0:0|0:0,0:0:0:0:
421,269,234052,1,2,0:0:0:0:
420,329,234260,6,0,P|351:332|295:307,1,120,4|2,1:0|0:0,0:0:0:0:
200,257,235093,2,0,P|164:255|110:264,1,60,12|2,0:0|0:0,0:0:0:0:
81,268,235510,1,0,0:0:0:0:
22,255,235718,2,0,P|2:196|6:140,1,120,12|2,0:0|0:0,0:0:0:0:
44,93,236343,1,8,0:0:0:0:
156,132,236760,2,0,P|143:159|124:182,2,60,6|2|8,0:0|0:0|0:0,0:0:0:0:
178,75,237385,1,0,0:0:0:0:
178,14,237593,5,4,1:2:0:0:
290,53,238010,2,0,L|302:126,1,60,8|2,0:0|0:0,0:0:0:0:
332,162,238427,2,0,L|344:235,1,60,8|2,0:0|0:0,0:0:0:0:
360,339,239052,1,12,0:0:0:0:
251,287,239468,1,2,0:0:0:0:
147,348,239885,1,12,0:0:0:0:
40,293,240302,1,2,0:0:0:0:
40,293,240510,2,0,P|80:246|158:228,1,120,2|0,0:0|0:0,0:0:0:0:
