osu file format v14

[General]
AudioFilename: OUR SHIP FELT.mp3
AudioLeadIn: 0
PreviewTime: 66343
Countdown: 0
SampleSet: Soft
StackLeniency: 0.5
Mode: 0
LetterboxInBreaks: 0
WidescreenStoryboard: 0

[Editor]
Bookmarks: 27593,40927,54260,60927,107593,120927,134260,147593,180927,194260,207593,220927
DistanceSpacing: 1
BeatDivisor: 4
GridSize: 4
TimelineZoom: 2

[Metadata]
Title:OUR SHIP
TitleUnicode:OUR SHIP
Artist:FELT
ArtistUnicode:FELT
Creator:MokouSmoke
Version:Lunatic
Source:東方Project
Tags:舞花 Maika 美歌 Mika NAGI☆ Spatial Moving Comiket89 東方夢時空 Touhou Phantasmagoria Dim Dream Yumemi Okazaki Strawberry Crisis StrawberryCrisis!! ZUN
BeatmapID:876674
BeatmapSetID:403065

[Difficulty]
HPDrainRate:6
CircleSize:4
OverallDifficulty:7
ApproachRate:8.5
SliderMultiplier:1.7
SliderTickRate:1

[Events]
//Background and Video events
0,0,"yumemi okazaki.jpg",0,0
//Break Periods
2,54460,60252
2,105918,106918
2,174459,180252
2,207593,216918
//Storyboard Layer 0 (Background)
//Storyboard Layer 1 (Fail)
//Storyboard Layer 2 (Pass)
//Storyboard Layer 3 (Foreground)
//Storyboard Sound Samples

[TimingPoints]
927.23108616857,416.666666666667,4,2,1,50,1,0
25927,-100,4,2,1,20,0,0
27593,-100,4,2,1,50,0,0
54260,-142.857142857143,4,2,1,50,0,0
60927,-100,4,2,1,50,0,0
62593,-100,4,2,1,60,0,0
65927,-100,4,2,1,15,0,0
66135,-100,4,2,1,60,0,0
66343,-100,4,2,1,15,0,0
66968,-100,4,2,1,35,0,0
67177,-142.857142857143,4,2,1,35,0,0
67593,-100,4,2,1,70,0,1
94260,-111.111111111111,4,2,1,35,0,0
104885,-111.111111111111,4,3,0,35,0,0
107593,-111.111111111111,4,2,2,40,0,0
119468,-100,4,2,2,15,0,0
120302,-142.857142857143,4,2,1,40,0,0
120718,-142.857142857143,4,2,1,15,0,0
120927,-100,4,2,1,50,0,0
134260,-100,4,2,1,85,0,0
134468,-100,4,2,1,50,0,0
134573,-100,4,2,1,70,0,0
134781,-100,4,2,1,50,0,0
135927,-100,4,2,1,85,0,0
136135,-100,4,2,1,50,0,0
136239,-100,4,2,1,70,0,0
136448,-100,4,2,1,50,0,0
137593,-100,4,2,1,85,0,0
137802,-100,4,2,1,50,0,0
137906,-100,4,2,1,70,0,0
138114,-100,4,2,1,50,0,0
142593,-100,4,2,1,60,0,0
146968,-142.857142857143,4,2,1,40,0,0
147593,-100,4,2,1,70,0,1
174260,-100,4,2,1,35,0,0
180927,-100,4,2,1,50,0,0
183843,-100,4,3,0,50,0,0
184052,-100,4,2,1,50,0,0
184260,-100,4,2,1,75,0,0
186968,-100,4,3,0,55,0,0
187177,-100,4,2,1,55,0,0
187593,-100,4,2,1,75,0,0
187802,-100,4,2,1,60,0,0
190927,-100,4,2,1,75,0,0
191135,-100,4,2,1,70,0,0
205718,-100,4,2,1,50,0,0
206135,-100,4,2,1,30,0,0
217593,-100,4,2,1,55,0,0
219468,-125,4,2,1,55,0,0
219677,-100,4,2,1,40,0,0
219885,-100,4,2,1,55,0,0
220927,-100,4,2,1,80,0,1
232385,-100,4,2,1,80,0,0
234260,-100,4,2,1,80,0,1
240510,-181.818181818182,4,2,1,80,0,1
240927,-100,4,2,1,50,0,0

[Colours]
Combo1 : 172,193,100
Combo2 : 204,66,66
Combo3 : 130,181,163
Combo4 : 165,143,171

[HitObjects]
256,192,24260,12,0,25927,0:0:0:0:
203,149,27593,5,6,0:0:0:0:
294,84,27802,1,0,0:0:0:0:
294,84,27906,1,0,0:0:0:0:
294,84,28010,2,0,P|348:109|433:96,1,127.5,8|8,0:0|0:0,0:0:0:0:
491,68,28427,2,0,L|483:161,1,85,0|2,0:0|0:0,0:0:0:0:
447,220,28739,1,0,0:0:0:0:
447,220,28843,2,0,L|439:313,1,85,8|0,0:0|0:0,0:0:0:0:
258,185,29260,5,2,0:0:0:0:
353,203,29468,1,0,0:0:0:0:
258,185,29677,2,0,P|215:201|162:210,1,85,8|0,0:0|0:0,0:0:0:0:
97,208,29989,1,8,0:0:0:0:
97,208,30093,2,0,L|105:105,1,85,0|2,0:0|0:0,0:0:0:0:
189,38,30510,2,0,L|183:123,1,85,8|0,0:0|0:0,0:0:0:0:
169,292,30927,5,6,0:0:0:0:
253,221,31135,1,0,0:0:0:0:
360,197,31343,1,8,0:0:0:0:
468,217,31552,2,0,L|469:161,1,42.5,0|8,0:0|0:0,0:0:0:0:
460,295,31760,2,0,P|389:331|278:319,1,170,0|8,0:0|0:0,0:0:0:0:
253,220,32385,1,0,0:0:0:0:
198,333,32593,5,2,0:0:0:0:
198,332,32698,2,0,P|177:339|156:342,1,42.5,8|0,0:0|0:0,0:0:0:0:
11,286,33010,1,8,0:0:0:0:
93,148,33218,1,0,0:0:0:0:
93,148,33323,1,8,0:0:0:0:
93,148,33427,2,0,L|179:161,1,85,0|2,0:0|0:0,0:0:0:0:
282,267,33843,2,0,L|198:255,1,85,12|0,0:0|0:0,0:0:0:0:
156,66,34260,5,6,0:0:0:0:
261,172,34468,1,0,0:0:0:0:
261,172,34573,1,0,0:0:0:0:
261,172,34677,2,0,P|307:181|379:182,1,85,8|0,0:0|0:0,0:0:0:0:
417,139,34989,1,8,0:0:0:0:
417,139,35093,2,0,L|421:51,1,85,0|2,0:0|0:0,0:0:0:0:
418,223,35510,1,8,0:0:0:0:
502,318,35718,1,0,0:0:0:0:
502,318,35823,1,0,0:0:0:0:
502,318,35927,6,0,P|459:314|418:306,1,85,2|0,0:0|0:0,0:0:0:0:
261,172,36343,2,0,L|257:269,1,85,8|0,0:0|0:0,0:0:0:0:
177,293,36656,1,8,0:0:0:0:
177,293,36760,2,0,L|180:208,1,85,0|2,0:0|0:0,0:0:0:0:
187,38,37177,1,8,0:0:0:0:
62,15,37385,1,0,0:0:0:0:
183,123,37593,6,0,P|230:123|281:103,1,85,6|0,0:0|0:0,0:0:0:0:
386,25,38010,1,8,0:0:0:0:
386,159,38218,1,0,0:0:0:0:
386,159,38323,1,8,0:0:0:0:
386,159,38427,2,0,P|344:162|304:149,1,85,0|2,0:0|0:0,0:0:0:0:
187,33,38843,1,8,0:0:0:0:
144,192,39052,1,0,0:0:0:0:
249,327,39260,5,2,0:0:0:0:
249,327,39364,2,0,P|204:337|160:335,1,85,8|2,0:0|0:0,0:0:0:0:
89,309,39677,1,8,0:0:0:0:
15,177,39885,2,0,L|17:98,1,42.5,0|8,0:0|0:0,0:0:0:0:
19,60,40093,1,4,0:0:0:0:
118,224,40302,5,2,0:3:0:0:
168,37,40510,1,2,0:3:0:0:
275,326,40927,5,6,0:0:0:0:
322,163,41135,1,0,0:0:0:0:
322,163,41239,1,0,0:0:0:0:
322,163,41343,2,0,P|319:205|313:247,1,85,8|0,0:0|0:0,0:0:0:0:
279,330,41656,1,8,0:0:0:0:
279,330,41760,2,0,L|388:337,1,85,0|2,0:0|0:0,0:0:0:0:
405,260,42073,1,0,0:0:0:0:
405,260,42177,2,0,L|489:265,1,85,8|0,0:0|0:0,0:0:0:0:
416,133,42593,5,2,0:0:0:0:
317,251,42802,1,2,0:0:0:0:
230,124,43010,2,0,L|145:118,1,85,8|0,0:0|0:0,0:0:0:0:
109,39,43323,1,8,0:0:0:0:
109,39,43427,2,0,L|193:44,1,85,0|2,0:0|0:0,0:0:0:0:
330,125,43843,2,0,L|328:229,1,85,8|0,0:0|0:0,0:0:0:0:
322,371,44260,5,6,0:0:0:0:
257,259,44468,1,0,0:0:0:0:
391,315,44677,1,8,0:0:0:0:
328,209,44885,2,0,L|329:167,1,42.5,0|8,0:0|0:0,0:0:0:0:
324,287,45093,2,0,P|296:322|227:326,1,85,0|2,0:0|0:0,0:0:0:0:
153,214,45510,1,8,0:0:0:0:
206,72,45718,1,0,0:0:0:0:
42,151,45927,5,2,0:0:0:0:
42,151,46031,2,0,P|61:153|84:152,1,42.5,8|0,0:0|0:0,0:0:0:0:
206,72,46343,1,8,0:0:0:0:
297,193,46552,1,0,0:0:0:0:
297,193,46656,1,8,0:0:0:0:
297,193,46760,2,0,L|382:193,1,85,0|2,0:0|0:0,0:0:0:0:
506,105,47177,2,0,P|499:157|487:198,1,85,12|0,0:0|0:0,0:0:0:0:
382,339,47593,5,6,0:0:0:0:
390,201,47802,1,0,0:0:0:0:
390,201,47906,1,0,0:0:0:0:
390,201,48010,2,0,L|303:235,1,85,8|0,0:0|0:0,0:0:0:0:
240,185,48323,1,8,0:0:0:0:
240,185,48427,2,0,L|153:219,1,85,0|2,0:0|0:0,0:0:0:0:
10,199,48843,1,8,0:0:0:0:
89,68,49052,1,0,0:0:0:0:
89,68,49156,1,0,0:0:0:0:
89,68,49260,6,0,L|91:152,1,85,2|2,0:0|0:0,0:0:0:0:
142,279,49677,1,8,0:0:0:0:
240,185,49885,2,0,L|235:119,1,42.5,0|8,0:0|0:0,0:0:0:0:
251,269,50093,2,0,P|284:277|370:281,1,85,0|2,0:0|0:0,0:0:0:0:
466,137,50510,2,0,P|432:128|346:124,1,85,8|0,0:0|0:0,0:0:0:0:
240,185,50927,5,6,0:0:0:0:
144,99,51135,2,0,P|133:47|131:9,2,85,0|8|0,0:0|0:0|0:0,0:0:0:0:
165,181,51656,1,8,0:0:0:0:
165,181,51760,2,0,P|116:188|63:186,1,85,0|2,0:0|0:0,0:0:0:0:
47,97,52177,1,8,0:0:0:0:
47,278,52385,1,6,0:0:0:0:
267,318,52802,5,2,0:0:0:0:
267,318,52906,1,2,0:0:0:0:
267,318,53010,2,0,P|256:255|252:191,1,127.5,8|8,0:0|0:0,0:0:0:0:
252,191,53427,1,0,0:0:0:0:
351,95,53635,5,2,0:0:0:0:
223,63,53843,1,8,0:0:0:0:
256,195,54052,1,0,0:0:0:0:
301,24,54260,1,12,0:0:0:0:
170,96,60927,6,0,P|210:113|262:118,1,85,12|2,1:0|0:0,0:0:0:0:
410,78,61343,2,2,L|406:162,1,85
392,307,61760,1,8,1:0:0:0:
315,194,61968,1,2,0:0:0:0:
194,260,62177,2,2,P|152:263|111:256,1,85
86,87,62593,6,0,L|95:171,1,85,8|2,1:0|0:0,0:0:0:0:
178,324,63010,2,0,L|184:234,1,85,0|2,0:0|0:0,0:0:0:0:
234,116,63427,1,8,1:0:0:0:
281,255,63635,1,2,0:0:0:0:
398,171,63843,2,2,P|435:163|512:175,1,85
332,97,64260,5,12,1:0:0:0:
281,255,64468,1,2,0:0:0:0:
234,116,64677,1,2,2:0:0:0:
430,78,64885,5,12,1:0:0:0:
307,176,65093,1,2,2:0:0:0:
464,199,65302,1,2,2:0:0:0:
332,97,65510,5,8,1:0:0:0:
268,287,65718,2,0,L|234:389,1,85,14|0,1:0|0:0,0:0:0:0:
234,116,66135,2,0,L|200:218,1,85,14|0,1:0|0:0,0:0:0:0:
207,196,66969,1,6,0:0:0:0:
224,212,67073,1,2,0:0:0:0:
243,227,67177,6,0,B|333:227,1,89.2499972763062,8|0,0:0|0:0,0:0:0:0:
208,296,67593,6,0,L|123:296,1,85,4|0,1:0|0:0,0:0:0:0:
197,126,68010,1,8,0:0:0:0:
332,227,68217,1,0,0:0:0:0:
347,233,68323,1,8,0:0:0:0:
362,240,68426,2,0,B|393:245|393:245|453:212,1,85,0|2,0:0|0:0,0:0:0:0:
480,66,68842,1,8,0:0:0:0:
377,162,69051,1,0,0:0:0:0:
267,38,69260,6,0,P|224:39|183:52,1,85,4|2,1:0|0:0,0:0:0:0:
99,185,69677,1,8,0:0:0:0:
242,127,69885,1,0,0:0:0:0:
256,135,69989,1,8,0:0:0:0:
271,142,70093,2,0,L|355:132,1,85,0|2,0:0|0:0,0:0:0:0:
283,271,70510,2,0,L|198:280,1,85,8|2,0:0|0:0,0:0:0:0:
125,265,70823,1,2,0:0:0:0:
125,265,70927,6,0,P|108:226|97:168,1,85,4|0,1:0|0:0,0:0:0:0:
147,29,71343,2,0,L|149:141,1,85,8|0,0:0|0:0,0:0:0:0:
200,183,71656,1,8,0:0:0:0:
200,183,71760,2,0,L|284:173,1,85,0|2,0:0|0:0,0:0:0:0:
402,88,72177,1,8,0:0:0:0:
455,227,72385,6,0,P|413:298|332:311,1,170,6|2,0:0|0:0,0:0:0:0:
284,172,73010,1,8,0:0:0:0:
226,293,73218,1,0,0:0:0:0:
216,307,73323,1,8,0:0:0:0:
206,320,73427,2,0,L|106:323,1,85,0|2,0:0|0:0,0:0:0:0:
76,160,73843,1,8,0:0:0:0:
225,202,74052,2,0,L|232:145,1,42.5,2|0,0:0|0:0,0:0:0:0:
239,81,74260,5,4,1:2:0:0:
239,81,74677,1,8,0:0:0:0:
307,258,74885,1,0,0:0:0:0:
307,258,74989,1,0,0:0:0:0:
307,258,75093,1,8,0:0:0:0:
124,273,75302,2,0,L|130:224,2,42.5,0|0|8,0:0|0:0|0:0,0:0:0:0:
144,301,75614,1,0,0:0:0:0:
173,319,75718,1,0,0:0:0:0:
205,330,75823,1,0,0:0:0:0:
237,338,75927,6,0,P|286:336|338:324,1,85,8|0,0:0|0:0,0:0:0:0:
343,132,76343,1,8,0:0:0:0:
241,220,76552,2,0,L|239:262,1,42.5,0|8,0:0|0:0,0:0:0:0:
245,143,76760,2,0,P|245:101|237:59,1,85
230,44,77073,1,0,0:0:0:0:
220,30,77177,1,8,0:0:0:0:
61,103,77385,1,2,0:0:0:0:
66,119,77489,1,2,0:0:0:0:
71,135,77593,6,0,P|123:134|174:113,1,85,4|0,1:0|0:0,0:0:0:0:
78,31,78010,1,8,0:0:0:0:
61,220,78218,2,0,P|88:222|123:218,1,42.5,2|8,0:0|0:0,0:0:0:0:
145,213,78427,1,0,0:0:0:0:
271,108,78635,1,2,0:0:0:0:
244,296,78843,1,8,0:0:0:0:
393,176,79052,1,12,0:0:0:0:
393,176,79468,5,8,0:0:0:0:
363,336,79677,1,8,0:0:0:0:
475,199,79885,1,8,0:0:0:0:
473,215,79989,1,8,0:0:0:0:
471,231,80093,2,0,L|465:274,1,42.5,8|8,0:0|0:0,0:0:0:0:
388,219,80302,2,0,L|394:176,1,42.5,8|8,0:0|0:0,0:0:0:0:
384,76,80510,1,8,0:0:0:0:
267,248,80718,1,8,0:0:0:0:
139,81,80927,5,4,1:0:0:0:
139,81,81343,1,8,0:0:0:0:
70,248,81552,1,0,0:0:0:0:
77,263,81656,1,8,0:0:0:0:
84,278,81760,2,0,P|118:308|160:327,1,85,0|2,0:0|0:0,0:0:0:0:
363,283,82177,2,0,L|375:180,1,85,8|2,0:0|0:0,0:0:0:0:
307,36,82593,5,4,1:0:0:0:
250,179,82802,1,2,0:0:0:0:
193,36,83010,1,8,0:0:0:0:
335,131,83218,1,0,0:0:0:0:
351,137,83323,1,8,0:0:0:0:
367,142,83427,2,0,P|411:139|474:123,1,85,0|2,0:0|0:0,0:0:0:0:
512,220,83843,2,0,P|467:222|405:239,1,85,8|2,0:0|0:0,0:0:0:0:
385,300,84156,1,2,0:0:0:0:
385,300,84260,6,0,P|349:323|290:336,1,85,4|0,1:0|0:0,0:0:0:0:
130,258,84677,2,0,P|169:242|229:241,1,85,8|0,0:0|0:0,0:0:0:0:
294,251,84989,1,8,0:0:0:0:
294,251,85093,2,0,L|310:138,1,85,0|2,0:0|0:0,0:0:0:0:
243,31,85510,1,8,0:0:0:0:
200,165,85718,6,0,P|133:117|103:31,1,170,6|2,0:0|0:0,0:0:0:0:
103,37,86343,1,8,0:0:0:0:
58,195,86552,1,2,0:0:0:0:
58,195,86656,1,8,0:0:0:0:
58,195,86760,1,2,0:0:0:0:
175,316,86968,1,2,0:0:0:0:
175,316,87073,1,2,0:0:0:0:
175,316,87177,2,0,P|224:317|283:288,1,85,8|2,0:0|0:0,0:0:0:0:
357,163,87593,5,4,1:0:0:0:
357,163,88010,1,8,0:0:0:0:
396,304,88218,1,0,0:0:0:0:
383,293,88323,1,8,0:0:0:0:
368,285,88427,2,0,P|319:278|253:278,1,85,0|2,0:0|0:0,0:0:0:0:
145,336,88843,1,8,0:0:0:0:
46,210,89052,6,0,B|35:159|35:159|71:108|56:43,1,170,6|2,0:0|0:0,0:0:0:0:
174,132,89677,1,8,0:0:0:0:
288,44,89885,1,0,0:0:0:0:
300,56,89989,1,8,0:0:0:0:
313,66,90093,2,0,P|356:70|418:55,1,85,0|2,0:0|0:0,0:0:0:0:
480,170,90510,2,0,P|440:184|398:187,1,85,8|0,0:0|0:0,0:0:0:0:
238,119,90927,5,4,1:2:0:0:
238,119,91343,1,8,0:0:0:0:
315,280,91552,1,2,0:0:0:0:
134,211,91760,1,8,0:0:0:0:
243,33,91968,1,2,0:0:0:0:
233,205,92177,1,2,0:0:0:0:
93,72,92385,1,12,0:0:0:0:
92,72,92802,5,2,0:0:0:0:
269,66,93010,1,2,0:0:0:0:
187,241,93218,1,12,0:0:0:0:
187,241,93635,5,2,0:0:0:0:
193,257,93739,1,2,0:0:0:0:
199,273,93843,2,0,B|240:315|240:315|274:273|350:274,1,170,8|6,0:0|0:0,0:0:0:0:
378,165,94677,6,0,B|380:92|380:92|407:54,2,114.749996498108,8|8|2,0:0|0:0|0:0,0:0:0:0:
380,245,95510,1,8,0:0:0:0:
218,170,95927,5,2,0:0:0:0:
298,167,96135,1,2,0:0:0:0:
378,165,96343,2,0,B|441:153|441:153|477:116,2,114.749996498108,8|8|2,0:0|0:0|0:0,0:0:0:0:
336,97,97177,1,8,0:0:0:0:
260,237,97593,5,0,0:0:0:0:
175,102,98010,2,0,B|144:69|144:69|69:66,2,114.749996498108,8|8|2,0:0|0:0|0:0,0:0:0:0:
218,170,98843,1,8,0:0:0:0:
306,308,99260,5,2,0:0:0:0:
306,308,99364,2,0,L|385:281,1,76.4999976654053,8|2,0:0|0:0,0:0:0:0:
445,246,99677,2,0,B|424:200|424:200|357:170,2,114.749996498108,8|8|6,0:0|0:0|0:0,0:0:0:0:
445,322,100510,1,8,0:0:0:0:
316,232,100927,5,6,0:0:0:0:
186,322,101343,2,0,P|182:283|184:245,1,76.4999976654053,8|0,0:0|0:0,0:0:0:0:
210,179,101656,1,8,0:0:0:0:
210,179,101760,2,0,P|212:131|205:84,1,76.4999976654053,0|2,0:0|0:0,0:0:0:0:
189,29,102177,1,8,0:0:0:0:
41,74,102593,5,2,0:0:0:0:
72,160,102802,1,2,0:0:0:0:
134,94,103010,2,0,P|176:92|216:106,1,76.4999976654053,8|0,0:0|0:0,0:0:0:0:
272,148,103323,1,8,0:0:0:0:
272,148,103427,2,0,P|312:154|361:139,1,76.4999976654053,0|2,0:0|0:0,0:0:0:0:
348,70,103843,1,8,0:0:0:0:
345,223,104260,5,4,0:0:0:0:
348,70,104677,1,12,0:0:0:0:
459,124,104885,1,12,0:0:0:0:
448,136,104989,1,4,0:0:0:0:
434,144,105093,2,0,P|397:151|359:147,1,76.4999976654053
177,66,105718,1,2,0:0:0:0:
331,116,107593,6,0,P|291:100|236:92,1,76.4999976654053,2|0,0:0|0:0,0:0:0:0:
134,158,108010,2,0,L|134:242,1,76.4999976654053
159,342,108427,1,2,0:0:0:0:
208,218,108635,2,0,L|253:203,1,38.2499988327027,0|2,0:0|0:0,0:0:0:0:
377,164,108948,2,0,L|377:114,2,38.2499988327027
372,215,109260,5,2,0:0:0:0:
340,285,109468,1,0,0:0:0:0:
279,331,109677,2,0,P|234:340|177:327,1,76.4999976654053
136,299,110093,1,2,0:0:0:0:
185,161,110302,1,0,0:0:0:0:
185,161,110406,2,0,B|214:184|214:184|201:208|201:259,1,114.749996498108,2|0,0:0|0:0,0:0:0:0:
279,331,110927,5,2,0:0:0:0:
340,285,111135,1,0,0:0:0:0:
363,212,111343,1,0,0:0:0:0:
365,135,111552,1,0,0:0:0:0:
298,171,111760,2,0,P|224:190|149:189,1,152.999995330811,2|0,0:0|0:0,0:0:0:0:
76,170,112385,6,0,P|77:212|113:255,1,76.4999976654053,2|0,0:0|0:0,0:0:0:0:
149,189,112802,1,0,0:0:0:0:
169,115,113010,1,0,0:0:0:0:
164,38,113218,1,0,0:0:0:0:
232,72,113427,2,0,B|286:91|339:72|339:72|382:104,1,152.999995330811,2|0,0:0|0:0,0:0:0:0:
329,251,114260,6,0,P|322:205|324:152,1,76.4999976654053,2|0,0:0|0:0,0:0:0:0:
242,131,114677,2,0,P|241:169|235:207,1,76.4999976654053
180,313,115093,1,2,0:0:0:0:
158,180,115302,2,0,L|153:136,1,38.2499988327027,0|2,0:0|0:0,0:0:0:0:
16,180,115614,2,0,L|19:218,2,38.2499988327027
63,251,115927,6,0,P|102:255|141:251,1,76.4999976654053,2|0,0:0|0:0,0:0:0:0:
247,210,116343,1,0,0:0:0:0:
247,210,116760,5,2,0:0:0:0:
236,69,116968,1,0,0:0:0:0:
351,136,117177,1,0,0:0:0:0:
351,136,117385,2,0,B|277:168|275:115|201:149,1,152.999995330811,2|0,0:0|0:0,0:0:0:0:
103,297,118218,6,0,B|182:314|174:262|252:281,1,152.999995330811,2|0,0:0|0:0,0:0:0:0:
319,318,118843,1,0,0:0:0:0:
255,209,119052,2,0,B|238:160|271:104|271:104|215:125,1,152.999995330811,2|0,0:0|0:0,0:0:0:0:
104,229,120302,6,0,B|134:230|158:248|158:248|189:253|219:233,1,118.999996368408,0|0,3:0|0:0,0:0:0:0:
164,161,120927,6,0,L|80:150,1,85,6|0,0:0|0:0,0:0:0:0:
150,31,121343,1,8,0:0:0:0:
273,114,121552,1,0,0:0:0:0:
273,114,121656,1,8,0:0:0:0:
273,114,121760,2,0,P|314:123|362:128,1,85,0|2,0:0|0:0,0:0:0:0:
472,67,122177,2,0,P|470:111|463:151,1,85,8|0,0:0|0:0,0:0:0:0:
428,222,122489,1,0,0:0:0:0:
428,222,122593,6,0,P|386:212|339:208,1,85,2|2,0:0|0:0,0:0:0:0:
199,221,123010,1,8,0:0:0:0:
246,364,123218,1,0,0:0:0:0:
246,364,123323,1,8,0:0:0:0:
246,364,123427,2,0,P|264:330|278:267,1,85,0|2,0:0|0:0,0:0:0:0:
263,131,123843,2,0,P|266:82|279:30,1,85,8|0,0:0|0:0,0:0:0:0:
344,208,124260,5,6,0:0:0:0:
276,285,124468,1,0,0:0:0:0:
174,276,124677,1,8,0:0:0:0:
120,189,124885,2,0,L|135:128,1,42.5,0|8,0:0|0:0,0:0:0:0:
99,262,125093,2,0,P|124:335|220:338,1,170,0|8,0:0|0:0,0:0:0:0:
232,198,125718,1,0,0:0:0:0:
290,342,125927,5,2,0:0:0:0:
290,342,126031,2,0,P|326:363|388:366,1,85,8|2,0:0|0:0,0:0:0:0:
448,359,126343,1,8,0:0:0:0:
490,236,126552,2,0,P|511:235|532:238,2,42.5,0|8|0,0:0|0:0|0:0,0:0:0:0:
366,297,126968,1,6,0:0:0:0:
254,214,127177,1,8,0:0:0:0:
268,1,127593,6,0,L|260:115,1,85,6|0,0:0|0:0,0:0:0:0:
254,214,128010,1,8,0:0:0:0:
98,246,128218,1,0,0:0:0:0:
98,246,128323,1,8,0:0:0:0:
98,246,128427,2,0,P|139:254|187:247,1,85,0|2,0:0|0:0,0:0:0:0:
327,181,128843,2,0,P|369:180|409:192,1,85,8|0,0:0|0:0,0:0:0:0:
329,351,129260,5,2,0:0:0:0:
254,214,129468,1,2,0:0:0:0:
146,323,129677,1,8,0:0:0:0:
39,219,129885,1,0,0:0:0:0:
39,219,129989,1,8,0:0:0:0:
39,219,130093,2,0,P|32:164|35:110,1,85,0|2,0:0|0:0,0:0:0:0:
52,15,130510,1,8,0:0:0:0:
146,130,130718,6,0,P|218:145|336:101,1,170,6|0,0:0|0:0,0:0:0:0:
418,27,131343,1,8,0:0:0:0:
437,181,131552,2,0,L|432:227,1,42.5,0|8,0:0|0:0,0:0:0:0:
427,265,131760,1,0,0:0:0:0:
319,238,131968,1,2,0:0:0:0:
239,160,132177,1,8,0:0:0:0:
212,53,132385,1,0,0:0:0:0:
161,152,132593,5,2,0:0:0:0:
161,152,132698,2,0,L|138:271,1,85,8|2,0:0|0:0,0:0:0:0:
222,243,133010,2,0,L|239:160,1,85,8|0,0:0|0:0,0:0:0:0:
268,88,133323,1,8,0:0:0:0:
268,88,133427,2,2,P|311:106|370:110,1,85
482,98,133843,1,8,0:0:0:0:
476,234,134052,1,0,0:0:0:0:
470,370,134260,6,0,P|447:345|372:317,1,85,14|0,0:3|0:0,0:0:0:0:
328,334,134573,2,0,P|291:349|215:361,1,85,6|0,0:3|0:0,0:0:0:0:
241,282,134885,2,0,L|240:198,1,85,8|0,0:0|0:0,0:0:0:0:
236,28,135302,1,2,0:0:0:0:
327,121,135510,1,0,0:0:0:0:
361,137,135614,1,2,0:0:0:0:
398,142,135718,1,0,0:0:0:0:
512,39,135927,6,0,L|506:123,1,85,6|0,0:3|0:0,0:0:0:0:
484,199,136239,2,0,P|449:176|429:123,1,85,6|0,0:3|0:0,0:0:0:0:
364,181,136552,2,0,P|341:212|278:248,1,85,8|0,0:0|0:0,0:0:0:0:
136,212,136968,1,2,0:0:0:0:
239,112,137177,1,8,0:0:0:0:
220,284,137385,1,2,0:0:0:0:
220,284,137489,1,2,0:0:0:0:
220,284,137593,6,0,P|187:311|126:321,1,85,14|0,0:3|0:0,0:0:0:0:
78,281,137906,2,0,P|111:254|172:244,1,85,6|0,0:3|0:0,0:0:0:0:
220,284,138218,2,0,P|261:294|305:295,1,85,8|0,0:0|0:0,0:0:0:0:
438,273,138635,1,2,0:0:0:0:
510,158,138843,2,0,L|515:106,2,42.5,0|2|0,0:0|0:0|0:0,0:0:0:0:
492,335,139260,6,0,P|412:352|357:292,1,170,2|12,0:0|0:0,0:0:0:0:
317,119,139885,1,0,0:0:0:0:
267,293,140093,1,8,1:0:0:0:
267,293,140198,1,8,1:0:0:0:
267,293,140302,1,8,1:0:0:0:
399,176,140510,1,8,1:0:0:0:
190,232,140718,1,8,1:0:0:0:
173,206,140823,1,8,1:0:0:0:
165,176,140927,6,0,P|161:129|164:83,1,85,12|2,1:0|0:0,0:0:0:0:
355,63,141343,2,2,P|358:105|357:147,1,85
316,281,141760,1,8,1:0:0:0:
259,155,141968,1,2,0:0:0:0:
192,296,142177,2,2,P|156:333|101:355,1,85
92,182,142593,5,12,1:0:0:0:
126,348,142802,1,2,0:0:0:0:
256,236,143010,1,2,0:0:0:0:
110,266,143218,1,2,0:0:0:0:
150,100,143427,1,8,1:0:0:0:
186,265,143635,1,2,0:0:0:0:
354,183,143843,1,2,0:0:0:0:
193,183,144052,1,2,0:0:0:0:
271,357,144260,5,8,1:0:0:0:
274,183,144468,2,2,L|274:74,1,85
190,314,144885,5,8,1:0:0:0:
193,140,145093,2,2,L|193:31,1,85
109,271,145510,5,8,1:0:0:0:
274,98,145718,1,14,1:0:0:0:
274,98,146135,1,14,1:0:0:0:
274,98,146968,5,6,0:0:0:0:
289,115,147073,1,2,0:0:0:0:
304,132,147177,2,0,L|330:40,1,89.2499972763062,8|0,0:0|0:0,0:0:0:0:
386,165,147593,6,0,L|359:257,1,85,4|0,1:0|0:0,0:0:0:0:
274,98,148010,1,8,0:0:0:0:
223,246,148218,1,0,0:0:0:0:
216,262,148323,1,8,0:0:0:0:
207,276,148427,2,0,P|159:286|103:286,1,85,0|2,0:0|0:0,0:0:0:0:
75,145,148843,1,8,0:0:0:0:
31,289,149052,1,0,0:0:0:0:
0,128,149260,6,0,P|20:90|77:68,1,85,4|2,1:0|0:0,0:0:0:0:
193,135,149677,1,8,0:0:0:0:
234,280,149885,1,0,0:0:0:0:
245,292,149989,1,8,0:0:0:0:
256,304,150093,2,0,P|313:312|362:308,1,85,0|2,0:0|0:0,0:0:0:0:
480,205,150510,2,8,P|422:192|373:194,1,85,8|2,0:0|0:0,0:0:0:0:
323,208,150823,1,2,0:0:0:0:
323,208,150927,6,0,P|280:219|238:219,1,85,4|0,1:0|0:0,0:0:0:0:
85,150,151343,2,0,L|77:49,1,85,8|0,0:0|0:0,0:0:0:0:
158,100,151656,1,8,0:0:0:0:
158,100,151760,2,0,P|196:119|259:127,1,85,0|2,0:0|0:0,0:0:0:0:
361,35,152177,1,8,0:0:0:0:
402,182,152385,6,0,P|361:256|276:291,1,170,6|2,0:0|0:0,0:0:0:0:
238,128,153010,1,8,0:0:0:0:
151,261,153218,1,0,0:0:0:0:
136,270,153323,1,8,0:0:0:0:
120,276,153427,2,0,P|72:279|24:271,1,85,0|2,0:0|0:0,0:0:0:0:
2,119,153843,1,8,0:0:0:0:
35,273,154052,1,2,0:0:0:0:
120,90,154260,5,4,1:2:0:0:
120,90,154677,1,8,0:0:0:0:
266,159,154885,1,0,0:0:0:0:
299,163,154989,1,0,0:0:0:0:
332,158,155093,1,8,0:0:0:0:
465,66,155302,2,0,L|459:8,2,42.5,0|0|8,0:0|0:0|0:0,0:0:0:0:
468,99,155614,1,0,0:0:0:0:
471,133,155718,1,0,0:0:0:0:
473,168,155823,1,0,0:0:0:0:
471,202,155927,6,0,P|465:244|441:310,1,85,8|0,0:0|0:0,0:0:0:0:
304,377,156343,2,0,L|305:266,1,85,8|0,0:0|0:0,0:0:0:0:
269,227,156656,1,8,0:0:0:0:
269,227,156760,2,0,P|221:242|173:242,1,85,0|2,0:0|0:0,0:0:0:0:
41,179,157177,1,8,0:0:0:0:
117,26,157385,1,2,0:0:0:0:
124,41,157489,1,2,0:0:0:0:
129,57,157593,6,0,L|129:142,1,85,4|0,1:0|0:0,0:0:0:0:
131,311,158010,1,8,0:0:0:0:
213,167,158218,2,0,L|213:118,1,42.5,0|8,0:0|0:0,0:0:0:0:
213,82,158427,1,0,0:0:0:0:
300,276,158635,1,2,0:0:0:0:
298,107,158843,1,8,0:0:0:0:
130,226,159052,1,12,0:0:0:0:
130,226,159468,5,8,0:0:0:0:
300,276,159677,1,8,0:0:0:0:
239,95,159885,1,8,0:0:0:0:
239,112,159989,1,8,0:0:0:0:
239,128,160093,2,8,L|238:190,1,42.5
318,202,160302,2,8,L|318:159,1,42.5
321,61,160510,1,8,0:0:0:0:
374,254,160718,1,8,0:0:0:0:
485,86,160927,5,4,1:0:0:0:
485,86,161343,1,8,0:0:0:0:
512,228,161552,1,0,0:0:0:0:
509,244,161656,1,8,0:0:0:0:
506,260,161760,2,0,P|473:286|423:310,1,85,0|2,0:0|0:0,0:0:0:0:
285,284,162177,2,0,L|285:178,1,85,8|2,0:0|0:0,0:0:0:0:
284,29,162593,5,4,1:0:0:0:
203,157,162802,1,0,0:0:0:0:
347,109,163010,1,8,0:0:0:0:
309,262,163218,1,0,0:0:0:0:
298,274,163323,1,8,0:0:0:0:
285,284,163427,2,0,P|243:289|177:268,1,85,0|2,0:0|0:0,0:0:0:0:
29,173,163843,2,0,P|71:168|137:189,1,85,8|2,0:0|0:0,0:0:0:0:
185,208,164156,1,2,0:0:0:0:
185,208,164260,6,0,P|195:166|201:123,1,85,4|0,1:0|0:0,0:0:0:0:
286,39,164677,2,0,P|291:81|301:123,1,85,8|0,0:0|0:0,0:0:0:0:
335,197,164989,1,8,0:0:0:0:
335,197,165093,2,0,P|378:201|420:196,1,85,0|2,0:0|0:0,0:0:0:0:
462,63,165510,1,8,0:0:0:0:
512,231,165718,6,0,P|453:290|357:274,1,170,6|2,0:0|0:0,0:0:0:0:
241,181,166343,1,8,0:0:0:0:
198,340,166552,1,2,0:0:0:0:
198,340,166656,1,8,0:0:0:0:
198,340,166760,1,2,0:0:0:0:
60,276,166968,1,2,0:0:0:0:
60,276,167073,1,2,0:0:0:0:
60,276,167177,1,8,0:0:0:0:
77,116,167385,1,2,0:0:0:0:
166,265,167593,6,0,P|198:273|268:277,1,85,4|0,1:0|0:0,0:0:0:0:
351,171,168010,1,8,0:0:0:0:
436,291,168218,1,0,0:0:0:0:
444,276,168323,1,8,0:0:0:0:
449,260,168427,2,0,P|457:210|457:164,1,85,0|2,0:0|0:0,0:0:0:0:
434,22,168843,1,8,0:0:0:0:
351,171,169052,1,6,0:0:0:0:
351,171,169468,5,2,0:0:0:0:
176,171,169677,1,8,0:0:0:0:
246,19,169885,1,0,0:0:0:0:
255,33,169989,1,8,0:0:0:0:
262,47,170093,2,0,L|261:131,1,85,0|2,0:0|0:0,0:0:0:0:
262,300,170510,1,8,0:0:0:0:
351,171,170718,1,0,0:0:0:0:
175,265,170927,6,0,L|86:264,1,85,4|0,1:2|0:0,0:0:0:0:
186,141,171343,1,8,0:0:0:0:
262,300,171552,1,2,0:0:0:0:
351,171,171760,1,8,0:0:0:0:
175,265,171968,1,2,0:0:0:0:
193,63,172177,1,2,0:0:0:0:
66,220,172385,1,12,0:0:0:0:
66,220,172802,5,2,0:0:0:0:
239,259,173010,1,2,0:0:0:0:
193,63,173218,1,12,0:0:0:0:
193,63,173635,5,2,0:0:0:0:
206,71,173739,1,2,0:0:0:0:
221,78,173843,2,0,B|268:88|318:37|318:37|311:104,1,170,8|4,0:0|0:0,0:0:0:0:
161,92,180927,6,0,L|154:177,1,85,2|0,0:0|0:0,0:0:0:0:
227,235,181343,2,0,L|234:150,1,85,2|0,0:0|0:0,0:0:0:0:
244,23,181760,1,2,0:0:0:0:
295,91,181968,1,0,0:0:0:0:
377,112,182177,1,2,0:0:0:0:
460,95,182385,1,0,0:0:0:0:
453,179,182593,6,0,L|446:263,2,85,2|0|2,0:0|0:0|0:0,0:0:0:0:
460,95,183218,1,0,0:0:0:0:
370,196,183427,2,0,P|334:209|259:217,1,85,2|0,0:0|0:0,0:0:0:0:
169,158,183843,2,0,P|205:145|280:137,1,85,2|0,0:0|0:0,0:0:0:0:
259,290,184260,6,0,L|253:374,1,85,6|0,0:0|0:0,0:0:0:0:
119,346,184677,2,0,L|124:261,1,85,2|0,0:0|0:0,0:0:0:0:
134,134,185093,1,2,0:0:0:0:
185,202,185302,1,0,0:0:0:0:
260,239,185510,1,2,0:0:0:0:
345,239,185718,1,0,0:0:0:0:
425,212,185927,6,0,L|428:128,1,85,2|0,0:0|0:0,0:0:0:0:
306,81,186343,2,0,L|303:165,1,85,2|0,0:0|0:0,0:0:0:0:
296,294,186760,1,2,0:0:0:0:
198,254,186968,1,2,0:0:0:0:
89,267,187177,2,0,L|83:362,1,85,8|0,0:0|0:0,0:0:0:0:
39,162,187593,6,0,P|79:150|121:155,1,85,6|0,0:0|0:0,0:0:0:0:
198,254,188010,1,2,0:0:0:0:
291,143,188218,1,0,0:0:0:0:
286,287,188427,2,0,P|265:321|211:348,1,85,2|0,0:0|0:0,0:0:0:0:
110,221,188843,2,0,P|131:187|185:160,1,85,2|0,0:0|0:0,0:0:0:0:
327,190,189260,5,2,0:0:0:0:
269,53,189468,1,0,0:0:0:0:
246,190,189677,1,2,0:0:0:0:
383,132,189885,1,0,0:0:0:0:
372,285,190093,2,0,P|329:300|261:274,1,85,2|0,0:0|0:0,0:0:0:0:
164,198,190510,2,0,P|207:183|275:209,1,85,8|0,0:0|0:0,0:0:0:0:
317,345,190927,5,6,0:0:0:0:
324,217,191135,1,0,0:0:0:0:
252,61,191343,1,2,0:0:0:0:
246,190,191552,1,0,0:0:0:0:
122,306,191760,2,0,L|127:210,1,85,2|0,0:0|0:0,0:0:0:0:
136,61,192177,1,2,0:0:0:0:
19,124,192385,1,8,0:0:0:0:
19,124,192489,1,8,0:0:0:0:
19,124,192593,6,0,P|60:133|102:137,1,85,12|8,0:0|0:0,0:0:0:0:
229,36,193010,1,12,0:0:0:0:
196,214,193218,1,8,0:0:0:0:
196,214,193323,1,8,0:0:0:0:
196,214,193427,1,8,0:0:0:0:
306,96,193635,1,10,0:0:0:0:
458,149,193843,1,8,0:0:0:0:
456,183,193948,1,8,0:0:0:0:
454,217,194052,1,8,0:0:0:0:
452,251,194156,1,8,0:0:0:0:
450,285,194260,6,0,L|346:305,1,85,12|0,1:0|0:0,0:0:0:0:
232,195,194677,1,0,1:0:0:0:
131,352,194885,1,8,1:0:0:0:
131,352,194989,1,8,1:0:0:0:
131,352,195093,2,0,L|122:172,1,170,12|0,1:0|0:0,0:0:0:0:
221,40,195718,6,0,L|225:124,1,85,8|0,1:0|0:0,0:0:0:0:
205,301,196135,2,0,L|200:216,1,85,8|0,1:0|0:0,0:0:0:0:
136,32,196552,1,8,1:0:0:0:
136,32,196656,1,8,1:0:0:0:
136,32,196760,2,0,L|220:39,1,85,8|0,1:0|0:0,0:0:0:0:
364,172,197177,2,0,L|280:179,1,85,2|0,0:0|0:0,0:0:0:0:
108,270,197593,6,0,P|187:297|270:280,1,170,12|0,1:0|0:0,0:0:0:0:
396,181,198218,1,8,1:0:0:0:
396,181,198323,1,8,1:0:0:0:
396,181,198427,2,0,P|426:244|405:365,1,170,8|0,1:0|0:0,0:0:0:0:
270,281,199052,6,0,L|260:177,1,85,8|0,1:0|0:0,0:0:0:0:
141,66,199468,2,0,L|149:150,1,85,8|0,1:0|0:0,0:0:0:0:
185,323,199885,1,8,1:0:0:0:
185,323,199989,1,8,1:0:0:0:
185,323,200093,2,0,P|210:356|247:375,1,85,8|0,1:0|0:0,0:0:0:0:
355,239,200510,2,8,P|333:208|283:185,1,85,4|0,0:0|0:0,1:0:0:0:
119,228,200927,6,0,P|42:231|2:150,1,170,12|0,1:0|0:0,0:0:0:0:
86,13,201552,1,8,1:0:0:0:
86,13,201656,1,8,1:0:0:0:
86,13,201760,2,0,B|116:50|116:50|68:104|77:162,1,170,8|0,1:0|0:0,0:0:0:0:
204,284,202385,6,0,L|308:269,1,85,8|0,1:0|0:0,0:0:0:0:
442,174,202802,2,0,L|357:186,1,85,8|0,1:0|0:0,0:0:0:0:
168,212,203218,1,8,1:0:0:0:
168,212,203323,1,8,1:0:0:0:
168,212,203427,2,0,B|158:105|158:105|188:121|232:117,1,170,8|0,1:0|0:0,0:0:0:0:
368,21,204052,1,2,0:0:0:0:
400,197,204260,6,0,B|365:212|322:189|322:189|276:208|276:208|243:187,1,170,12|0,1:0|0:0,0:0:0:0:
142,31,204885,1,8,1:0:0:0:
142,31,204989,1,8,1:0:0:0:
142,31,205093,2,0,P|223:8|307:13,1,170,8|0,1:0|0:0,0:0:0:0:
243,187,205718,2,0,P|248:249|325:211,1,170,8|0,1:0|0:0,0:0:0:0:
219,149,217593,5,12,0:0:0:0:
369,234,217802,1,2,0:0:0:0:
369,234,217906,1,2,0:0:0:0:
369,234,218010,1,2,0:0:0:0:
263,73,218218,5,12,0:0:0:0:
176,225,218427,1,2,0:0:0:0:
176,225,218531,1,2,0:0:0:0:
176,225,218635,1,2,0:0:0:0:
263,73,218843,5,12,0:0:0:0:
265,272,219052,1,12,0:0:0:0:
265,271,219468,6,0,L|265:177,1,68,8|0,0:0|0:0,0:0:0:0:
406,326,219885,5,2,0:0:0:0:
393,337,219989,1,2,0:0:0:0:
378,345,220093,2,0,P|329:351|273:347,1,85,2|2,0:0|0:0,0:0:0:0:
218,338,220406,1,2,0:0:0:0:
218,338,220510,2,0,P|169:332|113:336,1,85,8|0,0:0|0:0,0:0:0:0:
0,246,220927,6,0,L|0:132,1,85,4|0,1:0|0:0,0:0:0:0:
70,24,221343,1,8,0:0:0:0:
147,165,221552,1,0,0:0:0:0:
147,165,221656,1,8,0:0:0:0:
147,165,221760,2,0,P|178:180|248:197,1,85,0|2,0:0|0:0,0:0:0:0:
385,137,222177,2,0,P|391:92|391:47,1,85,8|0,0:0|0:0,0:0:0:0:
306,166,222593,5,4,1:0:0:0:
304,316,222802,1,2,0:0:0:0:
306,166,223010,1,8,0:0:0:0:
476,103,223218,1,0,0:0:0:0:
471,119,223323,1,8,0:0:0:0:
466,135,223427,2,0,P|428:157|359:169,1,85,0|2,0:0|0:0,0:0:0:0:
198,136,223843,2,0,P|231:107|296:83,1,85,8|2,0:0|0:0,0:0:0:0:
306,166,224156,1,2,0:0:0:0:
306,166,224260,6,0,L|299:262,1,85,4|0,1:0|0:0,0:0:0:0:
138,322,224677,2,0,L|144:237,1,85,8|0,0:0|0:0,0:0:0:0:
136,160,224989,1,8,0:0:0:0:
136,160,225093,2,0,P|92:181|47:190,1,85,0|2,0:0|0:0,0:0:0:0:
58,42,225510,1,8,0:0:0:0:
56,189,225718,6,0,P|106:239|204:212,1,170,6|2,0:0|0:0,0:0:0:0:
269,76,226343,1,8,0:0:0:0:
325,238,226552,1,2,0:0:0:0:
325,238,226656,1,8,0:0:0:0:
325,238,226760,1,2,0:0:0:0:
458,139,226968,1,2,0:0:0:0:
458,139,227073,1,2,0:0:0:0:
458,139,227177,2,0,P|428:108|392:86,1,85,8|0,0:0|0:0,0:0:0:0:
236,172,227593,5,4,1:0:0:0:
236,172,228010,1,8,0:0:0:0:
139,33,228218,1,0,0:0:0:0:
148,47,228323,1,8,0:0:0:0:
156,61,228427,2,0,L|158:181,1,85,0|2,0:0|0:0,0:0:0:0:
159,314,228843,1,8,0:0:0:0:
49,204,229052,6,0,P|87:224|129:230,1,85,6|0,0:0|0:0,0:0:0:0:
259,162,229468,1,0,0:0:0:0:
304,307,229677,1,8,0:0:0:0:
469,219,229885,1,0,0:0:0:0:
456,230,229989,1,8,0:0:0:0:
441,239,230093,2,0,P|398:239|357:229,1,85,0|2,0:0|0:0,0:0:0:0:
261,105,230510,1,8,0:0:0:0:
202,251,230718,1,0,0:0:0:0:
113,109,230927,6,0,L|108:8,1,85,4|0,1:0|0:0,0:0:0:0:
116,194,231343,1,8,0:0:0:0:
51,342,231552,1,0,0:0:0:0:
66,348,231656,1,8,0:0:0:0:
82,353,231760,2,0,P|127:355|197:335,1,85,0|2,0:0|0:0,0:0:0:0:
216,209,232177,1,2,0:0:0:0:
385,309,232385,1,12,0:0:0:0:
385,309,232802,5,8,0:0:0:0:
385,139,233010,1,2,0:0:0:0:
235,132,233218,1,8,0:0:0:0:
235,132,233323,1,8,0:0:0:0:
235,132,233427,1,8,0:0:0:0:
385,224,233635,1,2,0:0:0:0:
383,24,233843,1,8,0:0:0:0:
352,39,233948,1,8,0:0:0:0:
319,48,234052,1,8,0:0:0:0:
285,55,234156,1,8,0:0:0:0:
251,60,234260,6,0,P|199:57|137:45,1,85,4|0,1:0|0:0,0:0:0:0:
48,5,234677,1,2,0:0:0:0:
51,158,234885,1,2,0:0:0:0:
202,134,235093,2,0,P|253:137|315:150,1,85,12|0,0:0|0:0,0:0:0:0:
218,307,235510,1,2,0:0:0:0:
127,145,235718,1,12,0:0:0:0:
127,145,236135,5,2,0:0:0:0:
278,236,236343,1,8,0:0:0:0:
290,68,236552,1,2,0:0:0:0:
290,68,236656,1,2,0:0:0:0:
290,68,236760,2,0,L|283:152,1,85,12|0,0:0|0:0,0:0:0:0:
197,306,237177,1,8,0:0:0:0:
127,145,237385,1,2,0:0:0:0:
278,236,237593,6,0,L|362:242,1,85,4|0,1:2|0:0,0:0:0:0:
258,138,238010,1,8,0:0:0:0:
197,306,238218,1,2,0:0:0:0:
127,145,238427,1,8,0:0:0:0:
278,236,238635,1,2,0:0:0:0:
188,53,238843,1,2,0:0:0:0:
116,244,239052,1,12,0:0:0:0:
116,244,239468,5,2,0:0:0:0:
258,138,239677,1,2,0:0:0:0:
92,76,239885,2,0,P|91:120|98:174,1,85,12|2,0:0|0:0,0:0:0:0:
199,264,240302,1,2,0:0:0:0:
64,319,240510,2,0,P|32:280|25:225,1,93.5000028533936,2|0,0:0|0:0,0:0:0:0:
