osu file format v14

[General]
AudioFilename: OUR SHIP FELT.mp3
AudioLeadIn: 0
PreviewTime: 66343
Countdown: 0
SampleSet: Soft
StackLeniency: 0.5
Mode: 0
LetterboxInBreaks: 0
WidescreenStoryboard: 0

[Editor]
Bookmarks: 27593,40927,54260,60927,107593,120927,134260,147593,180927,194260,207593,220927
DistanceSpacing: 1.2
BeatDivisor: 4
GridSize: 8
TimelineZoom: 1.7

[Metadata]
Title:OUR SHIP
TitleUnicode:OUR SHIP
Artist:FELT
ArtistUnicode:FELT
Creator:MokouSmoke
Version:Hard
Source:東方Project
Tags:舞花 Maika 美歌 Mika NAGI☆ Spatial Moving Comiket89 東方夢時空 Touhou Phantasmagoria Dim Dream Yumemi Okazaki Strawberry Crisis StrawberryCrisis!! ZUN
BeatmapID:882810
BeatmapSetID:403065

[Difficulty]
HPDrainRate:5
CircleSize:4
OverallDifficulty:5.5
ApproachRate:7
SliderMultiplier:1.4
SliderTickRate:1

[Events]
//Background and Video events
0,0,"yumemi okazaki.jpg",0,0
//Break Periods
2,54460,60027
2,105918,106693
2,174459,180027
2,207593,216693
//Storyboard Layer 0 (Background)
//Storyboard Layer 1 (Fail)
//Storyboard Layer 2 (Pass)
//Storyboard Layer 3 (Foreground)
//Storyboard Sound Samples

[TimingPoints]
927.23108616857,416.666666666667,4,2,1,50,1,0
25927,-100,4,2,1,20,0,0
27593,-100,4,2,1,50,0,0
54260,-142.857142857143,4,2,1,50,0,0
60927,-100,4,2,1,50,0,0
62593,-100,4,2,1,60,0,0
65927,-100,4,2,1,15,0,0
66135,-100,4,2,1,60,0,0
66343,-100,4,2,1,15,0,0
66968,-100,4,2,1,35,0,0
67593,-100,4,2,1,70,0,1
94260,-100,4,2,1,35,0,0
104885,-100,4,3,0,35,0,0
107593,-100,4,2,2,40,0,0
119468,-100,4,2,2,15,0,0
120302,-142.857142857143,4,2,2,40,0,0
120718,-142.857142857143,4,2,2,15,0,0
120927,-100,4,2,1,50,0,0
134260,-100,4,2,1,85,0,0
134468,-100,4,2,1,50,0,0
134573,-100,4,2,1,70,0,0
134781,-100,4,2,1,50,0,0
135927,-100,4,2,1,85,0,0
136135,-100,4,2,1,50,0,0
136239,-100,4,2,1,70,0,0
136448,-100,4,2,1,50,0,0
137593,-100,4,2,1,85,0,0
137802,-100,4,2,1,50,0,0
137906,-100,4,2,1,70,0,0
138114,-100,4,2,1,50,0,0
142593,-100,4,2,1,60,0,0
146968,-100,4,2,1,30,0,0
147593,-100,4,2,1,70,0,1
174260,-100,4,2,1,35,0,0
180927,-100,4,2,1,50,0,0
183843,-100,4,3,0,50,0,0
184260,-100,4,2,1,75,0,0
184468,-100,4,2,1,55,0,0
186968,-100,4,3,0,55,0,0
187177,-100,4,2,1,55,0,0
187593,-100,4,2,1,75,0,0
187802,-100,4,2,1,60,0,0
190927,-100,4,2,1,75,0,0
191135,-100,4,2,1,70,0,0
205718,-100,4,2,1,50,0,0
206135,-100,4,2,1,30,0,0
217593,-100,4,2,1,55,0,0
220927,-100,4,2,1,80,0,1
232385,-100,4,2,1,80,0,0
234260,-100,4,2,1,80,0,1
240510,-181.818181818182,4,2,1,80,0,1
240927,-100,4,2,1,50,0,0

[Colours]
Combo1 : 172,193,100
Combo2 : 204,66,66
Combo3 : 130,181,163
Combo4 : 165,143,171

[HitObjects]
256,192,24260,12,0,25927,0:0:0:0:
149,79,27593,6,0,P|218:92|288:86,1,140,6|8,0:0|0:0,0:0:0:0:
351,42,28218,2,0,L|344:-15,2,35,0|8|0,0:0|0:0|0:0,0:0:0:0:
358,119,28635,2,0,P|337:147|306:162,1,70,2|8,0:0|0:0,0:0:0:0:
113,131,29260,6,0,P|146:121|181:121,1,70,2|0,0:0|0:0,0:0:0:0:
230,182,29677,1,8,0:0:0:0:
212,256,29885,2,0,L|267:262,2,35,0|8|0,0:0|0:0|0:0,0:0:0:0:
156,308,30302,2,0,P|138:275|139:234,1,70,2|8,0:0|0:0,0:0:0:0:
314,275,30927,6,0,P|350:273|387:259,1,70,6|0,0:0|0:0,0:0:0:0:
438,209,31343,1,8,0:0:0:0:
471,141,31552,1,0,0:0:0:0:
471,141,31656,1,8,0:0:0:0:
471,141,31760,2,0,P|512:191|482:273,1,140,0|8,0:0|0:0,0:0:0:0:
424,285,32385,6,0,L|281:285,1,140
214,255,33010,1,8,0:0:0:0:
172,193,33218,1,0,0:0:0:0:
139,260,33427,2,0,P|149:294|172:318,1,70,0|2,0:0|0:0,0:0:0:0:
248,322,33843,1,12,0:0:0:0:
85,358,34260,6,0,P|53:296|49:227,1,140,6|8,0:0|0:0,0:0:0:0:
99,168,34885,2,0,L|135:138,2,35,0|8|0,0:0|0:0|0:0,0:0:0:0:
21,155,35302,2,0,P|18:118|27:81,1,70,2|8,0:0|0:0,0:0:0:0:
189,60,35927,6,0,P|223:69|258:68,1,70,2|0,0:0|0:0,0:0:0:0:
331,45,36343,1,8,0:0:0:0:
331,45,36760,2,0,P|332:85|297:133,1,70,0|2,0:0|0:0,0:0:0:0:
250,142,37177,2,0,P|237:173|239:209,1,70,8|0,0:0|0:0,0:0:0:0:
253,285,37593,6,0,P|187:326|115:282,1,140,6|8,0:0|0:0,0:0:0:0:
170,179,38218,1,0,0:0:0:0:
170,179,38323,1,8,0:0:0:0:
170,179,38427,2,0,L|185:247,1,70,0|2,0:0|0:0,0:0:0:0:
252,209,38843,2,0,L|236:140,1,70,8|0,0:0|0:0,0:0:0:0:
214,66,39260,6,0,L|259:62,1,35,2|8,0:0|0:0,0:0:0:0:
309,112,39573,2,0,L|354:108,1,35,2|8,0:0|0:0,0:0:0:0:
404,158,39885,2,0,L|449:154,2,35,2|8|4,0:0|0:0|0:0,0:0:0:0:
430,259,40302,1,2,0:3:0:0:
430,259,40510,1,2,0:3:0:0:
261,202,40927,6,0,P|193:220|125:207,1,140,6|8,0:0|0:0,0:0:0:0:
62,162,41552,2,0,L|27:162,2,35,0|8|0,0:0|0:0|0:0,0:0:0:0:
133,129,41968,2,0,P|111:100|67:83,1,70,2|8,0:0|0:0,0:0:0:0:
52,244,42593,6,0,P|77:275|129:292,1,70,2|0,0:0|0:0,0:0:0:0:
180,295,43010,1,8,0:0:0:0:
249,262,43218,2,0,L|248:200,2,35,0|8|0,0:0|0:0|0:0,0:0:0:0:
243,338,43635,2,0,P|219:361|181:372,1,70,2|8,0:0|0:0,0:0:0:0:
176,170,44260,6,0,L|183:101,1,70,6|0,0:0|0:0,0:0:0:0:
195,23,44677,1,8,0:0:0:0:
264,79,44885,1,0,0:0:0:0:
264,79,44989,1,8,0:0:0:0:
264,79,45093,2,0,P|298:85|349:81,1,70,0|2,0:0|0:0,0:0:0:0:
398,43,45510,1,8,0:0:0:0:
410,118,45718,6,0,L|403:273,1,140
327,242,46343,2,0,P|292:247|260:260,1,70,8|0,0:0|0:0,0:0:0:0:
184,245,46760,2,0,P|177:210|179:175,1,70,0|2,0:0|0:0,0:0:0:0:
208,318,47177,1,12,0:0:0:0:
113,137,47593,6,0,P|140:109|178:98,1,70,6|0,0:0|0:0,0:0:0:0:
238,126,48010,1,8,0:0:0:0:
306,162,48218,2,0,L|324:106,2,35,0|8|0,0:0|0:0|0:0,0:0:0:0:
240,202,48635,2,0,P|206:196|179:175,1,70,2|8,0:0|0:0,0:0:0:0:
80,16,49260,6,0,L|85:86,1,70,2|2,0:0|0:0,0:0:0:0:
96,168,49677,1,8,0:0:0:0:
169,125,49885,1,0,0:0:0:0:
169,125,49989,1,8,0:0:0:0:
169,125,50093,2,0,P|205:136|256:132,1,70,0|2,0:0|0:0,0:0:0:0:
311,116,50510,1,8,0:0:0:0:
362,58,50718,1,0,0:0:0:0:
386,132,50927,6,0,B|387:170|369:200|369:200|387:229|386:266,1,140,6|8,0:0|0:0,0:0:0:0:
253,327,51552,1,0,0:0:0:0:
253,327,51656,1,8,0:0:0:0:
253,327,51760,2,0,P|239:295|236:261,1,70,0|2,0:0|0:0,0:0:0:0:
285,143,52177,1,8,0:0:0:0:
311,274,52385,1,4,0:0:0:0:
95,224,52802,5,2,0:0:0:0:
95,224,52906,1,2,0:0:0:0:
95,224,53010,2,8,P|146:230|198:223,1,105
198,222,53427,1,0,0:0:0:0:
294,206,53635,5,2,0:0:0:0:
266,295,53843,1,8,0:0:0:0:
358,275,54052,1,0,0:0:0:0:
332,376,54260,1,14,0:0:0:0:
251,123,60927,6,0,L|240:224,1,70,12|2,1:0|0:0,0:0:0:0:
322,240,61343,2,2,L|333:139,1,70
338,80,61760,1,8,1:0:0:0:
396,131,61968,1,2,0:0:0:0:
473,134,62177,2,2,L|480:64,1,70
431,199,62593,6,0,L|423:268,1,70,8|2,1:0|0:0,0:0:0:0:
350,295,63010,1,2,0:0:0:0:
279,264,63218,1,2,0:0:0:0:
220,315,63427,2,0,L|150:312,1,70,8|2,1:0|0:0,0:0:0:0:
74,346,63843,1,2,0:0:0:0:
64,252,64052,1,2,0:0:0:0:
156,229,64260,5,12,1:0:0:0:
161,131,64468,2,2,L|165:57,1,70
261,34,64885,5,12,1:0:0:0:
256,132,65093,2,2,L|252:206,1,70
296,302,65510,5,8,1:0:0:0:
198,297,65718,2,2,L|128:293,1,70,14|0,1:0|0:0,0:0:0:0:
0,215,66135,2,2,L|70:219,1,70,14|0,1:0|0:0,0:0:0:0:
256,132,66968,6,0,P|320:121|375:48,1,140,4|0,0:0|0:0,0:0:0:0:
405,152,67593,6,0,L|401:221,1,70,4|0,1:0|0:0,0:0:0:0:
397,306,68010,1,8,0:0:0:0:
317,331,68218,2,0,L|315:390,2,35,0|8|0,0:0|0:0|0:0,0:0:0:0:
247,282,68635,2,0,P|205:271|155:271,1,70,2|8,0:0|0:0,0:0:0:0:
114,322,69052,1,0,0:0:0:0:
34,296,69260,6,0,L|33:144,1,140,4|8,1:0|0:0,0:0:0:0:
118,189,69885,1,0,0:0:0:0:
118,189,69989,1,8,0:0:0:0:
118,189,70093,2,0,P|155:193|217:182,1,70,0|2,0:0|0:0,0:0:0:0:
264,156,70510,2,0,L|259:225,1,70,8|0,0:0|0:0,0:0:0:0:
252,308,70927,6,0,P|287:303|317:285,1,70,4|0,1:0|0:0,0:0:0:0:
339,205,71343,2,0,P|370:221|391:249,1,70,8|0,0:0|0:0,0:0:0:0:
384,330,71760,2,0,P|419:326|449:308,1,70,0|2,0:0|0:0,0:0:0:0:
472,228,72177,1,8,0:0:0:0:
486,145,72385,6,0,B|444:140|414:167|414:167|386:151|356:118,1,140,6|0,0:0|0:0,0:0:0:0:
318,58,73010,1,8,0:0:0:0:
245,101,73218,2,0,L|244:163,2,35,0|8|0,0:0|0:0|0:0,0:0:0:0:
188,38,73635,2,0,P|167:67|164:121,1,70,2|8,0:0|0:0,0:0:0:0:
175,191,74052,1,2,0:0:0:0:
175,191,74156,1,0,0:0:0:0:
175,191,74260,1,4,1:2:0:0:
63,301,74677,6,0,L|131:316,1,70,8|0,0:0|0:0,0:0:0:0:
212,338,75093,2,0,L|280:318,1,70,8|0,0:0|0:0,0:0:0:0:
341,260,75510,1,8,0:0:0:0:
367,340,75718,1,0,0:0:0:0:
448,365,75927,6,0,L|455:278,1,70,8|0,0:0|0:0,0:0:0:0:
458,211,76343,1,8,0:0:0:0:
421,135,76552,2,0,L|420:91,2,35,0|8|0,0:0|0:0|0:0,0:0:0:0:
373,205,76968,2,0,P|344:214|274:205,1,70,2|8,0:0|0:0,0:0:0:0:
225,195,77385,1,2,0:0:0:0:
225,195,77489,1,2,0:0:0:0:
225,195,77593,6,0,B|211:161|224:127|224:127|238:94|223:59,1,140,4|2,1:0|0:0,0:0:0:0:
141,41,78218,1,2,0:0:0:0:
69,86,78427,2,0,P|57:155|67:222,1,140,2|8,0:0|0:0,0:0:0:0:
157,322,79052,1,12,0:0:0:0:
157,322,79468,6,8,L|221:294,1,70
296,256,79885,1,8,0:0:0:0:
327,258,79989,1,8,0:0:0:0:
355,274,80093,2,8,L|357:319,2,35
364,182,80510,2,8,P|404:175|457:194,1,70
512,154,80927,6,0,L|512:11,1,140,4|8,1:0|0:0,0:0:0:0:
438,47,81552,2,0,L|438:102,2,35,0|8|0,0:0|0:0|0:0,0:0:0:0:
359,77,81968,1,2,0:0:0:0:
275,83,82177,2,0,P|236:77|196:64,1,70,8|0,0:0|0:0,0:0:0:0:
133,14,82593,6,0,L|133:154,1,140,4|8,1:0|0:0,0:0:0:0:
93,231,83218,1,0,0:0:0:0:
93,231,83323,1,8,0:0:0:0:
93,231,83427,2,0,P|128:239|178:226,1,70,0|2,0:0|0:0,0:0:0:0:
232,200,83843,2,0,P|266:194|300:202,1,70,8|0,0:0|0:0,0:0:0:0:
354,267,84260,6,0,P|376:234|382:183,1,70,4|0,1:0|0:0,0:0:0:0:
383,120,84677,2,0,L|382:29,1,70,8|0,0:0|0:0,0:0:0:0:
301,72,85093,2,0,P|263:78|206:67,1,70,0|2,0:0|0:0,0:0:0:0:
154,41,85510,1,8,0:0:0:0:
150,126,85718,6,0,L|147:280,1,140,6|2,0:0|0:0,0:0:0:0:
226,235,86343,1,8,0:0:0:0:
308,220,86552,2,2,L|310:160,2,35,2|8|2,0:0|0:0|0:0,0:0:0:0:
345,323,86968,2,8,L|343:357,2,35,2|2|8,0:0|0:0|0:0,0:0:0:0:
394,228,87385,1,2,0:0:0:0:
394,228,87593,6,0,B|438:244|489:214|489:214|480:283,1,140,4|8,1:0|0:0,0:0:0:0:
448,330,88218,1,0,0:0:0:0:
372,367,88427,2,0,P|330:370|272:361,1,70,0|2,0:0|0:0,0:0:0:0:
240,304,88843,1,8,0:0:0:0:
240,304,89052,6,0,P|169:329|79:331,1,140,6|2,0:0|0:0,0:0:0:0:
22,316,89677,1,8,0:0:0:0:
1,230,89885,2,0,L|0:166,2,35,0|8|0,0:0|0:0|0:0,0:0:0:0:
80,260,90302,1,2,0:0:0:0:
147,209,90510,2,0,P|181:197|241:196,1,70,8|0,0:0|0:0,0:0:0:0:
298,203,90927,5,4,1:2:0:0:
298,203,91343,2,0,L|300:114,1,70,8|2,0:0|0:0,0:0:0:0:
230,35,91760,2,0,L|228:124,1,70,8|2,0:0|0:0,0:0:0:0:
223,314,92385,5,12,0:0:0:0:
383,178,92802,1,2,0:0:0:0:
230,35,93218,1,12,0:0:0:0:
228,206,93635,5,2,0:0:0:0:
228,206,93843,2,0,P|161:233|91:213,1,140,8|6,0:0|0:0,0:0:0:0:
5,118,94677,6,8,L|5:13,2,105,8|8|2,0:0|0:0|0:0,0:0:0:0:
6,191,95510,1,8,0:0:0:0:
73,310,95927,5,2,0:0:0:0:
146,315,96135,1,2,0:0:0:0:
215,291,96343,2,0,B|213:240|213:240|182:173,2,105,8|8|2,0:0|0:0|0:0,0:0:0:0:
201,362,97177,1,8,0:0:0:0:
115,251,97593,5,2,0:0:0:0:
225,154,98010,2,0,B|284:134|284:134|348:143,2,105,8|8|2,0:0|0:0|0:0,0:0:0:0:
170,202,98843,1,8,0:0:0:0:
316,215,99260,6,0,L|350:219,1,35,2|8,0:0|0:0,0:0:0:0:
370,293,99573,2,0,L|404:297,1,35,2|8,0:0|0:0,0:0:0:0:
424,371,99885,2,0,L|458:375,2,35,2|8|0,0:0|0:0|0:0,0:0:0:0:
340,380,100302,1,6,0:0:0:0:
280,321,100510,1,8,0:0:0:0:
256,174,100927,5,2,0:0:0:0:
157,281,101343,2,0,B|119:308|119:308|39:316,2,105,8|8|2,0:0|0:0|0:0,0:0:0:0:
207,226,102177,1,8,0:0:0:0:
310,122,102593,5,2,0:0:0:0:
323,194,102802,1,2,0:0:0:0:
335,267,103010,2,0,B|283:285|283:285|221:292,2,105,8|8|2,0:0|0:0|0:0,0:0:0:0:
392,220,103843,1,8,0:0:0:0:
367,75,104260,5,4,0:0:0:0:
254,170,104677,1,12,0:0:0:0:
298,269,104885,1,12,0:0:0:0:
298,269,104989,1,8,0:0:0:0:
298,269,105093,2,0,P|261:278|204:267,1,70
89,213,105718,1,2,0:0:0:0:
315,210,107593,6,0,P|248:225|157:211,1,140,2|0,0:0|0:0,0:0:0:0:
83,95,108427,1,2,0:0:0:0:
110,166,108635,2,0,L|91:221,2,35,0|2|0,0:0|0:0|0:0,0:0:0:0:
158,107,109052,1,0,0:0:0:0:
205,47,109260,6,0,P|235:65|269:74,1,70,2|0,0:0|0:0,0:0:0:0:
341,40,109677,2,0,B|355:74|342:109|342:109|329:143|342:177,1,140,0|2,0:0|0:0,0:0:0:0:
415,199,110302,2,0,P|398:229|367:249,1,70,0|2,0:0|0:0,0:0:0:0:
202,216,110927,6,0,L|289:216,1,70,2|0,0:0|0:0,0:0:0:0:
305,288,111343,2,0,L|234:288,1,70
162,285,111760,2,0,P|121:213|154:154,1,140,2|0,0:0|0:0,0:0:0:0:
212,141,112385,6,0,P|165:93|98:102,1,140
56,167,113010,2,0,L|54:256,1,70
53,314,113427,1,2,0:0:0:0:
140,166,113843,1,2,0:0:0:0:
227,310,114260,6,0,P|288:331|366:321,1,140,2|0,0:0|0:0,0:0:0:0:
307,175,115093,1,2,0:0:0:0:
228,173,115302,2,0,L|229:130,2,35,0|2|0,0:0|0:0|0:0,0:0:0:0:
267,242,115718,1,0,0:0:0:0:
345,244,115927,6,0,P|371:220|384:188,1,70,2|0,0:0|0:0,0:0:0:0:
391,112,116343,1,0,0:0:0:0:
391,112,116760,6,0,P|348:114|303:100,1,70,2|0,0:0|0:0,0:0:0:0:
255,59,117177,1,0,0:0:0:0:
252,141,117385,2,0,B|216:139|191:111|191:111|165:139|129:141,1,140,2|0,0:0|0:0,0:0:0:0:
0,247,118218,6,0,B|36:249|62:277|62:277|87:249|123:246,1,140,2|0,0:0|0:0,0:0:0:0:
189,285,118843,1,0,0:0:0:0:
234,222,119052,2,0,B|263:155|204:155|234:88,1,140,2|0,0:0|0:0,0:0:0:0:
312,120,120302,6,0,B|306:94|318:72|318:72|314:48|297:29,1,97.9999970092774,0|0,3:0|0:0,0:0:0:0:
234,87,120927,6,0,P|234:156|212:222,1,140,6|8,0:0|0:0,0:0:0:0:
145,261,121552,2,0,L|145:314,2,35,0|8|0,0:0|0:0|0:0,0:0:0:0:
145,184,121968,1,2,0:0:0:0:
78,222,122177,2,0,P|62:184|56:155,1,70,8|0,0:0|0:0,0:0:0:0:
77,82,122593,6,0,P|110:91|144:88,1,70,2|2,0:0|0:0,0:0:0:0:
210,46,123010,1,8,0:0:0:0:
266,98,123218,2,0,L|261:159,2,35,0|8|0,0:0|0:0|0:0,0:0:0:0:
284,24,123635,2,0,P|325:14|375:22,1,70,0|8,0:0|0:0,0:0:0:0:
432,156,124260,6,0,L|427:234,1,70,6|0,0:0|0:0,0:0:0:0:
423,302,124677,1,8,0:0:0:0:
359,259,124885,1,0,0:0:0:0:
359,259,124989,1,8,0:0:0:0:
359,259,125093,2,0,B|320:277|271:233|271:233|271:275,1,140,0|8,0:0|0:0,0:0:0:0:
289,350,125718,1,0,0:0:0:0:
213,333,125927,6,0,L|152:328,1,35,2|8,0:0|0:0,0:0:0:0:
130,261,126239,2,0,L|69:256,1,35,2|8,0:0|0:0,0:0:0:0:
47,189,126552,2,0,L|12:186,2,35,2|8|0,0:0|0:0|0:0,0:0:0:0:
130,180,126968,2,0,P|158:160|182:113,1,70,6|8,0:0|0:0,0:0:0:0:
292,19,127593,6,0,P|297:89|264:171,1,140,6|8,0:0|0:0,0:0:0:0:
200,175,128218,2,0,L|179:127,2,35,0|8|0,0:0|0:0|0:0,0:0:0:0:
257,227,128635,2,2,P|290:235|325:232,1,70,2|8,0:0|0:0,0:0:0:0:
490,125,129260,6,2,P|455:122|421:130,1,70
389,201,129677,1,8,0:0:0:0:
364,279,129885,1,0,0:0:0:0:
364,279,129989,1,8,0:0:0:0:
364,279,130093,2,0,P|325:286|290:284,1,70,0|2,0:0|0:0,0:0:0:0:
228,241,130510,1,8,0:0:0:0:
158,281,130718,1,0,0:0:0:0:
78,266,130927,6,0,P|72:196|78:126,1,140,6|8,0:0|0:0,0:0:0:0:
149,84,131552,1,0,0:0:0:0:
149,84,131656,1,8,0:0:0:0:
149,84,131760,2,0,P|188:89|238:91,1,70,0|2,0:0|0:0,0:0:0:0:
292,63,132177,2,0,P|326:65|361:69,1,70,8|0,0:0|0:0,0:0:0:0:
465,72,132593,6,0,L|454:134,1,35,2|8,0:0|0:0,0:0:0:0:
390,158,132906,2,0,L|379:220,1,35,2|8,0:0|0:0,0:0:0:0:
315,244,133218,2,0,L|304:306,2,35,2|8|0,0:0|0:0|0:0,0:0:0:0:
213,170,133635,1,2,0:0:0:0:
160,244,133843,1,8,0:0:0:0:
122,161,134052,1,0,0:0:0:0:
213,170,134260,6,0,P|248:177|300:170,1,70,14|0,0:3|0:0,0:0:0:0:
306,169,134573,2,0,P|340:166|375:173,1,70,6|0,0:3|0:0,0:0:0:0:
398,182,134885,2,0,P|432:188|467:186,1,70,10|0,0:0|0:0,0:0:0:0:
511,107,135302,2,2,L|512:25,2,70
506,198,135927,6,0,P|489:228|436:250,1,70,6|0,0:3|0:0,0:0:0:0:
436,239,136239,2,0,P|400:240|351:278,1,70,6|0,0:3|0:0,0:0:0:0:
350,271,136552,2,0,P|316:282|256:286,1,70,10|0,0:0|0:0,0:0:0:0:
223,216,136968,2,0,L|222:133,2,70,2|8|2,0:0|0:0|0:0,0:0:0:0:
216,314,137593,6,0,P|181:330|128:326,1,70,14|0,0:3|0:0,0:0:0:0:
132,315,137906,2,0,P|118:275|124:222,1,70,6|0,0:3|0:0,0:0:0:0:
128,225,138218,2,0,P|135:192|135:154,1,70,10|0,0:0|0:0,0:0:0:0:
46,114,138635,2,0,P|45:152|46:183,2,70,2|0|0,0:0|0:0|0:0,0:0:0:0:
83,34,139260,6,0,P|149:25|231:34,1,140,2|12,0:0|0:0,0:0:0:0:
302,146,140093,2,8,L|300:197,2,35,8|8|8,1:0|1:0|1:0,1:0:0:0:
304,40,140510,1,8,1:0:0:0:
368,82,140718,1,8,1:0:0:0:
445,85,140927,6,0,L|442:181,1,70,12|2,1:0|0:0,0:0:0:0:
363,222,141343,2,2,L|365:152,1,70
307,101,141760,1,8,1:0:0:0:
251,154,141968,1,2,0:0:0:0:
233,79,142177,2,2,L|234:6,1,70,2|0,0:0|0:0,0:0:0:0:
176,131,142593,6,2,L|176:201,1,70,12|2,1:0|0:0,0:0:0:0:
173,278,143010,1,2,0:0:0:0:
108,237,143218,1,2,0:0:0:0:
40,273,143427,2,2,L|40:342,1,70,8|2,1:0|0:0,0:0:0:0:
133,364,143843,1,2,0:0:0:0:
173,278,144052,1,2,0:0:0:0:
252,329,144260,5,8,1:0:0:0:
335,322,144468,2,2,L|422:312,1,70
496,254,144885,5,8,1:0:0:0:
417,227,145093,2,2,L|332:204,1,70
257,145,145510,5,8,1:0:0:0:
257,269,145718,1,14,1:0:0:0:
257,269,146135,1,14,1:0:0:0:
433,174,146968,6,0,B|405:203|405:203|388:97,1,140,4|0,0:0|0:0,0:0:0:0:
299,50,147593,6,0,L|313:142,1,70,4|0,1:0|0:0,0:0:0:0:
323,202,148010,1,8,0:0:0:0:
239,206,148218,2,0,L|224:165,2,35,0|8|0,0:0|0:0|0:0,0:0:0:0:
283,277,148635,1,2,0:0:0:0:
367,273,148843,2,0,P|394:246|406:213,1,70,8|0,0:0|0:0,0:0:0:0:
456,313,149260,6,0,P|402:364|322:361,1,140,4|8,1:0|0:0,0:0:0:0:
271,336,149885,1,0,0:0:0:0:
271,336,149989,1,8,0:0:0:0:
271,336,150093,2,0,P|241:354|206:360,1,70,0|2,0:0|0:0,0:0:0:0:
125,338,150510,2,0,P|141:305|170:284,1,70,8|2,0:0|0:0,0:0:0:0:
249,259,150927,6,0,L|258:166,1,70,4|0,1:0|0:0,0:0:0:0:
186,121,151343,2,0,L|179:190,1,70,8|0,0:0|0:0,0:0:0:0:
108,121,151760,2,0,L|115:52,2,70,0|2|8,0:0|0:0|0:0,0:0:0:0:
97,214,152385,6,0,P|139:267|218:267,1,140,6|0,0:0|0:0,0:0:0:0:
284,237,153010,1,8,0:0:0:0:
360,202,153218,2,0,L|368:160,2,35,0|8|0,0:0|0:0|0:0,0:0:0:0:
352,285,153635,2,0,P|368:313|427:339,1,70,2|8,0:0|0:0,0:0:0:0:
495,323,154052,1,2,0:0:0:0:
495,211,154260,1,4,1:2:0:0:
495,211,154677,6,0,P|454:231|413:235,1,70,8|0,0:0|0:0,0:0:0:0:
361,189,155093,2,0,P|317:173|277:173,1,70,8|0,0:0|0:0,0:0:0:0:
227,223,155510,1,8,0:0:0:0:
144,241,155718,1,0,0:0:0:0:
68,201,155927,6,0,L|65:107,1,70,8|0,0:0|0:0,0:0:0:0:
65,47,156343,1,8,0:0:0:0:
154,69,156552,1,0,0:0:0:0:
154,69,156656,1,8,0:0:0:0:
154,69,156760,2,0,P|190:59|223:33,1,70,0|2,0:0|0:0,0:0:0:0:
289,78,157177,2,0,P|323:88|358:86,1,70,8|0,0:0|0:0,0:0:0:0:
443,20,157593,5,4,1:0:0:0:
443,20,157802,2,0,B|441:54|441:54|454:88|439:123|439:123|438:157,1,140,2|2,0:0|0:0,0:0:0:0:
353,225,158427,2,0,B|354:190|354:190|341:156|356:121|356:121|357:87,1,140,2|8,0:0|0:0,0:0:0:0:
271,152,159052,1,12,0:0:0:0:
271,152,159468,6,8,P|249:182|196:199,1,70
153,146,159885,1,8,0:0:0:0:
121,140,159989,1,8,0:0:0:0:
90,145,160093,2,8,L|79:212,2,35
114,57,160510,2,8,P|89:31|42:16,1,70
23,109,160927,6,0,L|-3:273,1,140,4|8,1:0|0:0,0:0:0:0:
65,300,161552,2,8,L|54:367,2,35,0|8|0,0:0|0:0|0:0,0:0:0:0:
79,218,161968,1,2,0:0:0:0:
137,278,162177,2,0,P|160:302|216:322,1,70,8|0,0:0|0:0,0:0:0:0:
270,271,162593,6,0,L|276:201,1,70,4|0,1:0|0:0,0:0:0:0:
284,117,163010,1,8,0:0:0:0:
327,46,163218,1,0,0:0:0:0:
327,46,163323,1,8,0:0:0:0:
327,46,163427,2,0,P|358:63|392:72,1,70,0|2,0:0|0:0,0:0:0:0:
460,121,163843,2,0,P|432:145|392:156,1,70,8|0,0:0|0:0,0:0:0:0:
321,127,164260,6,0,L|326:220,1,70,4|0,1:0|0:0,0:0:0:0:
244,173,164677,2,0,L|239:80,1,70,8|0,0:0|0:0,0:0:0:0:
162,149,165093,2,0,L|165:218,1,70,0|2,0:0|0:0,0:0:0:0:
168,301,165510,1,8,0:0:0:0:
86,313,165718,6,0,P|104:247|166:218,1,140,6|2,0:0|0:0,0:0:0:0:
245,245,166343,1,8,0:0:0:0:
319,284,166552,2,2,L|317:318,2,35,2|8|2,0:0|0:0|0:0,0:0:0:0:
321,184,166968,1,2,0:0:0:0:
321,184,167073,1,2,0:0:0:0:
321,184,167177,2,0,P|358:191|417:193,1,70,8|2,0:0|0:0,0:0:0:0:
482,237,167593,6,0,P|424:274|353:274,1,140,4|8,1:0|0:0,0:0:0:0:
277,243,168218,1,0,0:0:0:0:
197,214,168427,2,0,P|155:212|99:238,1,70,0|2,0:0|0:0,0:0:0:0:
54,276,168843,1,8,0:0:0:0:
54,276,169052,6,0,L|59:129,1,140,6|2,0:0|0:0,0:0:0:0:
66,52,169677,1,8,0:0:0:0:
142,108,169885,1,0,0:0:0:0:
142,108,169989,1,8,0:0:0:0:
142,108,170093,2,0,P|176:117|232:116,1,70,0|2,0:0|0:0,0:0:0:0:
288,85,170510,2,0,P|322:76|378:77,1,70,8|0,0:0|0:0,0:0:0:0:
337,168,170927,5,4,1:0:0:0:
337,168,171343,2,0,P|328:208|325:259,1,70,8|2,0:0|0:0,0:0:0:0:
383,334,171760,2,0,P|391:293|394:242,1,70,8|2,0:0|0:0,0:0:0:0:
359,82,172385,5,12,0:0:0:0:
253,254,172802,1,2,0:0:0:0:
152,78,173218,1,12,0:0:0:0:
79,280,173635,5,2,0:0:0:0:
79,280,173843,2,0,B|133:306|224:269,1,140,8|4,0:0|0:0,0:0:0:0:
187,198,180927,6,2,P|252:222|319:204,1,140
430,145,181760,2,2,P|442:216|404:292,1,140
319,204,182593,5,2,0:0:0:0:
323,78,183010,1,2,0:0:0:0:
212,137,183427,1,2,0:0:0:0:
379,142,183843,1,2,0:0:0:0:
243,263,184260,6,0,P|166:258|100:203,1,140,6|2,0:0|0:0,0:0:0:0:
84,101,185093,2,0,L|86:30,2,70,2|0|2,0:0|0:0|0:0,0:0:0:0:
115,223,185927,5,2,0:0:0:0:
212,137,186343,1,2,0:0:0:0:
243,263,186760,2,0,L|235:351,1,70,2|2,0:0|0:0,0:0:0:0:
327,260,187177,2,0,L|333:190,1,70,8|0,0:0|0:0,0:0:0:0:
421,117,187593,5,6,0:0:0:0:
327,260,188010,1,2,0:0:0:0:
256,100,188427,2,0,P|252:62|255:28,1,70,2|0,0:0|0:0,0:0:0:0:
175,100,188843,2,0,P|177:134|173:169,1,70,2|0,0:0|0:0,0:0:0:0:
134,275,189260,5,6,0:0:0:0:
249,176,189677,2,0,P|281:197|322:205,1,70,2|0,0:0|0:0,0:0:0:0:
386,190,190093,2,0,L|391:91,1,70,2|0,0:0|0:0,0:0:0:0:
476,60,190510,2,0,P|466:93|463:128,1,70,8|0,0:0|0:0,0:0:0:0:
474,256,190927,5,6,0:0:0:0:
335,349,191343,2,0,P|300:354|265:352,1,70,2|0,0:0|0:0,0:0:0:0:
189,245,191760,2,0,P|224:240|259:242,1,70,2|0,0:0|0:0,0:0:0:0:
330,271,192177,1,2,0:0:0:0:
415,338,192385,1,8,0:0:0:0:
415,338,192489,1,8,0:0:0:0:
415,338,192593,6,0,P|421:296|419:249,1,70,12|8,0:0|0:0,0:0:0:0:
371,150,193010,1,12,0:0:0:0:
330,271,193218,2,8,L|330:335,2,35
270,155,193635,2,8,P|235:146|185:146,1,70
79,197,194052,1,8,0:0:0:0:
197,270,194260,6,0,B|229:270|229:270|262:286|262:286|296:269|296:269|328:270,1,140,12|0,1:0|0:0,0:0:0:0:
394,170,194885,1,8,1:0:0:0:
394,170,195093,2,0,B|388:218|388:218|409:253|409:253|404:302,1,140,8|0,1:0|0:0,0:0:0:0:
468,198,195718,6,0,L|476:129,1,70,8|0,1:0|0:0,0:0:0:0:
413,21,196135,2,0,L|405:90,1,70,8|0,1:0|0:0,0:0:0:0:
330,190,196552,1,8,1:0:0:0:
330,190,196760,2,0,B|288:198|288:198|250:183|250:183|217:190|217:190|175:184,1,140,8|0,1:0|0:0,0:0:0:0:
111,177,197385,1,2,0:0:0:0:
92,54,197593,6,0,B|75:145|75:145|110:176,1,140,12|0,1:0|0:0,0:0:0:0:
209,257,198218,1,8,1:0:0:0:
209,257,198427,2,0,B|225:165|225:165|190:134,1,140,12|0,1:0|0:0,0:0:0:0:
101,47,199052,5,8,1:0:0:0:
316,96,199468,1,8,1:0:0:0:
114,180,199885,1,8,1:0:0:0:
114,180,200093,2,0,B|142:199|142:199|190:205,1,70,8|0,1:0|0:0,0:0:0:0:
279,177,200510,2,0,B|314:181|314:181|342:201,1,70,4|0,0:0|0:0,0:0:0:0:
418,285,200927,6,0,B|423:226|444:187|444:187|426:138,1,140,12|0,1:0|0:0,0:0:0:0:
448,45,201552,1,8,1:0:0:0:
448,45,201760,2,0,B|420:80|420:80|387:46|325:46,1,140,8|0,1:0|0:0,0:0:0:0:
194,85,202385,6,0,L|287:105,1,70,8|0,1:0|0:0,0:0:0:0:
347,191,202802,2,0,L|278:176,1,70,8|0,1:0|0:0,0:0:0:0:
153,149,203218,1,8,1:0:0:0:
153,149,203427,2,0,B|172:216|172:216|149:290,1,140,8|0,1:0|0:0,0:0:0:0:
56,175,204052,1,2,0:0:0:0:
26,248,204260,6,0,B|63:259|97:244|97:244|119:272|151:282,1,140,12|0,1:0|0:0,0:0:0:0:
223,367,204885,1,8,1:0:0:0:
223,367,205093,2,0,B|218:321|218:321|233:295|230:256|211:234,1,140,8|0,1:0|0:0,0:0:0:0:
143,151,205718,2,0,P|171:95|224:127,1,140,8|0,1:0|0:0,0:0:0:0:
149,266,217593,5,12,0:0:0:0:
240,232,217802,2,2,L|276:247,2,35
166,170,218218,5,12,0:0:0:0:
257,136,218427,2,2,L|293:151,2,35
183,74,218843,5,12,0:0:0:0:
327,78,219052,1,12,0:0:0:0:
327,78,219468,1,12,0:0:0:0:
466,230,219885,5,2,0:0:0:0:
466,230,219989,1,2,0:0:0:0:
466,230,220093,2,2,P|419:250|389:254,1,70
367,253,220406,1,0,0:0:0:0:
334,242,220510,2,0,P|328:206|327:167,1,70,8|2,0:0|0:0,0:3:0:0:
342,321,220927,6,0,L|199:316,1,140,4|8,1:0|0:0,0:0:0:0:
120,276,221552,2,0,L|125:212,2,35,0|8|0,0:0|0:0|0:0,0:0:0:0:
130,359,221968,1,2,0:0:0:0:
202,316,222177,2,0,P|211:276|205:240,1,70,8|0,0:0|0:0,0:0:0:0:
148,160,222593,6,0,P|115:173|76:176,1,70,4|2,1:0|0:0,0:0:0:0:
9,128,223010,1,8,0:0:0:0:
55,54,223218,1,0,0:0:0:0:
55,54,223323,1,8,0:0:0:0:
55,54,223427,2,0,P|87:67|126:70,1,70,0|2,0:0|0:0,0:0:0:0:
193,26,223843,2,0,P|225:12|264:9,1,70,8|0,0:0|0:0,0:0:0:0:
251,108,224260,6,0,L|243:191,1,70,4|0,1:0|0:0,0:0:0:0:
313,249,224677,2,0,L|321:166,1,70,8|0,0:0|0:0,0:0:0:0:
340,96,225093,2,0,P|370:113|405:120,1,70,0|2,0:0|0:0,0:0:0:0:
473,70,225510,1,8,0:0:0:0:
471,173,225718,6,0,P|440:229|342:230,1,140,6|2,0:0|0:0,0:0:0:0:
293,201,226343,1,8,0:0:0:0:
257,119,226552,2,2,L|272:55,2,35,2|8|2,0:0|0:0|0:0,0:0:0:0:
213,200,226968,1,2,0:0:0:0:
213,200,227073,1,2,0:0:0:0:
213,200,227177,2,0,P|220:233|240:262,1,70,8|2,0:0|0:0,0:0:0:0:
346,255,227593,6,0,P|318:332|257:367,1,140,4|8,1:0|2:0,2:0:0:0:
188,360,228218,1,0,0:0:0:0:
144,291,228427,2,0,P|175:277|210:279,1,70,0|2,0:0|0:0,0:0:0:0:
272,363,228843,1,8,0:0:0:0:
287,246,229052,1,6,0:0:0:0:
287,246,229468,6,0,P|321:247|353:234,1,70,2|8,0:0|0:0,0:0:0:0:
433,180,229885,1,0,0:0:0:0:
433,180,229989,1,8,0:0:0:0:
433,180,230093,2,0,L|428:271,1,70,0|2,0:0|0:0,0:0:0:0:
507,281,230510,2,0,L|512:190,1,70,8|0,0:0|0:0,0:0:0:0:
507,112,230927,5,4,1:0:0:0:
507,112,231343,2,0,P|466:120|414:112,1,70,8|2,0:0|0:0,0:0:0:0:
363,80,231760,2,0,P|322:71|270:80,1,70,8|2,0:0|0:0,0:0:0:0:
213,100,232177,1,2,0:0:0:0:
313,157,232385,5,12,0:0:0:0:
139,230,232802,1,2,0:0:0:0:
366,282,233218,1,8,0:0:0:0:
366,282,233323,1,8,0:0:0:0:
366,282,233427,2,0,P|325:291|273:282,1,70,8|2,0:0|0:0,0:0:0:0:
215,275,233843,2,0,L|212:182,1,70,8|2,0:0|0:0,0:0:0:0:
131,307,234260,6,0,P|178:356|247:359,1,140,4|0,1:0|0:0,0:0:0:0:
297,289,234885,1,2,0:0:0:0:
360,229,235093,2,0,P|398:222|437:225,1,70,12|2,0:0|0:0,0:0:0:0:
491,300,235510,1,0,0:0:0:0:
512,191,235718,2,0,P|506:121|489:50,1,140,12|2,0:0|0:0,0:0:0:0:
414,6,236343,1,8,0:0:0:0:
407,101,236552,5,2,0:0:0:0:
407,101,236656,1,2,0:0:0:0:
407,101,236760,2,0,P|367:108|325:107,1,70,8|2,0:0|0:0,0:0:0:0:
233,46,237177,2,0,P|266:30|299:21,1,70,8|2,0:0|0:0,0:0:0:0:
411,20,237593,5,4,1:2:0:0:
426,236,238010,2,0,L|420:147,1,70,8|2,0:0|0:0,0:0:0:0:
340,60,238427,2,0,L|344:129,1,70,8|2,0:0|0:0,0:0:0:0:
362,352,239052,5,12,0:0:0:0:
225,193,239468,1,2,0:0:0:0:
434,169,239885,1,12,0:0:0:0:
284,333,240302,5,2,0:0:0:0:
284,333,240510,2,0,P|270:284|268:246,1,77.0000023498536,2|0,0:0|0:0,0:0:0:0:
