osu file format v14

[General]
AudioFilename: OUR SHIP FELT.mp3
AudioLeadIn: 0
PreviewTime: 66343
Countdown: 0
SampleSet: Soft
StackLeniency: 0.5
Mode: 0
LetterboxInBreaks: 0
WidescreenStoryboard: 1

[Editor]
Bookmarks: 27593,40927,54260,60927,107593,120927,134260,147593,180927,194260,207593,220927
DistanceSpacing: 1
BeatDivisor: 2
GridSize: 8
TimelineZoom: 0.8600001

[Metadata]
Title:OUR SHIP
TitleUnicode:OUR SHIP
Artist:FELT
ArtistUnicode:FELT
Creator:MokouSmoke
Version:Easy
Source:東方Project
Tags:舞花 Maika 美歌 Mika NAGI☆ Spatial Moving Comiket89 東方夢時空 Touhou Phantasmagoria Dim Dream Yumemi Okazaki Strawberry Crisis StrawberryCrisis!! ZUN
BeatmapID:907300
BeatmapSetID:403065

[Difficulty]
HPDrainRate:2
CircleSize:3
OverallDifficulty:2
ApproachRate:3
SliderMultiplier:0.9
SliderTickRate:1

[Events]
//Background and Video events
0,0,"yumemi okazaki.jpg",0,0
//Break Periods
2,54459,59487
2,174460,179487
2,207593,216153
//Storyboard Layer 0 (Background)
//Storyboard Layer 1 (Fail)
//Storyboard Layer 2 (Pass)
//Storyboard Layer 3 (Foreground)
//Storyboard Sound Samples

[TimingPoints]
927.23108616857,416.666666666667,4,2,1,50,1,0
25927,-100,4,2,1,20,0,0
27593,-100,4,2,1,50,0,0
60927,-100,4,2,1,50,0,0
62593,-100,4,2,1,60,0,0
67593,-100,4,2,1,70,0,1
94260,-100,4,2,1,35,0,0
104885,-100,4,3,0,35,0,0
107593,-100,4,2,2,40,0,0
119468,-100,4,2,2,15,0,0
120927,-100,4,2,1,50,0,0
134260,-100,4,2,1,85,0,0
134468,-100,4,2,1,50,0,0
134573,-100,4,2,1,70,0,0
134781,-100,4,2,1,50,0,0
135927,-100,4,2,1,85,0,0
136135,-100,4,2,1,50,0,0
136239,-100,4,2,1,70,0,0
136448,-100,4,2,1,50,0,0
137593,-100,4,2,1,85,0,0
137802,-100,4,2,1,50,0,0
137906,-100,4,2,1,70,0,0
138114,-100,4,2,1,50,0,0
142593,-100,4,2,1,60,0,0
147593,-100,4,2,1,70,0,1
174260,-100,4,2,1,35,0,0
180927,-100,4,2,1,50,0,0
183843,-100,4,3,0,50,0,0
184260,-100,4,2,1,75,0,0
184468,-100,4,2,1,55,0,0
187177,-100,4,2,1,45,0,0
187593,-100,4,2,1,75,0,0
187802,-100,4,2,1,60,0,0
190927,-100,4,2,1,75,0,0
191135,-100,4,2,1,70,0,0
204052,-100,4,2,1,60,0,0
204260,-100,4,2,1,70,0,0
205718,-100,4,2,1,50,0,0
206135,-100,4,2,1,30,0,0
217593,-100,4,2,1,55,0,0
220927,-100,4,2,1,80,0,1
232385,-100,4,2,1,70,0,0
234260,-100,4,2,1,70,0,1
240510,-100,4,2,1,50,0,1
240927,-100,4,2,1,50,0,0

[Colours]
Combo1 : 172,193,100
Combo2 : 204,66,66
Combo3 : 130,181,163
Combo4 : 165,143,171

[HitObjects]
256,192,24260,12,0,25927,0:0:0:0:
99,277,27593,6,0,P|189:292|281:276,1,180,6|0,0:0|0:0,0:0:0:0:
335,210,28843,1,8,0:0:0:0:
374,129,29260,2,0,P|421:130|479:147,2,90,2|0|0,0:0|0:0|0:0,0:0:0:0:
285,136,30510,1,8,0:0:0:0:
245,216,30927,6,0,P|180:274|97:253,1,180,6|0,0:0|0:0,0:0:0:0:
33,188,32177,1,8,0:0:0:0:
55,100,32593,2,0,P|119:42|203:63,1,180,2|0,0:0|0:0,0:0:0:0:
268,129,33843,1,12,0:0:0:0:
302,212,34260,6,0,P|355:219|427:214,2,90,6|0|0,0:0|0:0|0:0,0:0:0:0:
219,248,35510,1,8,0:0:0:0:
143,297,35927,2,0,P|96:307|22:293,1,90,2|0,0:0|0:0,0:0:0:0:
6,228,36760,1,0,0:0:0:0:
6,138,37177,1,8,0:0:0:0:
54,61,37594,6,0,P|113:51|197:81,2,135,6|0|8,0:0|0:0|0:0,0:0:0:0:
6,138,39260,2,0,L|6:228,1,90,2|8,0:0|0:0,0:0:0:0:
92,332,40302,2,0,L|170:349,1,45,2|2,0:3|0:3,0:0:0:0:
222,321,40927,6,0,B|239:273|223:232|223:232|208:186|225:144,1,180,6|0,0:0|0:0,0:0:0:0:
269,66,42177,1,8,0:0:0:0:
354,37,42593,2,0,P|399:30|467:43,2,90,2|0|0,0:0|0:0|0:0,0:0:0:0:
334,125,43843,1,8,0:0:0:0:
289,203,44260,6,0,B|241:220|203:198|203:198|158:176|116:194,1,180,6|0,0:0|0:0,0:0:0:0:
52,258,45510,1,8,0:0:0:0:
116,321,45927,2,0,B|158:338|203:317|203:317|241:294|289:311,1,180,2|0,0:0|0:0,0:0:0:0:
369,354,47177,1,12,0:0:0:0:
458,352,47593,6,0,L|478:166,1,180,6|0,0:0|0:0,0:0:0:0:
439,91,48843,1,8,0:0:0:0:
358,132,49260,2,0,P|314:131|250:110,1,90,2|0,0:0|0:0,0:0:0:0:
191,72,50093,2,0,P|148:61|103:59,1,90,0|8,0:0|0:0,0:0:0:0:
58,141,50927,6,0,P|121:163|188:162,1,135,6|0,0:0|0:0,0:0:0:0:
269,119,51968,1,2,0:0:0:0:
358,132,52385,2,0,P|365:206|347:271,1,135,4|8,0:0|0:0,0:0:0:0:
237,337,53635,2,0,P|229:262|247:197,1,135,2|14,0:0|0:0,0:0:0:0:
99,77,60927,6,0,L|125:163,1,90,12|2,1:0|0:0,0:0:0:0:
184,233,61760,2,0,L|210:319,1,90,8|2,1:0|0:0,0:0:0:0:
301,319,62593,2,0,L|327:232,1,90,12|2,1:0|0:0,0:0:0:0:
386,164,63427,2,0,L|412:77,1,90,8|2,1:0|0:0,0:0:0:0:
322,83,64260,6,0,P|256:96|190:83,1,135,12|12,1:0|1:0,0:0:0:0:
62,38,65510,2,0,L|65:118,1,45,8|14,1:0|1:0,0:0:0:0:
67,172,66135,1,14,1:0:0:0:
381,188,67593,6,0,P|336:198|279:194,1,90,4|8,1:0|0:0,0:0:0:0:
207,166,68427,2,0,P|162:164|118:174,1,90,2|8,0:0|0:0,0:0:0:0:
39,218,69260,2,0,P|39:271|46:312,1,90,4|8,1:0|0:0,0:0:0:0:
124,350,70093,1,2,0:0:0:0:
213,338,70510,1,8,0:0:0:0:
286,285,70927,6,0,P|292:240|291:195,1,90,4|8,1:0|0:0,0:0:0:0:
207,166,71760,2,0,P|146:179|68:172,2,135,2|4|8,0:0|0:0|0:0,0:0:0:0:
289,128,73427,2,0,P|335:117|382:121,1,90,2|8,0:0|0:0,0:0:0:0:
463,147,74260,5,4,1:2:0:0:
470,236,74677,2,0,P|464:277|441:324,1,90,8|8,0:0|0:0,0:0:0:0:
360,355,75510,1,8,0:0:0:0:
276,320,75927,2,0,P|256:280|250:236,1,90,8|8,0:0|0:0,0:0:0:0:
250,145,76760,2,0,P|241:101|214:65,1,90,8|8,0:0|0:0,0:0:0:0:
160,139,77593,6,0,L|160:274,1,135,4|2,1:0|0:0,0:0:0:0:
60,365,78843,2,0,L|52:304,1,45,2|12,0:0|0:0,0:0:0:0:
41,231,79468,1,8,0:0:0:0:
38,96,80093,2,0,P|77:120|135:128,1,90,8|8,0:0|0:0,0:0:0:0:
207,106,80927,6,0,P|247:101|302:107,1,90,4|8,1:0|0:0,0:0:0:0:
367,161,81760,2,0,L|361:260,1,90,2|8,0:0|0:0,0:0:0:0:
320,331,82593,2,0,P|280:336|225:330,1,90,4|8,1:0|0:0,0:0:0:0:
156,279,83427,1,2,0:0:0:0:
131,192,83844,1,8,0:0:0:0:
68,257,84260,6,0,P|68:302|97:349,1,90,4|8,1:0|0:0,0:0:0:0:
176,368,85093,2,0,B|250:368|250:368|316:335,2,135,2|4|8,0:0|0:0|0:0,0:0:0:0:
88,340,86760,2,0,P|62:304|54:250,1,90,2|8,0:0|0:0,0:0:0:0:
60,170,87593,6,0,P|129:157|215:168,1,135,4|2,1:0|0:0,0:0:0:0:
317,213,88843,2,0,L|391:205,1,45,8|6,0:0|0:0,0:0:0:0:
491,171,89677,2,0,P|496:118|494:65,1,90,8|2,0:0|0:0,0:0:0:0:
424,25,90510,1,8,0:0:0:0:
339,56,90927,6,0,P|272:65|196:61,1,135,4|2,1:2|0:0,0:0:0:0:
117,42,91968,1,2,0:0:0:0:
64,115,92385,2,0,L|66:232,1,90,12|2,0:0|0:0,0:0:0:0:
154,193,93218,2,0,P|221:185|288:189,1,135,12|8,0:0|0:0,0:0:0:0:
374,216,94260,5,6,0:0:0:0:
365,305,94677,2,0,B|320:356|320:356|253:344|253:344|200:359,1,180,8|8,0:0|0:0,0:0:0:0:
123,378,95927,1,2,0:0:0:0:
51,323,96343,2,0,B|32:267|52:232|52:232|35:192|35:192|42:126,1,180,8|8,0:0|0:0,0:0:0:0:
62,70,97593,5,2,0:0:0:0:
146,101,98010,2,0,B|213:104|213:104|273:70|273:70|328:72,1,180,8|8,0:0|0:0,0:0:0:0:
403,97,99260,2,0,L|415:4,2,90,2|8|0,0:0|0:0|0:0,0:0:0:0:
391,186,100510,1,8,0:0:0:0:
379,275,100927,5,4,0:0:0:0:
289,263,101343,2,0,B|234:263|205:239|205:239|156:248|156:248|102:232,1,180,8|8,0:0|0:0,0:0:0:0:
69,155,102593,1,2,0:0:0:0:
159,147,103010,2,0,B|224:136|224:136|236:67|236:67|262:30,1,180,8|8,0:0|0:0,0:0:0:0:
346,0,104260,5,2,0:0:0:0:
389,77,104677,2,0,B|385:121|385:121|334:207,1,135,12|0,0:0|0:0,0:0:0:0:
251,222,105718,1,2,0:0:0:0:
212,137,107593,38,0,B|183:108|142:102|109:147|104:192|138:218|185:266|214:297,1,270,2|0,0:0|0:0,0:0:0:0:
301,292,109260,2,0,B|326:266|373:218|407:192|402:147|369:102|328:108|299:137,1,270,2|0,0:0|0:0,0:0:0:0:
230,196,110927,6,0,B|176:257|176:257|70:257|70:257|17:196,1,270,2|0,0:0|0:0,0:0:0:0:
4,106,112593,2,0,B|76:106|76:106|124:154|124:154|172:106|172:106|260:106,1,270,2|0,0:0|0:0,0:0:0:0:
313,149,114260,6,0,B|348:204|344:277|344:277|387:217|450:199,1,270,2|0,0:0|0:0,0:0:0:0:
490,117,115927,2,0,P|418:66|330:61,1,180,2|0,0:0|0:0,0:0:0:0:
243,84,117177,1,2,0:0:0:0:
162,126,117593,6,0,B|131:143|96:135|96:135|82:115|60:106|37:107,2,135,2|0|0,0:0|0:0|0:0,0:0:0:0:
243,84,119260,1,0,0:0:0:0:
432,296,120927,6,0,P|378:348|239:351,1,180,6|0,0:0|0:0,0:0:0:0:
207,307,122177,1,8,0:0:0:0:
144,242,122593,2,0,L|28:242,2,90,2|0|0,0:0|0:0|0:0,0:0:0:0:
231,219,123843,1,8,0:0:0:0:
308,173,124260,6,0,P|339:92|290:22,1,180,6|0,0:0|0:0,0:0:0:0:
251,104,125510,1,8,0:0:0:0:
220,187,125927,2,0,P|145:230|68:191,1,180,2|0,0:0|0:0,0:0:0:0:
26,113,127177,1,8,0:0:0:0:
85,45,127593,6,0,P|134:36|199:39,1,90,6|0,0:0|0:0,0:0:0:0:
260,63,128427,2,0,P|304:71|349:72,1,90,0|8,0:0|0:0,0:0:0:0:
438,61,129260,2,0,P|439:105|433:150,1,90,2|0,0:0|0:0,0:0:0:0:
400,234,130093,1,0,0:0:0:0:
333,294,130510,1,8,0:0:0:0:
243,306,130927,6,0,B|169:306|169:306|106:259,2,135,6|0|8,0:0|0:0|0:0,0:0:0:0:
314,251,132593,2,0,L|325:144,1,90,2|8,0:0|0:0,0:0:0:0:
357,77,133427,1,2,0:0:0:0:
439,41,133843,1,8,0:0:0:0:
507,99,134260,6,0,P|511:171|492:243,2,135,14|10|2,0:3|0:0|0:0,0:0:0:0:
423,128,135927,2,0,P|372:173|307:189,2,135,6|10|10,0:3|0:0|0:0,0:0:0:0:
353,71,137593,6,0,P|286:62|219:73,2,135,14|8|2,0:3|0:0|0:0,0:0:0:0:
329,158,139260,2,0,P|285:164|240:162,1,90,2|12,0:0|0:0,0:0:0:0:
154,137,140093,1,8,1:0:0:0:
101,64,140510,1,8,1:0:0:0:
63,145,140927,6,0,P|67:189|79:232,1,90,12|2,1:0|0:0,0:0:0:0:
167,254,141760,2,0,P|221:254|270:271,1,90,8|2,1:0|0:0,0:0:0:0:
334,307,142593,2,0,P|383:306|451:279,1,90,12|2,1:0|0:0,0:0:0:0:
480,226,143427,2,0,L|482:108,1,90,8|2,1:0|0:0,0:0:0:0:
448,52,144260,6,0,B|401:72|401:72|360:57|277:61,1,135,12|8,1:0|1:0,0:0:0:0:
184,78,145510,2,0,L|179:159,1,45,8|14,1:0|1:0,0:0:0:0:
175,212,146135,1,14,1:0:0:0:
493,211,147593,6,0,P|449:227|381:230,1,90,4|8,1:0|0:0,0:0:0:0:
319,206,148427,2,0,P|272:197|205:206,1,90,2|8,0:0|0:0,0:0:0:0:
144,227,149260,2,0,P|88:220|39:191,1,90,4|8,1:0|0:0,0:0:0:0:
18,124,150093,1,2,0:0:0:0:
31,34,150510,1,8,0:0:0:0:
102,90,150927,6,0,P|143:107|187:111,1,90,4|8,1:0|0:0,0:0:0:0:
270,76,151760,2,0,P|331:63|409:70,2,135,2|4|8,0:0|0:0|0:0,0:0:0:0:
218,150,153427,2,0,L|214:243,1,90,2|8,0:0|0:0,0:0:0:0:
210,329,154260,5,4,1:2:0:0:
289,287,154677,2,0,P|333:282|381:289,1,90,8|8,0:0|0:0,0:0:0:0:
459,326,155510,1,8,0:0:0:0:
508,251,155927,2,0,L|511:162,1,90,8|8,0:0|0:0,0:0:0:0:
512,71,156760,2,0,P|480:41|427:21,1,90,8|8,0:0|0:0,0:0:0:0:
390,99,157593,6,0,P|327:128|245:118,1,135,4|2,1:0|0:0,0:0:0:0:
140,69,158843,2,0,L|61:73,1,45,2|12,0:0|0:0,0:0:0:0:
14,112,159468,1,8,0:0:0:0:
0,246,160093,2,0,P|8:300|31:352,1,90,8|8,0:0|0:0,0:0:0:0:
104,298,160927,6,0,P|150:292|199:297,1,90,4|8,1:0|0:0,0:0:0:0:
270,341,161760,2,0,P|315:350|364:350,1,90,2|8,0:0|0:0,0:0:0:0:
427,294,162593,2,0,L|442:202,1,90,4|8,1:0|0:0,0:0:0:0:
463,117,163427,1,2,0:0:0:0:
432,32,163844,1,8,0:0:0:0:
374,102,164260,6,0,P|330:111|280:106,1,90,4|8,1:0|0:0,0:0:0:0:
215,51,165093,2,0,B|180:18|180:18|59:18,2,135,2|4|8,0:0|0:0|0:0,0:0:0:0:
262,127,166760,2,0,P|270:171|271:216,1,90,2|8,0:0|0:0,0:0:0:0:
252,304,167593,6,0,P|183:317|97:306,1,135,4|2,1:0|0:0,0:0:0:0:
29,210,168843,2,0,L|28:150,1,45,8|6,0:0|0:0,0:0:0:0:
148,103,169677,2,0,L|149:192,1,90,8|2,0:0|0:0,0:0:0:0:
204,264,170510,1,8,0:0:0:0:
292,282,170927,6,0,P|358:269|421:245,1,135,4|2,1:2|0:0,0:0:0:0:
491,188,171968,1,2,0:0:0:0:
512,100,172385,2,0,P|471:99|425:124,1,90,12|2,0:0|0:0,0:0:0:0:
365,186,173218,2,0,P|298:193|230:189,1,135,12|8,0:0|0:0,0:0:0:0:
147,153,174260,1,4,0:0:0:0:
127,189,180927,6,0,B|167:167|211:193|211:193|256:221|298:193|298:193|344:167|383:189,1,270,2|2,0:0|0:0,0:0:0:0:
339,269,182593,2,0,P|255:296|171:269,1,180,2|2,0:0|0:0,0:0:0:0:
127,189,183843,1,2,0:0:0:0:
171,110,184260,6,0,P|255:83|339:110,2,180,6|2|2,0:0|0:0|0:0,0:0:0:0:
127,189,186343,1,2,0:0:0:0:
171,269,186760,2,0,P|214:290|256:296,1,90,2|8,0:0|0:0,0:0:0:0:
341,269,187593,6,0,P|387:186|373:105,1,180,6|2,0:0|0:0,0:0:0:0:
300,52,188843,1,2,0:0:0:0:
210,68,189260,2,0,P|166:144|178:231,1,180,2|2,0:0|0:0,0:0:0:0:
252,285,190510,1,8,0:0:0:0:
340,268,190927,6,0,P|362:223|368:175,1,90,6|2,0:0|0:0,0:0:0:0:
358,94,191760,2,0,P|363:49|390:14,1,90,2|2,0:0|0:0,0:0:0:0:
447,84,192593,2,0,P|457:123|458:193,1,90,12|12,0:0|0:0,0:0:0:0:
442,261,193427,1,8,0:0:0:0:
398,339,193843,1,8,0:0:0:0:
314,371,194260,6,0,B|224:373|224:373|149:289,1,180,12|8,1:0|1:0,0:0:0:0:
132,175,195718,1,8,1:0:0:0:
179,98,196135,2,0,B|219:128|219:128|219:250,1,135,8|8,1:0|1:0,0:0:0:0:
252,296,197177,1,2,0:0:0:0:
333,334,197593,6,0,B|423:335|423:335|478:263,1,180,12|8,1:0|1:0,0:0:0:0:
481,128,199052,1,8,1:0:0:0:
392,144,199468,2,0,B|345:152|345:152|317:185|317:185|253:196,1,135,8|8,1:0|1:0,0:0:0:0:
185,210,200510,1,4,0:0:0:0:
96,226,200927,6,0,B|87:157|87:157|106:119|106:119|91:88|93:53,1,180,12|8,1:0|1:0,0:0:0:0:
229,61,202385,1,8,1:0:0:0:
298,118,202802,2,0,B|324:181|324:181|299:246,1,135,8|8,1:0|1:0,0:0:0:0:
243,313,203843,1,0,0:0:0:0:
154,329,204260,6,0,B|154:275|154:275|192:239|192:239|192:165,1,180,12|8,1:0|1:0,0:0:0:0:
189,30,205718,2,0,P|145:25|114:55,1,90,8|0,1:0|0:0,0:0:0:0:
200,83,217593,6,0,B|244:83|244:83|283:106|283:106|327:106,1,135,12|12,0:0|0:0,0:0:0:0:
462,125,218843,2,0,L|459:201,1,45,12|12,0:0|0:0,0:0:0:0:
449,259,219468,2,0,P|420:318|358:341,1,135,8|2,0:0|0:0,0:0:0:0:
281,294,220510,1,8,0:0:0:0:
204,341,220927,6,0,P|159:351|100:344,1,90,4|8,1:0|0:0,0:0:0:0:
29,322,221760,2,0,P|15:270|23:208,1,90,2|8,0:0|0:0,0:0:0:0:
53,151,222593,2,0,P|98:141|156:147,1,90,4|8,1:0|0:0,0:0:0:0:
220,187,223427,1,2,0:0:0:0:
310,189,223844,1,8,0:0:0:0:
395,161,224260,6,0,P|401:116|400:71,1,90,4|8,1:0|0:0,0:0:0:0:
315,41,225093,2,0,P|253:50|175:39,2,135,2|4|8,0:0|0:0|0:0,0:0:0:0:
404,28,226760,2,0,P|451:30|494:48,1,90,2|8,0:0|0:0,0:0:0:0:
512,134,227593,6,0,P|506:209|487:289,1,135,4|2,1:0|0:0,0:0:0:0:
389,353,228843,2,0,L|381:292,1,45,8|6,0:0|0:0,0:0:0:0:
330,183,229677,2,0,P|276:183|224:191,1,90,8|2,0:0|0:0,0:0:0:0:
157,222,230510,1,8,0:0:0:0:
66,221,230927,6,0,P|53:152|64:66,1,135,4|2,1:0|0:0,0:0:0:0:
111,15,231968,1,0,0:0:0:0:
189,59,232385,2,0,P|233:64|279:55,1,90,12|0,0:0|0:0,0:0:0:0:
409,18,233427,2,0,P|453:19|495:35,1,90,8|8,0:0|0:0,0:0:0:0:
496,125,234260,6,0,P|438:142|322:104,1,180,4|12,1:0|0:0,0:0:0:0:
251,56,235510,2,0,L|179:42,1,45,2|12,0:0|0:0,0:0:0:0:
117,54,236135,2,0,L|112:202,1,135,2|12,0:0|0:0,0:0:0:0:
141,274,237177,1,8,0:0:0:0:
215,324,237593,6,0,P|282:326|349:317,1,135,4|2,1:2|0:0,0:0:0:0:
431,280,238634,1,2,0:0:0:0:
465,196,239052,2,0,P|458:145|433:110,1,90,12|2,0:0|0:0,0:0:0:0:
374,180,239885,2,0,P|307:189|240:187,1,135,12|2,0:0|0:0,0:0:0:0:
154,156,240927,1,0,0:0:0:0:
