osu file format v14

[General]
AudioFilename: New World.mp3
AudioLeadIn: 0
PreviewTime: 179372
Countdown: 0
SampleSet: Soft
StackLeniency: 0.7
Mode: 0
LetterboxInBreaks: 0
WidescreenStoryboard: 1

[Editor]
Bookmarks: 2141,21834,41526,51372,56295,61218,80911,90757,100603,110449,115449,120295,125218,130142,149834,159680,166911,179372,189218,194142,199065,218757,233218,247680
DistanceSpacing: 1
BeatDivisor: 4
GridSize: 4
TimelineZoom: 0.9999999

[Metadata]
Title:New World
TitleUnicode:New World
Artist:FELT
ArtistUnicode:FELT
Creator:Natsu
Version:Lunatic
Source:東方Project
Tags:world trick ネクロファンタジア yukari yakumo theme Comiket88 Mika 美歌 Maika 舞花 touhou alacat euny luna- necrofantasia NAGI☆ 東方妖々夢 ~ Perfect Cherry Blossom 八雲紫 dark accelerator
BeatmapID:895822
BeatmapSetID:407175

[Difficulty]
HPDrainRate:6
CircleSize:4
OverallDifficulty:8
ApproachRate:9
SliderMultiplier:1.7
SliderTickRate:1

[Events]
//Background and Video events
0,0,"BG for lunatic.jpg",0,0
//Break Periods
2,81111,90157
2,150035,159080
2,179572,188618
//Storyboard Layer 0 (Background)
//Storyboard Layer 1 (Fail)
//Storyboard Layer 2 (Pass)
//Storyboard Layer 3 (Foreground)
//Storyboard Sound Samples

[TimingPoints]
2142,307.692307692308,4,1,1,80,1,0
2295,-100,4,1,1,40,0,0
3833,-100,4,1,2,60,0,0
3988,-100,4,1,1,40,0,0
6295,-100,4,1,2,60,0,0
6449,-100,4,1,1,40,0,0
8756,-100,4,1,2,60,0,0
8911,-100,4,1,1,40,0,0
11218,-100,4,1,2,60,0,0
11372,-100,4,1,1,40,0,0
11987,-100,4,1,1,55,0,0
12449,-100,4,1,2,75,0,0
12603,-100,4,1,1,55,0,0
12911,-100,4,1,2,75,0,0
13065,-100,4,1,1,55,0,0
13372,-100,4,1,2,75,0,0
13526,-100,4,1,1,55,0,0
14449,-100,4,1,2,75,0,0
14603,-100,4,1,1,55,0,0
14911,-100,4,1,2,75,0,0
15065,-100,4,1,1,55,0,0
15372,-100,4,1,2,75,0,0
15526,-100,4,1,1,55,0,0
15834,-100,4,1,2,55,0,0
16603,-100,4,1,2,75,0,0
16757,-100,4,1,2,55,0,0
16911,-100,4,1,2,75,0,0
17065,-100,4,1,2,55,0,0
17372,-100,4,1,2,75,0,0
17526,-100,4,1,1,55,0,0
17834,-100,4,1,2,75,0,0
17988,-100,4,1,1,55,0,0
18295,-100,4,1,2,75,0,0
18449,-100,4,1,1,55,0,0
21834,-100,4,1,3,75,0,0
21910,-100,4,1,3,50,0,0
26757,-100,4,1,3,60,0,0
26834,-100,4,1,3,55,0,0
28603,-100,4,1,3,50,0,0
30911,-100,4,1,2,60,0,0
31142,-100,4,1,3,50,0,0
31372,-100,4,1,2,60,0,0
31757,-100,4,1,3,50,0,0
32142,-100,4,1,2,60,0,0
32218,-100,4,1,3,50,0,0
32603,-100,4,1,2,60,0,0
32680,-100,4,1,3,50,0,0
33065,-100,4,1,2,60,0,0
33142,-100,4,1,3,50,0,0
33372,-100,4,1,2,60,0,0
33449,-100,4,1,3,50,0,0
33987,-100,4,1,2,60,0,0
34218,-100,4,1,3,50,0,0
34603,-100,4,1,2,60,0,0
34680,-100,4,1,3,50,0,0
35065,-100,4,1,2,60,0,0
35295,-100,4,1,3,50,0,0
36142,-100,4,1,2,60,0,0
36680,-100,4,1,3,50,0,0
37065,-100,4,1,2,60,0,0
37142,-100,4,1,3,50,0,0
37526,-100,4,1,2,60,0,0
37603,-100,4,1,3,50,0,0
37988,-100,4,1,2,60,0,0
38065,-100,4,1,3,50,0,0
39065,-100,4,1,2,60,0,0
39142,-100,4,1,3,50,0,0
39526,-100,4,1,2,60,0,0
39603,-100,4,1,3,50,0,0
39988,-100,4,1,2,60,0,0
40065,-100,4,1,3,50,0,0
40449,-100,4,1,2,60,0,0
40526,-100,4,1,3,40,0,0
41526,-125,4,1,4,60,0,0
41603,-125,4,1,4,80,0,0
51372,-111.111111111111,4,2,1,60,0,0
51526,-111.111111111111,4,2,1,20,0,0
51680,-111.111111111111,4,1,1,60,0,0
51988,-111.111111111111,4,2,1,20,0,0
52295,-111.111111111111,4,1,1,60,0,0
52603,-111.111111111111,4,2,1,60,0,0
52757,-111.111111111111,4,2,1,20,0,0
52911,-111.111111111111,4,1,1,60,0,0
53218,-111.111111111111,4,2,1,60,0,0
53372,-111.111111111111,4,2,1,20,0,0
53526,-111.111111111111,4,1,1,60,0,0
53834,-111.111111111111,4,2,1,60,0,0
53988,-111.111111111111,4,2,1,20,0,0
54142,-111.111111111111,4,1,1,60,0,0
54449,-111.111111111111,4,2,1,60,0,0
54603,-111.111111111111,4,2,1,20,0,0
54757,-111.111111111111,4,1,1,60,0,0
55065,-111.111111111111,4,2,1,60,0,0
55218,-111.111111111111,4,2,1,20,0,0
55373,-111.111111111111,4,1,1,60,0,0
55680,-111.111111111111,4,2,1,60,0,0
55834,-111.111111111111,4,2,1,20,0,0
55988,-111.111111111111,4,1,1,60,0,0
56295,-100,4,1,2,60,0,0
56603,-100,4,1,1,50,0,0
56757,-100,4,1,2,60,0,0
57834,-100,4,1,1,50,0,0
58142,-100,4,1,2,60,0,0
58603,-100,4,1,1,50,0,0
59218,-83.3333333333333,4,1,2,60,0,0
59372,-83.3333333333333,4,2,1,20,0,0
59526,-71.4285714285714,4,1,2,60,0,0
59680,-71.4285714285714,4,2,1,20,0,0
59834,-62.5,4,1,2,60,0,0
60142,-62.5,4,2,1,20,0,0
60603,-125,4,2,1,30,0,0
61218,-90.9090909090909,4,1,2,60,0,1
61372,-90.9090909090909,4,1,1,50,0,1
66141,-90.9090909090909,4,1,2,60,0,1
66295,-90.9090909090909,4,1,1,50,0,1
67218,-86.9565217391304,4,1,2,60,0,1
67372,-86.9565217391304,4,1,2,20,0,1
67526,-83.3333333333333,4,1,2,60,0,1
67680,-83.3333333333333,4,1,1,50,0,1
67834,-80,4,1,2,60,0,1
67988,-80,4,1,2,20,0,1
68142,-74.0740740740741,4,1,2,60,0,1
68295,-74.0740740740741,4,1,2,20,0,1
68449,-71.4285714285714,4,1,2,60,0,1
68757,-71.4285714285714,4,1,1,50,0,1
68911,-90.9090909090909,4,1,2,60,0,1
69065,-90.9090909090909,4,1,1,50,0,1
69680,-90.9090909090909,4,1,2,60,0,1
69834,-90.9090909090909,4,1,1,50,0,1
70988,-90.9090909090909,4,1,1,50,0,0
71065,-90.9090909090909,4,1,2,60,0,1
71218,-90.9090909090909,4,1,1,50,0,1
75988,-76.9230769230769,4,1,2,60,0,1
76142,-76.9230769230769,4,1,1,40,0,1
76295,-76.9230769230769,4,1,1,30,0,1
76449,-76.9230769230769,4,1,2,60,0,1
76603,-76.9230769230769,4,1,1,40,0,1
76757,-76.9230769230769,4,1,1,30,0,1
76911,-76.9230769230769,4,1,2,60,0,1
77065,-76.9230769230769,4,1,1,40,0,1
77218,-76.9230769230769,4,1,1,30,0,1
77372,-76.9230769230769,4,1,2,60,0,1
77526,-76.9230769230769,4,1,1,40,0,1
77680,-76.9230769230769,4,1,1,30,0,1
77834,-76.9230769230769,4,1,2,60,0,1
77988,-76.9230769230769,4,1,1,40,0,1
78142,-76.9230769230769,4,1,2,60,0,1
78295,-76.9230769230769,4,1,1,40,0,1
78449,-76.9230769230769,4,1,2,60,0,1
78603,-76.9230769230769,4,1,1,50,0,1
79526,-90.9090909090909,4,1,2,60,0,1
79603,-90.9090909090909,4,1,1,50,0,1
80911,-90.9090909090909,4,1,2,50,0,0
90757,-111.111111111111,4,1,2,60,0,0
90911,-111.111111111111,4,1,1,40,0,0
95218,-111.111111111111,4,1,2,40,0,0
95372,-111.111111111111,4,1,1,40,0,0
95680,-111.111111111111,4,1,2,40,0,0
95834,-111.111111111111,4,1,1,40,0,0
99372,-111.111111111111,4,1,2,40,0,0
100603,-99.9999999999999,4,1,2,60,0,0
100757,-99.9999999999999,4,1,1,50,0,0
101065,-99.9999999999999,4,1,2,60,0,0
101218,-99.9999999999999,4,1,1,50,0,0
101526,-99.9999999999999,4,1,2,60,0,0
101680,-99.9999999999999,4,1,1,50,0,0
103065,-99.9999999999999,4,1,2,60,0,0
103218,-99.9999999999999,4,1,1,50,0,0
103526,-99.9999999999999,4,1,2,60,0,0
103680,-99.9999999999999,4,1,1,50,0,0
103988,-99.9999999999999,4,1,2,60,0,0
104142,-99.9999999999999,4,1,1,50,0,0
105526,-99.9999999999999,4,1,2,60,0,0
105680,-99.9999999999999,4,1,1,50,0,0
105988,-99.9999999999999,4,1,2,60,0,0
106142,-99.9999999999999,4,1,1,50,0,0
106449,-99.9999999999999,4,1,2,60,0,0
106603,-99.9999999999999,4,1,1,50,0,0
106911,-99.9999999999999,4,1,2,60,0,0
107065,-99.9999999999999,4,1,1,50,0,0
107988,-99.9999999999999,4,1,2,60,0,0
108142,-99.9999999999999,4,1,1,50,0,0
108449,-99.9999999999999,4,1,2,60,0,0
108603,-99.9999999999999,4,1,1,50,0,0
108911,-99.9999999999999,4,1,2,60,0,0
109065,-99.9999999999999,4,1,1,50,0,0
109680,-99.9999999999999,4,1,1,30,0,0
110449,-125,4,1,4,60,0,0
110757,-125,4,1,4,80,0,0
120295,-111.111111111111,4,2,1,60,0,0
120449,-111.111111111111,4,2,1,20,0,0
120603,-111.111111111111,4,1,1,60,0,0
120911,-111.111111111111,4,2,1,60,0,0
121065,-111.111111111111,4,2,1,20,0,0
121218,-111.111111111111,4,1,1,60,0,0
121526,-111.111111111111,4,2,1,60,0,0
121680,-111.111111111111,4,2,1,20,0,0
121834,-111.111111111111,4,1,1,60,0,0
122142,-111.111111111111,4,2,1,60,0,0
122295,-111.111111111111,4,2,1,20,0,0
122449,-111.111111111111,4,1,1,60,0,0
122757,-111.111111111111,4,2,1,60,0,0
122911,-111.111111111111,4,2,1,20,0,0
123065,-111.111111111111,4,1,1,60,0,0
123372,-111.111111111111,4,2,1,60,0,0
123526,-111.111111111111,4,2,1,20,0,0
123680,-111.111111111111,4,1,1,60,0,0
123988,-111.111111111111,4,2,1,60,0,0
124142,-111.111111111111,4,2,1,20,0,0
124295,-111.111111111111,4,1,1,60,0,0
124603,-111.111111111111,4,2,1,60,0,0
124757,-111.111111111111,4,2,1,20,0,0
124911,-111.111111111111,4,1,1,60,0,0
125218,-100,4,1,2,60,0,0
125372,-100,4,1,1,50,0,0
125680,-100,4,1,2,60,0,0
125834,-100,4,1,1,50,0,0
126141,-100,4,1,2,60,0,0
126295,-100,4,1,1,50,0,0
126603,-100,4,1,2,60,0,0
126757,-100,4,1,1,50,0,0
128141,-83.3333333333333,4,1,2,60,0,0
128295,-83.3333333333333,4,2,1,20,0,0
128449,-71.4285714285714,4,1,2,60,0,0
128603,-71.4285714285714,4,2,1,20,0,0
128757,-62.5,4,1,2,60,0,0
129065,-62.5,4,2,1,20,0,0
129526,-125,4,2,1,30,0,0
130142,-90.9090909090909,4,1,2,60,0,1
130295,-90.9090909090909,4,1,1,50,0,1
135065,-90.9090909090909,4,1,2,60,0,1
135218,-90.9090909090909,4,1,1,50,0,1
136141,-86.9565217391304,4,1,2,60,0,1
136295,-86.9565217391304,4,2,1,20,0,1
136449,-83.3333333333333,4,1,2,60,0,1
136603,-83.3333333333333,4,1,1,50,0,1
136757,-80,4,1,2,60,0,1
136911,-80,4,2,1,20,0,1
137065,-74.0740740740741,4,1,2,60,0,1
137218,-74.0740740740741,4,2,1,20,0,1
137372,-71.4285714285714,4,1,2,60,0,1
137680,-71.4285714285714,4,1,1,50,0,1
137834,-90.9090909090909,4,1,2,60,0,1
137988,-90.9090909090909,4,1,1,50,0,1
138603,-90.9090909090909,4,1,2,60,0,1
138757,-90.9090909090909,4,1,1,50,0,1
139911,-90.9090909090909,4,1,1,50,0,0
139988,-90.9090909090909,4,1,2,60,0,1
140142,-90.9090909090909,4,1,1,50,0,1
144911,-76.9230769230769,4,1,2,60,0,1
145065,-76.9230769230769,4,1,1,40,0,1
145218,-76.9230769230769,4,1,1,30,0,1
145372,-76.9230769230769,4,1,2,60,0,1
145526,-76.9230769230769,4,1,1,40,0,1
145680,-76.9230769230769,4,1,1,30,0,1
145834,-76.9230769230769,4,1,2,60,0,1
145988,-76.9230769230769,4,1,1,40,0,1
146142,-76.9230769230769,4,1,1,30,0,1
146295,-76.9230769230769,4,1,2,60,0,1
146449,-76.9230769230769,4,1,1,40,0,1
146603,-76.9230769230769,4,1,1,30,0,1
146757,-76.9230769230769,4,1,2,60,0,1
146911,-76.9230769230769,4,1,1,40,0,1
147065,-76.9230769230769,4,1,2,60,0,1
147218,-76.9230769230769,4,1,1,50,0,1
147372,-76.9230769230769,4,1,2,60,0,1
147526,-76.9230769230769,4,1,1,50,0,1
148449,-90.9090909090909,4,1,2,60,0,1
148526,-90.9090909090909,4,1,1,50,0,1
149834,-90.9090909090909,4,1,2,60,0,0
159680,-100,4,1,2,60,0,0
159834,-100,4,1,1,50,0,0
160142,-100,4,1,2,60,0,0
160295,-100,4,1,1,50,0,0
160603,-100,4,1,2,60,0,0
160757,-100,4,1,1,50,0,0
162142,-100,4,1,2,60,0,0
162296,-100,4,1,1,50,0,0
162603,-100,4,1,2,60,0,0
162757,-100,4,1,1,50,0,0
163065,-100,4,1,2,60,0,0
163218,-100,4,1,1,50,0,0
164295,-100,4,1,2,60,0,0
164449,-100,4,1,1,50,0,0
164603,-100,4,1,2,60,0,0
164757,-100,4,1,1,50,0,0
165065,-100,4,1,2,60,0,0
165218,-100,4,1,1,50,0,0
165526,-100,4,1,2,60,0,0
165680,-100,4,1,1,50,0,0
165834,-100,4,1,1,40,0,0
166449,-100,4,1,1,50,0,0
166911,-90.9090909090909,4,1,2,70,0,0
167065,-90.9090909090909,4,1,1,50,0,0
167372,-90.9090909090909,4,1,2,50,0,0
171988,-90.9090909090909,4,1,2,70,0,0
172142,-90.9090909090909,4,1,2,50,0,0
172911,-90.9090909090909,4,1,2,60,0,0
173218,-90.9090909090909,4,1,2,40,0,0
173372,-90.9090909090909,4,1,2,60,0,0
173834,-90.9090909090909,4,1,2,40,0,0
173988,-90.9090909090909,4,1,2,50,0,0
174757,-90.9090909090909,4,1,2,60,0,0
174911,-90.9090909090909,4,1,2,50,0,0
175526,-90.9090909090909,4,1,2,60,0,0
175680,-90.9090909090909,4,1,2,50,0,0
176142,-90.9090909090909,4,1,1,50,0,0
176603,-90.9090909090909,4,1,2,50,0,0
176757,-125,4,1,2,60,0,0
176834,-125,4,1,2,15,0,0
189218,-111.111111111111,4,1,1,50,0,0
194142,-76.9230769230769,4,1,2,60,0,0
194295,-76.9230769230769,4,1,1,40,0,0
194449,-76.9230769230769,4,1,1,30,0,0
194603,-76.9230769230769,4,1,2,60,0,0
194757,-76.9230769230769,4,1,1,40,0,0
194911,-76.9230769230769,4,1,1,30,0,0
195065,-76.9230769230769,4,1,2,60,0,0
195218,-76.9230769230769,4,1,1,40,0,0
195372,-76.9230769230769,4,1,1,30,0,0
195526,-76.9230769230769,4,1,2,60,0,0
195680,-76.9230769230769,4,1,1,40,0,0
195834,-76.9230769230769,4,1,1,30,0,0
195988,-76.9230769230769,4,1,1,50,0,0
196142,-76.9230769230769,4,1,1,30,0,0
196295,-76.9230769230769,4,1,2,60,0,0
196449,-90.9090909090909,4,1,1,50,0,0
196603,-90.9090909090909,4,1,2,60,0,0
196757,-90.9090909090909,4,1,1,50,0,0
197065,-83.3333333333333,4,1,2,60,0,0
197218,-83.3333333333333,4,2,1,20,0,0
197372,-71.4285714285714,4,1,2,60,0,0
197526,-71.4285714285714,4,2,1,20,0,0
197680,-62.5,4,1,2,60,0,0
197988,-62.5,4,1,1,30,0,0
198142,-62.5,4,1,2,60,0,0
198449,-111.111111111111,4,2,1,30,0,0
199065,-90.9090909090909,4,1,2,60,0,1
199218,-90.9090909090909,4,1,1,50,0,1
203988,-90.9090909090909,4,1,2,60,0,1
204142,-90.9090909090909,4,1,1,50,0,1
205065,-86.9565217391304,4,1,2,60,0,1
205218,-86.9565217391304,4,2,1,20,0,1
205372,-83.3333333333333,4,1,2,60,0,1
205526,-83.3333333333333,4,1,1,40,0,1
205680,-80,4,1,2,60,0,1
205834,-80,4,2,1,20,0,1
205989,-74.0740740740741,4,1,2,60,0,1
206142,-74.0740740740741,4,2,1,40,0,1
206296,-71.4285714285714,4,1,2,60,0,1
206603,-71.4285714285714,4,1,1,50,0,1
206758,-71.4285714285714,4,1,2,60,0,1
206911,-71.4285714285714,4,1,1,50,0,1
207527,-90.9090909090909,4,1,2,60,0,1
207681,-90.9090909090909,4,1,1,40,0,1
207834,-90.9090909090909,4,1,1,50,0,1
208834,-90.9090909090909,4,1,1,50,0,0
208911,-90.9090909090909,4,1,2,60,0,1
209065,-90.9090909090909,4,1,1,50,0,1
213835,-76.9230769230769,4,1,2,60,0,1
213988,-76.9230769230769,4,1,1,40,0,1
214142,-76.9230769230769,4,1,1,30,0,1
214295,-76.9230769230769,4,1,2,60,0,1
214449,-76.9230769230769,4,1,1,40,0,1
214603,-76.9230769230769,4,1,1,30,0,1
214757,-76.9230769230769,4,1,2,60,0,1
214911,-76.9230769230769,4,1,1,40,0,1
215065,-76.9230769230769,4,1,1,30,0,1
215218,-76.9230769230769,4,1,2,60,0,1
215372,-76.9230769230769,4,1,1,40,0,1
215526,-76.9230769230769,4,1,1,30,0,1
215680,-76.9230769230769,4,1,2,60,0,1
215834,-76.9230769230769,4,1,1,40,0,1
215988,-76.9230769230769,4,1,2,60,0,1
216142,-76.9230769230769,4,1,1,50,0,1
216295,-76.9230769230769,4,1,2,60,0,1
216449,-76.9230769230769,4,1,1,50,0,1
216758,-76.9230769230769,4,1,2,60,0,1
216911,-76.9230769230769,4,1,1,50,0,1
217372,-90.9090909090909,4,1,2,60,0,1
217526,-90.9090909090909,4,1,1,50,0,1
218757,-100,4,1,2,60,0,0
218911,-100,4,1,1,45,0,0
222448,-100,4,1,2,60,0,0
222603,-100,4,1,1,45,0,0
223680,-100,4,1,2,60,0,0
223834,-100,4,1,1,45,0,0
224757,-90.9090909090909,4,1,2,60,0,0
224911,-90.9090909090909,4,1,1,40,0,0
225065,-90.9090909090909,4,1,2,60,0,0
225372,-83.3333333333333,4,1,2,60,0,0
225526,-83.3333333333333,4,1,1,40,0,0
225680,-83.3333333333333,4,1,2,60,0,0
225988,-76.9230769230769,4,1,2,60,0,0
226142,-76.9230769230769,4,1,1,40,0,0
226296,-76.9230769230769,4,1,2,60,0,0
226603,-100,4,1,1,50,0,0
227218,-71.4285714285714,4,1,2,60,0,0
227372,-71.4285714285714,4,1,1,50,0,0
227834,-66.6666666666667,4,1,1,50,0,0
228603,-100,4,1,2,60,0,0
228911,-100,4,1,1,50,0,0
232603,-100,4,1,2,60,0,0
232757,-100,4,1,1,50,0,0
233526,-100,4,1,2,60,0,0
233680,-100,4,1,1,50,0,0
233988,-100,4,1,2,60,0,0
234142,-100,4,1,1,50,0,0
234449,-100,4,1,2,60,0,0
234603,-100,4,1,1,50,0,0
234911,-100,4,1,2,60,0,0
235065,-100,4,1,1,50,0,0
235372,-100,4,1,2,60,0,0
235526,-100,4,1,1,50,0,0
235680,-100,4,1,2,60,0,0
235834,-100,4,1,1,50,0,0
235988,-100,4,1,2,60,0,0
236142,-100,4,1,1,50,0,0
236449,-100,4,1,2,60,0,0
236603,-100,4,1,1,50,0,0
237065,-100,4,1,2,60,0,0
237372,-100,4,1,1,30,0,0
237834,-100,4,1,1,50,0,0
238295,-142.857142857143,4,1,2,60,0,0
238372,-142.857142857143,4,2,1,15,0,0
240911,-305,4,2,1,30,0,0
240988,-305,4,2,1,10,0,0

[Colours]
Combo1 : 0,105,155
Combo2 : 174,255,255
Combo3 : 55,155,255

[HitObjects]
148,324,2142,5,6,0:0:0:0:
256,296,2295,1,0,0:0:0:0:
332,216,2449,1,8,0:0:0:0:
224,188,2603,1,0,0:0:0:0:
256,296,2757,2,0,P|243:336|252:377,1,85,2|0,0:0|2:0,0:0:0:0:
332,216,3065,2,0,P|344:175|335:134,1,85,10|0,0:0|0:0,0:0:0:0:
180,40,3372,6,0,P|167:80|176:121,1,85,2|4,0:0|0:0,0:0:0:0:
240,216,3680,1,8,0:0:0:0:
104,192,3833,1,12,0:0:0:0:
104,192,3988,2,0,L|8:192,1,85,2|0,0:0|2:0,0:0:0:0:
240,216,4295,2,0,L|336:216,1,85,8|0,0:0|0:0,0:0:0:0:
488,216,4603,6,0,L|403:216,1,85,6|0,0:0|2:0,0:0:0:0:
244,220,4911,1,8,0:0:0:0:
244,220,5065,2,0,P|235:178|243:136,1,85,4|0,0:0|0:0,0:0:0:0:
320,60,5372,1,0,0:0:0:0:
416,112,5526,1,10,0:0:0:0:
324,172,5680,1,0,0:0:0:0:
320,60,5834,5,2,0:0:0:0:
416,112,5988,2,0,L|516:100,1,85,4|8,0:0|0:0,0:0:0:0:
324,172,6295,1,12,0:0:0:0:
228,224,6449,2,0,L|128:212,1,85,2|0,0:0|2:0,0:0:0:0:
328,175,6757,1,10,0:0:0:0:
328,175,6911,1,0,0:0:0:0:
228,336,7065,5,6,0:0:0:0:
228,224,7218,1,0,0:0:0:0:
324,284,7372,1,8,0:0:0:0:
228,336,7526,2,0,L|136:352,1,85,2|0,0:0|0:0,0:0:0:0:
132,164,7834,5,2,0:0:0:0:
228,224,7988,1,8,0:0:0:0:
132,276,8142,2,0,L|40:292,1,85,2|0,0:0|0:0,0:0:0:0:
136,168,8449,5,4,0:0:0:0:
136,168,8602,1,8,0:0:0:0:
256,288,8756,1,12,0:0:0:0:
256,288,8911,2,0,P|296:300|335:287,1,85,10|0,0:0|2:0,0:0:0:0:
211,164,9218,2,0,P|171:151|132:164,1,85,8|0,0:0|2:0,0:0:0:0:
80,264,9526,5,6,0:0:0:0:
80,264,9679,1,0,0:0:0:0:
80,104,9833,1,8,0:0:0:0:
80,104,9988,2,0,L|80:20,1,85,4|0,0:0|0:0,0:0:0:0:
124,175,10295,1,0,0:0:0:0:
124,175,10449,2,0,P|83:186|42:178,1,85,8|0,0:0|2:0,0:0:0:0:
160,100,10757,5,2,0:0:0:0:
160,100,10911,2,0,P|201:89|242:97,1,85,4|8,0:0|0:0,0:0:0:0:
320,192,11218,1,12,0:0:0:0:
124,175,11372,2,0,P|78:107|111:32,1,170,10|8,0:0|0:0,0:0:0:0:
204,168,11834,1,0,0:0:0:0:
204,168,11910,1,0,0:0:0:0:
204,168,11988,6,0,P|196:212|160:248,1,85,6|0,0:0|0:0,0:0:0:0:
52,300,12295,1,8,0:0:0:0:
200,308,12449,2,0,L|296:308,1,85,12|0,0:0|0:0,0:0:0:0:
488,308,12757,5,0,0:0:0:0:
356,372,12911,1,12,0:0:0:0:
392,267,13065,2,0,P|400:226|389:185,1,85,2|0,0:0|0:0,0:0:0:0:
256,88,13372,5,12,0:0:0:0:
280,196,13526,1,8,0:0:0:0:
389,185,13680,2,0,L|476:184,1,85,8|8,3:0|0:0,0:0:0:0:
280,104,13988,5,2,0:0:0:0:
304,212,14142,1,8,3:0:0:0:
413,201,14295,1,0,0:0:0:0:
413,201,14372,1,0,0:0:0:0:
413,201,14449,2,0,L|500:200,1,85,12|0,0:0|0:0,0:0:0:0:
304,212,14757,1,8,0:0:0:0:
304,212,14911,2,0,B|220:212,1,85,12|0,0:0|0:0,0:0:0:0:
132,136,15218,5,0,0:0:0:0:
100,296,15372,1,12,0:0:0:0:
1,200,15526,1,0,0:0:0:0:
136,140,15680,5,2,0:0:0:0:
136,140,15834,2,0,L|224:140,1,85,8|0,0:0|0:0,0:0:0:0:
145,226,16142,1,8,0:0:0:0:
1,200,16295,1,10,0:0:0:0:
132,136,16449,1,8,0:0:0:0:
63,265,16603,1,12,0:0:0:0:
43,120,16757,1,0,0:0:0:0:
43,120,16834,1,0,0:0:0:0:
43,120,16911,6,0,L|28:20,1,85,12|0,0:0|0:0,0:0:0:0:
132,136,17219,1,0,0:0:0:0:
63,265,17372,2,0,L|75:349,1,85,12|0,0:0|0:0,0:0:0:0:
145,226,17680,1,2,0:0:0:0:
1,200,17834,1,12,0:0:0:0:
132,136,17988,2,0,L|216:120,1,85,2|0,0:0|0:0,0:0:0:0:
400,88,18295,5,12,0:0:0:0:
372,196,18449,1,8,0:0:0:0:
292,116,18603,1,0,0:0:0:0:
400,88,18757,2,0,B|484:76,1,85,2|0,0:0|2:0,0:0:0:0:
372,196,19065,1,0,0:0:0:0:
300,123,19218,1,8,0:0:0:0:
300,123,19295,1,8,0:0:0:0:
300,123,19372,5,10,0:0:0:0:
388,7,19526,2,0,P|404:45|399:87,1,85,8|0,0:0|2:0,0:0:0:0:
264,220,19834,2,0,L|160:228,1,85,8|0,0:0|2:0,0:0:0:0:
372,196,20142,2,0,L|476:188,1,85,2|0,0:0|2:0,0:0:0:0:
385,339,20449,6,0,P|340:271|372:196,1,170,10|0,0:0|0:0,0:0:0:0:
424,264,20834,1,0,0:0:0:0:
424,264,20911,2,0,L|240:279,1,170,2|0,0:0|0:0,0:0:0:0:
168,348,21372,1,8,0:0:0:0:
152,240,21526,1,8,0:0:0:0:
254,277,21680,1,8,0:0:0:0:
88,300,21834,5,6,0:0:0:0:
67,263,21910,1,0,0:0:0:0:
65,221,21987,1,0,0:0:0:0:
83,183,22064,1,0,0:0:0:0:
117,157,22142,1,8,0:0:0:0:
256,192,22295,2,0,L|360:192,1,85,0|2,0:0|0:0,0:0:0:0:
420,192,22526,1,0,0:0:0:0:
420,192,22603,2,0,P|412:148|420:108,1,85,0|8,0:0|0:0,0:0:0:0:
456,36,22834,1,0,0:0:0:0:
456,36,22911,2,0,L|352:36,1,85,0|2,0:0|0:0,0:0:0:0:
256,40,23218,5,0,0:0:0:0:
258,82,23295,1,0,0:0:0:0:
242,122,23372,1,8,0:0:0:0:
112,164,23526,1,0,0:0:0:0:
110,122,23603,1,0,0:0:0:0:
126,82,23680,1,8,0:0:0:0:
256,40,23834,1,0,0:0:0:0:
298,38,23911,1,0,0:0:0:0:
338,54,23988,1,8,0:0:0:0:
400,160,24142,1,0,0:0:0:0:
299,249,24295,6,0,P|288:292|308:336,1,85,2|0,0:0|0:0,0:0:0:0:
412,352,24603,1,8,0:0:0:0:
299,249,24758,2,0,L|203:249,1,85,0|2,0:0|0:0,0:0:0:0:
136,248,24989,1,0,0:0:0:0:
136,248,25065,2,0,P|144:208|132:160,1,85,0|8,0:0|0:0,0:0:0:0:
104,92,25295,1,0,0:0:0:0:
104,92,25372,6,0,L|196:92,1,85,0|2,0:0|0:0,0:0:0:0:
256,140,25603,1,0,0:0:0:0:
256,140,25680,2,0,L|348:140,1,85,0|8,0:0|0:0,0:0:0:0:
440,88,25988,1,0,0:0:0:0:
428,200,26142,1,2,0:0:0:0:
409,237,26218,1,0,0:0:0:0:
404,279,26295,1,0,0:0:0:0:
413,320,26372,1,0,0:0:0:0:
436,356,26449,2,0,L|344:356,1,85,8|0,0:0|0:0,0:0:0:0:
256,284,26757,5,6,0:0:0:0:
237,247,26833,1,0,0:0:0:0:
232,205,26910,1,0,0:0:0:0:
241,164,26987,1,0,0:0:0:0:
264,128,27065,1,8,0:0:0:0:
376,188,27218,2,0,L|472:188,1,85,0|2,0:0|0:0,0:0:0:0:
500,124,27449,1,0,0:0:0:0:
500,124,27526,2,0,P|488:76|500:32,1,85,0|8,0:0|0:0,0:0:0:0:
420,24,27757,1,0,0:0:0:0:
420,24,27834,6,0,L|332:24,1,85,0|2,0:0|0:0,0:0:0:0:
260,56,28065,1,0,0:0:0:0:
260,56,28142,2,0,P|248:96|260:144,1,85,0|8,0:0|0:0,0:0:0:0:
364,212,28450,1,0,0:0:0:0:
364,212,28527,1,0,0:0:0:0:
364,212,28603,2,0,P|376:172|364:124,1,85,2|0,0:0|0:0,0:0:0:0:
260,56,28911,2,0,L|164:56,1,85,8|0,0:0|0:0,0:0:0:0:
76,104,29219,5,2,0:0:0:0:
100,138,29294,1,0,0:0:0:0:
114,178,29371,1,0,0:0:0:0:
105,219,29448,1,0,0:0:0:0:
82,255,29525,1,8,0:0:0:0:
0,184,29680,1,0,0:0:0:0:
76,104,29834,1,2,0:0:0:0:
110,80,29911,1,0,0:0:0:0:
150,66,29988,1,0,0:0:0:0:
191,75,30065,1,0,0:0:0:0:
227,98,30142,1,8,0:0:0:0:
256,204,30295,1,0,0:0:0:0:
148,180,30449,5,2,0:0:0:0:
227,98,30603,2,0,L|312:76,1,85,0|8,0:0|0:0,0:0:0:0:
400,152,30911,1,8,0:0:0:0:
309,76,31065,2,0,P|296:36|308:-12,1,85,8|0,0:0|0:0,0:0:0:0:
400,152,31372,1,8,0:0:0:0:
256,192,31526,5,8,0:0:0:0:
256,192,31603,1,8,0:0:0:0:
256,192,31680,2,0,L|171:199,1,85,14|8,0:0|0:0,0:0:0:0:
68,156,31988,1,8,0:0:0:0:
139,279,32142,2,0,P|152:320|144:361,1,85,12|2,0:0|0:0,0:0:0:0:
40,324,32448,1,8,0:0:0:0:
216,268,32602,1,12,0:0:0:0:
72,237,32757,6,0,P|59:196|67:155,1,85,2|2,0:0|0:0,0:0:0:0:
120,108,32987,1,0,0:0:0:0:
120,108,33065,2,0,L|204:100,1,85,8|8,0:0|0:0,0:0:0:0:
300,160,33372,1,8,3:0:0:0:
396,104,33526,1,2,0:0:0:0:
312,0,33680,2,0,P|304:44|324:88,1,85,0|8,0:0|0:0,0:0:0:0:
496,192,33987,5,8,0:0:0:0:
496,192,34064,1,8,0:0:0:0:
496,192,34142,2,0,L|488:284,1,85,12|2,0:0|0:0,0:0:0:0:
420,364,34448,1,8,0:0:0:0:
323,255,34603,2,0,P|282:247|240:255,1,85,8|2,0:0|0:0,0:0:0:0:
132,336,34910,1,8,0:0:0:0:
132,336,34987,1,0,0:0:0:0:
132,336,35065,1,8,0:0:0:0:
176,192,35218,6,0,L|176:104,1,85,4|2,0:0|0:0,0:0:0:0:
120,56,35448,1,0,0:0:0:0:
120,56,35526,2,0,P|76:44|32:56,1,85,8|8,3:0|0:0,0:0:0:0:
12,160,35834,1,0,0:0:0:0:
80,248,35988,1,8,3:0:0:0:
183,200,36142,1,8,0:0:0:0:
183,200,36218,1,8,0:0:0:0:
183,200,36295,1,12,0:0:0:0:
19,167,36449,5,8,0:0:0:0:
19,167,36525,1,8,0:0:0:0:
19,167,36603,2,0,P|5:124|15:79,2,85,12|8|8,0:0|0:0|0:0,0:0:0:0:
183,200,37065,2,0,L|275:196,1,85,12|2,0:0|0:0,0:0:0:0:
337,234,37295,1,0,0:0:0:0:
337,234,37372,1,0,0:0:0:0:
328,76,37526,2,0,L|224:72,1,85,8|2,0:0|0:0,0:0:0:0:
260,188,37835,5,0,0:0:0:0:
249,228,37911,1,0,0:0:0:0:
260,269,37988,1,8,0:0:0:0:
290,298,38065,1,0,0:0:0:0:
331,308,38142,1,8,0:0:0:0:
260,188,38295,1,8,3:0:0:0:
218,192,38372,1,0,0:0:0:0:
180,210,38449,2,0,P|132:196|108:148,1,85,2|0,0:0|0:0,0:0:0:0:
252,76,38757,1,8,0:0:0:0:
252,76,38834,1,0,0:0:0:0:
252,76,38911,1,8,0:3:0:0:
252,76,38987,1,8,0:3:0:0:
252,76,39065,6,0,P|294:85|336:72,1,85,12|2,0:0|0:0,0:0:0:0:
432,24,39371,1,8,0:0:0:0:
432,24,39526,1,8,0:0:0:0:
432,160,39680,2,0,L|432:268,1,85,2|8,0:0|0:0,0:0:0:0:
496,352,39988,1,12,0:0:0:0:
376,300,40142,5,2,0:0:0:0:
341,276,40218,1,0,0:0:0:0:
300,268,40295,1,2,0:0:0:0:
258,275,40372,1,0,0:0:0:0:
223,298,40449,1,8,0:0:0:0:
112,364,40603,1,8,0:0:0:0:
81,335,40679,1,0,0:0:0:0:
63,297,40756,1,8,3:0:0:0:
59,255,40833,1,0,0:0:0:0:
60,212,40911,6,0,L|109:181,3,42.5,2|0|0|0,0:0|0:0|0:0|0:0,0:0:0:0:
88,112,41218,2,0,L|129:93,3,42.5,8|0|0|0,0:0|0:0|0:0|0:0,0:0:0:0:
172,28,41526,6,0,P|203:85|183:148,1,136,6|0,0:0|0:0,0:0:0:0:
132,224,41988,1,0,0:0:0:0:
132,224,42142,2,0,L|272:224,1,136,0|0,0:0|0:0,0:0:0:0:
336,280,42603,1,0,0:0:0:0:
336,280,42757,6,0,P|312:216|332:152,1,136,0|0,0:0|0:0,0:0:0:0:
392,88,43218,1,0,0:0:0:0:
392,88,43372,2,0,P|416:152|396:216,1,136,0|0,0:0|0:0,0:0:0:0:
336,280,43834,1,0,0:0:0:0:
336,280,43988,6,0,L|188:280,1,136,0|0,0:0|0:0,0:0:0:0:
80,148,44603,2,0,L|216:148,1,136,0|0,0:0|0:0,0:0:0:0:
304,148,45065,1,0,0:0:0:0:
304,148,45218,6,0,P|284:88|308:16,1,136,0|0,0:0|0:0,0:0:0:0:
392,20,45680,1,0,0:0:0:0:
392,20,45834,2,0,P|412:80|388:152,1,136,0|0,0:0|0:0,0:0:0:0:
304,148,46296,1,0,0:0:0:0:
304,148,46449,6,0,L|160:148,1,136,0|0,0:0|0:0,0:0:0:0:
60,284,47065,2,0,L|196:284,1,136,0|0,0:0|0:0,0:0:0:0:
284,288,47527,1,0,0:0:0:0:
284,288,47680,6,0,P|312:228|260:208,1,136,0|0,0:0|0:0,0:0:0:0:
84,204,48295,2,0,P|30:175|61:123,1,136,0|0,0:0|0:0,0:0:0:0:
148,148,48757,1,0,0:0:0:0:
148,148,48911,6,0,P|212:164|280:148,1,136,0|0,0:0|0:0,0:0:0:0:
432,64,49526,2,0,P|368:48|300:64,1,136,0|0,0:0|0:0,0:0:0:0:
279,148,49988,1,0,0:0:0:0:
279,148,50142,6,0,P|263:212|279:280,1,136,0|0,0:0|0:0,0:0:0:0:
456,276,50757,2,0,P|472:212|456:144,1,136,0|0,0:0|0:0,0:0:0:0:
292,32,51372,6,0,L|208:32,1,76.4999976654053,2|0,0:0|0:0,0:0:0:0:
84,112,51680,1,8,0:0:0:0:
84,112,51988,6,0,L|160:112,1,76.4999976654053,2|0,0:0|0:0,0:0:0:0:
292,188,52295,1,8,0:0:0:0:
292,188,52603,6,0,L|208:188,1,76.4999976654053,2|0,0:0|0:0,0:0:0:0:
84,268,52911,1,8,0:0:0:0:
84,268,53219,6,0,L|160:268,1,76.4999976654053,2|0,0:0|0:0,0:0:0:0:
292,344,53526,1,8,0:0:0:0:
292,344,53834,6,0,L|208:344,1,76.4999976654053,2|0,0:0|0:0,0:0:0:0:
84,268,54142,1,8,0:0:0:0:
84,268,54449,6,0,L|160:268,1,76.4999976654053,2|0,0:0|0:0,0:0:0:0:
292,188,54757,1,8,0:0:0:0:
292,188,55065,6,0,L|208:188,1,76.4999976654053,2|0,0:0|0:0,0:0:0:0:
84,112,55372,1,8,0:0:0:0:
84,112,55680,6,0,L|160:112,1,76.4999976654053,2|0,0:0|0:0,0:0:0:0:
292,32,55989,1,8,0:0:0:0:
307,195,56142,5,8,0:0:0:0:
307,195,56218,1,8,0:0:0:0:
307,195,56295,1,12,0:0:0:0:
184,249,56449,1,0,0:0:0:0:
184,115,56603,1,8,0:0:0:0:
284,296,56757,5,12,0:0:0:0:
398,358,56911,1,2,0:0:0:0:
398,225,57065,1,0,0:0:0:0:
184,249,57218,5,12,0:0:0:0:
87,340,57372,1,0,0:0:0:0:
210,377,57526,1,2,0:0:0:0:
267,201,57680,5,12,0:0:0:0:
241,73,57834,1,12,0:0:0:0:
144,164,57988,1,0,0:0:0:0:
265,302,58142,5,12,0:0:0:0:
389,339,58296,1,8,3:0:0:0:
363,211,58450,1,8,3:0:0:0:
274,310,58603,5,8,0:0:0:0:
274,310,58680,1,8,0:0:0:0:
274,310,58757,2,0,L|190:313,1,85,10|8,0:0|0:0,0:0:0:0:
103,381,59065,1,2,0:0:0:0:
120,224,59218,6,0,P|136:176|123:127,1,101.999996887207,12|0,0:0|0:0,0:0:0:0:
56,32,59526,6,0,P|110:52|167:35,1,118.999996368408,12|0,0:0|0:0,0:0:0:0:
328,16,59834,6,0,B|376:156|260:156|336:276,1,272,14|0,0:0|0:0,0:0:0:0:
100,364,60603,5,2,0:0:0:0:
44,312,60911,5,2,0:0:0:0:
115,292,61218,6,0,P|159:276|205:279,1,93.5000028533936,14|0,0:0|2:0,0:0:0:0:
396,292,61526,2,0,P|352:307|306:304,1,93.5000028533936,8|0,0:0|0:0,0:0:0:0:
272,232,61757,1,0,0:0:0:0:
272,232,61834,2,0,P|275:185|259:142,1,93.5000028533936,6|0,0:0|2:0,0:0:0:0:
156,76,62142,2,0,P|152:122|168:165,1,93.5000028533936,8|0,0:0|2:0,0:0:0:0:
348,192,62449,6,0,L|448:192,1,93.5000028533936,6|0,0:0|2:0,0:0:0:0:
348,100,62757,2,0,L|254:100,1,93.5000028533936,8|0,0:0|0:0,0:0:0:0:
176,100,62988,1,0,0:0:0:0:
176,100,63065,2,0,P|188:144|176:189,1,93.5000028533936,6|0,0:0|0:0,0:0:0:0:
68,244,63372,2,0,P|55:199|67:154,1,93.5000028533936,8|0,0:0|2:0,0:0:0:0:
256,76,63680,6,0,L|352:76,1,93.5000028533936,6|0,0:0|2:0,0:0:0:0:
400,192,63988,2,0,L|304:192,1,93.5000028533936,8|0,0:0|0:0,0:0:0:0:
228,192,64219,1,0,0:0:0:0:
228,192,64295,2,0,P|236:237|224:282,1,93.5000028533936,6|0,0:0|2:0,0:0:0:0:
116,228,64603,2,0,P|107:182|119:137,1,93.5000028533936,8|0,0:0|2:0,0:0:0:0:
256,76,64911,5,6,0:0:0:0:
148,24,65065,1,0,0:0:0:0:
148,24,65141,1,0,0:0:0:0:
148,24,65218,2,0,L|48:24,1,93.5000028533936,8|0,0:0|0:0,0:0:0:0:
12,88,65448,1,0,0:0:0:0:
12,88,65526,2,0,P|0:132|9:178,1,93.5000028533936,10|0,0:0|0:0,0:0:0:0:
76,220,65757,1,0,0:0:0:0:
76,220,65834,2,0,L|176:220,1,93.5000028533936,8|0,0:0|0:0,0:0:0:0:
232,264,66064,1,0,0:0:0:0:
232,264,66141,5,14,0:0:0:0:
288,156,66295,1,0,0:0:0:0:
272,328,66449,1,12,0:0:0:0:
328,220,66603,1,0,0:0:0:0:
188,204,66757,1,2,0:0:0:0:
244,96,66911,1,0,0:0:0:0:
328,220,67065,1,8,0:0:0:0:
188,204,67218,6,0,L|88:204,1,97.7500018644333,12|0,0:0|2:0,0:0:0:0:
0,80,67526,6,0,L|112:80,1,101.999996887207,12|8,0:0|0:0,0:0:0:0:
188,204,67834,6,0,P|172:256|192:312,1,106.25,12|0,0:0|2:0,0:0:0:0:
263,171,68142,6,0,P|227:129|171:122,1,114.750000437737,12|0,0:0|2:0,0:0:0:0:
52,235,68449,6,0,B|64:276|36:316|36:316|100:288|186:304,1,237.999992736817,12|8,0:0|0:0,0:0:0:0:
304,368,68911,1,12,0:0:0:0:
292,236,69065,1,0,0:0:0:0:
292,236,69141,1,0,0:0:0:0:
292,236,69218,1,8,0:0:0:0:
185,303,69372,2,0,L|137:303,2,46.7500014266968,0|0|8,0:0|0:0|0:0,0:0:0:0:
364,296,69680,5,12,0:0:0:0:
364,296,69834,2,0,L|460:296,1,93.5000028533936,2|0,0:0|0:0,0:0:0:0:
500,360,70064,1,0,0:0:0:0:
500,360,70141,1,8,0:0:0:0:
484,212,70295,2,0,L|480:116,1,93.5000028533936
369,302,70603,1,0,0:0:0:0:
369,302,70680,1,0,0:0:0:0:
369,302,70757,1,8,0:0:0:0:
368,156,70911,1,0,0:0:0:0:
368,156,70988,1,0,0:0:0:0:
368,156,71065,6,0,P|376:112|364:64,1,93.5000028533936,12|0,0:0|2:0,0:0:0:0:
256,12,71372,2,0,P|244:57|252:102,1,93.5000028533936,8|0,0:0|0:0,0:0:0:0:
288,176,71602,1,0,0:0:0:0:
288,176,71680,2,0,L|180:176,1,93.5000028533936,2|0,0:0|2:0,0:0:0:0:
80,216,71988,2,0,P|64:256|76:308,1,93.5000028533936,8|0,0:0|2:0,0:0:0:0:
194,176,72295,6,0,P|210:136|198:84,1,93.5000028533936,12|0,0:0|2:0,0:0:0:0:
316,48,72603,2,0,L|412:48,1,93.5000028533936,8|0,0:0|0:0,0:0:0:0:
460,104,72834,1,0,0:0:0:0:
460,104,72911,2,0,P|448:148|464:196,1,93.5000028533936,2|0,0:0|2:0,0:0:0:0:
500,316,73218,2,0,L|406:316,1,93.5000028533936,8|0,0:0|2:0,0:0:0:0:
232,316,73526,6,0,L|325:316,1,93.5000028533936,6|0,0:0|2:0,0:0:0:0:
500,316,73834,2,0,P|511:271|498:227,1,93.5000028533936,8|0,0:0|0:0,0:0:0:0:
432,192,74065,1,0,0:0:0:0:
432,192,74142,2,0,L|336:192,1,93.5000028533936,2|0,0:0|2:0,0:0:0:0:
312,72,74449,2,0,L|408:72,1,93.5000028533936,8|0,0:0|2:0,0:0:0:0:
256,132,74757,6,0,L|160:132,1,93.5000028533936,14|0,0:0|2:0,0:0:0:0:
256,252,75065,2,0,L|352:252,1,93.5000028533936,8|0,0:0|0:0,0:0:0:0:
183,208,75372,2,0,P|172:252|186:296,1,93.5000028533936,6|0,0:0|2:0,0:0:0:0:
328,175,75680,2,0,P|339:131|325:87,1,93.5000028533936,12|0,0:0|0:0,0:0:0:0:
256,252,75988,5,12,0:0:0:0:
256,252,76142,2,0,P|214:287|160:290,1,110.499994941712,10|0,0:0|0:0,0:0:0:0:
256,132,76449,1,4,0:0:0:0:
256,132,76603,2,0,P|297:96|351:93,1,110.499994941712,10|0,0:0|0:0,0:0:0:0:
188,211,76911,5,12,0:0:0:0:
188,211,77065,2,0,P|161:163|165:103,1,110.499994941712,10|0,0:0|0:0,0:0:0:0:
329,176,77372,1,12,0:0:0:0:
329,176,77526,2,0,P|356:224|352:284,1,110.499994941712,10|0,0:0|0:0,0:0:0:0:
256,132,77834,2,0,L|256:16,1,110.499994941712,12|0,0:0|0:0,0:0:0:0:
329,176,78142,1,12,0:0:0:0:
193,216,78295,5,0,0:0:0:0:
193,216,78372,1,0,0:0:0:0:
193,216,78449,2,0,P|138:232|82:216,1,110.499994941712,12|8,0:0|0:0,0:0:0:0:
12,124,78757,1,8,0:0:0:0:
87,219,78911,2,0,P|98:268|82:324,1,110.499994941712,10|0,0:0|0:0,0:0:0:0:
164,376,79218,1,8,0:3:0:0:
212,276,79372,1,8,0:3:0:0:
280,372,79526,6,0,B|328:360|368:376|368:376|392:344|368:272,2,187.000005706787,12|2|2,0:0|0:0|0:0,0:0:0:0:
212,276,80295,1,8,3:0:0:0:
184,238,80371,1,8,3:0:0:0:
175,193,80448,1,8,3:0:0:0:
186,148,80525,1,8,3:0:0:0:
215,112,80603,2,0,L|320:112,1,93.5000028533936,8|8,3:0|3:0,0:0:0:0:
464,116,80911,5,14,0:0:0:0:
24,368,90757,6,0,L|24:291,1,76.4999976654053,14|0,0:0|2:0,0:0:0:0:
24,192,91065,1,8,0:0:0:0:
108,240,91218,2,0,P|145:247|181:237,1,76.4999976654053,2|0,0:0|0:0,0:0:0:0:
256,168,91526,2,0,P|292:157|329:164,1,76.4999976654053,8|8,0:0|0:0,0:0:0:0:
396,240,91834,2,0,L|396:316,1,76.4999976654053,2|8,0:0|0:0,0:0:0:0:
476,144,92142,6,0,L|476:68,1,76.4999976654053,0|8,0:0|0:0,0:0:0:0:
396,8,92449,1,0,0:0:0:0:
332,84,92603,1,2,0:0:0:0:
332,84,92757,2,0,P|293:91|256:84,1,76.4999976654053,8|8,0:0|0:0,0:0:0:0:
44,32,93218,6,0,L|44:116,1,76.4999976654053,10|0,0:0|2:0,0:0:0:0:
44,208,93526,1,8,0:0:0:0:
128,156,93680,2,0,P|164:148|204:156,1,76.4999976654053,2|0,0:0|2:0,0:0:0:0:
204,256,93988,2,0,P|168:264|128:256,1,76.4999976654053,8|8,0:0|0:0,0:0:0:0:
44,208,94295,1,0,0:0:0:0:
128,156,94449,5,10,0:0:0:0:
128,156,94603,2,0,L|128:80,1,76.4999976654053,0|8,0:0|0:0,0:0:0:0:
193,4,94911,1,0,0:0:0:0:
288,36,95065,1,2,0:0:0:0:
205,145,95218,1,12,0:0:0:0:
128,79,95372,1,8,0:0:0:0:
128,79,95680,6,0,P|90:71|53:79,1,76.4999976654053,6|0,0:0|2:0,0:0:0:0:
8,168,95988,1,8,0:0:0:0:
48,260,96142,2,0,P|85:267|122:260,1,76.4999976654053,2|0,0:0|2:0,0:0:0:0:
220,232,96449,2,0,L|220:316,1,76.4999976654053,8|8,0:0|0:0,0:0:0:0:
292,152,96757,6,0,L|292:68,1,76.4999976654053,2|8,0:0|0:0,0:0:0:0:
388,52,97065,2,0,P|425:60|462:52,1,76.4999976654053,0|8,0:0|0:0,0:0:0:0:
508,144,97372,2,0,L|508:184,2,38.2499988327027,0|0|2,0:0|0:0|0:0,0:0:0:0:
420,192,97680,1,8,0:0:0:0:
332,240,97834,2,0,L|332:336,1,76.4999976654053,8|0,0:0|2:0,0:0:0:0:
420,192,98142,6,0,P|360:144|272:160,1,152.999995330811,10|8,0:0|0:0,0:0:0:0:
204,204,98603,1,0,0:0:0:0:
128,268,98757,2,0,P|90:276|53:268,1,76.4999976654053,2|0,0:0|2:0,0:0:0:0:
8,180,99065,1,8,0:0:0:0:
8,180,99218,1,0,0:0:0:0:
144,124,99372,5,10,0:0:0:0:
128,268,99526,1,8,0:0:0:0:
8,180,99680,1,8,0:0:0:0:
152,200,99834,1,8,0:0:0:0:
55,87,99988,2,0,P|47:50|55:13,1,76.4999976654053,10|8,0:0|0:0,0:0:0:0:
152,125,100295,2,0,P|160:162|152:199,1,76.4999976654053,8|0,0:0|2:0,0:0:0:0:
88,336,100603,6,0,L|0:336,1,85,14|0,0:0|0:0,0:0:0:0:
128,268,100911,1,8,0:0:0:0:
128,268,101065,2,0,L|216:268,1,85,12|8,0:0|0:0,0:0:0:0:
296,344,101372,1,0,0:0:0:0:
256,148,101526,1,12,0:0:0:0:
256,148,101680,6,0,P|248:104|260:64,1,85,2|0,0:0|0:0,0:0:0:0:
404,192,101988,2,0,P|363:203|321:194,1,85,8|0,0:0|0:0,0:0:0:0:
190,189,102295,2,0,P|148:180|108:192,1,85,2|8,0:0|0:0,0:0:0:0:
253,318,102603,2,0,P|264:277|256:236,1,85,2|8,0:0|0:0,0:0:0:0:
116,199,102911,1,0,0:0:0:0:
116,199,102988,1,0,0:0:0:0:
116,199,103065,6,0,L|16:199,1,85,12|0,0:0|0:0,0:0:0:0:
88,280,103372,1,8,0:0:0:0:
190,189,103526,2,0,P|201:147|190:105,1,85,12|0,0:0|0:0,0:0:0:0:
120,24,103833,1,0,0:0:0:0:
268,76,103988,1,12,0:0:0:0:
268,76,104142,2,0,L|352:76,1,85,2|0,0:0|0:0,0:0:0:0:
464,160,104449,6,0,P|455:201|466:242,1,85,8|8,3:0|3:0,0:0:0:0:
500,348,104757,1,8,3:0:0:0:
500,348,104911,1,8,3:0:0:0:
396,316,105065,2,0,L|340:320,2,42.5,0|0|10,0:0|0:0|0:0,0:0:0:0:
348,192,105372,1,0,0:0:0:0:
348,192,105449,1,0,0:0:0:0:
348,192,105526,6,0,L|264:196,1,85,14|0,0:0|0:0,0:0:0:0:
180,268,105834,1,8,0:0:0:0:
120,124,105988,1,12,0:0:0:0:
120,124,106142,2,0,P|108:84|120:40,1,85,8|0,0:0|0:0,0:0:0:0:
261,115,106449,2,0,P|273:155|261:199,1,85,12|0,0:0|0:0,0:0:0:0:
112,244,106757,6,0,L|24:244,1,85,0|8,0:0|0:0,0:0:0:0:
80,340,107065,2,0,L|172:340,1,85,8|8,0:0|3:0,0:0:0:0:
256,276,107372,2,0,P|244:236|256:192,1,85,10|8,0:0|3:0,0:0:0:0:
340,124,107680,1,8,0:0:0:0:
188,148,107834,1,0,0:0:0:0:
188,148,107911,1,0,0:0:0:0:
188,148,107988,6,0,L|96:148,1,85,14|0,0:0|0:0,0:0:0:0:
20,76,108295,1,8,0:0:0:0:
64,224,108449,1,12,0:0:0:0:
147,296,108603,2,0,L|232:296,1,85,8|0,0:0|0:0,0:0:0:0:
360,188,108911,5,12,0:0:0:0:
432,271,109065,2,0,P|443:312|432:356,1,85,0|2,0:0|0:0,0:0:0:0:
360,188,109372,2,0,P|348:147|357:106,1,85,8|8,3:0|0:0,0:0:0:0:
444,32,109680,1,8,3:0:0:0:
356,106,109834,2,0,L|268:106,1,85,10|8,3:0|3:0,0:0:0:0:
360,188,110142,2,0,L|460:188,1,85,10|8,3:0|3:0,0:0:0:0:
360,272,110449,6,0,L|224:272,1,136,6|0,0:0|0:0,0:0:0:0:
140,240,110911,1,0,0:0:0:0:
212,188,111065,2,0,P|232:120|204:64,1,136,0|0,0:0|0:0,0:0:0:0:
148,132,111526,1,0,0:0:0:0:
212,188,111680,6,0,L|356:188,1,136,0|0,0:0|0:0,0:0:0:0:
436,176,112141,1,0,0:0:0:0:
400,256,112295,2,0,P|372:316|392:379,1,136,0|0,0:0|0:0,0:0:0:0:
460,320,112757,1,0,0:0:0:0:
400,256,112911,6,0,L|252:256,1,136,0|0,0:0|0:0,0:0:0:0:
112,128,113526,2,0,L|260:128,1,136,0|0,0:0|0:0,0:0:0:0:
320,76,113988,1,0,0:0:0:0:
388,20,114141,6,0,P|408:83|379:143,1,136,0|0,0:0|0:0,0:0:0:0:
304,192,114603,1,0,0:0:0:0:
304,192,114757,2,0,L|164:192,1,136,0|0,0:0|0:0,0:0:0:0:
80,192,115219,1,0,0:0:0:0:
80,192,115372,6,0,P|56:252|84:320,1,136,0|0,0:0|0:0,0:0:0:0:
248,372,115988,2,0,P|272:312|244:244,1,136,0|0,0:0|0:0,0:0:0:0:
176,192,116450,1,0,0:0:0:0:
176,192,116603,6,0,L|312:192,1,136,0|0,0:0|0:0,0:0:0:0:
488,192,117218,2,0,P|512:132|484:64,1,136,0|0,0:0|0:0,0:0:0:0:
408,32,117680,1,0,0:0:0:0:
408,32,117834,6,0,P|344:48|276:32,1,136,0|0,0:0|0:0,0:0:0:0:
100,8,118449,2,0,L|100:148,1,136,0|0,0:0|0:0,0:0:0:0:
100,232,118911,1,0,0:0:0:0:
100,232,119065,6,0,P|164:216|232:232,1,136,0|0,0:0|0:0,0:0:0:0:
360,356,119680,2,0,P|296:372|228:356,1,136,0|0,0:0|0:0,0:0:0:0:
119,191,120295,6,0,P|111:154|119:117,1,76.4999976654053,2|0,0:0|0:0,0:0:0:0:
256,55,120603,1,8,0:0:0:0:
256,55,120911,6,0,P|293:47|330:55,1,76.4999976654053,2|0,0:0|0:0,0:0:0:0:
393,192,121219,1,8,0:0:0:0:
393,192,121526,6,0,P|401:229|393:266,1,76.4999976654053,2|0,0:0|0:0,0:0:0:0:
255,328,121834,1,8,0:0:0:0:
255,328,122141,6,0,P|218:336|181:328,1,76.4999976654053,2|0,0:0|0:0,0:0:0:0:
119,191,122449,1,8,0:0:0:0:
119,191,122757,6,0,P|111:154|119:117,1,76.4999976654053,2|0,0:0|0:0,0:0:0:0:
256,55,123064,1,8,0:0:0:0:
256,55,123372,6,0,P|293:47|330:55,1,76.4999976654053,2|0,0:0|0:0,0:0:0:0:
393,192,123680,1,8,0:0:0:0:
393,192,123988,6,0,P|401:229|393:266,1,76.4999976654053,2|0,0:0|0:0,0:0:0:0:
255,328,124295,1,8,0:0:0:0:
255,328,124603,6,0,P|218:336|181:328,1,76.4999976654053,2|0,0:0|0:0,0:0:0:0:
119,191,124911,1,8,0:0:0:0:
126,31,125065,5,8,0:0:0:0:
126,31,125141,1,8,0:0:0:0:
126,31,125218,1,12,0:0:0:0:
184,138,125372,1,0,0:0:0:0:
58,138,125526,1,8,0:0:0:0:
264,84,125680,5,12,0:0:0:0:
370,153,125834,1,0,0:0:0:0:
257,205,125988,1,8,0:0:0:0:
370,61,126141,5,12,0:0:0:0:
486,26,126295,1,0,0:0:0:0:
462,147,126449,1,8,0:0:0:0:
257,205,126603,5,12,0:0:0:0:
164,118,126757,1,4,0:0:0:0:
282,84,126911,1,8,0:0:0:0:
160,216,127065,5,12,3:0:0:0:
93,322,127219,1,8,3:0:0:0:
36,214,127373,1,8,3:0:0:0:
196,304,127526,5,0,0:0:0:0:
196,304,127603,1,0,0:0:0:0:
196,304,127680,2,0,L|280:304,1,85,2|8,0:0|0:0,0:0:0:0:
376,364,127988,1,2,0:0:0:0:
360,200,128141,6,0,P|344:152|357:103,1,101.999996887207,12|0,0:0|0:0,0:0:0:0:
208,24,128449,6,0,L|81:24,1,118.999996368408,12|0,0:0|0:0,0:0:0:0:
32,201,128757,6,0,P|139:137|88:23,1,272,12|0,0:0|0:0,0:0:0:0:
32,201,129526,5,2,0:0:0:0:
32,280,129834,5,2,0:0:0:0:
32,360,130142,6,0,P|76:372|124:360,1,93.5000028533936,14|0,0:0|0:0,0:0:0:0:
240,268,130449,2,0,P|196:256|148:268,1,93.5000028533936,8|0,0:0|0:0,0:0:0:0:
76,288,130681,1,0,0:0:0:0:
76,288,130758,2,0,L|76:184,1,93.5000028533936,6|0,0:0|2:0,0:0:0:0:
76,72,131066,2,0,P|119:88|163:76,1,93.5000028533936,8|0,0:0|2:0,0:0:0:0:
340,24,131373,6,0,L|440:24,1,93.5000028533936,6|0,0:0|2:0,0:0:0:0:
456,144,131681,2,0,P|440:187|452:231,1,93.5000028533936,8|0,0:0|0:0,0:0:0:0:
480,304,131912,1,0,0:0:0:0:
480,304,131988,2,0,L|376:304,1,93.5000028533936,6|0,0:0|2:0,0:0:0:0:
288,232,132296,2,0,P|300:187|289:142,1,93.5000028533936,8|0,0:0|2:0,0:0:0:0:
144,56,132604,6,0,L|50:56,1,93.5000028533936,2|0,0:0|2:0,0:0:0:0:
24,176,132912,2,0,P|37:224|24:276,1,93.5000028533936,8|0,0:0|0:0,0:0:0:0:
4,340,133143,1,0,0:0:0:0:
4,340,133218,2,0,L|100:340,1,93.5000028533936,2|0,0:0|2:0,0:0:0:0:
220,340,133527,2,0,P|211:294|223:249,1,93.5000028533936,8|0,0:0|2:0,0:0:0:0:
316,96,133835,5,6,0:0:0:0:
216,168,133989,1,0,0:0:0:0:
216,168,134065,1,0,0:0:0:0:
216,168,134142,2,0,L|116:168,1,93.5000028533936,8|0,0:0|0:0,0:0:0:0:
68,108,134372,1,0,0:0:0:0:
68,108,134450,2,0,P|80:64|71:18,1,93.5000028533936,0|0,0:0|0:0,0:0:0:0:
156,40,134681,1,0,0:0:0:0:
156,40,134758,2,0,L|256:40,1,93.5000028533936,0|0,0:0|0:0,0:0:0:0:
316,96,134988,1,0,0:0:0:0:
316,96,135065,5,12,0:0:0:0:
295,215,135219,1,0,0:0:0:0:
438,164,135372,1,12,0:0:0:0:
415,283,135526,1,0,0:0:0:0:
295,215,135681,1,2,0:0:0:0:
316,96,135835,1,0,0:0:0:0:
438,164,135989,1,8,0:0:0:0:
295,215,136142,6,0,L|195:215,1,97.7500018644333,12|0,0:0|0:0,0:0:0:0:
12,216,136450,6,0,L|124:216,1,101.999996887207,12|8,0:0|0:0,0:0:0:0:
295,215,136758,6,0,L|408:216,1,106.25,12|0,0:0|0:0,0:0:0:0:
232,160,137066,6,0,P|212:224|232:269,1,114.750000437737,12|8,0:0|3:0,0:0:0:0:
309,135,137372,6,0,P|244:65|232:160,1,237.999992736817,12|8,0:0|0:0,0:0:0:0:
310,253,137835,1,12,0:0:0:0:
414,189,137989,1,0,0:0:0:0:
414,189,138065,1,0,0:0:0:0:
414,189,138142,1,10,0:0:0:0:
309,135,138296,2,0,L|280:92,2,46.7500014266968,0|0|0,0:0|0:0|0:0,0:0:0:0:
392,280,138604,5,12,0:0:0:0:
292,347,138758,2,0,P|247:360|202:349,1,93.5000028533936,2|0,0:0|0:0,0:0:0:0:
144,304,138988,1,0,0:0:0:0:
144,304,139065,1,8,0:0:0:0:
120,184,139218,2,0,L|111:83,1,93.5000028533936
236,216,139527,1,0,0:0:0:0:
236,216,139604,1,0,0:0:0:0:
236,216,139681,1,0,0:0:0:0:
144,304,139835,1,0,0:0:0:0:
144,304,139912,1,0,0:0:0:0:
144,304,139989,6,0,L|48:304,1,93.5000028533936,14|0,0:0|2:0,0:0:0:0:
236,216,140295,2,0,L|332:216,1,93.5000028533936,8|0,0:0|0:0,0:0:0:0:
404,216,140526,1,0,0:0:0:0:
404,216,140604,2,0,P|396:260|408:308,1,93.5000028533936,2|0,0:0|2:0,0:0:0:0:
488,216,140911,2,0,P|496:172|484:124,1,93.5000028533936,8|0,0:0|2:0,0:0:0:0:
356,12,141218,6,0,P|348:56|360:104,1,93.5000028533936,12|0,0:0|2:0,0:0:0:0:
404,216,141527,2,0,L|310:216,1,93.5000028533936,8|0,0:0|0:0,0:0:0:0:
236,216,141758,1,0,0:0:0:0:
236,216,141835,2,0,P|224:260|240:308,1,93.5000028533936,6|0,0:0|2:0,0:0:0:0:
120,352,142142,2,0,L|26:352,1,93.5000028533936,8|0,0:0|2:0,0:0:0:0:
142,216,142450,6,0,L|235:216,1,93.5000028533936,4|0,0:0|2:0,0:0:0:0:
356,216,142758,2,0,P|367:171|354:127,1,93.5000028533936,12|0,0:0|0:0,0:0:0:0:
324,56,142989,1,0,0:0:0:0:
324,56,143066,2,0,L|228:56,1,93.5000028533936,6|0,0:0|2:0,0:0:0:0:
353,126,143373,2,0,L|449:126,1,93.5000028533936,8|0,0:0|2:0,0:0:0:0:
496,296,143681,6,0,L|400:296,1,93.5000028533936,12|0,0:0|2:0,0:0:0:0:
288,340,143989,2,0,P|276:292|292:244,1,93.5000028533936,12|0,0:0|0:0,0:0:0:0:
224,133,144295,2,0,P|236:88|224:44,1,93.5000028533936,2|0,0:0|2:0,0:0:0:0:
109,88,144603,2,0,L|16:88,1,93.5000028533936,12|0,0:0|0:0,0:0:0:0:
112,260,144912,5,12,0:0:0:0:
112,260,145066,2,0,P|160:264|220:232,1,110.499994941712,10|0,0:0|2:0,0:0:0:0:
400,124,145372,1,12,0:0:0:0:
400,124,145526,2,0,P|352:120|292:152,1,110.499994941712,10|0,0:0|0:0,0:0:0:0:
324,336,145834,5,12,0:0:0:0:
324,336,145988,2,0,P|328:288|296:228,1,110.499994941712,10|0,0:0|0:0,0:0:0:0:
188,48,146294,1,12,0:0:0:0:
188,48,146449,2,0,P|184:96|216:156,1,110.499994941712,10|0,0:0|0:0,0:0:0:0:
360,192,146758,2,0,L|480:192,1,110.499994941712,12|0,0:0|0:0,0:0:0:0:
364,288,147066,1,12,0:0:0:0:
256,152,147219,5,0,0:0:0:0:
256,152,147296,1,0,0:0:0:0:
256,152,147373,2,0,P|240:97|256:41,1,110.499994941712,12|8,0:0|0:0,0:0:0:0:
384,104,147681,1,8,0:0:0:0:
268,235,147834,2,0,P|214:228|179:186,1,110.499994941712,10|0,0:0|0:0,0:0:0:0:
148,44,148142,1,8,3:0:0:0:
100,180,148296,1,8,3:0:0:0:
256,152,148450,6,0,P|336:184|336:284,2,187.000005706787,12|2|2,0:0|0:0|0:0,0:0:0:0:
272,320,149218,1,8,3:0:0:0:
305,351,149294,1,8,3:0:0:0:
351,359,149371,1,8,3:0:0:0:
394,342,149448,1,8,3:0:0:0:
421,305,149526,2,0,L|436:212,1,93.5000028533936,8|8,3:0|3:0,0:0:0:0:
464,60,149835,5,12,0:0:0:0:
228,248,159680,5,12,0:0:0:0:
228,140,159834,1,2,0:0:0:0:
321,194,159988,1,8,0:0:0:0:
249,322,160142,5,12,0:0:0:0:
156,376,160295,1,2,0:0:0:0:
156,268,160450,1,8,0:0:0:0:
307,270,160603,5,12,0:0:0:0:
400,324,160756,1,2,0:0:0:0:
307,378,160911,1,8,0:0:0:0:
307,270,161065,6,0,P|296:232|312:176,1,85,8|2,0:0|0:0,0:0:0:0:
256,40,161372,1,8,3:0:0:0:
207,188,161526,2,0,P|216:229|204:270,1,85,2|0,0:0|2:0,0:0:0:0:
108,360,161834,1,8,0:0:0:0:
32,264,161988,5,0,0:0:0:0:
32,264,162065,1,0,0:0:0:0:
32,264,162142,1,12,0:0:0:0:
52,157,162296,1,2,0:0:0:0:
133,228,162450,1,8,0:0:0:0:
221,98,162603,5,12,0:0:0:0:
128,44,162756,1,2,0:0:0:0:
128,152,162911,1,8,0:0:0:0:
283,150,163065,5,12,0:0:0:0:
376,96,163218,1,2,0:0:0:0:
283,42,163373,1,8,0:0:0:0:
283,150,163526,6,0,P|272:190|279:232,1,85,8|2,0:0|0:0,0:0:0:0:
380,280,163834,1,8,0:0:0:0:
283,150,163988,2,0,L|196:148,1,85,8|2,0:0|0:0,0:0:0:0:
88,148,164295,1,8,0:0:0:0:
252,256,164449,5,0,0:0:0:0:
252,256,164526,1,0,0:0:0:0:
252,256,164603,1,12,0:0:0:0:
360,232,164757,1,2,0:0:0:0:
283,150,164911,1,8,0:0:0:0:
179,266,165065,5,12,0:0:0:0:
148,372,165218,1,8,0:0:0:0:
256,348,165373,1,2,0:0:0:0:
109,302,165526,5,12,0:0:0:0:
1,326,165680,1,8,0:0:0:0:
32,220,165834,5,6,2:0:0:0:
56,196,166142,1,6,2:0:0:0:
80,172,166449,1,8,0:0:0:0:
80,172,166603,2,0,L|164:172,1,85,10|0,0:0|0:0,0:0:0:0:
313,143,166911,6,0,P|229:112|164:173,1,187.000005706787,14|0,0:0|2:0,0:0:0:0:
230,284,167372,2,0,P|250:243|247:197,1,93.5000028533936,8|0,0:0|0:0,0:0:0:0:
316,148,167603,1,0,0:0:0:0:
316,148,167680,2,0,L|411:149,1,93.5000028533936,2|0,0:0|2:0,0:0:0:0:
428,288,167988,2,0,L|332:288,1,93.5000028533936,8|0,0:0|2:0,0:0:0:0:
196,192,168295,6,0,P|208:144|194:99,1,93.5000028533936,2|0,0:0|2:0,0:0:0:0:
116,8,168603,2,0,P|104:56|117:100,1,93.5000028533936,8|0,0:0|0:0,0:0:0:0:
200,108,168834,1,0,0:0:0:0:
200,108,168911,2,0,L|300:106,1,93.5000028533936,2|0,0:0|2:0,0:0:0:0:
372,192,169218,2,0,P|360:240|373:284,1,93.5000028533936,8|0,0:0|0:0,0:0:0:0:
140,281,169526,6,0,P|152:236|140:192,1,93.5000028533936,6|0,0:0|2:0,0:0:0:0:
100,76,169834,2,0,L|216:76,1,93.5000028533936,8|0,0:0|0:0,0:0:0:0:
256,132,170065,1,0,0:0:0:0:
256,132,170142,2,0,L|364:132,1,93.5000028533936,2|0,0:0|2:0,0:0:0:0:
452,64,170449,1,8,0:0:0:0:
392,192,170603,6,0,P|380:236|396:288,2,93.5000028533936,2|4|0,0:0|0:0|0:0,0:0:0:0:
504,240,171065,1,8,0:0:0:0:
440,344,171218,2,0,P|412:356|388:360,2,46.7500014266968,0|0|2,0:0|0:0|0:0,0:0:0:0:
504,240,171526,2,0,L|504:168,2,46.7500014266968,0|0|8,0:0|0:0|0:0,0:0:0:0:
392,192,171834,5,0,0:0:0:0:
392,192,171911,1,0,0:0:0:0:
392,192,171988,2,0,L|392:88,1,93.5000028533936,14|0,0:0|2:0,0:0:0:0:
272,36,172295,2,0,L|272:129,1,93.5000028533936,8|0,0:0|0:0,0:0:0:0:
272,208,172526,1,0,0:0:0:0:
272,208,172603,2,0,P|224:224|176:208,1,93.5000028533936,2|0,0:0|0:0,0:0:0:0:
96,128,172911,1,12,0:0:0:0:
44,256,173065,6,0,L|44:356,1,93.5000028533936,6|0,0:0|2:0,0:0:0:0:
124,252,173372,1,6,0:0:0:0:
8,184,173526,1,8,0:0:0:0:
196,120,173680,6,0,L|196:220,1,93.5000028533936,14|0,0:0|0:0,0:0:0:0:
276,116,173987,1,8,3:0:0:0:
160,48,174141,1,8,3:0:0:0:
196,212,174295,6,0,B|291:256|291:173|384:211,1,187.000005706787,6|0,0:0|0:0,0:0:0:0:
476,280,174757,2,0,L|492:372,1,93.5000028533936,12|2,0:0|0:0,0:0:0:0:
400,292,175065,1,8,0:0:0:0:
460,188,175218,2,0,L|488:136,2,46.7500014266968,0|0|2,0:0|0:0|0:0,0:0:0:0:
400,292,175526,6,0,P|352:304|304:292,1,93.5000028533936,6|0,0:0|2:0,0:0:0:0:
260,184,175834,1,0,0:0:0:0:
260,184,175911,1,0,0:0:0:0:
260,184,175988,1,8,0:0:0:0:
204,292,176142,1,8,0:0:0:0:
148,204,176295,2,0,P|139:158|156:112,1,93.5000028533936,10|8,0:0|0:0,0:0:0:0:
236,52,176603,1,12,0:0:0:0:
364,109,176757,6,0,B|474:54|583:192|528:328|392:383|281:328|256:192|256:192|228:54|118:0|-17:54|-73:192|35:328|145:272,1,1156,6|0,0:0|0:0,0:0:0:0:
207,73,189218,6,0,P|199:110|207:147,1,76.4999976654053,6|0,0:0|2:0,0:0:0:0:
304,236,189526,2,0,P|312:273|304:310,1,76.4999976654053,8|0,0:0|2:0,0:0:0:0:
207,310,189834,2,0,P|199:273|207:236,1,76.4999976654053,2|0,0:0|2:0,0:0:0:0:
304,147,190142,2,0,P|312:110|304:73,1,76.4999976654053,8|0,0:0|2:0,0:0:0:0:
207,73,190449,6,0,L|124:68,1,76.4999976654053,2|0,0:0|2:0,0:0:0:0:
144,184,190757,2,0,L|220:188,1,76.4999976654053,8|0,0:0|2:0,0:0:0:0:
305,311,191065,2,0,L|388:316,1,76.4999976654053,2|0,0:0|2:0,0:0:0:0:
368,200,191373,2,0,L|291:195,1,76.4999976654053,8|0,0:0|2:0,0:0:0:0:
144,184,191680,6,0,P|136:144|148:104,1,76.4999976654053,2|0,0:0|2:0,0:0:0:0:
248,60,191988,2,0,P|256:100|244:140,1,76.4999976654053,8|0,0:0|2:0,0:0:0:0:
144,184,192295,2,0,L|64:200,1,76.4999976654053,2|0,0:0|2:0,0:0:0:0:
168,260,192603,2,0,L|248:244,1,76.4999976654053,8|0,0:0|2:0,0:0:0:0:
368,200,192911,6,0,B|400:120|344:120|368:50,1,152.999995330811,2|8,0:0|0:0,0:0:0:0:
216,192,193526,2,0,P|178:200|141:192,1,76.4999976654053,2|0,0:0|2:0,0:0:0:0:
296,192,193834,2,0,P|333:183|370:191,1,76.4999976654053,12|0,0:0|2:0,0:0:0:0:
217,295,194142,5,12,0:0:0:0:
217,295,194295,2,0,P|200:243|216:190,1,110.499994941712,10|0,0:0|0:0,0:0:0:0:
294,88,194603,1,12,0:0:0:0:
294,88,194757,2,0,P|311:140|295:193,1,110.499994941712,10|0,0:0|0:0,0:0:0:0:
217,295,195065,5,12,0:0:0:0:
217,295,195218,2,0,B|129:295|129:295|149:271,1,110.499994941712,14|0,0:0|0:0,0:0:0:0:
296,192,195526,1,12,0:0:0:0:
296,192,195680,2,0,B|384:192|384:192|364:216,1,110.499994941712,10|8,0:0|3:0,0:0:0:0:
224,220,195988,2,0,P|221:166|257:125,1,110.499994941712,10|8,0:0|3:0,0:0:0:0:
376,108,196295,1,8,0:0:0:0:
276,280,196449,5,0,0:0:0:0:
276,280,196526,1,0,0:0:0:0:
276,280,196603,2,0,P|231:298|184:288,1,93.5000028533936,14|0,0:0|2:0,0:0:0:0:
116,192,196911,1,8,0:0:0:0:
296,192,197065,6,0,P|340:220|360:272,1,101.999996887207,12|0,0:0|0:0,0:0:0:0:
224,220,197372,6,0,P|222:160|264:120,1,118.999996368408,12|0,0:0|0:0,0:0:0:0:
276,280,197680,6,0,P|192:328|224:220,1,272,12|0,0:0|0:0,0:0:0:0:
396,268,198142,1,8,0:0:0:0:
396,268,198449,5,2,0:0:0:0:
444,208,198757,5,2,0:0:0:0:
492,148,199065,6,0,L|492:48,1,93.5000028533936,14|0,0:0|2:0,0:0:0:0:
364,35,199373,2,0,P|319:48|273:38,1,93.5000028533936,8|0,0:0|0:0,0:0:0:0:
196,40,199604,1,0,0:0:0:0:
196,40,199681,2,0,L|196:140,1,93.5000028533936,6|0,0:0|2:0,0:0:0:0:
196,255,199989,2,0,P|152:271|108:259,1,93.5000028533936,8|0,0:0|2:0,0:0:0:0:
315,128,200295,6,0,P|359:112|403:124,1,93.5000028533936,6|0,0:0|2:0,0:0:0:0:
364,284,200604,2,0,L|364:184,1,93.5000028533936,8|0,0:0|0:0,0:0:0:0:
408,127,200835,1,0,0:0:0:0:
408,127,200911,2,0,P|451:111|495:123,1,93.5000028533936,6|0,0:0|2:0,0:0:0:0:
454,283,201218,2,0,L|454:183,1,93.5000028533936,8|0,0:0|2:0,0:0:0:0:
356,40,201527,6,0,P|310:31|265:42,1,93.5000028533936,6|0,0:0|2:0,0:0:0:0:
244,164,201834,2,0,P|289:172|334:161,1,93.5000028533936,12|0,0:0|0:0,0:0:0:0:
408,127,202066,1,0,0:0:0:0:
408,127,202142,2,0,L|409:227,1,93.5000028533936,2|0,0:0|2:0,0:0:0:0:
244,257,202449,2,0,L|243:163,1,93.5000028533936,8|0,0:0|2:0,0:0:0:0:
356,40,202758,5,10,0:0:0:0:
240,76,202912,1,0,0:0:0:0:
240,76,202988,1,0,0:0:0:0:
240,76,203065,2,0,P|196:88|148:76,1,93.5000028533936,8|0,0:0|0:0,0:0:0:0:
80,48,203295,1,0,0:0:0:0:
80,48,203373,2,0,L|80:148,1,93.5000028533936,0|0,0:0|0:0,0:0:0:0:
80,220,203604,1,0,0:0:0:0:
80,220,203681,2,0,P|124:208|172:220,1,93.5000028533936,0|0,0:0|0:0,0:0:0:0:
244,257,203911,1,0,0:0:0:0:
244,257,203988,5,12,0:0:0:0:
268,127,204142,1,0,0:0:0:0:
169,218,204296,1,8,0:0:0:0:
343,166,204449,1,0,0:0:0:0:
196,152,204604,1,2,0:0:0:0:
316,232,204757,1,0,0:0:0:0:
268,127,204912,1,8,0:0:0:0:
244,257,205065,6,0,L|140:256,1,97.7500018644333,12|0,0:0|0:0,0:0:0:0:
8,360,205373,6,0,L|112:360,1,101.999996887207,12|8,0:0|0:0,0:0:0:0:
244,257,205681,6,0,P|260:207|244:157,1,106.25,12|0,0:0|0:0,0:0:0:0:
208,332,205989,6,0,P|264:337|311:306,1,114.750000437737,12|8,0:0|3:0,0:0:0:0:
486,224,206295,6,0,P|376:217|311:305,1,229.500000875473,12|0,0:0|0:0,0:0:0:0:
424,324,206758,1,12,0:0:0:0:
360,144,206912,1,0,0:0:0:0:
360,144,206988,1,0,0:0:0:0:
360,144,207065,1,0,0:0:0:0:
256,256,207219,2,0,L|188:255,2,59.4999981842042,0|0|0,0:0|0:0|0:0,0:0:0:0:
136,304,207527,5,12,0:0:0:0:
136,304,207681,2,0,P|120:260|131:215,1,93.5000028533936,2|0,0:0|0:0,0:0:0:0:
184,152,207911,1,0,0:0:0:0:
184,152,207988,1,8,0:0:0:0:
256,256,208142,2,0,P|269:298|248:352,1,93.5000028533936
139,223,208450,1,0,0:0:0:0:
139,223,208527,1,0,0:0:0:0:
139,223,208604,1,8,0:0:0:0:
264,176,208758,1,0,2:0:0:0:
264,176,208835,1,0,0:0:0:0:
264,176,208912,6,0,L|360:176,1,93.5000028533936,12|0,0:0|2:0,0:0:0:0:
464,252,209219,2,0,P|452:297|464:348,1,93.5000028533936,8|0,0:0|0:0,0:0:0:0:
388,372,209449,1,0,0:0:0:0:
388,372,209527,2,0,L|280:372,1,93.5000028533936,6|0,0:0|2:0,0:0:0:0:
172,336,209834,2,0,P|181:290|169:245,1,93.5000028533936,8|0,0:0|2:0,0:0:0:0:
48,124,210142,6,0,P|38:169|50:214,1,93.5000028533936,6|0,0:0|2:0,0:0:0:0:
169,245,210450,2,0,L|264:244,1,93.5000028533936,8|0,0:0|0:0,0:0:0:0:
344,248,210681,1,0,0:0:0:0:
344,248,210758,2,0,P|332:292|348:340,1,93.5000028533936,2|0,0:0|2:0,0:0:0:0:
444,248,211065,2,0,P|438:202|405:164,1,93.5000028533936,8|0,0:0|2:0,0:0:0:0:
256,100,211373,6,0,L|156:100,1,93.5000028533936,6|0,0:0|2:0,0:0:0:0:
56,192,211681,2,0,P|45:237|58:281,1,93.5000028533936,8|0,0:0|0:0,0:0:0:0:
124,316,211912,1,0,0:0:0:0:
124,316,211989,2,0,L|220:316,1,93.5000028533936,2|0,0:0|2:0,0:0:0:0:
324,248,212295,2,0,P|335:203|322:159,1,93.5000028533936,8|0,0:0|2:0,0:0:0:0:
256,32,212604,6,0,L|360:32,1,93.5000028533936,6|0,0:0|2:0,0:0:0:0:
415,158,212912,2,0,L|315:158,1,93.5000028533936,8|0,0:0|0:0,0:0:0:0:
190,226,213218,2,0,L|97:226,1,93.5000028533936,6|0,0:0|2:0,0:0:0:0:
162,352,213526,2,0,L|256:352,1,93.5000028533936,12|0,0:0|0:0,0:0:0:0:
372,216,213835,5,12,0:0:0:0:
372,216,213989,2,0,P|384:157|364:103,1,110.499994941712,10|0,0:0|0:0,0:0:0:0:
140,168,214295,1,12,0:0:0:0:
140,168,214449,2,0,P|127:226|147:280,1,110.499994941712,10|0,0:0|0:0,0:0:0:0:
301,230,214758,5,12,0:0:0:0:
301,230,214912,2,0,B|389:230|389:230|369:214,1,110.499994941712,10|0,0:0|0:0,0:0:0:0:
211,154,215218,1,12,0:0:0:0:
211,154,215372,2,0,B|123:154|123:154|143:170,1,110.499994941712,10|0,0:0|0:0,0:0:0:0:
301,230,215680,2,0,P|316:280|296:336,1,110.499994941712,12|0,0:0|0:0,0:0:0:0:
176,340,215989,1,12,0:0:0:0:
211,154,216142,5,0,0:0:0:0:
211,154,216219,1,0,0:0:0:0:
211,154,216295,2,0,P|256:118|316:116,1,110.499994941712,12|8,0:0|0:0,0:0:0:0:
404,192,216604,1,8,0:0:0:0:
211,154,216757,2,0,P|190:100|207:42,1,110.499994941712,12|0,0:0|0:0,0:0:0:0:
324,24,217065,1,8,3:0:0:0:
324,24,217219,1,8,3:0:0:0:
211,154,217372,6,0,B|121:192|121:111|30:159,1,187.000005706787,12|0,0:0|0:0,0:0:0:0:
24,280,217834,1,8,0:0:0:0:
136,324,217988,1,0,0:0:0:0:
181,334,218064,1,0,0:0:0:0:
226,323,218141,1,8,0:0:0:0:
271,314,218218,1,0,0:0:0:0:
315,328,218295,1,8,3:0:0:0:
428,372,218449,2,0,L|480:372,2,46.7500014266968,8|0|8,0:0|0:0|3:0,0:0:0:0:
315,328,218757,6,0,P|307:286|317:245,1,85,14|0,0:0|2:0,0:0:0:0:
388,132,219065,2,0,P|396:174|386:215,1,85,8|0,0:0|0:0,0:0:0:0:
316,245,219295,1,0,0:0:0:0:
316,245,219372,2,0,L|232:245,1,85,2|0,0:0|2:0,0:0:0:0:
108,168,219680,2,0,L|192:168,1,85,10|0,0:0|2:0,0:0:0:0:
316,245,219988,6,0,L|400:245,1,85,6|0,0:0|2:0,0:0:0:0:
472,160,220295,2,0,P|460:119|470:78,1,85,8|0,0:0|0:0,0:0:0:0:
408,32,220526,1,0,0:0:0:0:
408,32,220603,2,0,P|364:44|320:32,1,85,2|0,0:0|2:0,0:0:0:0:
256,120,220911,2,0,L|256:208,1,85,8|0,0:0|2:0,0:0:0:0:
256,368,221218,6,0,L|256:283,1,85,6|0,0:0|2:0,0:0:0:0:
256,120,221526,2,0,P|296:108|340:120,1,85,8|0,0:0|0:0,0:0:0:0:
392,184,221757,1,0,0:0:0:0:
392,184,221834,2,0,P|432:196|476:184,1,85,2|0,0:0|2:0,0:0:0:0:
432,84,222142,1,8,0:0:0:0:
432,272,222295,5,0,0:0:0:0:
432,272,222371,1,0,0:0:0:0:
432,272,222449,2,0,L|432:372,1,85,12|0,0:0|0:0,0:0:0:0:
352,344,222679,1,0,0:0:0:0:
352,344,222757,2,0,P|308:332|264:344,1,85,8|0,0:0|0:0,0:0:0:0:
196,368,222988,1,0,0:0:0:0:
196,368,223065,2,0,P|154:376|114:364,1,85,10|0,0:0|0:0,0:0:0:0:
56,304,223295,1,0,0:0:0:0:
56,304,223372,2,0,L|48:204,1,85,8|0,0:0|0:0,0:0:0:0:
36,132,223603,1,0,0:0:0:0:
36,132,223680,6,0,P|77:135|117:120,1,85,14|0,0:0|2:0,0:0:0:0:
224,40,223988,1,8,0:0:0:0:
224,40,224142,2,0,L|264:12,2,42.5,0|0|10,0:0|0:0|0:0,0:0:0:0:
232,176,224449,1,0,0:0:0:0:
232,176,224525,1,0,0:0:0:0:
232,176,224602,1,8,0:0:0:0:
396,108,224757,6,0,L|500:28,1,93.5000028533936,12|0,0:0|2:0,0:0:0:0:
312,72,225065,1,12,0:0:0:0:
432,196,225218,1,8,0:0:0:0:
232,176,225372,6,0,L|123:175,1,101.999996887207,12|0,0:0|2:0,0:0:0:0:
278,97,225680,1,12,0:0:0:0:
254,268,225833,1,8,3:0:0:0:
396,108,225988,6,0,L|432:0,1,110.499994941712,12|0,0:0|2:0,0:0:0:0:
457,177,226296,1,8,0:0:0:0:
302,101,226449,1,12,0:0:0:0:
328,260,226603,6,0,L|360:304,2,42.5,0|0|8,0:0|0:0|0:0,0:0:0:0:
184,208,226911,2,0,L|152:252,2,42.5,0|0|8,0:0|0:0|0:0,0:0:0:0:
302,101,227218,6,0,P|352:76|416:84,1,118.999996368408,12|0,0:0|2:0,0:0:0:0:
492,192,227526,1,0,0:0:0:0:
492,192,227603,1,0,0:0:0:0:
492,192,227680,1,8,0:0:0:0:
380,368,227834,6,0,P|334:335|312:268,1,127.500004863739,12|0,3:0|3:0,0:0:0:0:
371,157,228142,1,0,0:0:0:0:
371,157,228219,1,0,0:0:0:0:
371,157,228296,1,8,0:0:0:0:
312,269,228449,1,2,0:0:0:0:
312,269,228603,6,0,B|228:316|228:240|148:269,1,170,6|8,0:0|0:0,0:0:0:0:
52,212,229065,1,0,0:0:0:0:
52,212,229142,1,0,0:0:0:0:
52,212,229218,2,0,L|44:116,1,85,2|0,0:0|2:0,0:0:0:0:
132,56,229526,2,0,L|140:152,1,85,8|0,0:0|2:0,0:0:0:0:
256,191,229834,6,0,P|293:172|335:175,1,85,6|0,0:0|2:0,0:0:0:0:
472,220,230142,2,0,P|434:239|392:236,1,85,8|0,0:0|0:0,0:0:0:0:
335,175,230372,1,0,0:0:0:0:
335,175,230449,2,0,L|328:88,1,85,2|0,0:0|2:0,0:0:0:0:
240,24,230757,2,0,L|247:111,1,85,8|0,0:0|2:0,0:0:0:0:
308,248,231065,6,0,P|349:251|387:232,1,85,6|0,0:0|2:0,0:0:0:0:
512,148,231372,2,0,P|470:144|432:163,1,85,8|0,0:0|0:0,0:0:0:0:
387,232,231603,1,0,0:0:0:0:
387,232,231680,2,0,L|388:328,1,85,2|0,0:0|0:0,0:0:0:0:
288,364,231988,2,0,L|287:268,1,85,8|0,0:0|2:0,0:0:0:0:
256,80,232295,5,6,0:0:0:0:
256,80,232449,1,0,0:0:0:0:
208,192,232603,2,0,P|164:200|120:192,1,85,12|0,0:0|0:0,0:0:0:0:
304,192,232911,2,0,P|348:184|392:192,1,85,2|0,0:0|2:0,0:0:0:0:
256,264,233218,1,8,0:0:0:0:
306,27,233372,5,0,0:0:0:0:
306,27,233449,1,0,0:0:0:0:
306,27,233526,1,12,0:0:0:0:
253,135,233680,1,8,0:0:0:0:
184,36,233834,1,8,0:0:0:0:
197,205,233988,5,12,0:0:0:0:
266,305,234142,1,8,0:0:0:0:
319,196,234296,1,8,0:0:0:0:
171,127,234449,5,12,0:0:0:0:
50,135,234603,1,8,0:0:0:0:
119,235,234757,1,8,0:0:0:0:
253,135,234911,5,12,0:0:0:0:
306,27,235065,1,8,0:0:0:0:
184,36,235219,1,8,0:0:0:0:
340,114,235372,5,12,0:0:0:0:
410,214,235526,1,8,0:0:0:0:
288,222,235680,1,8,0:0:0:0:
437,135,235834,5,8,0:0:0:0:
437,135,235911,1,8,0:0:0:0:
437,135,235988,1,12,0:0:0:0:
493,18,236142,1,8,0:0:0:0:
362,28,236296,1,8,0:0:0:0:
278,149,236449,5,12,0:0:0:0:
278,149,236603,2,0,P|234:161|194:149,2,85,8|8|8,0:0|0:0|0:0,0:0:0:0:
437,135,237065,6,0,B|484:213|408:217|453:297,1,170,12|0,0:0|2:0,0:0:0:0:
362,378,237526,1,6,0:0:0:0:
125,162,237834,1,8,3:0:0:0:
334,112,237988,1,8,0:0:0:0:
334,112,238065,1,8,0:0:0:0:
334,112,238142,1,8,0:0:0:0:
78,7,238295,5,6,0:0:0:0:
256,192,238372,12,0,240603,0:0:0:0:
89,161,240911,6,0,B|149:129|179:24|179:24|179:83|211:129|211:129|119:283|256:373|256:373|393:283|301:129|301:129|333:24|333:24|363:129|424:161,1,1114.75409836066,2|0,0:0|0:0,0:0:0:0:
