osu file format v14

[General]
AudioFilename: New World.mp3
AudioLeadIn: 0
PreviewTime: 179372
Countdown: 0
SampleSet: Normal
StackLeniency: 0.7
Mode: 0
LetterboxInBreaks: 0
WidescreenStoryboard: 1

[Editor]
Bookmarks: 2141,21834,41526,51372,56295,61218,80911,90757,100603,110449,120295,125218,130142,149834,159680,166911,179372,189218,194142,199065,218757,233218,247680
DistanceSpacing: 1
BeatDivisor: 4
GridSize: 4
TimelineZoom: 1.6

[Metadata]
Title:New World
TitleUnicode:New World
Artist:FELT
ArtistUnicode:FELT
Creator:Natsu
Version:Illusion
Source:東方Project
Tags:world trick ネクロファンタジア yukari yakumo theme Comiket88 Mika 美歌 Maika 舞花 touhou alacat euny luna- necrofantasia NAGI☆ 東方妖々夢 ~ Perfect Cherry Blossom 八雲紫 dark accelerator
BeatmapID:884664
BeatmapSetID:407175

[Difficulty]
HPDrainRate:6.5
CircleSize:4
OverallDifficulty:9
ApproachRate:9.3
SliderMultiplier:1.8
SliderTickRate:1

[Events]
//Background and Video events
0,0,"BG for illusion.jpg",0,0
//Break Periods
2,81111,90203
2,150034,159126
2,179572,188664
//Storyboard Layer 0 (Background)
//Storyboard Layer 1 (Fail)
//Storyboard Layer 2 (Pass)
//Storyboard Layer 3 (Foreground)
//Storyboard Sound Samples

[TimingPoints]
2142,307.692307692308,4,1,1,80,1,0
2295,-100,4,1,1,40,0,0
3833,-100,4,1,2,60,0,0
3988,-100,4,1,1,40,0,0
6295,-100,4,1,2,60,0,0
6449,-100,4,1,1,40,0,0
8756,-100,4,1,2,60,0,0
8911,-100,4,1,1,40,0,0
11218,-100,4,1,2,60,0,0
11372,-100,4,1,1,40,0,0
11987,-100,4,1,1,55,0,0
12449,-100,4,1,2,75,0,0
12603,-100,4,1,1,55,0,0
12911,-100,4,1,2,75,0,0
13065,-100,4,1,1,55,0,0
13372,-100,4,1,2,75,0,0
13526,-100,4,1,1,55,0,0
14449,-100,4,1,2,75,0,0
14603,-100,4,1,1,55,0,0
14911,-100,4,1,2,75,0,0
15065,-100,4,1,1,55,0,0
15372,-100,4,1,2,75,0,0
15526,-100,4,1,1,55,0,0
15834,-100,4,1,2,55,0,0
16603,-100,4,1,2,75,0,0
16757,-100,4,1,2,55,0,0
16911,-100,4,1,2,75,0,0
17065,-100,4,1,2,55,0,0
17372,-100,4,1,2,75,0,0
17526,-100,4,1,1,55,0,0
17834,-100,4,1,2,75,0,0
17988,-100,4,1,1,55,0,0
18295,-100,4,1,2,75,0,0
18449,-100,4,1,1,55,0,0
21834,-100,4,1,3,75,0,0
21910,-100,4,1,3,50,0,0
26757,-100,4,1,3,60,0,0
26834,-100,4,1,3,55,0,0
28603,-100,4,1,3,50,0,0
30911,-100,4,1,2,60,0,0
30988,-100,4,1,3,50,0,0
31065,-100,4,1,2,60,0,0
31142,-100,4,1,3,50,0,0
31372,-100,4,1,2,60,0,0
31449,-100,4,1,3,50,0,0
31526,-100,4,1,2,60,0,0
31757,-100,4,1,3,50,0,0
32142,-100,4,1,2,60,0,0
32218,-100,4,1,3,50,0,0
32603,-100,4,1,2,60,0,0
32680,-100,4,1,3,50,0,0
33065,-100,4,1,2,60,0,0
33142,-100,4,1,3,50,0,0
33372,-100,4,1,2,60,0,0
33449,-100,4,1,3,50,0,0
33987,-100,4,1,2,60,0,0
34218,-100,4,1,3,50,0,0
34603,-100,4,1,2,60,0,0
34680,-100,4,1,3,50,0,0
35065,-100,4,1,2,60,0,0
35142,-100,4,1,3,50,0,0
35218,-100,4,1,2,60,0,0
35295,-100,4,1,3,50,0,0
36142,-100,4,1,2,60,0,0
36372,-100,4,1,3,50,0,0
36449,-100,4,1,2,60,0,0
36680,-100,4,1,3,50,0,0
37065,-100,4,1,2,60,0,0
37142,-100,4,1,3,50,0,0
37526,-100,4,1,2,60,0,0
37603,-100,4,1,3,50,0,0
37988,-100,4,1,2,60,0,0
38065,-100,4,1,3,50,0,0
39065,-100,4,1,2,60,0,0
39142,-100,4,1,3,50,0,0
39526,-100,4,1,2,60,0,0
39603,-100,4,1,3,50,0,0
39988,-100,4,1,2,60,0,0
40065,-100,4,1,3,50,0,0
40449,-100,4,1,2,60,0,0
40526,-100,4,1,3,40,0,0
41526,-125,4,1,4,60,0,0
41603,-125,4,1,4,80,0,0
51372,-111.111111111111,4,2,1,60,0,0
51526,-111.111111111111,4,2,1,20,0,0
51680,-111.111111111111,4,1,1,60,0,0
51988,-111.111111111111,4,2,1,20,0,0
52295,-111.111111111111,4,1,1,60,0,0
52603,-111.111111111111,4,2,1,60,0,0
52757,-111.111111111111,4,2,1,20,0,0
52911,-111.111111111111,4,1,1,60,0,0
53218,-111.111111111111,4,2,1,60,0,0
53372,-111.111111111111,4,2,1,20,0,0
53526,-111.111111111111,4,1,1,60,0,0
53834,-111.111111111111,4,2,1,60,0,0
53988,-111.111111111111,4,2,1,20,0,0
54142,-111.111111111111,4,1,1,60,0,0
54449,-111.111111111111,4,2,1,60,0,0
54603,-111.111111111111,4,2,1,20,0,0
54757,-111.111111111111,4,1,1,60,0,0
55065,-111.111111111111,4,2,1,60,0,0
55218,-111.111111111111,4,2,1,20,0,0
55373,-111.111111111111,4,1,1,60,0,0
55526,-111.111111111111,4,2,1,40,0,0
55680,-111.111111111111,4,2,1,60,0,0
55834,-111.111111111111,4,2,1,20,0,0
55988,-111.111111111111,4,1,1,60,0,0
56295,-100,4,1,2,60,0,0
56603,-100,4,1,1,50,0,0
56757,-100,4,1,2,60,0,0
57834,-100,4,1,1,50,0,0
58142,-100,4,1,2,60,0,0
58603,-100,4,1,1,50,0,0
59218,-83.3333333333333,4,1,2,60,0,0
59372,-83.3333333333333,4,2,1,20,0,0
59526,-71.4285714285714,4,1,2,60,0,0
59680,-71.4285714285714,4,2,1,20,0,0
59834,-62.5,4,1,2,60,0,0
60142,-62.5,4,2,1,20,0,0
60603,-125,4,2,1,30,0,0
61218,-90.9090909090909,4,1,2,60,0,1
61372,-90.9090909090909,4,1,1,50,0,1
66141,-90.9090909090909,4,1,2,60,0,1
66295,-90.9090909090909,4,1,1,50,0,1
67218,-86.9565217391304,4,1,2,60,0,1
67372,-86.9565217391304,4,1,2,20,0,1
67526,-83.3333333333333,4,1,2,60,0,1
67680,-83.3333333333333,4,1,1,50,0,1
67834,-80,4,1,2,60,0,1
67988,-80,4,1,2,20,0,1
68142,-74.0740740740741,4,1,2,60,0,1
68295,-74.0740740740741,4,1,2,20,0,1
68449,-71.4285714285714,4,1,2,60,0,1
68757,-71.4285714285714,4,1,1,50,0,1
68911,-71.4285714285714,4,1,2,60,0,1
69065,-71.4285714285714,4,1,1,50,0,1
69680,-71.4285714285714,4,1,2,60,0,1
69834,-71.4285714285714,4,1,1,50,0,1
70988,-90.9090909090909,4,1,1,50,0,0
71065,-90.9090909090909,4,1,2,60,0,1
71218,-90.9090909090909,4,1,1,50,0,1
75988,-76.9230769230769,4,1,2,60,0,1
76142,-76.9230769230769,4,1,1,40,0,1
76295,-76.9230769230769,4,1,1,30,0,1
76449,-76.9230769230769,4,1,2,60,0,1
76603,-76.9230769230769,4,1,1,40,0,1
76757,-76.9230769230769,4,1,1,30,0,1
76911,-76.9230769230769,4,1,2,60,0,1
77065,-76.9230769230769,4,1,1,40,0,1
77218,-76.9230769230769,4,1,1,30,0,1
77372,-76.9230769230769,4,1,2,60,0,1
77526,-76.9230769230769,4,1,1,40,0,1
77680,-76.9230769230769,4,1,1,30,0,1
77834,-76.9230769230769,4,1,2,60,0,1
77988,-76.9230769230769,4,1,1,40,0,1
78142,-76.9230769230769,4,1,2,60,0,1
78295,-76.9230769230769,4,1,1,40,0,1
78449,-76.9230769230769,4,1,2,60,0,1
78603,-76.9230769230769,4,1,1,50,0,1
79526,-90.9090909090909,4,1,2,60,0,1
79603,-90.9090909090909,4,1,1,50,0,1
80911,-90.9090909090909,4,1,2,50,0,0
90757,-111.111111111111,4,1,2,60,0,0
90911,-111.111111111111,4,1,1,40,0,0
95218,-111.111111111111,4,1,2,40,0,0
95372,-111.111111111111,4,1,1,40,0,0
95680,-111.111111111111,4,1,2,40,0,0
95834,-111.111111111111,4,1,1,40,0,0
99372,-111.111111111111,4,1,2,40,0,0
100603,-99.9999999999999,4,1,2,60,0,0
100757,-99.9999999999999,4,1,1,50,0,0
101065,-99.9999999999999,4,1,2,60,0,0
101218,-99.9999999999999,4,1,1,50,0,0
101526,-99.9999999999999,4,1,2,60,0,0
101680,-99.9999999999999,4,1,1,50,0,0
103065,-99.9999999999999,4,1,2,60,0,0
103218,-99.9999999999999,4,1,1,50,0,0
103526,-99.9999999999999,4,1,2,60,0,0
103680,-99.9999999999999,4,1,1,50,0,0
103988,-99.9999999999999,4,1,2,60,0,0
104142,-99.9999999999999,4,1,1,50,0,0
105526,-99.9999999999999,4,1,2,60,0,0
105680,-99.9999999999999,4,1,1,50,0,0
105988,-99.9999999999999,4,1,2,60,0,0
106142,-99.9999999999999,4,1,1,50,0,0
106449,-99.9999999999999,4,1,2,60,0,0
106603,-99.9999999999999,4,1,1,50,0,0
106911,-99.9999999999999,4,1,2,60,0,0
107065,-99.9999999999999,4,1,1,50,0,0
107988,-99.9999999999999,4,1,2,60,0,0
108142,-99.9999999999999,4,1,1,50,0,0
108449,-99.9999999999999,4,1,2,60,0,0
108603,-99.9999999999999,4,1,1,50,0,0
108911,-99.9999999999999,4,1,2,60,0,0
109065,-99.9999999999999,4,1,1,50,0,0
109680,-99.9999999999999,4,1,1,30,0,0
110449,-125,4,1,4,60,0,0
110757,-125,4,1,4,80,0,0
120295,-111.111111111111,4,2,1,60,0,0
120449,-111.111111111111,4,2,1,20,0,0
120603,-111.111111111111,4,1,1,60,0,0
120911,-111.111111111111,4,2,1,60,0,0
121065,-111.111111111111,4,2,1,20,0,0
121218,-111.111111111111,4,1,1,60,0,0
121526,-111.111111111111,4,2,1,60,0,0
121680,-111.111111111111,4,2,1,20,0,0
121834,-111.111111111111,4,1,1,60,0,0
122142,-111.111111111111,4,2,1,60,0,0
122295,-111.111111111111,4,2,1,20,0,0
122449,-111.111111111111,4,1,1,60,0,0
122757,-111.111111111111,4,2,1,60,0,0
122911,-111.111111111111,4,2,1,20,0,0
123065,-111.111111111111,4,1,1,60,0,0
123372,-111.111111111111,4,2,1,60,0,0
123526,-111.111111111111,4,2,1,20,0,0
123680,-111.111111111111,4,1,1,60,0,0
123988,-111.111111111111,4,2,1,60,0,0
124142,-111.111111111111,4,2,1,20,0,0
124295,-111.111111111111,4,1,1,60,0,0
124449,-111.111111111111,4,2,1,40,0,0
124603,-111.111111111111,4,2,1,60,0,0
124757,-111.111111111111,4,2,1,20,0,0
124911,-111.111111111111,4,1,1,60,0,0
125218,-100,4,1,2,60,0,0
125372,-100,4,1,1,50,0,0
125680,-100,4,1,2,60,0,0
125834,-100,4,1,1,50,0,0
126141,-100,4,1,2,60,0,0
126295,-100,4,1,1,50,0,0
126603,-100,4,1,2,60,0,0
126757,-100,4,1,1,50,0,0
128141,-83.3333333333333,4,1,2,60,0,0
128295,-83.3333333333333,4,2,1,20,0,0
128449,-71.4285714285714,4,1,2,60,0,0
128603,-71.4285714285714,4,2,1,20,0,0
128757,-62.5,4,1,2,60,0,0
129065,-62.5,4,2,1,20,0,0
129526,-125,4,2,1,30,0,0
130142,-90.9090909090909,4,1,2,60,0,1
130295,-90.9090909090909,4,1,1,50,0,1
135065,-90.9090909090909,4,1,2,60,0,1
135218,-90.9090909090909,4,1,1,50,0,1
136141,-86.9565217391304,4,1,2,60,0,1
136295,-86.9565217391304,4,2,1,20,0,1
136449,-83.3333333333333,4,1,2,60,0,1
136603,-83.3333333333333,4,1,1,50,0,1
136757,-80,4,1,2,60,0,1
136911,-80,4,2,1,20,0,1
137065,-74.0740740740741,4,1,2,60,0,1
137218,-74.0740740740741,4,2,1,20,0,1
137372,-71.4285714285714,4,1,2,60,0,1
137680,-71.4285714285714,4,1,1,50,0,1
137834,-71.4285714285714,4,1,2,60,0,1
137988,-71.4285714285714,4,1,1,50,0,1
138603,-71.4285714285714,4,1,2,60,0,1
138757,-71.4285714285714,4,1,1,50,0,1
139911,-90.9090909090909,4,1,1,50,0,0
139988,-90.9090909090909,4,1,2,60,0,1
140142,-90.9090909090909,4,1,1,50,0,1
144911,-76.9230769230769,4,1,2,60,0,1
145065,-76.9230769230769,4,1,1,40,0,1
145218,-76.9230769230769,4,1,1,30,0,1
145372,-76.9230769230769,4,1,2,60,0,1
145526,-76.9230769230769,4,1,1,40,0,1
145680,-76.9230769230769,4,1,1,30,0,1
145834,-76.9230769230769,4,1,2,60,0,1
145988,-76.9230769230769,4,1,1,40,0,1
146142,-76.9230769230769,4,1,1,30,0,1
146295,-76.9230769230769,4,1,2,60,0,1
146449,-76.9230769230769,4,1,1,40,0,1
146603,-76.9230769230769,4,1,1,30,0,1
146757,-76.9230769230769,4,1,2,60,0,1
146911,-76.9230769230769,4,1,1,40,0,1
147065,-76.9230769230769,4,1,2,60,0,1
147218,-76.9230769230769,4,1,1,50,0,1
147372,-76.9230769230769,4,1,2,60,0,1
147526,-76.9230769230769,4,1,1,50,0,1
148449,-90.9090909090909,4,1,2,60,0,1
148526,-90.9090909090909,4,1,1,50,0,1
149834,-90.9090909090909,4,1,2,60,0,0
159680,-100,4,1,2,60,0,0
159834,-100,4,1,1,50,0,0
160142,-100,4,1,2,60,0,0
160295,-100,4,1,1,50,0,0
160603,-100,4,1,2,60,0,0
160757,-100,4,1,1,50,0,0
162142,-100,4,1,2,60,0,0
162296,-100,4,1,1,50,0,0
162603,-100,4,1,2,60,0,0
162757,-100,4,1,1,50,0,0
163065,-100,4,1,2,60,0,0
163218,-100,4,1,1,50,0,0
164295,-100,4,1,2,60,0,0
164449,-100,4,1,1,50,0,0
164603,-100,4,1,2,60,0,0
164757,-100,4,1,1,50,0,0
165065,-100,4,1,2,60,0,0
165218,-100,4,1,1,50,0,0
165526,-100,4,1,2,60,0,0
165680,-100,4,1,1,50,0,0
165834,-100,4,1,1,40,0,0
166449,-100,4,1,1,50,0,0
166911,-90.9090909090909,4,1,2,70,0,0
167065,-90.9090909090909,4,1,1,50,0,0
167372,-90.9090909090909,4,1,2,50,0,0
171988,-90.9090909090909,4,1,2,70,0,0
172142,-90.9090909090909,4,1,2,50,0,0
172911,-90.9090909090909,4,1,2,60,0,0
173218,-90.9090909090909,4,1,2,40,0,0
173372,-90.9090909090909,4,1,2,60,0,0
173834,-90.9090909090909,4,1,2,40,0,0
173988,-90.9090909090909,4,1,2,50,0,0
174757,-90.9090909090909,4,1,2,60,0,0
174911,-90.9090909090909,4,1,2,50,0,0
175526,-90.9090909090909,4,1,2,60,0,0
175680,-90.9090909090909,4,1,2,50,0,0
176142,-90.9090909090909,4,1,1,50,0,0
176603,-90.9090909090909,4,1,2,50,0,0
176757,-125,4,1,2,60,0,0
176834,-125,4,1,2,15,0,0
189218,-111.111111111111,4,1,1,50,0,0
194142,-76.9230769230769,4,1,2,60,0,0
194295,-76.9230769230769,4,1,1,40,0,0
194449,-76.9230769230769,4,1,1,30,0,0
194603,-76.9230769230769,4,1,2,60,0,0
194757,-76.9230769230769,4,1,1,40,0,0
194911,-76.9230769230769,4,1,1,30,0,0
195065,-76.9230769230769,4,1,2,60,0,0
195218,-76.9230769230769,4,1,1,40,0,0
195372,-76.9230769230769,4,1,1,30,0,0
195526,-76.9230769230769,4,1,2,60,0,0
195680,-76.9230769230769,4,1,1,40,0,0
195834,-76.9230769230769,4,1,1,30,0,0
195988,-76.9230769230769,4,1,1,50,0,0
196142,-76.9230769230769,4,1,1,30,0,0
196295,-76.9230769230769,4,1,2,60,0,0
196449,-90.9090909090909,4,1,1,50,0,0
196603,-90.9090909090909,4,1,2,60,0,0
196757,-90.9090909090909,4,1,1,50,0,0
197065,-83.3333333333333,4,1,2,60,0,0
197218,-83.3333333333333,4,2,1,20,0,0
197372,-71.4285714285714,4,1,2,60,0,0
197526,-71.4285714285714,4,2,1,20,0,0
197680,-62.5,4,1,2,60,0,0
197988,-62.5,4,1,1,30,0,0
198142,-62.5,4,1,2,60,0,0
198449,-111.111111111111,4,2,1,30,0,0
199065,-90.9090909090909,4,1,2,60,0,1
199218,-90.9090909090909,4,1,1,50,0,1
203988,-90.9090909090909,4,1,2,60,0,1
204142,-90.9090909090909,4,1,1,50,0,1
205065,-86.9565217391304,4,1,2,60,0,1
205218,-86.9565217391304,4,2,1,20,0,1
205372,-83.3333333333333,4,1,2,60,0,1
205526,-83.3333333333333,4,1,1,40,0,1
205680,-80,4,1,2,60,0,1
205834,-80,4,2,1,20,0,1
205989,-74.0740740740741,4,1,2,60,0,1
206142,-74.0740740740741,4,2,1,40,0,1
206296,-71.4285714285714,4,1,2,60,0,1
206603,-71.4285714285714,4,1,1,50,0,1
206758,-71.4285714285714,4,1,2,60,0,1
206911,-71.4285714285714,4,1,1,50,0,1
207527,-90.9090909090909,4,1,2,60,0,1
207681,-90.9090909090909,4,1,1,40,0,1
207834,-90.9090909090909,4,1,1,50,0,1
208834,-90.9090909090909,4,1,1,50,0,0
208911,-90.9090909090909,4,1,2,60,0,1
209065,-90.9090909090909,4,1,1,50,0,1
213835,-76.9230769230769,4,1,2,60,0,1
213988,-76.9230769230769,4,1,1,40,0,1
214142,-76.9230769230769,4,1,1,30,0,1
214295,-76.9230769230769,4,1,2,60,0,1
214449,-76.9230769230769,4,1,1,40,0,1
214603,-76.9230769230769,4,1,1,30,0,1
214757,-76.9230769230769,4,1,2,60,0,1
214911,-76.9230769230769,4,1,1,40,0,1
215065,-76.9230769230769,4,1,1,30,0,1
215218,-76.9230769230769,4,1,2,60,0,1
215372,-76.9230769230769,4,1,1,40,0,1
215526,-76.9230769230769,4,1,1,30,0,1
215680,-76.9230769230769,4,1,2,60,0,1
215834,-76.9230769230769,4,1,1,40,0,1
215988,-76.9230769230769,4,1,2,60,0,1
216142,-76.9230769230769,4,1,1,50,0,1
216295,-76.9230769230769,4,1,2,60,0,1
216449,-76.9230769230769,4,1,1,50,0,1
216758,-76.9230769230769,4,1,2,60,0,1
216911,-76.9230769230769,4,1,1,50,0,1
217372,-90.9090909090909,4,1,2,60,0,1
217526,-90.9090909090909,4,1,1,50,0,1
218757,-100,4,1,2,60,0,0
218911,-100,4,1,1,45,0,0
222448,-100,4,1,2,60,0,0
222603,-100,4,1,1,45,0,0
223680,-100,4,1,2,60,0,0
223834,-100,4,1,1,45,0,0
224757,-90.9090909090909,4,1,2,60,0,0
224911,-90.9090909090909,4,1,1,40,0,0
225065,-90.9090909090909,4,1,2,60,0,0
225372,-83.3333333333333,4,1,2,60,0,0
225526,-83.3333333333333,4,1,1,40,0,0
225680,-83.3333333333333,4,1,2,60,0,0
225988,-76.9230769230769,4,1,2,60,0,0
226142,-76.9230769230769,4,1,1,40,0,0
226296,-76.9230769230769,4,1,2,60,0,0
226603,-100,4,1,1,50,0,0
227218,-71.4285714285714,4,1,2,60,0,0
227372,-71.4285714285714,4,1,1,50,0,0
227834,-66.6666666666667,4,1,1,50,0,0
228603,-100,4,1,2,60,0,0
228911,-100,4,1,1,50,0,0
232603,-100,4,1,2,60,0,0
232757,-100,4,1,1,50,0,0
233526,-100,4,1,2,60,0,0
233680,-100,4,1,1,50,0,0
233988,-100,4,1,2,60,0,0
234142,-100,4,1,1,50,0,0
234449,-100,4,1,2,60,0,0
234603,-100,4,1,1,50,0,0
234911,-100,4,1,2,60,0,0
235065,-100,4,1,1,50,0,0
235372,-100,4,1,2,60,0,0
235526,-100,4,1,1,50,0,0
235680,-100,4,1,2,60,0,0
235834,-100,4,1,1,50,0,0
235988,-100,4,1,2,60,0,0
236142,-100,4,1,1,50,0,0
236449,-100,4,1,2,60,0,0
236603,-100,4,1,1,50,0,0
237065,-100,4,1,2,60,0,0
237372,-100,4,1,1,30,0,0
237834,-100,4,1,1,50,0,0
238295,-142.857142857143,4,1,2,60,0,0
238372,-142.857142857143,4,2,1,15,0,0
240911,-305,4,2,1,30,0,0
240988,-305,4,2,1,10,0,0

[Colours]
Combo1 : 98,0,196
Combo2 : 217,179,255
Combo3 : 176,98,255

[HitObjects]
256,340,2142,5,6,0:0:0:0:
300,260,2295,1,0,0:0:0:0:
212,212,2449,1,8,0:0:0:0:
300,148,2603,1,0,0:0:0:0:
200,104,2757,2,0,L|110:94,1,90,2|0,0:0|2:0,0:0:0:0:
212,212,3065,1,10,0:0:0:0:
300,148,3218,1,0,0:0:0:0:
204,108,3372,5,2,0:0:0:0:
204,108,3526,1,4,0:0:0:0:
300,148,3680,1,8,0:0:0:0:
212,212,3833,1,12,0:0:0:0:
312,256,3988,2,0,P|325:298|319:342,1,90,2|0,0:0|2:0,0:0:0:0:
212,212,4295,1,8,0:0:0:0:
300,148,4449,1,0,0:0:0:0:
244,300,4603,6,0,L|140:300,1,90,6|0,0:0|2:0,0:0:0:0:
24,356,4911,1,8,0:0:0:0:
154,300,5065,1,4,0:0:0:0:
24,284,5218,1,0,0:0:0:0:
154,228,5372,1,0,0:0:0:0:
24,208,5526,1,10,0:0:0:0:
158,152,5680,1,0,0:0:0:0:
158,152,5834,5,2,0:0:0:0:
256,260,5988,1,4,0:0:0:0:
352,192,6142,1,8,0:0:0:0:
250,84,6295,1,12,0:0:0:0:
352,192,6449,2,0,L|438:168,1,90,2|0,0:0|2:0,0:0:0:0:
488,68,6757,1,10,0:0:0:0:
488,68,6911,1,0,0:0:0:0:
488,232,7065,5,6,0:0:0:0:
412,96,7218,1,0,0:0:0:0:
412,260,7372,1,8,0:0:0:0:
412,260,7526,2,0,L|416:360,1,90,2|0,0:0|0:0,0:0:0:0:
488,232,7834,5,2,0:0:0:0:
352,192,7988,1,8,0:0:0:0:
448,92,8142,2,0,B|520:80|520:80|500:108,1,90,2|0,0:0|0:0,0:0:0:0:
352,192,8449,5,4,0:0:0:0:
312,60,8602,1,8,0:0:0:0:
448,92,8756,1,12,0:0:0:0:
276,144,8911,2,0,B|236:168|200:152|200:152|224:136,1,90,10|0,0:0|2:0,0:0:0:0:
448,92,9218,2,0,B|488:68|524:84|524:84|500:100,1,90,8|0,0:0|2:0,0:0:0:0:
368,116,9526,5,6,0:0:0:0:
368,116,9679,1,0,0:0:0:0:
272,216,9833,1,8,0:0:0:0:
272,216,9988,2,0,P|264:259|273:303,1,90,4|0,0:0|0:0,0:0:0:0:
372,120,10295,1,0,0:0:0:0:
372,120,10449,2,0,P|379:76|370:32,1,90,8|0,0:0|2:0,0:0:0:0:
145,28,10757,5,2,0:0:0:0:
145,28,10911,2,0,P|135:71|143:115,1,90,4|8,0:0|0:0,0:0:0:0:
256,180,11218,1,12,0:0:0:0:
108,268,11372,2,0,B|52:304|-12:264|-12:264|32:236,1,180,10|8,0:0|0:0,0:0:0:0:
208,176,11834,1,0,0:0:0:0:
250,164,11910,1,0,0:0:0:0:
293,175,11987,5,6,0:0:0:0:
340,324,12142,1,0,0:0:0:0:
256,244,12295,1,8,0:0:0:0:
408,244,12449,2,0,L|512:244,1,90,12|0,0:0|0:0,0:0:0:0:
293,175,12757,5,0,0:0:0:0:
340,324,12911,1,12,0:0:0:0:
256,244,13065,2,0,L|164:244,1,90,2|0,0:0|0:0,0:0:0:0:
40,308,13372,5,12,0:0:0:0:
124,184,13526,1,8,0:0:0:0:
16,240,13680,1,8,3:0:0:0:
166,244,13834,1,8,0:0:0:0:
40,308,13988,5,2,0:0:0:0:
156,376,14142,1,8,3:0:0:0:
166,244,14295,1,0,0:0:0:0:
185,232,14372,1,0,0:0:0:0:
204,221,14449,5,12,0:0:0:0:
16,240,14603,1,0,0:0:0:0:
124,184,14757,1,8,0:0:0:0:
40,308,14911,2,0,B|48:352|48:352|88:332,1,90,12|0,0:0|0:0,0:0:0:0:
124,184,15218,5,0,0:0:0:0:
92,60,15372,1,12,0:0:0:0:
0,144,15526,1,0,0:0:0:0:
168,112,15680,5,2,0:0:0:0:
168,112,15834,2,0,L|264:112,1,90,8|0,0:0|0:0,0:0:0:0:
402,138,16142,1,8,0:0:0:0:
300,32,16295,1,10,0:0:0:0:
320,177,16449,1,8,0:0:0:0:
389,48,16603,1,12,0:0:0:0:
258,112,16757,1,0,0:0:0:0:
258,112,16834,1,0,0:0:0:0:
258,112,16911,5,12,0:0:0:0:
388,220,17065,1,0,0:0:0:0:
335,104,17219,1,0,0:0:0:0:
245,192,17372,2,0,L|144:192,1,90,12|0,0:0|0:0,0:0:0:0:
80,288,17680,1,2,0:0:0:0:
200,304,17834,1,12,0:0:0:0:
155,192,17988,2,0,P|148:148|160:100,1,90,2|0,0:0|0:0,0:0:0:0:
384,128,18295,5,12,0:0:0:0:
319,214,18449,1,8,0:0:0:0:
233,150,18603,1,0,0:0:0:0:
296,63,18757,2,0,B|320:24|320:24|352:72,1,90,2|0,0:0|2:0,0:0:0:0:
319,214,19065,1,0,0:0:0:0:
241,158,19218,1,8,0:0:0:0:
241,158,19295,1,8,0:0:0:0:
241,158,19372,5,10,0:0:0:0:
393,128,19526,2,0,L|505:116,1,90,8|0,0:0|2:0,0:0:0:0:
329,180,19834,2,0,P|313:138|320:94,1,90,8|0,0:0|2:0,0:0:0:0:
380,248,20142,2,0,P|338:263|294:256,1,90,2|0,0:0|2:0,0:0:0:0:
164,192,20449,6,0,P|94:143|26:193,1,180,10|0,0:0|0:0,0:0:0:0:
100,224,20834,1,0,0:0:0:0:
100,224,20911,2,0,L|96:36,1,180,2|0,0:0|0:0,0:0:0:0:
216,120,21372,1,8,0:0:0:0:
296,40,21526,1,8,0:0:0:0:
184,8,21680,1,8,0:0:0:0:
164,192,21834,5,6,0:0:0:0:
205,208,21910,1,0,0:0:0:0:
249,204,21987,1,0,0:0:0:0:
286,180,22064,1,0,0:0:0:0:
308,141,22141,1,8,0:0:0:0:
309,96,22218,1,0,0:0:0:0:
289,55,22295,1,0,0:0:0:0:
252,29,22372,1,0,0:0:0:0:
208,23,22449,5,2,0:0:0:0:
166,38,22526,1,0,0:0:0:0:
137,71,22603,1,0,0:0:0:0:
123,113,22679,1,0,0:0:0:0:
86,138,22756,1,8,0:0:0:0:
42,136,22833,1,0,0:0:0:0:
13,101,22910,1,0,0:0:0:0:
7,56,22987,1,0,0:0:0:0:
28,15,23065,6,0,L|92:4,3,45,2|0|0|0,0:0|0:0|0:0|0:0,0:0:0:0:
144,62,23372,2,0,L|208:51,3,45,8|0|0|0,0:0|0:0|0:0|0:0,0:0:0:0:
256,128,23680,5,2,0:0:0:0:
283,163,23756,1,0,0:0:0:0:
296,206,23833,1,0,0:0:0:0:
291,250,23910,1,0,0:0:0:0:
280,293,23987,1,8,0:0:0:0:
248,326,24065,1,0,0:0:0:0:
209,348,24141,1,0,0:0:0:0:
164,353,24218,1,0,0:0:0:0:
125,332,24295,5,2,0:0:0:0:
103,293,24372,1,0,0:0:0:0:
106,249,24449,1,0,0:0:0:0:
133,214,24526,1,0,0:0:0:0:
175,198,24603,1,8,0:0:0:0:
219,207,24680,1,0,0:0:0:0:
261,221,24756,1,0,0:0:0:0:
306,218,24833,1,0,0:0:0:0:
348,198,24911,6,0,L|373:154,3,45,2|0|0|0,0:0|0:0|0:0|0:0,0:0:0:0:
297,54,25218,2,0,L|274:93,3,45,8|0|0|0,0:0|0:0|0:0|0:0,0:0:0:0:
167,195,25526,5,2,0:0:0:0:
124,212,25603,1,0,0:0:0:0:
81,195,25680,1,0,0:0:0:0:
63,151,25757,1,0,0:0:0:0:
81,108,25834,1,8,0:0:0:0:
124,91,25911,1,0,0:0:0:0:
167,108,25988,1,0,0:0:0:0:
185,152,26065,1,0,0:0:0:0:
167,195,26142,5,2,0:0:0:0:
150,152,26218,1,0,0:0:0:0:
167,109,26295,1,0,0:0:0:0:
211,91,26372,1,0,0:0:0:0:
254,109,26449,1,8,0:0:0:0:
271,152,26526,1,0,0:0:0:0:
254,195,26603,1,0,0:0:0:0:
210,213,26680,1,0,0:0:0:0:
167,195,26757,5,6,0:0:0:0:
210,178,26834,1,0,0:0:0:0:
253,195,26911,1,0,0:0:0:0:
271,239,26988,1,0,0:0:0:0:
253,282,27065,1,8,0:0:0:0:
210,299,27142,1,0,0:0:0:0:
167,282,27218,1,0,0:0:0:0:
149,238,27295,1,0,0:0:0:0:
167,195,27372,5,2,0:0:0:0:
184,238,27449,1,0,0:0:0:0:
167,281,27526,1,0,0:0:0:0:
123,299,27603,1,0,0:0:0:0:
80,281,27680,1,8,0:0:0:0:
63,238,27757,1,0,0:0:0:0:
80,195,27834,1,0,0:0:0:0:
124,177,27911,1,0,0:0:0:0:
168,180,27988,6,0,L|220:176,3,45,2|0|0|0,0:0|0:0|0:0|0:0,0:0:0:0:
272,268,28295,2,0,L|324:264,3,45,8|0|0|0,0:0|0:0|0:0|0:0,0:0:0:0:
444,228,28603,5,2,0:0:0:0:
473,194,28679,1,0,0:0:0:0:
483,151,28756,1,0,0:0:0:0:
473,107,28833,1,0,0:0:0:0:
444,74,28910,1,8,0:0:0:0:
402,58,28987,1,0,0:0:0:0:
356,60,29065,1,0,0:0:0:0:
323,90,29141,1,0,0:0:0:0:
282,109,29218,5,2,0:0:0:0:
238,115,29295,1,0,0:0:0:0:
194,105,29372,1,0,0:0:0:0:
166,69,29449,1,0,0:0:0:0:
186,28,29526,1,8,0:0:0:0:
228,13,29603,1,0,0:0:0:0:
264,39,29680,1,0,0:0:0:0:
270,84,29757,1,0,0:0:0:0:
263,128,29834,6,0,L|256:183,3,45,2|0|0|0,0:0|0:0|0:0|0:0,0:0:0:0:
344,263,30142,2,0,L|336:317,3,45,8|0|0|0,0:0|0:0|0:0|0:0,0:0:0:0:
228,364,30449,5,2,0:0:0:0:
185,378,30525,1,0,0:0:0:0:
141,376,30602,1,0,0:0:0:0:
101,356,30679,1,0,0:0:0:0:
72,322,30756,1,8,0:0:0:0:
58,279,30833,1,0,0:0:0:0:
63,233,30911,6,0,L|77:178,1,45,8|0,0:0|0:0,0:0:0:0:
217,146,31065,2,0,L|203:201,1,45,8|0,0:0|0:0,0:0:0:0:
317,270,31218,1,0,0:0:0:0:
317,270,31295,1,0,0:0:0:0:
317,270,31372,2,0,L|330:214,1,45,8|0,0:0|0:0,0:0:0:0:
444,128,31526,5,8,0:0:0:0:
444,128,31603,1,8,0:0:0:0:
444,128,31680,2,0,L|432:192,1,45,14|0,0:0|0:0,0:0:0:0:
464,288,31834,2,0,L|452:332,1,45,8|0,0:0|0:0,0:0:0:0:
305,315,31988,1,8,0:0:0:0:
305,315,32065,1,0,0:0:0:0:
305,315,32142,2,0,L|318:259,1,45,12|0,0:0|0:0,0:0:0:0:
292,152,32295,5,2,0:0:0:0:
263,117,32371,1,0,0:0:0:0:
222,99,32448,1,8,0:0:0:0:
177,101,32526,1,0,0:0:0:0:
136,120,32603,2,0,L|118:183,1,45,12|0,0:0|0:0,0:0:0:0:
138,327,32757,5,2,0:0:0:0:
167,362,32833,1,0,0:0:0:0:
208,380,32910,1,2,0:0:0:0:
253,378,32987,1,0,0:0:0:0:
290,352,33065,2,0,L|308:289,1,45,8|0,0:0|0:0,0:0:0:0:
240,188,33218,1,8,0:0:0:0:
240,188,33295,1,0,0:0:0:0:
240,188,33372,2,0,L|222:251,1,45,8|0,3:0|0:0,0:0:0:0:
336,168,33526,5,2,0:0:0:0:
317,127,33602,1,0,0:0:0:0:
283,98,33679,1,0,0:0:0:0:
239,89,33756,1,0,0:0:0:0:
193,91,33834,1,8,0:0:0:0:
159,120,33911,1,0,0:0:0:0:
122,144,33987,1,8,0:0:0:0:
77,145,34064,1,8,0:0:0:0:
38,120,34142,2,0,L|28:62,1,45,12|0,0:0|0:0,0:0:0:0:
196,99,34295,5,2,0:0:0:0:
231,128,34371,1,0,0:0:0:0:
249,169,34448,1,8,0:0:0:0:
247,214,34526,1,0,0:0:0:0:
226,253,34603,2,0,L|163:271,1,45,8|0,0:0|0:0,0:0:0:0:
73,284,34757,5,2,0:0:0:0:
38,255,34833,1,0,0:0:0:0:
20,214,34910,1,8,0:0:0:0:
22,169,34987,1,0,0:0:0:0:
43,129,35065,2,0,L|106:111,1,45,8|0,0:0|0:0,0:0:0:0:
205,181,35218,2,0,L|248:168,1,45,4|0,0:0|0:0,0:0:0:0:
387,212,35372,5,2,0:0:0:0:
412,174,35448,1,0,0:0:0:0:
422,129,35526,1,8,3:0:0:0:
402,89,35602,1,0,0:0:0:0:
364,65,35679,1,8,0:0:0:0:
320,64,35756,1,0,0:0:0:0:
280,84,35833,1,0,0:0:0:0:
257,122,35910,1,0,0:0:0:0:
248,167,35988,2,0,L|268:211,1,45,8|0,3:0|0:0,0:0:0:0:
377,275,36142,5,8,0:0:0:0:
382,243,36218,1,8,0:0:0:0:
387,212,36295,2,0,L|368:171,1,45,12|0,0:0|0:0,0:0:0:0:
238,63,36449,1,8,0:0:0:0:
233,95,36525,1,8,0:0:0:0:
228,126,36603,2,0,L|246:166,1,45,12|0,0:0|0:0,0:0:0:0:
377,275,36757,5,8,0:0:0:0:
418,291,36833,1,0,0:0:0:0:
461,282,36910,1,8,0:0:0:0:
493,250,36987,1,0,0:0:0:0:
507,206,37065,2,0,L|497:143,1,45,12|0,0:0|0:0,0:0:0:0:
464,48,37218,5,2,0:0:0:0:
423,32,37294,1,0,0:0:0:0:
380,41,37371,1,0,0:0:0:0:
348,73,37448,1,0,0:0:0:0:
338,117,37526,2,0,L|348:180,1,45,8|0,0:0|0:0,0:0:0:0:
377,275,37680,5,2,0:0:0:0:
362,317,37756,1,0,0:0:0:0:
326,344,37833,1,2,0:0:0:0:
281,348,37910,1,0,0:0:0:0:
240,327,37988,2,0,L|198:278,1,45,8|0,0:0|0:0,0:0:0:0:
144,180,38142,5,8,0:0:0:0:
141,135,38218,1,0,0:0:0:0:
163,96,38295,1,8,3:0:0:0:
202,75,38372,1,0,0:0:0:0:
246,79,38449,2,0,L|292:79,3,45,2|0|0|0,0:0|0:0|0:0|0:0,0:0:0:0:
408,128,38757,5,8,0:0:0:0:
411,173,38833,1,0,0:0:0:0:
388,211,38910,1,8,0:3:0:0:
347,231,38987,1,8,0:3:0:0:
301,226,39065,2,0,L|255:226,1,45,12|0,0:0|0:0,0:0:0:0:
120,276,39218,5,2,0:0:0:0:
117,321,39294,1,0,0:0:0:0:
139,360,39371,1,8,0:0:0:0:
178,381,39448,1,0,0:0:0:0:
223,376,39526,2,0,L|269:376,1,45,8|0,0:0|0:0,0:0:0:0:
350,232,39680,5,2,0:0:0:0:
353,187,39756,1,0,0:0:0:0:
330,148,39833,1,8,0:0:0:0:
291,127,39910,1,0,0:0:0:0:
245,128,39988,2,0,L|199:128,1,45,12|0,0:0|0:0,0:0:0:0:
62,172,40142,5,2,0:0:0:0:
59,217,40218,1,0,0:0:0:0:
75,258,40295,1,2,0:0:0:0:
114,279,40372,1,0,0:0:0:0:
158,275,40449,2,0,L|204:275,1,45,8|0,0:0|0:0,0:0:0:0:
350,232,40603,5,8,0:0:0:0:
372,193,40680,1,0,0:0:0:0:
380,149,40756,1,8,3:0:0:0:
377,104,40833,1,0,0:0:0:0:
361,62,40910,5,2,0:0:0:0:
325,32,40988,1,0,0:0:0:0:
280,38,41064,1,0,0:0:0:0:
255,75,41141,1,0,0:0:0:0:
270,117,41218,5,8,0:0:0:0:
313,127,41295,1,0,0:0:0:0:
356,114,41372,1,0,0:0:0:0:
396,93,41449,1,0,0:0:0:0:
434,69,41526,6,0,P|460:134|442:202,1,144,6|0,0:0|0:0,0:0:0:0:
354,236,41988,1,0,0:0:0:0:
354,236,42142,2,0,L|208:236,1,144
132,307,42603,1,0,0:0:0:0:
132,307,42757,6,0,P|105:241|128:170,1,144
223,140,43218,1,0,0:0:0:0:
223,140,43373,2,0,L|369:140,1,144
432,216,43834,1,0,0:0:0:0:
432,216,43988,6,0,P|412:284|440:352,1,144
256,260,44603,2,0,P|222:253|187:260,2,72
220,356,45065,1,0,0:0:0:0:
220,356,45218,6,0,P|184:363|150:355,2,72
260,263,45680,1,0,0:0:0:0:
260,263,45834,2,0,P|252:227|260:193,2,72
352,232,46296,1,0,0:0:0:0:
352,232,46449,6,0,P|387:239|421:231,2,72
160,156,47065,2,0,P|124:148|90:156,2,72
260,192,47527,1,0,0:0:0:0:
260,192,47680,6,0,L|260:268,2,72
412,64,48295,2,0,L|412:216,1,144
412,308,48757,1,0,0:0:0:0:
412,308,48911,6,0,P|454:266|408:207,1,144
200,192,49526,2,0,P|165:199|130:192,2,72
312,196,49988,1,0,0:0:0:0:
312,196,50142,6,0,P|346:188|381:195,2,72
107,259,50757,2,0,P|87:192|118:129,1,144
256,50,51218,1,0,0:0:0:0:
256,50,51372,6,0,P|264:88|256:130,1,80.9999975280763,2|0,0:0|0:0,0:0:0:0:
133,261,51680,1,8,0:0:0:0:
133,261,51988,6,0,P|164:238|206:228,1,80.9999975280763,2|0,0:0|0:0,0:0:0:0:
377,262,52295,1,8,0:0:0:0:
377,262,52603,6,0,P|339:253|303:229,1,80.9999975280763,2|0,0:0|0:0,0:0:0:0:
133,123,52911,1,8,0:0:0:0:
133,123,53218,6,0,P|170:131|206:155,1,80.9999975280763,2|0,0:0|0:0,0:0:0:0:
256,334,53526,1,8,0:0:0:0:
256,334,53834,6,0,P|248:296|256:254,1,80.9999975280763,2|0,0:0|0:0,0:0:0:0:
379,123,54142,1,8,0:0:0:0:
379,123,54449,6,0,P|347:145|305:155,1,80.9999975280763,2|0,0:0|0:0,0:0:0:0:
133,123,54757,1,8,0:0:0:0:
133,123,55065,6,0,P|170:131|206:155,1,80.9999975280763,2|0,0:0|0:0,0:0:0:0:
263,334,55373,1,8,0:0:0:0:
263,334,55526,1,0,0:0:0:0:
263,334,55680,6,0,P|255:296|263:254,1,80.9999975280763,2|0,0:0|0:0,0:0:0:0:
379,123,55989,1,8,0:0:0:0:
133,123,56142,5,8,0:0:0:0:
117,109,56218,1,8,0:0:0:0:
100,93,56295,1,12,0:0:0:0:
40,200,56449,1,0,0:0:0:0:
152,241,56603,1,8,0:0:0:0:
201,65,56757,5,12,0:0:0:0:
47,45,56911,1,2,0:0:0:0:
108,188,57065,1,0,0:0:0:0:
283,290,57218,5,12,0:0:0:0:
281,90,57372,1,0,0:0:0:0:
108,188,57526,1,2,0:0:0:0:
380,376,57680,5,12,0:0:0:0:
341,169,57834,1,12,0:0:0:0:
180,309,57988,1,0,0:0:0:0:
249,71,58142,5,12,0:0:0:0:
457,149,58295,1,8,3:0:0:0:
283,290,58449,1,8,3:0:0:0:
118,111,58603,5,8,0:0:0:0:
118,111,58680,1,8,0:0:0:0:
118,111,58757,1,10,0:0:0:0:
359,62,58911,1,8,0:0:0:0:
283,290,59065,1,2,0:0:0:0:
117,54,59218,6,0,P|105:98|125:158,1,107.999996704102,12|0,0:0|0:0,0:0:0:0:
343,112,59526,6,0,P|285:88|224:99,1,125.999996154785,12|0,0:0|0:0,0:0:0:0:
119,292,59834,6,0,P|240:233|224:99,1,288,14|0,0:0|0:0,0:0:0:0:
24,192,60603,5,2,0:0:0:0:
36,264,60911,5,2,0:0:0:0:
92,220,61218,6,0,L|191:220,1,99.0000030212403,14|0,0:0|2:0,0:0:0:0:
328,192,61526,1,8,0:0:0:0:
240,40,61680,1,0,0:0:0:0:
240,40,61757,1,0,0:0:0:0:
240,40,61834,2,0,P|225:86|237:134,1,99.0000030212403,6|0,0:0|2:0,0:0:0:0:
325,286,62142,2,0,P|339:239|327:191,1,99.0000030212403,8|0,0:0|2:0,0:0:0:0:
240,40,62449,6,0,L|136:40,1,99.0000030212403,6|0,0:0|2:0,0:0:0:0:
0,40,62757,1,8,0:0:0:0:
138,134,62911,1,0,0:0:0:0:
138,134,62988,1,0,0:0:0:0:
138,134,63065,2,0,P|152:87|140:39,1,99.0000030212403,6|0,0:0|0:0,0:0:0:0:
0,40,63372,2,0,P|-12:87|2:134,1,99.0000030212403,8|0,0:0|2:0,0:0:0:0:
76,300,63680,6,0,P|123:311|171:301,1,99.0000030212403,6|0,0:0|2:0,0:0:0:0:
256,192,63988,1,8,0:0:0:0:
308,64,64142,1,0,0:0:0:0:
308,64,64219,1,0,0:0:0:0:
308,64,64295,2,0,P|260:52|212:62,1,99.0000030212403,6|0,0:0|2:0,0:0:0:0:
160,189,64603,2,0,P|208:201|256:191,1,99.0000030212403,8|0,0:0|2:0,0:0:0:0:
308,64,64911,5,6,0:0:0:0:
380,192,65065,1,0,0:0:0:0:
389,225,65141,1,0,0:0:0:0:
399,258,65218,1,8,0:0:0:0:
256,316,65372,1,0,0:0:0:0:
223,325,65448,1,0,0:0:0:0:
190,335,65525,1,10,0:0:0:0:
132,192,65680,1,0,0:0:0:0:
123,159,65756,1,0,0:0:0:0:
113,126,65833,1,8,0:0:0:0:
256,68,65988,1,0,0:0:0:0:
289,59,66064,1,0,0:0:0:0:
319,49,66141,5,14,0:0:0:0:
475,10,66295,1,0,0:0:0:0:
279,62,66449,1,12,0:0:0:0:
437,21,66603,1,0,0:0:0:0:
242,71,66757,1,2,0:0:0:0:
398,32,66911,1,0,0:0:0:0:
214,80,67065,1,8,0:0:0:0:
425,127,67218,6,0,P|427:82|395:30,1,103.500001974106,12|0,0:0|2:0,0:0:0:0:
368,184,67526,6,0,P|414:208|466:196,1,107.999996704102,12|8,0:0|0:0,0:0:0:0:
340,104,67834,6,0,P|292:136|280:192,1,112.5,12|0,0:0|2:0,0:0:0:0:
425,127,68142,6,0,P|425:74|381:22,1,121.500000463486,12|0,0:0|2:0,0:0:0:0:
201,62,68449,6,0,B|154:100|154:100|250:148|250:80|340:104,1,251.999992309571,12|8,0:0|0:0,0:0:0:0:
428,204,68911,1,12,0:0:0:0:
364,328,69065,1,0,0:0:0:0:
331,337,69141,1,0,0:0:0:0:
298,347,69218,1,8,0:0:0:0:
204,248,69372,1,0,0:0:0:0:
237,239,69448,1,0,0:0:0:0:
270,229,69525,1,8,0:0:0:0:
399,126,69680,5,12,0:0:0:0:
300,220,69834,1,2,0:0:0:0:
256,68,69988,1,0,0:0:0:0:
223,59,70064,1,0,0:0:0:0:
190,49,70141,1,8,0:0:0:0:
132,192,70295,1,0,0:0:0:0:
123,225,70371,1,0,0:0:0:0:
113,258,70448,1,8,0:0:0:0:
256,316,70603,1,0,0:0:0:0:
289,325,70679,1,0,0:0:0:0:
322,335,70756,1,8,0:0:0:0:
380,192,70911,1,0,0:0:0:0:
389,159,70987,1,0,0:0:0:0:
399,126,71065,6,0,P|353:108|305:117,1,99.0000030212403,12|0,0:0|2:0,0:0:0:0:
172,152,71372,1,8,0:0:0:0:
297,210,71526,1,0,0:0:0:0:
297,210,71602,1,0,0:0:0:0:
297,210,71680,2,0,P|314:165|305:117,1,99.0000030212403,2|0,0:0|2:0,0:0:0:0:
179,58,71988,2,0,P|162:103|171:151,1,99.0000030212403,8|0,0:0|2:0,0:0:0:0:
297,210,72296,6,0,B|384:212|384:212|374:219,1,99.0000030212403,12|0,0:0|2:0,0:0:0:0:
256,292,72603,1,8,0:0:0:0:
212,160,72757,1,0,0:0:0:0:
212,160,72834,1,0,0:0:0:0:
212,160,72911,2,0,B|125:162|125:162|134:169,1,99.0000030212403,2|0,0:0|2:0,0:0:0:0:
297,210,73219,2,0,P|308:162|293:115,1,99.0000030212403,8|0,0:0|2:0,0:0:0:0:
134,169,73526,6,0,P|122:216|137:263,1,99.0000030212403,6|0,0:0|2:0,0:0:0:0:
256,336,73834,1,8,0:0:0:0:
144,270,73988,1,0,0:0:0:0:
144,270,74065,1,0,0:0:0:0:
144,270,74142,2,0,P|96:258|49:273,1,99.0000030212403,2|0,0:0|2:0,0:0:0:0:
215,320,74449,2,0,P|229:273|218:225,1,99.0000030212403,8|0,0:0|2:0,0:0:0:0:
312,72,74757,6,0,P|297:118|308:166,1,99.0000030212403,14|0,0:0|2:0,0:0:0:0:
420,252,75065,1,8,0:0:0:0:
316,173,75218,1,0,0:0:0:0:
316,173,75295,1,0,0:0:0:0:
316,173,75372,2,0,P|268:161|221:176,1,99.0000030212403,6|0,0:0|2:0,0:0:0:0:
192,308,75680,1,12,0:0:0:0:
340,356,75834,1,0,0:0:0:0:
340,356,75911,1,0,0:0:0:0:
340,356,75988,5,12,0:0:0:0:
388,218,76142,2,0,P|399:161|374:109,1,116.999994644165,10|0,0:0|0:0,0:0:0:0:
128,176,76449,1,4,0:0:0:0:
128,176,76603,2,0,P|116:232|141:283,1,116.999994644165,10|0,0:0|0:0,0:0:0:0:
272,64,76911,5,12,0:0:0:0:
272,64,77065,2,0,P|215:52|164:77,1,116.999994644165,10|0,0:0|0:0,0:0:0:0:
240,320,77372,1,12,0:0:0:0:
240,320,77526,2,0,P|296:331|347:306,1,116.999994644165,10|0,0:0|0:0,0:0:0:0:
392,148,77834,2,0,P|335:136|284:161,1,116.999994644165,12|0,0:0|0:0,0:0:0:0:
240,320,78142,1,12,0:0:0:0:
140,192,78295,5,0,0:0:0:0:
140,192,78372,1,0,0:0:0:0:
140,192,78449,2,0,L|124:72,1,116.999994644165,12|8,0:0|0:0,0:0:0:0:
0,40,78757,1,8,0:0:0:0:
37,225,78911,2,0,P|85:229|141:189,1,116.999994644165,10|0,0:0|0:0,0:0:0:0:
180,56,79218,1,8,0:3:0:0:
68,140,79372,1,8,0:3:0:0:
216,184,79526,6,0,B|252:200|284:192|284:192|324:168|324:168|360:184|408:168,2,198.000006042481,12|2|2,0:0|0:0|0:0,0:0:0:0:
68,140,80295,1,8,3:0:0:0:
43,99,80371,1,8,3:0:0:0:
60,54,80448,1,8,3:0:0:0:
106,42,80525,1,8,3:0:0:0:
144,71,80603,2,0,L|144:176,1,99.0000030212403,8|8,3:0|3:0,0:0:0:0:
145,364,80911,5,14,0:0:0:0:
488,360,90757,6,0,P|496:320|487:281,1,80.9999975280763,14|0,0:0|2:0,0:0:0:0:
404,204,91065,1,8,0:0:0:0:
304,251,91218,2,0,P|265:263|226:255,1,80.9999975280763,2|0,0:0|0:0,0:0:0:0:
156,168,91526,1,8,0:0:0:0:
156,168,91680,1,8,0:0:0:0:
144,280,91834,2,0,L|144:364,1,80.9999975280763,2|8,0:0|0:0,0:0:0:0:
264,188,92142,5,0,0:0:0:0:
264,188,92295,1,8,0:0:0:0:
318,88,92449,1,0,0:0:0:0:
219,33,92603,1,2,0:0:0:0:
163,132,92757,1,8,0:0:0:0:
318,88,92911,1,8,0:0:0:0:
216,304,93218,6,0,P|180:312|132:300,1,80.9999975280763,10|0,0:0|2:0,0:0:0:0:
256,192,93526,1,8,0:0:0:0:
292,84,93680,2,0,P|328:76|376:88,1,80.9999975280763,2|0,0:0|2:0,0:0:0:0:
420,180,93988,1,8,0:0:0:0:
420,32,94142,1,8,0:0:0:0:
332,156,94295,1,0,0:0:0:0:
332,156,94449,5,10,0:0:0:0:
420,32,94603,1,0,0:0:0:0:
420,32,94757,1,8,0:0:0:0:
428,187,94911,1,0,0:0:0:0:
428,187,94988,1,0,0:0:0:0:
428,187,95065,1,2,0:0:0:0:
292,84,95218,1,12,0:0:0:0:
420,32,95372,2,0,L|512:28,1,80.9999975280763,8|2,0:0|0:0,0:0:0:0:
292,84,95680,6,0,L|200:88,1,80.9999975280763,6|0,0:0|2:0,0:0:0:0:
92,128,95988,1,8,0:0:0:0:
212,166,96142,2,0,P|219:127|211:88,1,80.9999975280763,2|0,0:0|2:0,0:0:0:0:
116,8,96449,1,8,0:0:0:0:
92,128,96603,1,8,0:0:0:0:
210,86,96757,6,0,L|291:83,1,80.9999975280763,2|8,0:0|0:0,0:0:0:0:
448,80,97065,1,0,0:0:0:0:
324,168,97218,1,8,0:0:0:0:
248,12,97372,1,0,0:0:0:0:
248,12,97449,1,0,0:0:0:0:
248,12,97526,1,2,0:0:0:0:
216,188,97680,1,8,0:0:0:0:
130,89,97834,2,0,L|211:86,1,80.9999975280763,8|0,0:0|2:0,0:0:0:0:
57,164,98142,6,0,P|27:91|54:17,1,161.999995056153,10|8,0:0|0:0,0:0:0:0:
130,89,98603,1,0,0:0:0:0:
176,184,98757,2,0,P|184:223|173:261,1,80.9999975280763,2|0,0:0|2:0,0:0:0:0:
104,344,99065,1,8,0:0:0:0:
104,344,99218,1,0,0:0:0:0:
256,376,99372,5,10,0:0:0:0:
349,219,99526,1,8,0:0:0:0:
163,219,99680,1,8,0:0:0:0:
348,324,99834,1,8,0:0:0:0:
256,164,99988,1,10,0:0:0:0:
164,324,100142,1,8,0:0:0:0:
349,219,100295,2,0,L|440:208,1,80.9999975280763,8|0,0:0|2:0,0:0:0:0:
348,324,100603,6,0,L|239:339,1,90,14|0,0:0|0:0,0:0:0:0:
140,352,100911,1,8,0:0:0:0:
184,192,101065,2,0,P|195:152|185:105,1,90,12|8,0:0|0:0,0:0:0:0:
103,20,101372,1,0,0:0:0:0:
272,84,101526,1,12,0:0:0:0:
272,84,101680,6,0,P|315:91|359:82,1,90,2|0,0:0|0:0,0:0:0:0:
488,192,101988,2,0,L|488:288,1,90,8|0,0:0|0:0,0:0:0:0:
400,360,102295,6,0,P|356:352|312:361,1,90,2|8,0:0|0:0,0:0:0:0:
199,362,102603,2,0,P|155:371|111:363,1,90,2|8,0:0|0:0,0:0:0:0:
256,212,102911,1,0,0:0:0:0:
256,212,102988,1,0,0:0:0:0:
256,212,103065,6,0,L|256:308,1,90,12|0,0:0|0:0,0:0:0:0:
172,192,103372,1,8,0:0:0:0:
340,152,103526,2,0,L|434:136,1,90,12|0,0:0|0:0,0:0:0:0:
307,72,103833,1,0,0:0:0:0:
176,196,103988,1,12,0:0:0:0:
176,196,104142,2,0,L|81:211,1,90,2|0,0:0|0:0,0:0:0:0:
196,104,104449,5,8,3:0:0:0:
340,192,104603,1,8,3:0:0:0:
172,192,104757,1,8,3:0:0:0:
316,104,104911,1,8,3:0:0:0:
256,264,105065,1,0,0:0:0:0:
248,294,105142,1,0,0:0:0:0:
239,323,105218,1,10,0:0:0:0:
64,356,105372,1,0,0:0:0:0:
72,326,105449,1,0,0:0:0:0:
81,297,105526,5,14,0:0:0:0:
119,184,105680,1,0,0:0:0:0:
4,206,105834,1,8,0:0:0:0:
152,252,105988,5,12,0:0:0:0:
268,184,106142,1,8,0:0:0:0:
152,116,106295,1,0,0:0:0:0:
64,276,106449,5,12,0:0:0:0:
216,360,106603,1,0,0:0:0:0:
185,184,106757,1,0,0:0:0:0:
216,360,106911,5,8,0:0:0:0:
296,208,107065,1,8,0:0:0:0:
120,228,107218,1,8,3:0:0:0:
281,316,107372,1,10,0:0:0:0:
248,140,107526,1,8,3:0:0:0:
168,296,107680,1,8,0:0:0:0:
344,272,107834,1,0,0:0:0:0:
344,272,107911,1,0,0:0:0:0:
344,272,107988,5,14,0:0:0:0:
408,122,108142,1,0,0:0:0:0:
248,140,108295,1,8,0:0:0:0:
340,368,108449,5,12,0:0:0:0:
495,278,108603,1,8,0:0:0:0:
340,187,108757,1,0,0:0:0:0:
132,130,108911,5,12,0:0:0:0:
175,315,109065,1,0,0:0:0:0:
248,140,109218,1,2,0:0:0:0:
86,238,109372,1,8,3:0:0:0:
275,254,109526,1,8,0:0:0:0:
132,130,109680,5,8,3:0:0:0:
93,107,109756,1,8,3:0:0:0:
50,114,109833,1,10,3:0:0:0:
20,147,109910,1,8,3:0:0:0:
18,191,109987,1,8,3:0:0:0:
44,227,110065,1,8,3:0:0:0:
86,238,110142,5,10,3:0:0:0:
129,245,110218,1,8,3:0:0:0:
173,237,110295,1,8,3:0:0:0:
210,212,110372,1,8,3:0:0:0:
234,174,110449,6,0,P|299:148|366:170,1,144,6|0,0:0|0:0,0:0:0:0:
456,220,110911,1,0,0:0:0:0:
456,220,111065,2,0,L|456:376,1,144
356,344,111526,1,0,0:0:0:0:
356,344,111680,6,0,P|288:320|220:348,1,144
124,372,112142,1,0,0:0:0:0:
124,372,112296,2,0,L|124:228,1,144
56,156,112757,1,0,0:0:0:0:
56,156,112911,6,0,P|120:127|186:151,1,144
312,312,113526,2,0,P|346:319|381:312,2,72
256,228,113988,1,0,0:0:0:0:
200,312,114142,6,0,P|166:319|131:312,2,72
261,232,114603,1,0,0:0:0:0:
261,232,114757,2,0,L|261:148,2,72
164,184,115219,1,0,0:0:0:0:
164,184,115372,6,0,L|164:108,2,72
348,200,115988,2,0,L|348:276,2,72
256,156,116450,1,0,0:0:0:0:
256,156,116603,6,0,L|256:68,2,72
324,344,117218,2,0,P|394:355|465:342,1,144
460,240,117680,1,0,0:0:0:0:
460,240,117834,6,0,P|440:172|462:105,1,144
276,24,118449,2,0,L|192:24,2,72
316,116,118911,1,0,0:0:0:0:
316,116,119065,6,0,P|325:150|316:185,2,72
132,196,119680,2,0,P|101:258|121:326,1,144
391,323,120295,6,0,P|352:316|313:323,1,80.9999975280763,2|0,0:0|0:0,0:0:0:0:
121,326,120603,1,8,0:0:0:0:
121,326,120911,6,0,P|128:286|121:247,1,80.9999975280763,2|0,0:0|0:0,0:0:0:0:
118,55,121219,1,8,0:0:0:0:
118,55,121526,6,0,P|157:62|196:55,1,80.9999975280763,2|0,0:0|0:0,0:0:0:0:
389,52,121834,1,8,0:0:0:0:
389,52,122142,6,0,P|381:91|388:130,1,80.9999975280763,2|0,0:0|0:0,0:0:0:0:
392,323,122450,1,8,0:0:0:0:
392,323,122757,6,0,P|353:316|314:323,1,80.9999975280763,2|0,0:0|0:0,0:0:0:0:
121,326,123065,1,8,0:0:0:0:
121,326,123372,6,0,P|128:286|121:247,1,80.9999975280763,2|0,0:0|0:0,0:0:0:0:
118,55,123680,1,8,0:0:0:0:
118,55,123988,6,0,P|157:62|196:55,1,80.9999975280763,2|0,0:0|0:0,0:0:0:0:
389,52,124296,1,8,0:0:0:0:
389,52,124449,1,0,0:0:0:0:
389,52,124603,6,0,P|381:91|388:130,1,80.9999975280763,2|0,0:0|0:0,0:0:0:0:
392,323,124911,1,8,0:0:0:0:
256,192,125065,5,8,0:0:0:0:
256,192,125141,1,8,0:0:0:0:
256,192,125218,1,12,0:0:0:0:
145,282,125372,1,0,0:0:0:0:
278,330,125526,1,8,0:0:0:0:
315,122,125680,5,12,0:0:0:0:
170,37,125834,1,0,0:0:0:0:
170,205,125988,1,8,0:0:0:0:
315,29,126141,5,12,0:0:0:0:
479,125,126295,1,0,0:0:0:0:
315,221,126449,1,8,0:0:0:0:
170,37,126603,5,12,0:0:0:0:
17,145,126757,1,4,0:0:0:0:
186,225,126911,1,8,0:0:0:0:
347,95,127065,5,12,3:0:0:0:
379,298,127218,1,8,3:0:0:0:
186,225,127372,1,8,3:0:0:0:
498,182,127526,5,0,0:0:0:0:
498,182,127603,1,0,0:0:0:0:
498,182,127680,1,2,0:0:0:0:
272,260,127834,1,8,0:0:0:0:
315,29,127988,1,2,0:0:0:0:
140,217,128142,6,0,L|140:332,1,107.999996704102,12|0,0:0|0:0,0:0:0:0:
202,147,128449,6,0,P|144:123|82:143,1,125.999996154785,12|0,0:0|0:0,0:0:0:0:
140,325,128757,6,0,P|256:264|197:145,1,288,12|0,0:0|0:0,0:0:0:0:
72,297,129526,5,2,0:0:0:0:
84,369,129834,5,2,0:0:0:0:
140,325,130142,6,0,L|239:325,1,99.0000030212403,14|0,0:0|0:0,0:0:0:0:
376,360,130449,1,8,0:0:0:0:
320,204,130603,1,0,0:0:0:0:
320,204,130680,1,0,0:0:0:0:
320,204,130757,2,0,P|305:250|317:298,1,99.0000030212403,6|0,0:0|2:0,0:0:0:0:
367,133,131065,2,0,P|321:118|274:132,1,99.0000030212403,8|0,0:0|2:0,0:0:0:0:
145,246,131372,6,0,P|191:261|238:247,1,99.0000030212403,6|0,0:0|2:0,0:0:0:0:
192,116,131680,1,8,0:0:0:0:
152,254,131834,1,0,0:0:0:0:
152,254,131911,1,0,0:0:0:0:
152,254,131988,2,0,L|143:360,1,99.0000030212403,6|0,0:0|2:0,0:0:0:0:
102,182,132295,2,0,P|148:167|195:181,1,99.0000030212403,8|0,0:0|2:0,0:0:0:0:
416,204,132603,6,0,P|370:219|323:205,1,99.0000030212403,2|0,0:0|2:0,0:0:0:0:
276,72,132911,1,8,0:0:0:0:
203,188,133065,1,0,0:0:0:0:
203,188,133142,1,0,0:0:0:0:
203,188,133218,2,0,L|203:292,1,99.0000030212403,2|0,0:0|2:0,0:0:0:0:
316,340,133526,2,0,L|316:240,1,99.0000030212403,8|0,0:0|2:0,0:0:0:0:
256,56,133834,5,6,0:0:0:0:
152,192,133988,1,0,0:0:0:0:
143,225,134064,1,0,0:0:0:0:
133,258,134141,1,8,0:0:0:0:
256,364,134295,1,0,0:0:0:0:
265,331,134371,1,0,0:0:0:0:
275,298,134448,1,10,0:0:0:0:
256,140,134603,1,0,0:0:0:0:
247,173,134679,1,0,0:0:0:0:
237,206,134756,1,8,0:0:0:0:
360,312,134910,1,0,0:0:0:0:
369,279,134988,1,0,0:0:0:0:
379,246,135065,5,12,0:0:0:0:
256,140,135218,1,0,0:0:0:0:
399,227,135372,1,12,0:0:0:0:
234,157,135527,1,0,0:0:0:0:
414,200,135680,1,2,0:0:0:0:
219,184,135835,1,0,0:0:0:0:
419,168,135988,1,8,0:0:0:0:
216,216,136142,6,0,P|160:232|108:216,1,103.500001974106,12|0,0:0|0:0,0:0:0:0:
296,200,136449,6,0,P|288:260|248:292,1,107.999996704102,12|8,0:0|0:0,0:0:0:0:
272,119,136757,6,0,P|327:123|368:160,1,112.5,12|0,0:0|0:0,0:0:0:0:
192,132,137065,6,0,P|208:68|256:40,1,121.500000463486,12|8,0:0|3:0,0:0:0:0:
216,216,137372,6,0,P|128:220|200:136,1,251.999992309571,12|8,0:0|0:0,0:0:0:0:
368,160,137834,1,12,0:0:0:0:
256,300,137988,1,0,0:0:0:0:
223,309,138064,1,0,0:0:0:0:
190,319,138141,1,10,0:0:0:0:
192,132,138295,1,0,0:0:0:0:
225,123,138371,1,0,0:0:0:0:
258,113,138448,1,8,0:0:0:0:
400,192,138603,5,12,0:0:0:0:
400,192,138757,1,2,0:0:0:0:
256,300,138911,1,0,0:0:0:0:
239,270,138987,1,0,0:0:0:0:
222,239,139064,1,8,0:0:0:0:
256,84,139218,1,0,0:0:0:0:
273,114,139294,1,0,0:0:0:0:
290,145,139371,1,10,0:0:0:0:
256,300,139526,1,0,0:0:0:0:
226,317,139602,1,0,0:0:0:0:
195,334,139679,1,8,0:0:0:0:
40,300,139833,1,0,0:0:0:0:
70,283,139911,1,0,0:0:0:0:
101,265,139988,6,0,P|112:218|101:170,1,99.0000030212403,14|0,0:0|2:0,0:0:0:0:
16,60,140295,1,8,0:0:0:0:
109,177,140449,1,0,0:0:0:0:
109,177,140525,1,0,0:0:0:0:
109,177,140603,2,0,P|156:191|208:175,1,99.0000030212403,2|0,0:0|2:0,0:0:0:0:
280,60,140911,2,0,P|233:46|181:62,1,99.0000030212403,8|0,0:0|2:0,0:0:0:0:
109,177,141218,6,0,B|97:277,1,99.0000030212403,12|0,0:0|2:0,0:0:0:0:
4,380,141526,1,8,0:0:0:0:
104,282,141680,1,0,0:0:0:0:
104,282,141756,1,0,0:0:0:0:
104,282,141834,2,0,P|151:268|203:284,1,99.0000030212403,6|0,0:0|2:0,0:0:0:0:
312,324,142142,2,0,L|311:206,1,99.0000030212403,8|0,0:0|2:0,0:0:0:0:
200,60,142449,6,0,L|201:178,1,99.0000030212403,4|0,0:0|2:0,0:0:0:0:
311,225,142757,1,12,0:0:0:0:
400,116,142911,1,0,0:0:0:0:
400,116,142988,1,0,0:0:0:0:
400,116,143065,2,0,P|448:104|495:119,1,99.0000030212403,6|0,0:0|2:0,0:0:0:0:
446,246,143372,2,0,L|446:345,1,99.0000030212403,8|0,0:0|2:0,0:0:0:0:
311,225,143680,6,0,L|311:126,1,99.0000030212403,12|0,0:0|2:0,0:0:0:0:
400,20,143988,1,12,0:0:0:0:
318,133,144141,1,0,0:0:0:0:
318,133,144218,1,0,0:0:0:0:
318,133,144295,2,0,P|270:145|223:130,1,99.0000030212403,2|0,0:0|2:0,0:0:0:0:
116,48,144603,1,12,0:0:0:0:
231,138,144757,1,0,0:0:0:0:
231,138,144834,1,0,0:0:0:0:
231,138,144911,5,12,0:0:0:0:
100,192,145065,2,0,L|136:304,1,116.999994644165,10|0,0:0|2:0,0:0:0:0:
412,192,145372,1,12,0:0:0:0:
412,192,145526,2,0,L|376:80,1,116.999994644165,10|0,0:0|0:0,0:0:0:0:
136,80,145834,5,12,0:0:0:0:
136,80,145988,2,0,L|99:191,1,116.999994644165,10|0,0:0|0:0,0:0:0:0:
375,303,146295,1,12,0:0:0:0:
375,303,146449,2,0,L|411:191,1,116.999994644165,10|0,0:0|0:0,0:0:0:0:
300,56,146757,2,0,L|266:177,1,116.999994644165,12|0,0:0|0:0,0:0:0:0:
224,304,147065,1,12,0:0:0:0:
139,191,147218,5,0,0:0:0:0:
139,191,147295,1,0,0:0:0:0:
139,191,147372,2,0,P|80:175|24:192,1,116.999994644165,12|8,0:0|0:0,0:0:0:0:
84,320,147680,1,8,0:0:0:0:
199,240,147834,2,0,P|216:185|192:132,1,116.999994644165,10|0,0:0|0:0,0:0:0:0:
68,72,148141,1,8,3:0:0:0:
139,191,148295,1,8,3:0:0:0:
16,124,148449,6,0,B|24:172|8:192|8:192|28:240|28:240|8:264|20:312,2,198.000006042481,12|2|2,0:0|0:0|0:0,0:0:0:0:
163,111,149218,1,8,3:0:0:0:
203,140,149294,1,8,3:0:0:0:
219,187,149371,1,8,3:0:0:0:
206,234,149448,1,8,3:0:0:0:
169,265,149526,2,0,P|120:280|68:264,1,99.0000030212403,8|8,3:0|3:0,0:0:0:0:
16,60,149834,5,12,0:0:0:0:
360,372,159680,5,12,0:0:0:0:
360,263,159834,1,2,0:0:0:0:
453,318,159988,1,8,0:0:0:0:
283,280,160142,5,12,0:0:0:0:
236,164,160295,1,2,0:0:0:0:
360,181,160449,1,8,0:0:0:0:
169,203,160603,5,12,0:0:0:0:
120,68,160757,1,2,0:0:0:0:
261,93,160911,1,8,0:0:0:0:
148,272,161065,5,8,0:0:0:0:
38,307,161218,1,2,0:0:0:0:
4,200,161372,1,8,3:0:0:0:
113,163,161526,2,0,L|204:136,1,90,2|0,0:0|2:0,0:0:0:0:
148,272,161834,1,8,0:0:0:0:
12,208,161988,5,0,0:0:0:0:
12,208,162065,1,0,0:0:0:0:
12,208,162142,1,12,0:0:0:0:
24,93,162296,1,2,0:0:0:0:
105,164,162450,1,8,0:0:0:0:
205,269,162603,5,12,0:0:0:0:
128,368,162756,1,2,0:0:0:0:
81,252,162910,1,8,0:0:0:0:
211,189,163065,5,12,0:0:0:0:
352,214,163219,1,2,0:0:0:0:
256,324,163373,1,8,0:0:0:0:
211,189,163526,5,8,0:0:0:0:
282,78,163680,1,2,0:0:0:0:
159,124,163834,1,8,0:0:0:0:
286,159,163988,1,8,0:0:0:0:
203,56,164142,1,2,0:0:0:0:
211,189,164295,1,8,0:0:0:0:
344,120,164449,5,0,0:0:0:0:
344,120,164526,1,0,0:0:0:0:
344,120,164603,1,12,0:0:0:0:
437,174,164757,1,2,0:0:0:0:
344,229,164911,1,8,0:0:0:0:
187,252,165065,5,12,0:0:0:0:
172,128,165218,1,8,0:0:0:0:
288,176,165372,1,2,0:0:0:0:
128,204,165526,5,12,0:0:0:0:
288,176,165680,1,8,0:0:0:0:
142,290,165834,2,0,P|125:248|127:203,1,90,6|0,2:0|2:0,0:0:0:0:
288,176,166142,2,0,P|304:217|302:262,1,90,6|0,2:0|2:0,0:0:0:0:
142,290,166449,1,8,0:0:0:0:
142,290,166603,2,0,L|48:312,1,90,10|0,0:0|0:0,0:0:0:0:
128,204,166911,6,0,P|194:220|218:336,1,198.000006042481,14|0,0:0|2:0,0:0:0:0:
128,204,167372,2,0,P|112:156|128:112,1,99.0000030212403,8|0,0:0|0:0,0:0:0:0:
200,72,167603,1,0,0:0:0:0:
200,72,167680,2,0,L|304:72,1,99.0000030212403,2|0,0:0|2:0,0:0:0:0:
412,192,167988,2,0,L|313:192,1,99.0000030212403,8|0,0:0|2:0,0:0:0:0:
480,144,168295,6,0,P|496:188|476:244,1,99.0000030212403,2|0,0:0|2:0,0:0:0:0:
336,296,168603,2,0,L|236:296,1,99.0000030212403,8|0,0:0|0:0,0:0:0:0:
152,296,168834,1,0,0:0:0:0:
152,296,168911,2,0,P|164:248|149:201,1,99.0000030212403,2|0,0:0|2:0,0:0:0:0:
52,132,169218,1,8,0:0:0:0:
68,252,169372,1,0,0:0:0:0:
148,128,169526,6,0,L|248:128,1,99.0000030212403,6|0,0:0|2:0,0:0:0:0:
327,252,169834,2,0,P|311:298|321:346,1,99.0000030212403,8|0,0:0|0:0,0:0:0:0:
404,372,170065,1,0,0:0:0:0:
404,372,170142,2,0,L|520:372,1,99.0000030212403,2|0,0:0|2:0,0:0:0:0:
327,252,170449,1,8,0:0:0:0:
327,252,170603,6,0,L|224:252,1,99.0000030212403,2|4,0:0|0:0,0:0:0:0:
80,302,170911,1,0,0:0:0:0:
184,159,171065,1,8,0:0:0:0:
184,336,171218,1,0,0:0:0:0:
184,336,171295,1,0,0:0:0:0:
184,336,171372,1,2,0:0:0:0:
80,193,171526,1,0,0:0:0:0:
64,164,171603,1,0,0:0:0:0:
48,132,171680,1,8,0:0:0:0:
184,159,171834,5,0,0:0:0:0:
200,188,171911,1,0,0:0:0:0:
216,220,171988,2,0,P|260:232|312:220,1,99.0000030212403,14|0,0:0|2:0,0:0:0:0:
444,136,172295,2,0,P|400:124|348:136,1,99.0000030212403,8|0,0:0|0:0,0:0:0:0:
316,224,172526,1,0,0:0:0:0:
316,224,172603,2,0,L|317:328,1,99.0000030212403,2|0,0:0|0:0,0:0:0:0:
456,376,172911,1,12,0:0:0:0:
316,322,173065,6,0,P|268:309|221:321,1,99.0000030212403,6|0,0:0|2:0,0:0:0:0:
72,368,173372,1,6,0:0:0:0:
160,272,173526,1,8,0:0:0:0:
36,152,173680,6,0,P|26:197|42:253,1,99.0000030212403,14|0,0:0|0:0,0:0:0:0:
168,360,173987,1,8,3:0:0:0:
112,200,174142,1,8,3:0:0:0:
224,308,174295,6,0,B|320:352|320:268|414:307,1,198.000006042481,6|0,0:0|0:0,0:0:0:0:
276,236,174757,1,12,0:0:0:0:
368,372,174911,1,2,0:0:0:0:
289,228,175065,1,8,0:0:0:0:
354,379,175219,1,0,0:0:0:0:
354,379,175295,1,0,0:0:0:0:
354,379,175372,1,2,0:0:0:0:
308,224,175526,6,0,P|292:176|304:128,1,99.0000030212403,6|0,0:0|2:0,0:0:0:0:
188,16,175834,1,0,0:0:0:0:
156,28,175911,1,0,0:0:0:0:
124,40,175988,1,8,0:0:0:0:
53,201,176142,1,8,0:0:0:0:
205,112,176295,1,10,0:0:0:0:
30,94,176449,1,8,0:0:0:0:
161,212,176603,1,12,0:0:0:0:
389,110,176757,6,0,B|389:159|471:176|471:76|471:10|355:-6|306:27|256:110|355:225|355:225|289:258|256:357|256:357|223:258|157:225|157:225|256:110|207:27|157:-6|41:10|41:76|41:176|124:176|124:110,1,1224,6|0,0:0|0:0,0:0:0:0:
136,144,189218,6,0,L|224:144,1,80.9999975280763,6|0,0:0|2:0,0:0:0:0:
376,240,189526,2,0,L|288:240,1,80.9999975280763,8|0,0:0|2:0,0:0:0:0:
136,240,189834,2,0,L|224:240,1,80.9999975280763,2|0,0:0|2:0,0:0:0:0:
376,144,190142,2,0,L|288:144,1,80.9999975280763,8|0,0:0|2:0,0:0:0:0:
217,240,190449,6,0,P|207:279|216:318,1,80.9999975280763,2|0,0:0|2:0,0:0:0:0:
295,143,190757,2,0,P|304:104|295:65,1,80.9999975280763,8|0,0:0|2:0,0:0:0:0:
304,231,191065,2,0,P|343:240|382:231,1,80.9999975280763,2|0,0:0|2:0,0:0:0:0:
207,152,191372,2,0,P|168:143|129:152,1,80.9999975280763,8|0,0:0|2:0,0:0:0:0:
168,300,191680,6,0,L|168:219,1,80.9999975280763,2|0,0:0|2:0,0:0:0:0:
52,192,191988,2,0,L|52:272,1,80.9999975280763,8|0,0:0|2:0,0:0:0:0:
168,300,192295,2,0,P|208:292|248:300,1,80.9999975280763,2|0,0:0|2:0,0:0:0:0:
92,360,192603,2,0,P|52:368|12:360,1,80.9999975280763,8|0,0:0|2:0,0:0:0:0:
52,192,192911,6,0,L|52:100,1,80.9999975280763,2|0,0:0|2:0,0:0:0:0:
124,36,193218,1,8,0:0:0:0:
296,232,193526,2,0,P|336:240|384:224,1,80.9999975280763,2|0,0:0|2:0,0:0:0:0:
216,152,193834,2,0,P|176:144|128:160,1,80.9999975280763,12|0,0:0|2:0,0:0:0:0:
168,336,194142,5,12,0:0:0:0:
168,336,194295,2,0,L|180:208,1,116.999994644165,10|0,0:0|0:0,0:0:0:0:
344,48,194603,1,12,0:0:0:0:
344,48,194757,2,0,L|332:176,1,116.999994644165,10|0,0:0|0:0,0:0:0:0:
178,219,195065,5,12,0:0:0:0:
178,219,195218,2,0,B|128:248|80:212|80:212|91:208,1,116.999994644165,14|0,0:0|0:0,0:0:0:0:
334,165,195526,1,12,0:0:0:0:
334,165,195680,2,0,B|384:136|432:172|432:172|420:175,1,116.999994644165,10|8,0:0|3:0,0:0:0:0:
240,156,195988,2,0,L|200:44,1,116.999994644165,10|8,0:0|3:0,0:0:0:0:
178,219,196295,1,8,0:0:0:0:
334,165,196449,5,0,0:0:0:0:
334,165,196526,1,0,0:0:0:0:
334,165,196603,2,0,P|379:147|428:154,1,99.0000030212403,14|0,0:0|2:0,0:0:0:0:
492,268,196911,1,8,0:0:0:0:
334,165,197065,6,0,L|334:57,1,107.999996704102,12|0,0:0|0:0,0:0:0:0:
276,224,197372,6,0,P|332:248|396:220,1,125.999996154785,12|0,0:0|0:0,0:0:0:0:
334,57,197680,6,0,B|271:35|203:89|203:89|163:121|91:65|167:1|178:48,1,288,12|0,0:0|0:0,0:0:0:0:
276,224,198142,1,8,0:0:0:0:
276,224,198449,5,2,0:0:0:0:
340,188,198757,5,2,0:0:0:0:
408,156,199065,6,0,L|420:268,1,99.0000030212403,14|0,0:0|2:0,0:0:0:0:
296,356,199373,1,8,0:0:0:0:
188,264,199527,1,0,0:0:0:0:
188,264,199604,1,0,0:0:0:0:
188,264,199681,2,0,P|142:249|94:261,1,99.0000030212403,6|0,0:0|2:0,0:0:0:0:
202,352,199988,2,0,P|248:367|296:355,1,99.0000030212403,8|0,0:0|2:0,0:0:0:0:
468,256,200296,6,0,L|468:152,1,99.0000030212403,6|0,0:0|2:0,0:0:0:0:
468,16,200604,1,8,0:0:0:0:
374,154,200758,1,0,0:0:0:0:
374,154,200835,1,0,0:0:0:0:
374,154,200912,2,0,P|421:168|469:156,1,99.0000030212403,6|0,0:0|2:0,0:0:0:0:
468,16,201219,2,0,P|421:4|374:18,1,99.0000030212403,8|0,0:0|2:0,0:0:0:0:
256,128,201527,6,0,L|256:236,1,99.0000030212403,6|0,0:0|2:0,0:0:0:0:
256,368,201835,1,12,0:0:0:0:
184,252,201989,1,0,0:0:0:0:
184,252,202066,1,0,0:0:0:0:
184,252,202142,2,0,B|140:236|100:252|100:252|116:264,1,99.0000030212403,2|0,0:0|2:0,0:0:0:0:
328,252,202449,2,0,B|372:268|412:252|412:252|396:240,1,99.0000030212403,8|0,0:0|2:0,0:0:0:0:
256,56,202758,5,10,0:0:0:0:
160,192,202911,1,0,0:0:0:0:
153,225,202987,1,0,0:0:0:0:
160,259,203064,1,8,0:0:0:0:
352,192,203218,1,0,0:0:0:0:
359,159,203294,1,0,0:0:0:0:
352,125,203371,1,10,0:0:0:0:
256,288,203526,1,0,0:0:0:0:
289,295,203602,1,0,0:0:0:0:
323,288,203679,1,8,0:0:0:0:
256,96,203834,1,0,0:0:0:0:
223,89,203911,1,0,0:0:0:0:
189,96,203988,5,12,0:0:0:0:
256,288,204142,1,0,0:0:0:0:
359,159,204295,1,8,0:0:0:0:
153,159,204449,1,0,0:0:0:0:
256,288,204604,1,2,0:0:0:0:
323,96,204757,1,0,0:0:0:0:
153,159,204912,1,8,0:0:0:0:
349,190,205065,6,0,P|350:139|323:96,1,103.500001974106,12|0,0:0|0:0,0:0:0:0:
153,159,205372,6,0,P|200:180|260:164,1,107.999996704102,12|8,0:0|0:0,0:0:0:0:
132,80,205680,6,0,P|84:112|72:168,1,112.5,12|0,0:0|0:0,0:0:0:0:
207,100,205988,6,0,P|202:41|136:0,1,112.5,12|8,0:0|3:0,0:0:0:0:
71,162,206296,6,0,B|56:232|56:232|144:284|144:216|230:236,1,251.999992309571,12|0,0:0|0:0,0:0:0:0:
400,288,206758,1,12,0:0:0:0:
229,235,206911,1,0,0:0:0:0:
222,201,206988,1,0,0:0:0:0:
229,168,207064,1,0,0:0:0:0:
400,221,207218,1,0,0:0:0:0:
407,255,207295,1,0,0:0:0:0:
400,288,207371,1,0,0:0:0:0:
240,368,207527,5,12,0:0:0:0:
240,368,207681,1,2,0:0:0:0:
120,240,207834,1,0,0:0:0:0:
113,206,207911,1,0,0:0:0:0:
120,173,207988,2,0,L|228:156,1,99.0000030212403,8|0,0:0|0:0,0:0:0:0:
440,128,208295,1,8,3:0:0:0:
473,92,208371,1,0,0:0:0:0:
469,45,208448,1,0,0:0:0:0:
431,15,208525,1,0,0:0:0:0:
383,24,208603,2,0,L|285:39,1,99.0000030212403,8|0,0:0|2:0,0:0:0:0:
104,68,208911,6,0,L|202:53,1,99.0000030212403,12|0,0:0|2:0,0:0:0:0:
316,132,209219,1,8,0:0:0:0:
180,144,209373,1,0,0:0:0:0:
180,144,209449,1,0,0:0:0:0:
180,144,209527,2,0,P|177:95|201:53,1,99.0000030212403,6|0,0:0|2:0,0:0:0:0:
316,132,209834,2,0,P|318:180|294:222,1,99.0000030212403,8|0,0:0|2:0,0:0:0:0:
200,356,210143,6,0,B|113:354|113:354|123:347,1,99.0000030212403,6|0,0:0|2:0,0:0:0:0:
220,248,210450,1,8,0:0:0:0:
312,356,210604,1,0,0:0:0:0:
312,356,210681,1,0,0:0:0:0:
312,356,210757,2,0,B|399:354|399:354|389:347,1,99.0000030212403,2|0,0:0|2:0,0:0:0:0:
292,244,211066,2,0,P|284:200|300:148,1,99.0000030212403,8|0,0:0|2:0,0:0:0:0:
424,88,211372,6,0,P|432:132|416:184,1,99.0000030212403,6|0,0:0|2:0,0:0:0:0:
292,244,211681,1,8,0:0:0:0:
216,128,211835,1,0,0:0:0:0:
216,128,211912,1,0,0:0:0:0:
216,128,211989,2,0,P|168:116|121:131,1,99.0000030212403,2|0,0:0|2:0,0:0:0:0:
292,244,212295,2,0,P|340:256|387:241,1,99.0000030212403,8|0,0:0|2:0,0:0:0:0:
340,80,212604,6,0,P|325:126|336:174,1,99.0000030212403,6|0,0:0|2:0,0:0:0:0:
472,140,212912,1,8,0:0:0:0:
384,16,213065,1,0,0:0:0:0:
384,16,213142,1,0,0:0:0:0:
384,16,213219,2,0,P|336:4|288:24,1,99.0000030212403,6|0,0:0|2:0,0:0:0:0:
256,156,213527,1,12,0:0:0:0:
392,224,213681,1,0,0:0:0:0:
392,224,213758,1,0,0:0:0:0:
392,224,213835,5,12,0:0:0:0:
292,312,213989,2,0,L|409:305,1,116.999994644165,10|0,0:0|0:0,0:0:0:0:
196,192,214295,1,12,0:0:0:0:
196,192,214449,2,0,L|76:200,1,116.999994644165,10|0,0:0|0:0,0:0:0:0:
284,144,214758,5,12,0:0:0:0:
284,144,214912,2,0,P|296:201|271:252,1,116.999994644165,10|0,0:0|0:0,0:0:0:0:
240,52,215218,1,12,0:0:0:0:
240,52,215372,2,0,P|297:40|348:65,1,116.999994644165,10|0,0:0|0:0,0:0:0:0:
271,251,215680,2,0,P|214:263|163:238,1,116.999994644165,12|0,0:0|0:0,0:0:0:0:
84,92,215989,1,12,0:0:0:0:
228,164,216142,5,0,0:0:0:0:
228,164,216219,1,0,0:0:0:0:
228,164,216295,1,12,0:0:0:0:
220,0,216449,1,8,0:0:0:0:
84,92,216603,1,8,0:0:0:0:
248,76,216758,2,0,L|376:68,1,116.999994644165,12|0,0:0|0:0,0:0:0:0:
220,0,217065,1,8,3:0:0:0:
84,92,217219,1,8,3:0:0:0:
228,164,217372,6,0,L|356:156,1,99.0000030212403,12|0,0:0|2:0,0:0:0:0:
448,252,217680,1,0,0:0:0:0:
448,252,217756,1,0,0:0:0:0:
448,252,217833,1,8,0:0:0:0:
326,157,217988,5,0,0:0:0:0:
303,113,218064,1,0,0:0:0:0:
307,64,218141,1,8,0:0:0:0:
336,25,218218,1,0,0:0:0:0:
382,8,218295,1,8,3:0:0:0:
386,208,218449,1,8,0:0:0:0:
342,231,218525,1,0,0:0:0:0:
293,227,218602,1,8,3:0:0:0:
195,101,218757,6,0,L|196:8,1,90,14|0,0:0|2:0,0:0:0:0:
112,144,219065,1,8,0:0:0:0:
251,176,219218,1,0,0:0:0:0:
251,176,219295,1,0,0:0:0:0:
251,176,219372,2,0,L|343:172,1,90,2|0,0:0|2:0,0:0:0:0:
112,144,219680,2,0,L|20:148,1,90,10|0,0:0|2:0,0:0:0:0:
200,264,219988,6,0,L|289:260,1,90,6|0,0:0|2:0,0:0:0:0:
412,288,220295,1,8,0:0:0:0:
293,174,220449,1,0,0:0:0:0:
293,174,220526,1,0,0:0:0:0:
293,174,220603,2,0,P|281:218|293:266,1,90,2|0,0:0|2:0,0:0:0:0:
409,374,220911,2,0,P|421:330|409:282,1,90,8|0,0:0|2:0,0:0:0:0:
293,174,221218,6,0,L|203:177,1,90,6|0,0:0|2:0,0:0:0:0:
81,150,221525,1,8,0:0:0:0:
200,264,221679,1,0,0:0:0:0:
200,264,221756,1,0,0:0:0:0:
200,264,221834,2,0,P|212:220|200:172,1,90,2|0,0:0|2:0,0:0:0:0:
116,84,222142,1,8,0:0:0:0:
256,28,222295,5,0,0:0:0:0:
289,19,222371,1,0,0:0:0:0:
322,9,222448,1,12,0:0:0:0:
400,176,222603,1,0,0:0:0:0:
367,185,222679,1,0,0:0:0:0:
334,195,222757,1,8,0:0:0:0:
112,208,222912,1,0,0:0:0:0:
145,199,222988,1,0,0:0:0:0:
178,189,223065,1,10,0:0:0:0:
256,356,223219,1,0,0:0:0:0:
223,365,223295,1,0,0:0:0:0:
190,375,223372,1,8,0:0:0:0:
112,208,223526,1,0,0:0:0:0:
102,175,223603,1,0,0:0:0:0:
93,142,223680,6,0,P|80:96|96:48,1,90,14|0,0:0|2:0,0:0:0:0:
208,12,223988,1,8,0:0:0:0:
90,56,224142,1,0,0:0:0:0:
55,64,224218,1,0,0:0:0:0:
20,56,224295,1,10,0:0:0:0:
208,12,224449,1,0,0:0:0:0:
242,3,224525,1,0,0:0:0:0:
277,11,224602,1,8,0:0:0:0:
352,192,224757,6,0,L|372:304,1,99.0000030212403,12|0,0:0|2:0,0:0:0:0:
496,368,225065,1,12,0:0:0:0:
344,360,225218,1,8,0:0:0:0:
440,192,225372,6,0,L|420:72,1,107.999996704102,12|0,0:0|2:0,0:0:0:0:
277,11,225680,1,12,0:0:0:0:
448,16,225833,1,8,3:0:0:0:
352,192,225988,6,0,L|220:212,1,116.999994644165,12|0,0:0|2:0,0:0:0:0:
160,360,226296,1,8,0:0:0:0:
164,180,226449,1,12,0:0:0:0:
256,312,226603,5,0,0:0:0:0:
291,320,226680,1,0,0:0:0:0:
326,312,226756,1,8,0:0:0:0:
164,180,226911,1,0,0:0:0:0:
129,172,226988,1,0,0:0:0:0:
94,180,227064,1,8,0:0:0:0:
239,240,227218,6,0,P|260:182|234:126,1,125.999996154785,12|0,0:0|2:0,0:0:0:0:
84,24,227526,1,0,0:0:0:0:
84,24,227603,1,0,0:0:0:0:
84,24,227680,1,8,0:0:0:0:
234,126,227834,6,0,P|296:148|356:120,1,135.000005149842,12|0,3:0|3:0,0:0:0:0:
432,16,228142,1,0,0:0:0:0:
432,16,228218,1,0,0:0:0:0:
432,16,228295,1,8,0:0:0:0:
292,68,228449,1,2,0:0:0:0:
435,185,228603,6,0,P|459:99|431:15,1,180,6|8,0:0|0:0,0:0:0:0:
300,76,229065,1,0,0:0:0:0:
300,76,229142,1,0,0:0:0:0:
300,76,229218,2,0,L|204:76,1,90,2|0,0:0|2:0,0:0:0:0:
256,192,229526,2,0,L|352:192,1,90,8|0,0:0|2:0,0:0:0:0:
256,320,229834,6,0,L|166:320,1,90,6|0,0:0|2:0,0:0:0:0:
48,364,230142,1,8,0:0:0:0:
76,240,230295,1,0,0:0:0:0:
76,240,230372,1,0,0:0:0:0:
76,240,230449,2,0,P|88:196|76:152,1,90,2|0,0:0|2:0,0:0:0:0:
12,44,230757,2,0,L|116:32,1,90,8|0,0:0|2:0,0:0:0:0:
256,112,231065,6,0,P|245:155|257:198,1,90,6|0,0:0|2:0,0:0:0:0:
344,292,231372,1,8,0:0:0:0:
257,198,231526,1,0,0:0:0:0:
222,190,231603,1,0,0:0:0:0:
187,198,231679,1,2,0:0:0:0:
112,300,231834,1,0,0:0:0:0:
187,198,231988,2,0,P|200:156|180:108,1,90,8|0,0:0|2:0,0:0:0:0:
256,12,232295,5,6,0:0:0:0:
256,12,232449,1,0,0:0:0:0:
340,192,232603,1,12,0:0:0:0:
167,209,232757,1,0,0:0:0:0:
320,112,232911,2,0,L|432:96,1,90,2|0,0:0|2:0,0:0:0:0:
256,192,233218,1,8,0:0:0:0:
97,41,233372,5,0,0:0:0:0:
97,41,233449,1,0,0:0:0:0:
97,41,233526,1,12,0:0:0:0:
66,183,233680,1,8,0:0:0:0:
212,127,233834,1,8,0:0:0:0:
87,308,233988,5,12,0:0:0:0:
124,121,234142,1,8,0:0:0:0:
275,260,234295,1,8,0:0:0:0:
345,43,234449,5,12,0:0:0:0:
393,280,234603,1,8,0:0:0:0:
156,218,234756,1,8,0:0:0:0:
489,196,234911,5,12,0:0:0:0:
299,370,235065,1,8,0:0:0:0:
252,129,235218,1,8,0:0:0:0:
208,345,235372,5,12,0:0:0:0:
35,184,235526,1,8,0:0:0:0:
252,129,235679,1,8,0:0:0:0:
94,355,235834,5,8,0:0:0:0:
94,355,235911,1,8,0:0:0:0:
94,355,235988,1,12,0:0:0:0:
325,306,236142,1,8,0:0:0:0:
167,147,236295,1,8,0:0:0:0:
208,345,236449,5,12,0:0:0:0:
427,270,236603,1,8,0:0:0:0:
250,87,236757,1,8,0:0:0:0:
325,306,236911,1,8,0:0:0:0:
167,147,237065,6,0,P|85:117|11:164,1,180,12|0,0:0|2:0,0:0:0:0:
202,221,237526,2,0,P|237:193|245:139,1,90,6|0,0:0|2:0,0:0:0:0:
157,44,237834,1,8,3:0:0:0:
362,156,237988,1,8,0:0:0:0:
362,156,238065,1,8,0:0:0:0:
362,156,238142,1,8,0:0:0:0:
77,244,238295,5,6,0:0:0:0:
256,192,238372,12,0,240603,0:0:0:0:
474,74,240911,6,0,B|440:193|369:212|78:129|193:-33|421:-61|398:116|257:194|257:194|117:272|93:447|323:423|435:257|143:174|73:193|39:315,1,1180.32786885246,2|0,0:0|0:0,0:0:0:0:
