osu file format v14

[General]
AudioFilename: New World.mp3
AudioLeadIn: 0
PreviewTime: 60612
Countdown: 0
SampleSet: Soft
StackLeniency: 0.3
Mode: 0
LetterboxInBreaks: 0
WidescreenStoryboard: 1

[Editor]
Bookmarks: 21842,41535,51381,61227,71073,80919,90765,100612,110458,120304,130150,139996,149842,167073,179381,189227,194150,199073,208919,218765,227381,238304,244612
DistanceSpacing: 0.6
BeatDivisor: 4
GridSize: 4
TimelineZoom: 2.4

[Metadata]
Title:New World
TitleUnicode:New World
Artist:FELT
ArtistUnicode:FELT
Creator:Hakurei Yoru
Version:Rumi's Extra
Source:東方Project
Tags:z1085684963 CoLouRed GlaZeE Pata-Mon Misure StarrStyx Rumia- sodarose world trick ネクロファンタジア yukari yakumo theme Comiket88 Mika 美歌 Maika 舞花 touhou NAGI☆ 東方妖々夢 ~ Perfect Cherry Blossom 八雲紫
BeatmapID:1049962
BeatmapSetID:486207

[Difficulty]
HPDrainRate:6
CircleSize:4
OverallDifficulty:9
ApproachRate:9.4
SliderMultiplier:1.7
SliderTickRate:1

[Events]
//Background and Video events
0,0,"bg.jpg",0,0
//Break Periods
2,110658,119764
2,179580,188687
//Storyboard Layer 0 (Background)
//Storyboard Layer 1 (Fail)
//Storyboard Layer 2 (Pass)
//Storyboard Layer 3 (Foreground)
//Storyboard Sound Samples

[TimingPoints]
-311,307.692307692308,4,1,1,60,1,0
2150,-125,4,2,1,60,0,0
8381,-125,4,2,1,5,0,0
8458,-125,4,2,1,60,0,0
11381,-76.9230769230769,4,2,1,30,0,0
11996,-100,4,2,1,60,0,0
14458,-83.3333333333333,4,2,1,60,0,0
15689,-100,4,2,1,60,0,0
16919,-83.3333333333333,4,2,1,60,0,0
18458,-133.333333333333,4,2,1,60,0,0
19535,-58.8235294117647,4,2,1,60,0,0
20150,-133.333333333333,4,2,1,60,0,0
20458,-105.263157894737,4,2,1,60,0,0
21227,-90.9090909090909,4,2,1,60,0,0
41535,-200,4,2,1,40,0,0
51381,-133.333333333333,4,2,1,60,0,0
55996,-200,4,2,1,60,0,0
56304,-100,4,2,1,60,0,0
61227,-83.3333333333333,4,2,1,85,0,1
62150,-100,4,2,1,85,0,1
69689,-83.3333333333333,4,2,1,85,0,1
71073,-100,4,2,1,85,0,1
76150,-100,4,2,1,85,0,1
77842,-100,4,2,1,85,0,1
80304,-125,4,2,1,85,0,1
80919,-83.3333333333333,4,2,1,60,0,0
83381,-100,4,2,1,60,0,0
84304,-100,4,2,1,45,0,0
84612,-100,4,2,1,45,0,0
87996,-76.9230769230769,4,2,1,45,0,0
89073,-125,4,2,1,45,0,0
89381,-90.9090909090909,4,2,1,45,0,0
90765,-100,4,2,1,65,0,0
92073,-100,4,2,1,5,0,0
92150,-100,4,2,1,65,0,0
100612,-83.3333333333333,4,2,1,65,0,0
103073,-66.6666666666667,4,2,1,65,0,0
103842,-100,4,2,1,65,0,0
109842,-133.333333333333,4,2,1,65,0,0
127689,-100,4,2,1,65,0,0
129535,-200,4,2,1,65,0,0
130150,-83.3333333333333,4,2,1,85,0,1
131073,-100,4,2,1,85,0,1
136150,-83.3333333333333,4,2,1,85,0,1
137381,-100,4,2,1,85,0,1
138150,-133.333333333333,4,2,1,85,0,1
138765,-100,4,2,1,85,0,1
139689,-133.333333333333,4,2,1,85,0,1
139996,-83.3333333333333,4,2,1,85,0,1
141227,-100,4,2,1,85,0,1
144919,-133.333333333333,4,2,1,85,0,1
146765,-100,4,2,1,85,0,1
148458,-133.333333333333,4,2,1,85,0,1
149842,-133.333333333333,4,2,1,65,0,0
162150,-100,4,2,1,65,0,0
165535,-100,4,2,1,65,0,0
165689,-100,4,2,1,65,0,0
166458,-100,4,2,1,65,0,0
166919,-83.3333333333333,4,2,1,85,0,1
167381,-100,4,2,1,85,0,1
170150,-76.9230769230769,4,2,1,85,0,1
170919,-90.9090909090909,4,2,1,85,0,1
174304,-66.6666666666667,4,2,1,85,0,1
175689,-90.9090909090909,4,2,1,85,0,1
176765,-133.333333333333,4,2,1,65,0,0
176919,-181.818181818182,4,2,1,5,0,0
189227,-181.818181818182,4,2,1,55,0,0
191689,-133.333333333333,4,2,1,55,0,0
194150,-100,4,2,1,55,0,0
196304,-76.9230769230769,4,2,1,55,0,0
196612,-100,4,2,1,55,0,0
198150,-181.818181818182,4,2,1,55,0,0
198458,-200,4,2,1,85,0,0
198612,-200,4,2,1,85,0,0
198765,-200,4,2,1,85,0,0
198919,-200,4,2,1,85,0,0
199073,-76.9230769230769,4,2,1,100,0,1
205304,-76.9230769230769,4,2,1,5,0,1
205381,-117.647058823529,4,2,1,100,0,1
205612,-117.647058823529,4,2,1,5,0,1
205689,-76.9230769230769,4,2,1,100,0,1
205919,-76.9230769230769,4,2,1,5,0,1
205996,-133.333333333333,4,2,1,100,0,1
206227,-133.333333333333,4,2,1,5,0,1
206304,-100,4,2,1,100,0,1
213842,-133.333333333333,4,2,1,100,0,1
215689,-100,4,2,1,100,0,1
216765,-133.333333333333,4,2,1,100,0,1
217381,-100,4,2,1,100,0,0
218765,-90.9090909090909,4,2,1,100,0,0
223458,-90.9090909090909,4,2,1,5,0,0
223535,-90.9090909090909,4,2,1,100,0,0
226458,-100,4,2,1,100,0,0
227996,-66.6666666666667,4,2,1,100,0,0
228304,-100,4,2,1,100,0,0
233535,-117.647058823529,4,2,1,100,0,0
235996,-100,4,2,1,100,0,0
237073,-117.647058823529,4,2,1,100,0,0
240689,-117.647058823529,4,2,1,5,0,0
240765,-188.679245283019,4,2,1,35,0,0
240842,-188.679245283019,4,2,1,5,0,0

[Colours]
Combo1 : 255,168,81
Combo2 : 0,128,192
Combo3 : 0,0,255
Combo4 : 244,64,91
Combo5 : 128,0,255

[HitObjects]
120,276,2150,5,4,1:2:0:0:
200,240,2304,1,0,0:0:0:0:
104,356,2458,1,0,1:0:0:0:
56,220,2612,1,0,1:0:0:0:
208,344,2765,2,0,L|296:340,1,68,2|0,0:0|1:0,0:0:0:0:
344,180,3073,2,0,L|256:184,1,68,0|0,0:0|1:0,0:0:0:0:
448,60,3381,5,0,0:0:0:0:
500,160,3535,1,0,1:0:0:0:
416,264,3689,2,0,L|424:176,1,68,2|0,0:0|1:2,0:0:0:0:
416,80,3996,1,0,1:0:0:0:
344,180,4150,1,2,0:0:0:0:
264,88,4304,2,0,L|336:96,1,68,0|2,1:0|0:0,0:0:0:0:
168,132,4612,6,0,P|92:156|28:116,1,136,4|0,1:2|1:0,0:0:0:0:
43,134,5073,1,4,1:2:0:0:
84,264,5227,2,0,L|76:336,1,68,0|2,0:0|0:0,0:0:0:0:
175,199,5535,2,0,L|167:127,1,68,0|2,1:0|0:0,0:0:0:0:
364,220,5842,5,0,0:0:0:0:
342,312,5996,1,2,0:0:0:0:
495,298,6150,1,0,1:0:0:0:
459,211,6304,1,0,1:0:0:0:
424,362,6458,1,2,0:0:0:0:
364,220,6612,1,0,0:0:0:0:
232,348,6765,1,0,1:0:0:0:
84,264,6919,1,0,1:0:0:0:
187,132,7073,6,0,L|171:220,1,68,4|0,1:2|0:0,0:0:0:0:
136,44,7381,1,0,1:0:0:0:
272,100,7535,2,0,B|324:92|324:92|360:104|360:104|428:96,1,136,0|0,1:0|1:0,0:0:0:0:
376,24,7996,1,0,0:0:0:0:
312,172,8150,2,0,P|304:232|316:288,1,102,0|0,1:0|0:0,0:0:0:0:
324,296,8458,6,0,L|400:288,1,68,0|0,1:0|0:0,0:0:0:0:
216,212,8765,2,0,L|148:220,1,68,0|0,1:0|1:0,0:0:0:0:
40,272,9073,1,2,0:0:0:0:
224,312,9227,1,0,1:0:0:0:
112,364,9381,1,2,0:0:0:0:
317,363,9535,6,0,P|324:328|324:296,1,68,4|0,1:2|0:0,0:0:0:0:
316,208,9842,1,0,0:0:0:0:
457,297,9996,2,0,P|392:284|309:301,1,136,4|0,1:2|1:0,0:0:0:0:
424,184,10458,1,0,0:0:0:0:
472,64,10612,1,0,1:0:0:0:
272,36,10766,5,0,1:0:0:0:
316,208,10919,1,0,1:0:0:0:
368,112,11073,1,2,0:0:0:0:
176,112,11227,1,0,1:0:0:0:
232,292,11381,6,0,L|240:264,21,18.4166658236186,0|0|0|0|0|0|0|0|0|0|0|0|0|0|0|0|0|0|2|0|0|2,1:0|0:0|0:0|0:0|0:0|0:0|1:0|0:0|0:0|0:0|0:0|0:0|1:0|0:0|0:0|0:0|0:0|0:0|1:2|0:0|0:0|1:2,0:0:0:0:
232,292,11996,6,0,P|176:288|140:296,1,85,4|0,1:2|0:0,0:0:0:0:
64,344,12304,1,0,1:0:0:0:
10,125,12458,2,0,B|86:137|86:137|186:109,1,170,4|0,1:2|1:0,0:0:0:0:
416,176,12919,1,4,1:2:0:0:
404,352,13073,6,0,B|424:312|408:268|408:268|432:272|464:260,1,127.5
336,308,13381,2,0,P|296:304|252:320,1,85,4|0,1:2|0:0,0:0:0:0:
152,292,13689,2,0,B|144:240|144:240|152:176,1,85,0|0,1:0|1:0,0:0:0:0:
176,112,13996,1,2,0:0:0:0:
84,152,14150,2,0,P|36:164|-16:148,1,85,0|0,1:0|1:0,0:0:0:0:
308,252,14458,6,0,B|372:268|440:236|440:236|424:272|432:312,1,203.999993774414,4|0,1:2|1:0,0:0:0:0:
360,168,14919,2,0,B|304:160|304:64|364:44|364:44|404:84,1,203.999993774414,4|0,1:2|1:0,0:0:0:0:
360,168,15381,1,4,1:2:0:0:
248,216,15535,1,0,0:0:0:0:
164,128,15689,6,0,P|164:76|176:40,1,85,0|0,1:0|1:0,0:0:0:0:
28,244,15996,2,0,P|80:240|116:248,1,85,0|0,0:0|1:0,0:0:0:0:
216,344,16304,1,0,1:0:0:0:
164,128,16458,1,0,1:0:0:0:
216,344,16612,1,0,1:0:0:0:
464,288,16765,1,2,1:2:0:0:
356,312,16919,6,0,B|376:256|348:192|348:192|392:220|424:208,1,203.999993774414,4|0,1:2|1:0,0:0:0:0:
348,60,17381,2,0,B|368:128|344:192|344:192|272:172|240:196,1,203.999993774414,4|0,1:2|1:0,0:0:0:0:
468,124,17842,1,4,1:2:0:0:
208,276,17996,2,0,P|176:240|200:96,1,203.999993774414,0|4,0:0|1:2,0:0:0:0:
336,208,18458,2,0,L|420:212,1,63.7500024318696,0|0,0:0|1:0,0:0:0:0:
136,324,18765,2,0,L|52:316,1,63.7500024318696,4|4,3:0|3:0,0:0:0:0:
156,56,19073,2,0,L|228:64,1,63.7500024318696,4|4,3:0|3:0,0:0:0:0:
336,336,19381,1,0,1:0:0:0:
268,240,19535,6,0,B|300:200|300:200|236:196|180:160|180:160|188:196,1,216.750004134178,0|0,1:0|0:0,0:0:0:0:
252,360,19842,2,0,B|236:308|236:308|268:240|268:240|316:276|384:252,1,216.750004134178,0|0,1:0|0:0,0:0:0:0:
381,110,20150,6,0,P|337:134|317:158,1,63.7500024318696,0|0,1:0|0:0,0:0:0:0:
288,316,20458,6,0,B|349:291|365:229|338:162|276:148|228:172|228:172|176:160|176:160|136:188|84:180,1,403.749989218712,4|0,1:2|1:0,0:0:0:0:
120,96,21381,1,0,1:0:0:0:
120,96,21458,1,0,0:0:0:0:
120,96,21535,1,0,0:0:0:0:
268,248,21689,1,0,0:0:0:0:
268,248,21765,1,0,0:0:0:0:
268,248,21842,6,0,L|368:232,1,93.5000028533936,4|0,1:2|0:0,0:0:0:0:
484,228,22150,1,0,1:0:0:0:
296,72,22304,1,2,1:2:0:0:
304,104,22381,1,2,0:0:0:0:
315,135,22458,1,2,0:0:0:0:
432,80,22612,1,0,1:0:0:0:
200,120,22765,1,0,0:0:0:0:
264,244,22919,6,0,B|328:236|360:288|360:288|360:236|388:208,1,187.000005706787,2|2,1:2|1:2,0:0:0:0:
280,336,23381,1,0,0:0:0:0:
92,280,23535,1,0,1:0:0:0:
80,320,23612,1,0,0:0:0:0:
92,356,23689,1,2,0:0:0:0:
180,312,23842,1,2,0:0:0:0:
36,204,23996,1,0,1:0:0:0:
60,176,24073,1,0,0:0:0:0:
76,144,24150,2,0,P|80:112|80:88,1,46.7500014266968,0|0,0:0|0:0,0:0:0:0:
180,48,24304,6,0,B|188:108|172:184|172:184|204:156|236:156,1,187.000005706787,4|0,1:2|1:0,0:0:0:0:
384,228,24765,1,2,1:2:0:0:
384,204,24842,1,2,0:0:0:0:
384,180,24919,1,2,0:0:0:0:
244,252,25073,1,0,1:0:0:0:
400,352,25227,1,0,0:0:0:0:
480,200,25381,1,2,1:2:0:0:
296,320,25535,6,0,P|248:340|204:332,1,93.5000028533936,0|2,0:0|1:2,0:0:0:0:
88,228,25842,1,0,0:0:0:0:
308,80,25996,1,0,1:0:0:0:
308,80,26073,1,0,0:0:0:0:
308,80,26150,2,0,P|328:104|336:136,1,46.7500014266968,2|0,1:2|0:0,0:0:0:0:
160,120,26304,2,0,P|168:96|188:72,1,46.7500014266968,0|0,0:0|0:0,0:0:0:0:
304,96,26458,2,0,P|324:120|332:152,1,46.7500014266968,0|0,1:0|0:0,0:0:0:0:
168,132,26612,2,0,P|176:108|196:84,1,46.7500014266968,0|0,1:0|1:0,0:0:0:0:
236,324,26765,6,0,B|244:288|232:252|232:252|252:208|252:208|240:176|248:136,1,187.000005706787,4|0,0:0|1:0,0:0:0:0:
480,180,27227,1,0,1:0:0:0:
488,216,27304,1,0,0:0:0:0:
476,256,27381,1,0,0:0:0:0:
296,208,27535,1,0,1:0:0:0:
424,56,27689,1,0,0:0:0:0:
404,216,27842,1,0,1:0:0:0:
192,40,27996,6,0,L|200:140,1,93.5000028533936,0|0,0:0|1:0,0:0:0:0:
108,300,28304,1,0,0:0:0:0:
140,280,28381,1,0,0:0:0:0:
176,272,28458,1,0,1:0:0:0:
212,276,28535,1,0,0:0:0:0:
248,292,28612,2,0,P|256:316|256:356,3,46.7500014266968,0|0|0|0,1:0|0:0|1:0|0:0,0:0:0:0:
296,208,28919,2,0,P|304:172|320:148,1,46.7500014266968,0|0,1:0|0:0,0:0:0:0:
220,116,29073,2,0,P|208:76|184:48,1,46.7500014266968,0|0,0:0|0:0,0:0:0:0:
134,30,29227,5,0,1:0:0:0:
220,116,29381,1,2,0:0:0:0:
134,203,29535,1,0,1:0:0:0:
45,116,29689,1,2,0:0:0:0:
48,232,29842,1,0,1:0:0:0:
64,264,29919,1,0,0:0:0:0:
96,284,29996,1,2,0:0:0:0:
132,292,30073,1,0,0:0:0:0:
168,288,30150,2,0,P|192:268|212:240,1,46.7500014266968,2|2,1:2|0:0,0:0:0:0:
315,212,30304,2,0,P|279:236|267:252,1,46.7500014266968,2|2,1:2|0:0,0:0:0:0:
256,344,30458,5,0,1:0:0:0:
368,284,30612,1,0,0:0:0:0:
476,348,30765,1,0,1:0:0:0:
484,116,30919,1,0,1:0:0:0:
368,156,31073,1,0,1:0:0:0:
284,68,31227,1,0,0:0:0:0:
252,88,31304,1,0,0:0:0:0:
212,92,31381,1,0,1:0:0:0:
176,88,31458,1,0,0:0:0:0:
144,68,31535,1,0,1:0:0:0:
108,64,31612,1,0,0:0:0:0:
72,72,31689,6,0,P|68:128|76:188,1,93.5000028533936,4|0,1:2|0:0,0:0:0:0:
152,328,31996,1,0,1:0:0:0:
275,158,32150,2,0,P|327:150|395:166,1,93.5000028533936,4|0,1:2|0:0,0:0:0:0:
492,220,32458,1,0,1:0:0:0:
152,328,32612,6,0,B|128:200|128:200|148:216|176:232,1,187.000005706787,4|0,1:2|1:0,0:0:0:0:
64,328,33073,2,0,L|40:196,1,93.5000028533936,0|0,1:2|0:0,0:0:0:0:
288,328,33381,1,0,1:0:0:0:
296,76,33535,1,4,3:0:0:0:
300,108,33612,1,0,0:0:0:0:
304,140,33689,1,4,3:0:0:0:
308,172,33765,1,0,0:0:0:0:
312,204,33842,2,0,L|304:272,1,46.7500014266968,4|0,3:0|0:0,0:0:0:0:
212,312,33996,2,0,L|228:376,1,46.7500014266968,0|0,0:0|0:0,0:0:0:0:
132,248,34150,6,0,P|72:240|32:252,1,93.5000028533936,4|0,1:2|0:0,0:0:0:0:
44,140,34458,1,0,0:0:0:0:
212,312,34612,2,0,P|224:248|216:204,1,93.5000028533936,4|0,1:2|0:0,0:0:0:0:
164,92,34919,1,0,1:2:0:0:
312,204,35073,2,0,P|372:192|432:212,1,93.5000028533936,4|0,0:0|1:0,0:0:0:0:
368,352,35381,5,0,1:0:0:0:
212,312,35535,1,4,3:0:0:0:
264,80,35689,1,4,3:0:0:0:
416,120,35843,1,4,3:0:0:0:
312,204,35996,1,0,0:0:0:0:
316,216,36073,1,0,0:0:0:0:
320,228,36150,1,0,0:0:0:0:
324,240,36227,1,0,1:0:0:0:
328,252,36304,1,0,1:0:0:0:
202,357,36458,2,0,L|216:293,1,46.7500014266968,0|0,1:0|1:0,0:0:0:0:
92,292,36612,6,0,B|160:276|212:312|212:312|204:276|220:224,1,187.000005706787,4|0,1:2|0:0,0:0:0:0:
448,232,37073,2,0,B|308:284|308:284|348:312,1,187.000005706787,4|0,1:2|1:0,0:0:0:0:
208,200,37535,2,0,P|216:144|212:116,1,46.7500014266968,4|0,1:2|0:0,0:0:0:0:
152,32,37689,2,0,P|144:88|148:116,1,46.7500014266968,0|0,0:0|0:0,0:0:0:0:
264,60,37842,6,0,L|368:48,1,93.5000028533936,0|0,1:0|1:0,0:0:0:0:
480,120,38150,1,0,0:0:0:0:
396,304,38304,2,0,L|408:360,1,46.7500014266968,0|0,1:0|0:0,0:0:0:0:
332,220,38458,2,0,L|340:164,1,46.7500014266968,0|0,1:0|0:0,0:0:0:0:
264,312,38612,2,0,L|276:368,1,46.7500014266968,0|0,1:0|0:0,0:0:0:0:
192,224,38765,6,0,L|200:168,1,46.7500014266968,4|4,3:0|3:0,0:0:0:0:
124,320,38919,2,0,L|132:372,1,46.7500014266968,4|4,3:0|3:0,0:0:0:0:
40,248,39073,6,0,L|48:136,1,93.5000028533936,4|0,1:2|0:0,0:0:0:0:
100,44,39381,1,0,0:0:0:0:
188,130,39535,2,0,L|192:238,1,93.5000028533936,4|0,1:2|0:0,0:0:0:0:
264,304,39842,1,0,0:0:0:0:
28,340,39996,2,0,L|40:244,1,93.5000028533936,4|0,1:2|0:0,0:0:0:0:
36,84,40304,5,0,1:0:0:0:
69,97,40381,1,0,0:0:0:0:
105,107,40458,1,0,1:0:0:0:
141,108,40535,1,0,1:0:0:0:
177,102,40612,1,0,1:0:0:0:
212,83,40689,1,0,0:0:0:0:
247,69,40765,1,4,3:0:0:0:
282,58,40842,1,0,0:0:0:0:
318,56,40919,5,4,3:0:0:0:
354,57,40996,1,0,0:0:0:0:
391,67,41073,1,4,3:0:0:0:
428,80,41150,1,2,0:0:0:0:
458,102,41227,2,0,P|460:144|456:168,1,46.7500014266968,4|2,3:0|0:0,0:0:0:0:
276,352,41381,2,0,P|272:304|276:268,1,46.7500014266968,0|0,0:0|0:0,0:0:0:0:
336,152,41535,5,4,1:2:0:0:
184,240,41842,1,0,0:0:0:0:
276,352,42150,2,0,L|287:311,3,42.5,0|0|0|0,0:0|0:0|0:0|0:0,0:0:0:0:
188,336,42765,6,0,L|88:332,1,85,0|0,0:0|0:0,0:0:0:0:
32,184,43381,2,0,L|132:188,1,85,0|0,0:0|0:0,0:0:0:0:
256,52,43996,5,0,0:0:0:0:
256,52,44304,1,0,0:0:0:0:
360,272,44612,2,0,P|360:244|368:224,1,42.5,0|0,0:0|0:0,0:0:0:0:
480,232,44919,2,0,P|485:252|484:273,1,42.5,0|0,0:0|0:0,0:0:0:0:
404,360,45227,6,0,L|312:356,1,85,0|0,0:0|0:0,0:0:0:0:
72,284,45842,2,0,L|68:332,1,42.5,0|0,0:0|0:0,0:0:0:0:
128,200,46150,2,0,L|120:152,1,42.5,0|0,0:0|0:0,0:0:0:0:
184,288,46458,5,0,0:0:0:0:
192,300,46765,1,0,0:0:0:0:
320,152,47073,5,0,0:0:0:0:
312,140,47227,1,0,0:0:0:0:
376,76,47381,1,0,0:0:0:0:
384,88,47535,1,0,0:0:0:0:
464,152,47689,6,0,L|456:252,1,85,0|0,0:0|0:0,0:0:0:0:
272,360,48304,2,0,L|280:260,1,85,0|0,0:0|0:0,0:0:0:0:
184,64,48919,6,0,P|128:72|88:60,1,85,0|0,0:0|0:0,0:0:0:0:
316,48,49535,2,0,L|324:96,1,42.5,0|0,0:0|0:0,0:0:0:0:
232,164,49842,2,0,L|228:212,1,42.5,0|0,0:0|0:0,0:0:0:0:
316,344,50150,6,0,B|324:292|308:228|308:228|340:240|376:240,1,170,0|0,0:0|0:0,0:0:0:0:
412,312,51073,1,0,0:0:0:0:
72,324,51381,6,0,L|164:320,1,63.7500024318696,2|0,0:0|0:0,0:0:0:0:
224,316,51689,1,0,1:0:0:0:
460,88,51996,6,0,L|368:92,1,63.7500024318696
308,96,52304,1,0,1:0:0:0:
216,360,52612,5,0,0:0:0:0:
288,24,52919,1,0,1:0:0:0:
304,300,53227,1,0,0:0:0:0:
200,88,53535,1,0,1:0:0:0:
332,188,53842,6,0,L|404:184,1,63.7500024318696,0|0,0:0|0:0,0:0:0:0:
472,112,54150,1,0,1:0:0:0:
304,300,54458,6,0,L|232:296,1,63.7500024318696
164,224,54766,1,0,1:0:0:0:
20,128,55073,6,0,L|92:124,1,63.7500024318696,0|0,0:0|0:0,0:0:0:0:
160,52,55381,1,0,1:0:0:0:
240,172,55535,2,0,P|256:232|224:304,1,127.500004863739,0|0,0:0|0:0,0:0:0:0:
128,344,55996,2,0,L|48:340,1,63.75,0|0,1:0|0:0,0:0:0:0:
36,336,56304,6,0,P|28:292|48:232,1,85,4|0,1:2|1:0,0:0:0:0:
160,52,56612,1,0,1:0:0:0:
240,172,56765,1,4,1:2:0:0:
128,344,56919,1,0,1:0:0:0:
156,228,57073,1,0,1:0:0:0:
396,328,57227,1,4,1:2:0:0:
344,212,57381,1,0,1:0:0:0:
264,336,57535,5,0,1:0:0:0:
464,224,57689,1,4,1:2:0:0:
312,68,57842,1,0,1:0:0:0:
340,240,57996,1,0,1:0:0:0:
440,100,58150,1,0,1:0:0:0:
232,112,58304,1,0,1:0:0:0:
232,112,58381,1,0,0:0:0:0:
232,112,58458,1,0,1:0:0:0:
272,320,58612,1,0,1:0:0:0:
272,320,58689,1,0,0:0:0:0:
272,320,58765,6,0,L|276:216,1,85,4|0,1:3|1:0,0:0:0:0:
168,168,59073,1,0,1:0:0:0:
112,320,59227,6,0,L|20:316,1,85,0|0,1:0|0:0,0:0:0:0:
412,252,59535,2,0,L|508:260,1,85,0|0,1:0|0:0,0:0:0:0:
256,32,59842,2,0,L|252:140,1,85,0|0,1:0|0:0,0:0:0:0:
60,304,61227,6,0,B|112:292|112:292|184:300,1,101.999996887207,4|0,1:2|0:0,0:0:0:0:
464,248,61535,2,0,B|412:260|412:260|340:252,1,101.999996887207,8|0,0:0|1:0,0:0:0:0:
316,184,61765,1,0,1:0:0:0:
312,168,61842,2,0,L|320:40,1,101.999996887207,0|0,1:0|0:0,0:0:0:0:
192,212,62150,1,8,0:0:0:0:
200,328,62304,1,0,0:0:0:0:
388,296,62458,6,0,L|288:288,1,85,0|2,1:0|0:0,0:0:0:0:
24,248,62765,2,0,L|124:240,1,85,8|2,0:0|0:0,0:0:0:0:
300,152,63073,2,0,P|364:168|440:144,1,127.5,0|0,1:0|0:0,0:0:0:0:
456,140,63381,2,0,L|452:24,1,85,8|0,0:0|0:0,0:0:0:0:
240,60,63689,5,0,1:0:0:0:
300,152,63842,1,0,0:0:0:0:
138,197,63996,1,8,0:0:0:0:
137,93,64150,1,0,0:0:0:0:
236,240,64304,1,0,1:0:0:0:
136,332,64458,1,2,0:0:0:0:
136,332,64535,1,0,0:0:0:0:
136,332,64612,1,8,0:0:0:0:
212,148,64765,1,2,0:0:0:0:
332,344,64919,6,0,B|388:352|388:352|460:340|460:340|520:348,1,170,0|8,1:0|0:0,0:0:0:0:
288,120,65381,1,0,1:0:0:0:
292,136,65458,1,0,0:0:0:0:
296,152,65535,1,0,1:0:0:0:
384,272,65689,2,0,L|396:228,2,42.5,0|8|8,1:0|0:0|0:0,0:0:0:0:
224,352,65996,1,0,0:0:0:0:
256,60,66150,5,4,1:2:0:0:
180,184,66304,1,0,0:0:0:0:
256,40,66458,1,8,0:0:0:0:
324,184,66612,1,0,1:0:0:0:
256,24,66765,5,0,1:0:0:0:
324,184,66919,1,0,0:0:0:0:
224,352,67073,1,8,0:0:0:0:
20,245,67227,6,0,L|30:92,1,127.5,4|0,1:2|0:0,0:0:0:0:
30,82,67535,1,4,1:2:0:0:
16,368,67689,1,0,0:0:0:0:
224,324,67842,2,0,L|92:312,1,127.5,0|0,1:0|0:0,0:0:0:0:
76,304,68150,1,2,1:2:0:0:
236,224,68304,1,0,0:0:0:0:
352,360,68458,6,0,P|396:312|368:220,1,170,4|0,1:2|1:0,0:0:0:0:
484,344,68919,1,8,0:0:0:0:
316,284,69073,1,0,1:0:0:0:
316,284,69150,1,0,1:0:0:0:
316,284,69227,1,0,1:0:0:0:
113,336,69381,1,8,0:0:0:0:
222,354,69535,1,0,0:0:0:0:
56,232,69689,6,0,L|51:129,1,101.999996887207,4|0,1:2|0:0,0:0:0:0:
153,48,69996,1,0,1:0:0:0:
153,48,70073,1,0,0:0:0:0:
153,48,70150,2,0,L|158:109,2,50.9999984436036,8|0|0,1:2|1:0|1:0,1:0:0:0:
200,180,70458,5,4,3:0:0:0:
240,184,70535,1,0,0:0:0:0:
280,176,70612,1,4,3:0:0:0:
316,156,70689,1,0,0:0:0:0:
332,120,70765,2,0,L|320:60,1,50.9999984436036,8|0,1:2|1:0,0:0:0:0:
435,49,70919,2,0,L|431:113,1,50.9999984436036,0|0,1:0|1:0,0:0:0:0:
496,172,71073,6,0,B|500:232|500:232|488:288,1,85,4|0,1:2|0:0,0:0:0:0:
444,312,71304,1,0,0:0:0:0:
428,320,71381,2,0,L|332:312,1,85,8|0,0:0|1:0,0:0:0:0:
128,220,71689,2,0,B|120:172|120:172|132:120,1,85,0|2,1:0|0:0,0:0:0:0:
256,264,71996,2,0,B|264:312|264:312|252:364,1,85,8|0,0:0|0:0,0:0:0:0:
132,312,72304,6,0,L|44:304,1,85,8|2,1:2|0:0,0:0:0:0:
248,172,72612,2,0,L|336:180,1,85,8|2,0:0|0:0,0:0:0:0:
444,120,72919,1,0,1:0:0:0:
360,24,73073,1,2,0:0:0:0:
408,216,73227,2,0,P|420:288|400:344,1,127.5,8|0,0:0|0:0,0:0:0:0:
368,352,73535,6,0,L|280:344,1,85,0|0,1:0|0:0,0:0:0:0:
100,204,73842,1,8,0:0:0:0:
256,87,73996,1,0,0:0:0:0:
256,87,74150,2,0,L|244:203,1,85,0|2,1:0|0:0,0:0:0:0:
132,360,74458,2,0,L|144:244,1,85,8|2,0:0|0:0,0:0:0:0:
368,164,74765,5,4,3:0:0:0:
248,284,74919,1,0,0:0:0:0:
164,124,75073,1,4,1:2:0:0:
372,268,75227,1,0,0:0:0:0:
404,276,75304,1,0,0:0:0:0:
436,288,75381,2,0,P|396:284|352:300,1,85,8|2,0:0|1:2,0:0:0:0:
216,360,75689,1,8,0:0:0:0:
48,136,75842,1,0,1:0:0:0:
48,136,75919,1,0,1:0:0:0:
48,136,75996,5,4,1:2:0:0:
232,48,76150,2,0,L|344:56,1,85,0|0,1:0|0:0,0:0:0:0:
496,252,76458,5,4,1:2:0:0:
312,164,76612,2,0,L|200:172,1,85,0|0,1:0|0:0,0:0:0:0:
40,352,76919,5,4,1:2:0:0:
224,264,77073,2,0,L|336:272,1,85,0|0,1:0|0:0,0:0:0:0:
432,96,77381,5,4,1:2:0:0:
408,336,77535,2,0,L|416:236,1,85,0|0,1:0|0:0,0:0:0:0:
172,60,77842,5,10,1:2:0:0:
96,272,77996,1,0,0:0:0:0:
24,144,78150,1,8,1:2:0:0:
296,176,78304,1,8,0:0:0:0:
296,176,78381,1,8,0:0:0:0:
296,176,78458,5,0,1:0:0:0:
272,320,78612,1,0,0:0:0:0:
140,196,78765,1,8,0:0:0:0:
344,245,78919,2,0,P|420:253|480:205,1,127.5,0|0,1:0|0:0,0:0:0:0:
472,209,79227,2,0,L|460:105,1,85,4|14,3:0|0:0,0:0:0:0:
280,244,79535,6,0,B|216:244|164:160|220:68|300:72|336:100|356:128|356:128|392:108|392:108|424:136|468:124,1,425,4|0,3:0|1:0,0:0:0:0:
298,177,80458,1,0,1:0:0:0:
298,177,80535,1,8,0:0:0:0:
298,177,80612,1,8,0:0:0:0:
368,249,80765,1,0,3:0:0:0:
327,342,80919,1,4,3:0:0:0:
256,192,80996,12,0,82150,1:0:0:0:
164,62,82458,5,0,0:0:0:0:
164,62,82765,1,0,0:0:0:0:
164,62,83073,1,0,0:0:0:0:
164,62,83381,6,0,L|169:157,1,85
215,238,83689,2,0,L|202:345,1,85
360,53,83996,2,0,L|365:148,1,85
411,229,84304,2,0,L|398:336,1,85
256,192,84612,5,2,0:0:0:0:
47,282,84765,2,0,P|35:202|47:114,1,170,8|0,0:0|1:0,0:0:0:0:
188,328,85227,2,0,B|232:324|232:324|272:331,1,85,0|0,1:0|0:0,0:0:0:0:
344,340,85458,1,0,0:0:0:0:
356,344,85535,2,0,P|368:292|360:240,1,85,0|0,1:0|0:0,0:0:0:0:
248,100,85842,6,0,B|200:108|200:108|164:92|164:92|120:112|72:96,1,170,0|8,1:0|0:0,0:0:0:0:
0,264,86304,2,0,B|45:249|45:249|72:252|108:276|108:276|136:256|176:256,1,170,0|0,1:0|1:0,0:0:0:0:
36,340,86765,1,8,0:0:0:0:
116,188,86919,1,0,0:0:0:0:
356,336,87073,6,0,L|360:244,1,85,0|0,1:0|0:0,0:0:0:0:
364,116,87381,1,8,0:0:0:0:
284,188,87535,2,0,B|331:193|363:160|363:160|399:196|452:189,1,170,0|0,1:0|1:0,0:0:0:0:
272,336,87996,2,0,B|276:300|300:272|300:272|236:276|212:228,1,165.749992412568,8|0,0:0|0:0,0:0:0:0:
356,336,88304,6,0,B|412:356|464:312|464:312|440:312|412:304,1,165.749992412568,4|0,0:0|0:0,0:0:0:0:
376,272,88612,1,0,1:0:0:0:
284,104,88765,2,0,P|316:52|412:52,1,165.749992412568,8|0,0:0|0:0,0:0:0:0:
440,88,89073,2,0,L|444:176,1,68,0|0,0:0|3:0,0:0:0:0:
116,336,89381,6,0,L|120:220,1,93.5000028533936,0|0,1:0|0:0,0:0:0:0:
284,104,89689,2,0,L|280:224,1,93.5000028533936,0|0,1:0|0:0,0:0:0:0:
260,344,89996,5,0,1:0:0:0:
240,256,90150,1,0,0:0:0:0:
320,200,90304,1,0,3:0:0:0:
392,264,90458,1,0,3:0:0:0:
356,352,90612,1,0,3:0:0:0:
240,256,90765,6,0,L|144:260,1,85,0|0,1:0|0:0,0:0:0:0:
60,212,91073,1,0,1:0:0:0:
321,43,91227,2,0,P|349:119|313:206,1,170,0|0,1:0|1:2,0:0:0:0:
240,256,91689,1,0,1:0:0:0:
448,340,91842,1,0,0:0:0:0:
448,340,91919,1,0,0:0:0:0:
448,340,91996,5,0,0:0:0:0:
404,202,92150,2,0,L|308:198,1,85,0|0,0:0|1:0,0:0:0:0:
120,248,92458,1,0,0:0:0:0:
120,248,92535,1,0,0:0:0:0:
120,248,92612,1,2,0:0:0:0:
124,144,92765,1,0,1:0:0:0:
48,336,92919,2,0,P|108:356|192:336,1,127.5,0|0,1:0|0:0,0:0:0:0:
208,332,93227,6,0,P|216:268|212:228,1,85,0|0,1:0|0:0,0:0:0:0:
124,144,93535,1,0,1:0:0:0:
296,192,93689,1,0,1:0:0:0:
320,188,93765,1,2,0:0:0:0:
344,184,93842,1,2,0:0:0:0:
268,56,93996,1,0,1:0:0:0:
204,224,94150,1,0,1:0:0:0:
352,328,94304,2,0,L|412:336,1,42.5,0|0,0:0|0:0,0:0:0:0:
448,332,94458,6,0,B|460:284|460:284|440:256|440:232|440:232|468:204|464:168,1,170,0|0,1:0|1:0,0:0:0:0:
268,56,94919,1,0,1:0:0:0:
204,224,95073,1,2,0:0:0:0:
124,140,95227,1,0,1:0:0:0:
324,152,95381,1,0,1:0:0:0:
124,140,95535,1,0,0:0:0:0:
324,152,95689,6,0,B|268:156|268:156|208:132|208:132|144:136,1,170,0|0,1:0|1:0,0:0:0:0:
224,304,96150,2,0,B|204:224|204:224|248:240,1,127.5,0|0,0:0|0:0,0:0:0:0:
329,231,96458,2,0,B|277:243|277:243|209:235,1,85,0|0,2:0|1:0,0:0:0:0:
124,320,96765,1,0,0:0:0:0:
28,116,96919,5,0,1:0:0:0:
144,200,97073,1,0,0:0:0:0:
32,296,97227,1,0,1:0:0:0:
253,150,97381,1,0,0:0:0:0:
273,154,97458,1,0,0:0:0:0:
293,158,97535,1,2,0:0:0:0:
488,216,97689,1,0,1:0:0:0:
312,164,97842,1,0,1:0:0:0:
488,216,97996,1,0,0:0:0:0:
244,200,98150,6,0,P|236:136|324:84,1,170,0|0,1:0|0:0,0:0:0:0:
136,56,98612,1,0,1:0:0:0:
104,196,98765,1,0,1:0:0:0:
192,316,98919,1,0,0:0:0:0:
36,324,99073,2,0,B|96:332|96:332|188:316,1,127.5,2|0,1:2|0:0,0:0:0:0:
192,316,99381,6,0,P|196:256|196:220,1,85,0|0,1:0|3:0,0:0:0:0:
304,164,99689,2,0,P|300:88|304:60,1,85,0|0,1:0|3:0,0:0:0:0:
496,280,99996,1,0,1:0:0:0:
388,336,100150,1,0,3:0:0:0:
284,288,100304,1,0,1:0:0:0:
192,316,100458,1,0,3:0:0:0:
180,132,100612,6,0,L|192:304,1,152.999995330811,4|0,1:2|0:0,0:0:0:0:
192,316,100919,1,0,1:0:0:0:
496,144,101073,2,0,B|432:160|432:160|340:140,1,152.999995330811,4|0,1:2|0:0,0:0:0:0:
316,132,101381,1,0,1:0:0:0:
496,240,101535,1,4,1:2:0:0:
312,332,101689,1,0,0:0:0:0:
316,312,101765,1,0,0:0:0:0:
320,292,101842,5,0,1:0:0:0:
316,132,101996,1,0,1:2:0:0:
408,304,102150,1,0,0:0:0:0:
220,180,102304,1,0,1:0:0:0:
224,200,102380,1,0,0:0:0:0:
228,220,102457,1,4,3:0:0:0:
100,196,102612,1,4,3:0:0:0:
316,132,102765,1,4,3:0:0:0:
100,196,102919,1,0,0:0:0:0:
244,360,103073,6,0,B|210:301|244:233|244:233|208:249|164:249,1,191.250007295609,4|0,1:2|0:0,0:0:0:0:
100,196,103381,1,0,0:0:0:0:
316,293,103535,2,0,B|364:257|440:293|440:293|408:301|388:329,1,191.250007295609,4|0,1:2|0:0,0:0:0:0:
435,199,103842,2,0,P|448:164|436:112,1,85,4|0,1:2|0:0,0:0:0:0:
187,247,104150,1,0,0:0:0:0:
197,18,104304,5,0,1:0:0:0:
360,160,104458,1,4,3:0:0:0:
139,140,104612,1,4,3:0:0:0:
336,32,104765,1,4,3:0:0:0:
243,232,104919,1,2,0:0:0:0:
56,114,105073,1,0,1:0:0:0:
60,89,105150,1,0,1:0:0:0:
73,67,105227,2,0,L|132:72,1,42.5,8|0,1:2|0:0,0:0:0:0:
243,232,105381,1,0,1:0:0:0:
243,232,105458,1,0,1:0:0:0:
243,232,105535,6,0,B|299:244|299:244|409:224,1,170,12|0,1:2|0:0,0:0:0:0:
470,120,105996,1,4,1:2:0:0:
304,278,106150,2,0,B|308:382,1,85,0|0,0:0|1:0,0:0:0:0:
24,296,106458,2,0,B|84:316|84:316|192:296,1,170,4|0,1:2|1:0,0:0:0:0:
84,220,106919,5,0,1:0:0:0:
192,376,107073,1,0,0:0:0:0:
304,302,107227,1,4,3:0:0:0:
416,353,107381,1,0,0:0:0:0:
373,190,107535,1,4,3:0:0:0:
492,293,107689,1,0,0:0:0:0:
490,142,107842,1,0,1:0:0:0:
486,122,107919,1,0,1:0:0:0:
478,102,107996,6,0,L|378:106,1,85,4|0,1:2|0:0,0:0:0:0:
188,272,108304,1,0,1:0:0:0:
20,64,108458,6,0,L|120:68,1,85,4|0,1:2|0:0,0:0:0:0:
284,144,108766,1,0,1:0:0:0:
80,300,108919,6,0,L|80:196,1,85,4|0,1:2|0:0,0:0:0:0:
208,48,109227,1,0,1:0:0:0:
392,156,109381,5,0,1:0:0:0:
392,156,109458,1,0,0:0:0:0:
392,156,109535,1,0,0:0:0:0:
188,272,109689,1,0,1:0:0:0:
268,332,109842,6,0,P|312:328|352:340,1,63.7500024318696,0|0,1:0|0:0,0:0:0:0:
104,208,110150,2,0,P|60:212|20:200,1,63.7500024318696,0|0,1:0|0:0,0:0:0:0:
208,48,110458,5,4,3:0:0:0:
256,352,120304,5,2,0:0:0:0:
32,224,120612,1,0,1:0:0:0:
256,352,120919,5,2,0:0:0:0:
484,224,121227,1,0,1:0:0:0:
256,352,121535,5,2,0:0:0:0:
184,84,121842,1,0,1:0:0:0:
256,352,122150,5,2,0:0:0:0:
332,80,122458,1,0,1:0:0:0:
172,352,122765,6,0,L|164:276,1,63.7500024318696,2|0,0:0|0:0,0:0:0:0:
148,188,123073,1,0,1:0:0:0:
308,244,123381,6,0,L|316:168,1,63.7500024318696,2|0,0:0|0:0,0:0:0:0:
332,80,123689,1,0,1:0:0:0:
56,124,123996,6,0,P|44:196|64:264,1,127.500004863739,2|0,0:0|1:0,0:0:0:0:
172,352,124458,2,0,L|324:340,1,127.500004863739,0|0,0:0|0:0,0:0:0:0:
445,290,124919,1,0,0:0:0:0:
128,252,125073,1,0,0:0:0:0:
128,252,125150,1,0,0:0:0:0:
128,252,125227,5,4,1:2:0:0:
256,192,125381,1,0,0:0:0:0:
252,328,125535,1,0,1:0:0:0:
153,154,125689,1,4,1:2:0:0:
347,264,125842,5,0,0:0:0:0:
144,352,125996,1,0,1:0:0:0:
256,192,126150,1,4,1:2:0:0:
340,356,126304,1,0,0:0:0:0:
126,243,126458,5,0,1:0:0:0:
340,128,126612,1,4,1:2:0:0:
110,49,126765,1,0,0:0:0:0:
256,260,126919,1,4,1:2:0:0:
256,25,127073,5,0,1:0:0:0:
40,145,127227,1,0,0:0:0:0:
40,145,127304,1,0,0:0:0:0:
40,145,127381,1,0,1:0:0:0:
120,360,127535,1,8,0:0:0:0:
340,128,127689,6,0,L|512:139,1,170,0|0,1:0|0:0,0:0:0:0:
313,285,128150,2,0,L|227:276,1,85,0|0,1:0|0:0,0:0:0:0:
400,48,128458,2,0,L|488:56,1,85,0|0,1:0|0:0,0:0:0:0:
259,373,128765,2,0,L|166:364,1,85,0|0,1:0|0:0,0:0:0:0:
304,64,129535,6,0,B|260:72|260:72|216:60,1,85
448,352,130150,6,0,B|464:292|464:292|448:216,1,101.999996887207,4|0,1:2|0:0,0:0:0:0:
196,288,130458,1,8,0:0:0:0:
440,200,130612,1,0,1:0:0:0:
448,228,130689,1,0,1:0:0:0:
455,252,130765,2,0,B|407:272|407:272|331:256,1,101.999996887207,0|0,1:0|0:0,0:0:0:0:
268,184,131073,2,0,L|276:72,1,85,8|0,0:0|0:0,0:0:0:0:
112,44,131381,6,0,P|60:36|8:44,1,85,0|2,1:0|0:0,0:0:0:0:
112,284,131689,2,0,P|164:292|216:284,1,85,0|2,0:0|0:0,0:0:0:0:
274,99,131996,2,0,P|278:175|270:203,1,85,0|2,1:0|0:0,0:0:0:0:
32,328,132304,2,0,P|28:252|36:224,1,85,8|0,0:0|1:0,0:0:0:0:
156,136,132612,5,0,1:0:0:0:
228,280,132765,1,0,0:0:0:0:
380,176,132919,1,8,0:0:0:0:
140,128,133073,1,0,0:0:0:0:
312,48,133227,2,0,L|304:140,1,85,0|2,1:0|0:0,0:0:0:0:
348,316,133535,2,0,P|396:308|444:320,1,85,8|2,0:0|0:0,0:0:0:0:
484,164,133842,5,0,1:0:0:0:
296,240,133996,1,0,1:0:0:0:
288,220,134073,1,8,0:0:0:0:
280,200,134150,1,8,0:0:0:0:
312,48,134304,1,0,1:0:0:0:
184,128,134458,5,0,1:0:0:0:
48,108,134612,1,0,1:0:0:0:
48,108,134689,1,8,0:0:0:0:
48,108,134765,2,0,P|56:76|72:56,1,42.5,8|0,0:0|0:0,0:0:0:0:
152,236,134919,2,0,L|160:288,1,42.5,0|0,1:0|1:0,0:0:0:0:
224,352,135073,5,4,1:2:0:0:
348,304,135227,1,0,0:0:0:0:
472,352,135381,5,8,0:0:0:0:
356,280,135535,1,0,1:0:0:0:
216,336,135689,5,0,1:0:0:0:
344,252,135842,1,0,0:0:0:0:
484,332,135996,5,8,0:0:0:0:
360,220,136150,6,0,B|348:184|372:136|372:136|344:156|304:144,1,152.999995330811,4|0,1:2|0:0,0:0:0:0:
332,68,136458,2,0,B|384:56|384:56|472:76,1,101.999996887207,4|0,1:2|0:0,0:0:0:0:
484,332,136765,2,0,L|304:324,1,152.999995330811,0|0,1:0|0:0,0:0:0:0:
288,324,137073,1,2,1:2:0:0:
480,248,137227,1,0,0:0:0:0:
248,228,137381,6,0,B|216:136|284:148|240:28,1,170,4|0,1:2|1:0,0:0:0:0:
328,184,137842,2,0,P|384:188|436:176,1,85,8|0,0:0|1:0,0:0:0:0:
172,104,138150,6,0,P|104:120|40:96,1,127.500004863739,0|8,1:0|0:0,0:0:0:0:
0,52,138612,1,4,1:2:0:0:
172,104,138765,5,0,0:0:0:0:
328,76,138919,1,0,1:0:0:0:
340,56,138996,1,0,1:0:0:0:
348,36,139073,2,0,L|360:112,1,42.5,8|0,0:0|0:0,0:0:0:0:
328,184,139227,2,0,L|340:260,1,42.5,0|0,3:0|0:0,0:0:0:0:
296,344,139381,1,2,0:0:0:0:
432,276,139535,1,8,0:0:0:0:
216,292,139689,6,0,L|112:284,1,95.6250036478044,8|0,1:2|0:0,0:0:0:0:
25,222,139996,6,0,P|17:158|33:98,1,101.999996887207,4|0,1:2|0:0,0:0:0:0:
238,109,140304,2,0,P|246:173|230:233,1,101.999996887207,8|0,0:0|1:0,0:0:0:0:
216,292,140535,1,0,0:0:0:0:
216,292,140612,1,0,1:0:0:0:
124,180,140765,1,2,0:0:0:0:
48,324,140919,2,0,P|124:332|200:296,1,152.999995330811,8|0,0:0|0:0,0:0:0:0:
216,292,141227,6,0,L|304:308,1,85,8|2,1:2|0:0,0:0:0:0:
476,260,141535,1,8,0:0:0:0:
290,71,141689,1,2,0:0:0:0:
290,71,141765,1,0,0:0:0:0:
290,71,141842,2,0,L|294:179,1,85,0|2,1:0|0:0,0:0:0:0:
219,376,142150,2,0,L|215:268,1,85,8|0,0:0|0:0,0:0:0:0:
16,176,142458,5,0,1:0:0:0:
152,276,142612,1,0,0:0:0:0:
272,156,142765,1,8,0:0:0:0:
144,84,142919,5,0,0:0:0:0:
272,264,143073,1,0,1:0:0:0:
472,127,143227,1,2,0:0:0:0:
294,30,143381,5,8,0:0:0:0:
272,264,143535,1,2,0:0:0:0:
458,276,143689,6,0,L|464:192,1,85,4|0,3:0|0:0,0:0:0:0:
183,83,143996,2,0,L|189:167,1,85,4|0,3:0|0:0,0:0:0:0:
381,265,144304,1,8,0:0:0:0:
340,252,144381,1,0,0:0:0:0:
297,247,144458,1,2,1:2:0:0:
257,262,144535,1,0,0:0:0:0:
221,285,144612,2,0,L|214:327,1,42.5,8|0,0:0|1:0,0:0:0:0:
125,239,144765,2,0,L|120:177,1,42.5
56,318,144919,5,4,1:2:0:0:
53,107,145074,2,0,L|48:44,1,63.7500024318696,0|0,1:0|0:0,0:0:0:0:
8,208,145381,5,4,1:2:0:0:
260,176,145536,2,0,L|324:182,1,63.7500024318696,0|0,1:3|0:3,0:0:0:0:
237,72,145842,5,4,1:2:0:0:
116,312,145997,2,0,L|101:374,1,63.7500024318696,0|0,1:0|0:0,0:0:0:0:
324,312,146304,5,4,1:2:0:0:
69,223,146459,2,0,L|8:208,1,63.7500024318696,0|0,1:0|0:0,0:0:0:0:
400,260,146765,6,0,L|484:264,1,85,10|0,1:2|0:0,0:0:0:0:
103,183,147073,2,0,L|19:189,1,85,8|8,1:2|0:0,0:0:0:0:
336,64,147381,5,0,1:0:0:0:
256,272,147535,1,0,0:0:0:0:
88,88,147689,1,8,0:0:0:0:
340,160,147842,2,0,P|396:144|436:72,1,127.5,0|0,1:0|0:0,0:0:0:0:
448,64,148150,2,0,L|440:168,1,85,4|14,3:0|0:0,0:0:0:0:
464,356,148458,6,0,B|340:296|300:416|148:324,1,318.750012159348,4|0,3:0|1:0,0:0:0:0:
216,144,149381,1,0,1:0:0:0:
228,160,149458,1,8,0:0:0:0:
236,176,149535,1,8,0:0:0:0:
228,276,149689,1,14,3:0:0:0:
156,328,149842,6,0,L|28:312,1,127.500004863739,0|0,1:0|1:0,0:0:0:0:
340,144,150304,1,0,0:0:0:0:
424,192,150458,2,0,P|472:196|496:188,1,63.7500024318696,0|2,1:0|0:0,0:0:0:0:
364,348,150765,2,0,P|316:344|292:352,1,63.7500024318696,0|0,0:0|0:0,0:0:0:0:
228,276,151073,5,0,1:0:0:0:
340,144,151227,1,2,0:0:0:0:
328,256,151381,1,0,0:0:0:0:
140,204,151535,2,0,L|144:120,1,63.7500024318696,8|0,0:0|1:0,0:0:0:0:
228,276,151842,1,2,0:0:0:0:
152,348,151996,2,0,L|60:340,1,63.7500024318696,0|0,1:0|0:0,0:0:0:0:
228,276,152304,6,0,P|292:268|356:308,1,127.500004863739,4|0,1:0|0:0,0:0:0:0:
483,88,152765,1,4,1:2:0:0:
407,142,152919,2,0,L|323:134,1,63.7500024318696,0|2,0:0|0:0,0:0:0:0:
416,257,153227,2,0,L|480:264,1,63.7500024318696,0|0,1:0|0:0,0:0:0:0:
320,324,153535,5,0,1:0:0:0:
188,131,153689,2,0,L|192:68,1,63.7500024318696,2|0,0:0|0:0,0:0:0:0:
233,222,153996,1,8,0:0:0:0:
28,320,154150,2,0,P|100:312|164:336,1,127.500004863739,0|0,1:0|1:0,0:0:0:0:
320,324,154612,1,0,0:0:0:0:
320,324,154689,1,0,0:0:0:0:
320,324,154765,5,0,1:0:0:0:
280,40,155073,1,0,1:0:0:0:
372,248,155381,1,0,1:0:0:0:
224,116,155689,1,0,1:0:0:0:
348,164,155996,5,0,1:0:0:0:
256,208,156150,1,2,0:0:0:0:
220,304,156304,2,0,L|228:376,1,63.7500024318696,0|8,0:0|0:0,0:0:0:0:
484,268,156612,2,0,L|472:136,1,127.500004863739,0|0,1:0|1:0,0:0:0:0:
28,344,157227,5,4,1:0:0:0:
156,108,157535,1,0,0:0:0:0:
24,172,157689,2,0,L|92:176,1,63.7500024318696,4|0,1:2|0:0,0:0:0:0:
280,344,157996,2,0,L|212:340,1,63.7500024318696,0|0,0:0|1:0,0:0:0:0:
448,76,158458,5,0,1:0:0:0:
416,172,158612,2,0,L|424:248,1,63.7500024318696,2|0,0:0|0:0,0:0:0:0:
480,316,158919,1,8,0:0:0:0:
295,237,159073,2,0,L|421:234,1,127.500004863739,0|0,3:0|0:0,0:0:0:0:
232,356,159535,1,8,0:0:0:0:
232,356,159612,1,8,0:0:0:0:
232,356,159689,5,4,1:2:0:0:
176,264,159842,1,2,0:0:0:0:
236,172,159996,1,0,1:0:0:0:
124,356,160150,5,4,1:2:0:0:
29,197,160304,1,2,0:0:0:0:
159,61,160458,1,0,1:0:0:0:
388,120,160612,2,0,L|392:184,1,63.7500024318696,4|2,1:2|0:0,0:0:0:0:
308,36,160919,5,0,1:0:0:0:
304,288,161073,2,0,L|384:296,1,63.7500024318696,4|2,3:2|0:0,0:0:0:0:
480,240,161381,1,4,3:0:0:0:
480,240,161535,1,0,3:0:0:0:
120,180,161842,1,0,3:0:0:0:
308,36,161996,1,0,3:0:0:0:
308,36,162073,1,0,3:0:0:0:
308,36,162150,6,0,P|316:120|300:208,1,170,4|0,1:2|1:0,0:0:0:0:
232,320,162612,1,4,1:2:0:0:
384,344,162765,2,0,L|480:328,1,85,2|0,0:0|1:0,0:0:0:0:
160,260,163073,2,0,P|144:308|148:348,1,85,4|2,1:2|0:0,0:0:0:0:
272,216,163381,5,0,1:0:0:0:
128,164,163535,2,0,L|32:168,1,85,12|2,1:2|0:0,0:0:0:0:
284,196,163842,5,8,1:2:0:0:
140,144,163996,2,0,L|44:148,1,85,0|2,2:0|0:0,0:0:0:0:
237,38,164304,1,0,3:0:0:0:
272,300,164458,1,0,0:0:0:0:
272,300,164535,1,0,0:0:0:0:
272,300,164612,5,4,1:2:0:0:
284,196,164765,1,2,0:0:0:0:
360,260,164919,1,0,1:0:0:0:
164,324,165073,1,4,1:2:0:0:
212,132,165227,1,2,0:0:0:0:
284,320,165381,1,0,1:0:0:0:
84,264,165535,6,0,P|152:228|244:260,2,170,4|2|2,1:2|0:0|0:0,0:0:0:0:
384,328,166458,1,0,0:0:0:0:
456,144,166612,2,0,L|444:56,1,85,4|0,1:2|0:0,0:0:0:0:
312,240,166919,6,0,B|392:228|392:228|447:244|447:244|524:232,1,203.999993774414,4|0,1:2|1:0,0:0:0:0:
320,120,167381,2,0,L|308:33,1,85,8|0,0:0|0:0,0:0:0:0:
208,332,167689,1,0,1:0:0:0:
224,128,167842,1,0,3:0:0:0:
312,240,167996,1,8,1:2:0:0:
112,336,168150,1,0,3:0:0:0:
312,240,168304,6,0,L|192:244,1,85,0|0,1:0|3:0,0:0:0:0:
104,132,168612,1,8,1:2:0:0:
320,120,168765,1,0,3:0:0:0:
68,32,168919,2,0,L|184:28,1,85,0|0,1:0|3:0,0:0:0:0:
440,140,169227,2,0,P|448:192|428:244,1,85,8|0,1:2|3:0,0:0:0:0:
180,340,169535,6,0,P|252:332|316:352,1,127.5,0|0,1:0|0:0,0:0:0:0:
336,340,169842,2,0,L|320:252,1,85,8|8,1:2|3:2,0:0:0:0:
244,52,170150,1,0,1:0:0:0:
253,240,170304,1,0,3:0:0:0:
376,148,170458,1,0,1:0:0:0:
120,180,170612,6,0,P|108:260|140:340,1,165.749992412568,4|0,1:2|0:0,0:0:0:0:
180,340,170919,6,0,L|304:336,1,93.5000028533936,0|8,1:0|1:2,0:0:0:0:
489,272,171227,1,0,0:0:0:0:
361,340,171381,1,0,1:0:0:0:
253,240,171535,1,0,1:0:0:0:
309,96,171689,1,8,0:0:0:0:
457,120,171842,1,0,1:0:0:0:
180,340,171996,6,0,B|100:352|100:352|28:340,1,140.25000428009,4|0,1:2|0:0,0:0:0:0:
16,320,172304,2,0,L|28:208,1,93.5000028533936,8|0,0:0|0:0,0:0:0:0:
192,76,172612,1,0,1:0:0:0:
208,240,172765,1,2,0:0:0:0:
192,52,172919,1,8,1:2:0:0:
180,340,173073,6,0,P|256:336|320:276,1,140.25000428009,0|0,1:0|0:0,0:0:0:0:
320,288,173381,2,0,L|416:292,1,93.5000028533936,0|8,1:0|0:0,0:0:0:0:
188,192,173689,6,0,P|124:172|20:208,1,140.25000428009,4|0,1:2|0:0,0:0:0:0:
40,216,173996,2,0,L|48:312,1,93.5000028533936,4|4,3:0|3:0,0:0:0:0:
244,264,174304,6,0,B|276:228|284:192|276:152|248:128|248:128|264:84|264:84|240:56|240:24,1,255.000009727478,4|0,1:2|1:0,0:0:0:0:
476,188,174765,2,0,B|488:224|488:224|428:204|364:208|364:208|408:160,1,191.250007295609,4|0,1:2|0:0,0:0:0:0:
432,116,175073,6,0,B|452:184|452:184|448:244|448:244|416:304,2,191.250007295609,0|8|4,1:0|0:0|1:2,0:0:0:0:
35,338,175842,1,0,3:0:0:0:
35,338,175919,1,0,3:0:0:0:
35,338,175996,1,12,0:0:0:0:
268,184,176150,1,0,0:0:0:0:
40,188,176304,1,0,3:0:0:0:
188,36,176458,1,0,3:0:0:0:
152,368,176612,1,4,3:2:0:0:
268,184,176765,6,0,B|317:137|288:76|288:76|219:97|218:165|218:165|183:105|114:119|114:119|118:184|183:207|183:207|111:211|101:276|101:276|154:308|208:252|208:252|195:316|255:347|255:347|292:296|264:240|264:240|320:228|320:228|392:260,1,1083.75004134178,4|0,1:2|0:0,0:0:0:0:
64,160,189227,5,2,0:0:0:0:
460,160,189535,1,0,3:0:0:0:
208,240,189842,1,2,0:0:0:0:
256,132,189996,1,0,0:0:0:0:
304,240,190150,1,0,3:0:0:0:
132,56,190458,5,2,0:0:0:0:
384,56,190765,1,0,3:0:0:0:
152,324,191073,2,0,L|96:316,1,46.7500014266968,2|0,0:0|0:0,0:0:0:0:
304,240,191381,2,0,L|360:232,1,46.7500014266968,0|2,3:0|0:0,0:0:0:0:
157,38,191689,5,0,1:0:0:0:
185,150,191842,1,0,0:0:0:0:
152,324,191996,2,0,P|149:292|156:261,1,63.7500024318696,0|0,1:0|0:0,0:0:0:0:
347,109,192304,2,0,P|361:170|349:232,1,127.500004863739,2|0,0:0|1:0,0:0:0:0:
264,379,192765,1,0,0:0:0:0:
152,324,192919,6,0,L|20:320,1,127.500004863739,2|0,0:0|1:0,0:0:0:0:
228,164,193535,1,2,0:0:0:0:
228,164,193689,1,0,0:0:0:0:
480,296,193842,2,0,B|499:268|485:230|485:230|473:252|455:267,1,95.6250036478044,8|0,1:2|0:0,0:0:0:0:
400,344,194150,5,4,1:2:0:0:
228,164,194304,1,2,0:0:0:0:
228,164,194458,1,0,0:0:0:0:
308,352,194612,5,4,1:2:0:0:
280,76,194766,1,2,0:0:0:0:
280,76,194919,1,0,0:0:0:0:
216,328,195073,5,4,1:2:0:0:
368,52,195227,1,2,0:0:0:0:
368,52,195381,1,0,0:0:0:0:
152,260,195535,5,4,1:2:0:0:
452,68,195689,2,0,L|440:164,1,85,2|0,0:0|1:0,0:0:0:0:
116,176,195996,2,0,L|128:80,1,85,0|0,1:0|3:0,0:0:0:0:
340,356,196304,2,0,B|367:361|395:340|395:340|371:309|325:310,1,110.499994941712,0|0,1:0|1:0,0:0:0:0:
294,238,196535,1,0,0:0:0:0:
294,238,196612,6,0,L|306:134,1,85,0|0,1:2|0:0,0:0:0:0:
340,356,196919,1,0,1:0:0:0:
56,268,197073,2,0,L|152:264,1,85,4|0,1:2|0:0,0:0:0:0:
326,73,197381,1,0,1:0:0:0:
228,340,197535,1,0,0:0:0:0:
32,128,197689,6,0,P|116:100|200:144,1,170,4|0,1:2|1:0,0:0:0:0:
300,272,198150,6,0,P|344:276|388:264,1,70.1250021400452,8|0,0:0|0:0,0:0:0:0:
400,264,198458,6,0,L|412:320,1,42.5,0|0,3:0|3:0,0:0:0:0:
228,340,198765,2,0,L|220:396,1,42.5,0|0,3:0|3:0,0:0:0:0:
32,128,199073,6,0,B|92:140|92:140|168:120,1,110.499994941712,4|0,1:2|0:0,0:0:0:0:
335,339,199381,2,0,B|275:327|275:327|199:347,1,110.499994941712,8|0,0:0|1:0,0:0:0:0:
296,144,199689,1,0,1:0:0:0:
136,272,199842,1,0,3:0:0:0:
136,272,199919,1,0,0:0:0:0:
136,272,199996,1,8,0:0:0:0:
406,205,200150,1,0,3:0:0:0:
335,339,200304,6,0,B|352:276|352:276|332:216,1,110.499994941712,0|2,1:0|0:0,0:0:0:0:
112,32,200612,2,0,B|100:88|100:88|116:152,1,110.499994941712,8|2,0:0|0:0,0:0:0:0:
406,205,200919,2,0,P|458:217|518:201,1,110.499994941712,0|2,1:0|0:0,0:0:0:0:
342,20,201227,2,0,B|348:140,1,110.499994941712,8|0,0:0|1:0,0:0:0:0:
247,205,201458,1,0,0:0:0:0:
232,196,201535,6,0,P|180:184|120:200,1,110.499994941712,0|0,1:0|0:0,0:0:0:0:
24,308,201842,1,8,0:0:0:0:
184,348,201996,1,0,3:0:0:0:
180,316,202073,1,0,0:0:0:0:
176,284,202150,1,0,1:0:0:0:
279,52,202304,1,0,3:0:0:0:
125,197,202458,1,8,0:0:0:0:
247,205,202612,1,0,3:0:0:0:
103,53,202765,1,0,3:0:0:0:
419,57,202919,5,0,1:0:0:0:
391,38,202996,1,0,0:0:0:0:
359,38,203073,1,8,0:0:0:0:
322,138,203227,1,0,1:0:0:0:
368,136,203304,1,0,0:0:0:0:
407,156,203381,1,0,3:0:0:0:
412,250,203535,5,0,1:0:0:0:
356,231,203612,1,0,0:0:0:0:
297,244,203689,1,8,0:0:0:0:
283,342,203842,1,0,1:0:0:0:
351,321,203919,1,0,3:0:0:0:
415,352,203996,5,4,1:2:0:0:
268,184,204150,1,0,0:0:0:0:
487,289,204304,1,8,0:0:0:0:
256,196,204458,1,0,1:0:0:0:
499,197,204612,1,0,1:0:0:0:
247,205,204765,1,0,3:0:0:0:
467,109,204919,1,8,0:0:0:0:
44,148,205073,6,0,B|156:132|156:132|212:144,1,165.749992412568,4|0,1:2|0:0,0:0:0:0:
212,220,205381,6,0,B|148:206|148:206|103:213,1,108.375002067089,4|0,1:2|0:0,0:0:0:0:
33,297,205689,6,0,B|145:281|145:281|201:293,1,165.749992412568,4|0,1:2|0:0,0:0:0:0:
312,328,205996,6,0,B|368:344|368:344|420:332,1,95.6250036478044,4|0,1:2|0:0,0:0:0:0:
375,262,206304,6,0,B|362:210|362:210|370:158|370:158|354:90,1,170,4|8,1:2|0:0,0:0:0:0:
221,116,206765,1,0,1:0:0:0:
268,330,206919,1,8,0:0:0:0:
85,285,207073,1,8,0:0:0:0:
176,256,207227,1,0,3:2:0:0:
184,288,207304,1,0,3:2:0:0:
176,320,207381,1,0,3:2:0:0:
40,192,207535,1,4,1:2:0:0:
224,32,207689,6,0,L|220:148,1,85,0|0,0:0|1:0,0:0:0:0:
380,320,207996,2,0,P|420:308|468:320,1,85,8|0,0:0|1:0,0:0:0:0:
277,226,208304,1,0,1:0:0:0:
288,212,208381,1,0,3:0:0:0:
300,200,208458,2,0,L|292:276,1,42.5,0|0,1:0|3:0,0:0:0:0:
194,330,208612,1,8,1:2:0:0:
183,316,208689,1,0,3:0:0:0:
171,304,208766,2,0,L|179:380,1,42.5,0|0,1:0|3:0,0:0:0:0:
83,336,208919,6,0,B|75:288|75:288|87:224,1,85,4|0,1:2|0:0,0:0:0:0:
276,284,209227,2,0,B|284:332|284:332|272:396,1,85,8|0,0:0|1:0,0:0:0:0:
189,180,209535,2,0,L|104:180,1,85,0|0,1:0|3:0,0:0:0:0:
376,180,209842,2,0,P|396:124|388:80,1,85,8|0,0:0|3:0,0:0:0:0:
308,32,210150,6,0,L|312:128,1,85,0|2,1:0|3:2,0:0:0:0:
200,344,210458,2,0,L|196:248,1,85,8|2,1:2|3:2,0:0:0:0:
56,56,210765,2,0,B|108:68|108:68|152:52,1,85,0|2,1:0|3:2,0:0:0:0:
375,223,211073,2,0,B|323:211|323:211|293:221,1,85,0|2,1:0|3:2,0:0:0:0:
241,33,211381,6,0,L|244:119,1,85,0|0,1:0|0:0,0:0:0:0:
451,359,211689,2,0,L|467:259,1,85,8|0,0:0|3:0,0:0:0:0:
200,344,211996,2,0,P|148:344|88:320,1,85,0|0,1:0|3:0,0:0:0:0:
47,116,212304,2,0,P|101:93|165:140,1,127.5,8|0,0:0|0:0,0:0:0:0:
172,180,212612,6,0,L|168:272,1,85,0|0,1:0|0:0,0:0:0:0:
344,348,212919,2,0,L|340:256,1,85,4|0,1:2|0:0,0:0:0:0:
472,144,213227,1,0,1:0:0:0:
432,164,213304,1,0,0:0:0:0:
392,172,213381,1,0,3:0:0:0:
348,164,213458,1,0,0:0:0:0:
312,144,213535,2,0,L|320:80,1,42.5,8|0,1:2|0:0,0:0:0:0:
215,48,213689,2,0,L|223:112,1,42.5,0|0,1:0|1:0,0:0:0:0:
234,188,213842,5,4,1:2:0:0:
464,264,213996,2,0,L|380:264,1,63.7500024318696,0|0,1:0|0:0,0:0:0:0:
320,32,214304,5,4,1:2:0:0:
80,116,214458,2,0,L|164:116,1,63.7500024318696,0|0,1:0|0:0,0:0:0:0:
456,340,214765,5,4,1:2:0:0:
288,256,214919,2,0,L|216:260,1,63.7500024318696,0|0,1:0|0:0,0:0:0:0:
52,324,215227,5,4,1:2:0:0:
176,160,215381,2,0,L|248:164,1,63.7500024318696,0|0,1:0|0:0,0:0:0:0:
512,256,215689,6,0,L|416:260,1,85,0|0,1:0|0:0,0:0:0:0:
108,140,215996,2,0,P|108:84|120:36,1,85,0|0,1:0|1:0,0:0:0:0:
248,36,216227,1,0,1:0:0:0:
248,36,216304,2,0,L|256:92,1,42.5,0|0,1:0|0:0,0:0:0:0:
180,204,216458,2,0,L|197:95,1,85,0|0,1:0|0:0,0:0:0:0:
336,160,216765,6,0,L|448:144,1,95.6250036478044,4|0,1:2|0:0,0:0:0:0:
504,136,217073,1,0,3:0:0:0:
339,252,217227,1,8,0:0:0:0:
508,260,217381,6,0,B|448:252|448:252|394:260|394:260|336:252,1,170,4|0,1:3|0:0,0:0:0:0:
128,320,217842,1,8,1:2:0:0:
236,272,217996,1,0,1:0:0:0:
252,312,218073,1,0,1:0:0:0:
240,356,218150,1,0,1:0:0:0:
240,140,218304,1,0,3:0:0:0:
252,312,218458,1,8,0:0:0:0:
264,104,218612,1,8,0:0:0:0:
368,328,218765,6,0,L|472:320,1,93.5000028533936,4|0,1:2|3:0,0:0:0:0:
249,183,219073,1,8,0:0:0:0:
128,320,219227,1,0,1:0:0:0:
128,320,219304,1,0,1:0:0:0:
128,320,219381,5,0,1:0:0:0:
241,271,219535,1,0,3:0:0:0:
40,244,219689,2,0,L|51:150,1,93.5000028533936,8|0,0:0|3:0,0:0:0:0:
241,271,219996,5,0,1:0:0:0:
351,167,220150,1,2,0:0:0:0:
165,97,220304,1,8,0:0:0:0:
240,356,220458,1,2,0:0:0:0:
240,356,220535,1,2,0:0:0:0:
240,356,220612,2,0,B|285:374|285:374|332:360,1,93.5000028533936,0|0,1:0|0:0,0:0:0:0:
492,264,220919,2,0,B|447:246|447:246|404:256,1,93.5000028533936,8|0,0:0|0:0,0:0:0:0:
254,191,221227,6,0,L|246:83,1,93.5000028533936,4|0,3:0|0:0,0:0:0:0:
416,116,221535,1,8,0:0:0:0:
254,191,221689,1,0,1:0:0:0:
254,191,221765,1,0,1:0:0:0:
254,191,221842,5,4,3:0:0:0:
414,296,221996,1,2,0:0:0:0:
300,353,222150,1,8,0:0:0:0:
357,169,222304,1,2,0:0:0:0:
221,284,222458,6,0,L|103:275,1,93.5000028533936,4|0,1:2|0:0,0:0:0:0:
10,208,222765,2,0,P|5:161|17:117,1,93.5000028533936,8|0,0:0|3:0,0:0:0:0:
149,36,222996,1,0,0:0:0:0:
154,46,223073,2,0,P|156:78|150:104,1,46.7500014266968,8|0,0:0|0:0,0:0:0:0:
105,189,223227,2,0,P|143:183|180:198,1,46.7500014266968
221,284,223381,2,0,P|219:252|225:226,1,46.7500014266968,8|0,0:0|0:0,0:0:0:0:
248,128,223535,1,0,3:0:0:0:
256,136,223612,1,0,3:0:0:0:
264,144,223689,6,0,L|156:132,1,93.5000028533936,4|0,1:2|0:0,0:0:0:0:
364,80,223996,1,8,0:0:0:0:
352,224,224150,1,0,3:0:0:0:
344,232,224227,1,0,3:0:0:0:
336,240,224304,2,0,L|448:228,1,93.5000028533936,4|0,1:2|0:0,0:0:0:0:
144,40,224612,1,8,0:0:0:0:
71,341,224765,6,0,B|68:312|80:276|80:276|61:225|61:225|72:160,1,187.000005706787,0|0,3:0|3:0,0:0:0:0:
328,244,225227,1,0,0:0:0:0:
172,312,225381,2,0,P|232:304|316:332,1,140.25000428009,0|0,3:0|0:0,0:0:0:0:
324,337,225689,2,0,L|328:233,1,93.5000028533936,0|0,1:0|0:0,0:0:0:0:
214,18,225996,6,0,L|225:213,1,187.000005706787,4|0,1:2|0:0,0:0:0:0:
477,146,226458,2,0,P|409:134|374:152,1,85,4|0,1:2|0:0,0:0:0:0:
308,176,226689,1,0,0:0:0:0:
308,176,226765,1,8,0:0:0:0:
320,340,226919,1,8,0:2:0:0:
320,340,226996,2,0,B|304:296|332:256|332:256,1,85,0|0,1:0|0:0,0:0:0:0:
408,308,227227,6,0,L|494:296,1,85,4|0,1:2|0:0,0:0:0:0:
228,132,227535,1,0,3:0:0:0:
228,132,227612,1,0,3:0:0:0:
228,132,227689,2,0,P|220:184|232:228,1,85,8|0,0:0|0:0,0:0:0:0:
143,297,227996,6,0,P|204:302|160:339,1,127.500004863739,0|0,1:0|1:0,0:0:0:0:
171,352,228227,1,0,3:0:0:0:
156,355,228304,2,0,L|79:351,1,42.5,0|0,1:0|0:0,0:0:0:0:
4,267,228458,2,0,L|70:270,1,42.5,0|0,1:0|0:0,0:0:0:0:
264,272,228612,6,0,L|251:158,1,85,4|0,1:2|0:0,0:0:0:0:
454,340,228919,2,0,P|403:360|342:350,1,85,8|0,0:0|0:0,0:0:0:0:
392,240,229227,5,0,1:0:0:0:
276,352,229381,1,2,0:0:0:0:
188,224,229535,1,8,0:0:0:0:
284,332,229689,1,2,0:0:0:0:
308,184,229842,5,0,1:0:0:0:
188,332,229996,1,2,0:0:0:0:
392,240,230150,1,8,0:0:0:0:
216,128,230304,1,2,0:0:0:0:
216,128,230381,1,0,1:0:0:0:
216,128,230458,5,0,1:0:0:0:
188,332,230612,1,2,0:0:0:0:
308,184,230765,1,8,0:0:0:0:
116,168,230919,1,2,0:0:0:0:
284,332,231073,6,0,P|364:320|480:344,1,170,0|8,1:0|0:0,0:0:0:0:
392,141,231535,1,0,1:0:0:0:
244,252,231689,2,0,L|155:240,1,85
115,60,231996,2,0,L|220:52,1,85,8|0,0:0|0:0,0:0:0:0:
488,168,232304,5,0,1:0:0:0:
328,152,232458,1,0,0:0:0:0:
432,32,232612,1,4,1:2:0:0:
380,280,232765,1,2,3:2:0:0:
380,280,232842,1,0,3:0:0:0:
380,280,232919,1,0,1:0:0:0:
204,192,233073,1,2,3:2:0:0:
404,184,233227,1,0,1:2:0:0:
300,44,233381,1,2,3:2:0:0:
300,44,233458,1,0,0:0:0:0:
300,44,233535,6,0,L|292:120,1,72.2500013780594,0|0,1:0|3:0,0:0:0:0:
236,288,233842,1,0,3:0:0:0:
32,208,233996,6,0,L|108:200,1,72.2500013780594,4|0,1:2|3:0,0:0:0:0:
220,84,234304,1,0,3:0:0:0:
319,351,234458,6,0,L|315:267,1,72.2500013780594,4|0,1:2|3:0,0:0:0:0:
220,84,234765,1,0,3:0:0:0:
10,200,234919,6,0,L|16:280,1,72.2500013780594,4|0,1:2|3:0,0:0:0:0:
204,348,235227,1,0,3:0:0:0:
346,112,235381,6,0,L|357:18,1,72.2500013780594,4|0,1:2|0:0,0:0:0:0:
484,184,235689,2,0,L|492:260,1,72.2500013780594,0|0,1:0|1:0,0:0:0:0:
408,336,235919,1,0,1:0:0:0:
408,336,235996,6,0,L|416:228,1,85,0|0,1:0|0:0,0:0:0:0:
346,112,236304,1,8,0:0:0:0:
304,292,236458,2,0,L|212:276,1,85,0|0,1:0|0:0,0:0:0:0:
171,53,236765,5,4,3:0:0:0:
133,135,236919,1,4,3:0:0:0:
144,224,237073,2,0,B|161:248|189:257|189:257|232:214|201:149,1,144.500002756119,4|0,3:0|0:0,0:0:0:0:
480,136,237535,1,2,0:0:0:0:
258,55,237689,1,0,1:0:0:0:
254,39,237766,1,0,0:0:0:0:
250,23,237842,5,0,0:0:0:0:
171,53,237996,1,8,0:0:0:0:
133,135,238150,1,0,1:0:0:0:
252,183,238304,6,0,B|239:131|275:97|275:97|343:137|355:221|303:257|255:261|255:261|175:257|139:177|179:33|275:17|275:17|415:63|471:211|383:343|291:339|231:341,1,1119.87502135992,4|0,1:2|0:0,0:0:0:0:
250,370,240765,6,0,B|242:298|205:250|205:250|210:338|115:369|115:369|82:266|142:218|142:218|74:246|10:182|10:182|70:114|146:150|146:150|91:93|173:15|173:15|241:89|214:154|214:154|251:138|287:155|287:155|261:90|339:16|339:16|392:88|358:154|358:154|441:121|501:189|501:189|433:257|361:222|361:222|429:283|391:378|391:378|291:336|291:247|291:247|258:298|257:350,1,2207.4500033683,2|0,0:0|0:0,0:0:0:0:
