osu file format v14

[General]
AudioFilename: New World.mp3
AudioLeadIn: 0
PreviewTime: 60612
Countdown: 0
SampleSet: Soft
StackLeniency: 0.7
Mode: 0
LetterboxInBreaks: 0
WidescreenStoryboard: 0

[Editor]
Bookmarks: 21842,41535,61227,80919,100612,130150,149842,167073,194150,218765,238304
DistanceSpacing: 1.2
BeatDivisor: 4
GridSize: 16
TimelineZoom: 1.8

[Metadata]
Title:New World
TitleUnicode:New World
Artist:FELT
ArtistUnicode:FELT
Creator:Hakurei Yoru
Version:Pata-Mon's Advanced
Source:東方Project
Tags:z1085684963 CoLouRed GlaZeE Pata-Mon Misure StarrStyx Rumia- sodarose world trick ネクロファンタジア yukari yakumo theme Comiket88 Mika 美歌 Maika 舞花 touhou NAGI☆ 東方妖々夢 ~ Perfect Cherry Blossom 八雲紫
BeatmapID:1042322
BeatmapSetID:486207

[Difficulty]
HPDrainRate:4
CircleSize:4
OverallDifficulty:5.5
ApproachRate:7
SliderMultiplier:1.2
SliderTickRate:1

[Events]
//Background and Video events
0,0,"bg.jpg",0,0
//Break Periods
2,41734,50406
2,81119,89790
2,110657,119329
2,150042,165944
2,179581,188252
2,218965,222714
//Storyboard Layer 0 (Background)
//Storyboard Layer 1 (Fail)
//Storyboard Layer 2 (Pass)
//Storyboard Layer 3 (Foreground)
//Storyboard Sound Samples

[TimingPoints]
-311,307.692307692308,4,2,1,60,1,0
61227,-100,4,2,1,80,0,1
80919,-100,4,2,1,60,0,0
90765,-100,4,2,1,65,0,0
130150,-100,4,2,1,65,0,1
149842,-100,4,2,1,65,0,0
166919,-100,4,2,1,100,0,1
176765,-100,4,2,1,65,0,0
176919,-100,4,2,1,5,0,0
189227,-100,4,2,1,55,0,0
198458,-100,4,2,1,85,0,0
199073,-100,4,2,1,100,0,1
218765,-100,4,2,1,100,0,0
238381,-100,4,2,1,5,0,0

[Colours]
Combo1 : 255,168,81
Combo2 : 0,128,192
Combo3 : 0,0,255
Combo4 : 244,64,91
Combo5 : 128,0,255

[HitObjects]
272,334,2150,6,0,B|245:279|245:279|254:220,1,120,4|0,1:2|1:0,0:0:0:0:
394,255,2765,2,0,B|403:196|403:196|376:141,1,120,2|0,0:0|0:0,0:0:0:0:
247,77,3381,1,0,0:0:0:0:
193,125,3535,2,0,P|133:126|73:118,1,120,0|0,1:0|1:2,0:0:0:0:
28,63,3996,2,0,L|36:182,1,120,0|0,1:0|1:0,0:0:0:0:
136,288,4612,6,0,P|195:289|255:279,1,120,4|0,1:2|1:0,0:0:0:0:
320,250,5073,2,0,L|379:254,1,60,4|0,1:2|0:0,0:0:0:0:
425,116,5535,2,0,L|305:107,1,120,0|0,1:0|0:0,0:0:0:0:
251,156,5996,2,0,L|191:151,1,60,2|0,0:0|1:0,0:0:0:0:
139,101,6304,2,0,L|79:105,1,60,0|2,1:0|0:0,0:0:0:0:
72,249,6765,2,0,L|131:244,1,60,0|0,1:0|1:0,0:0:0:0:
197,276,7073,6,0,P|256:282|316:276,2,120,4|0|2,1:2|1:0|0:0,0:0:0:0:
121,154,7996,1,0,0:0:0:0:
257,105,8304,1,0,1:0:0:0:
189,81,8458,2,0,L|129:82,1,60,0|0,1:0|0:0,0:0:0:0:
63,111,8765,1,0,1:0:0:0:
121,154,8919,2,0,B|129:193|129:193|124:273,1,120,0|0,1:0|1:0,0:0:0:0:
252,205,9535,6,0,B|296:193|296:193|370:196,1,120,4|0,1:2|0:0,0:0:0:0:
441,204,9996,1,4,1:2:0:0:
499,161,10150,2,0,P|504:101|498:41,1,120,0|0,0:0|0:0,0:0:0:0:
356,17,10765,1,0,1:0:0:0:
299,61,10919,2,0,L|239:58,1,60,0|2,1:0|0:0,0:0:0:0:
179,17,11227,2,0,L|119:19,1,60,0|0,1:0|1:0,0:0:0:0:
21,125,11689,1,0,1:0:0:0:
21,125,11842,1,2,1:2:0:0:
35,196,11996,6,0,P|93:210|152:212,1,120,4|0,1:2|1:0,0:0:0:0:
220,185,12458,1,4,1:2:0:0:
258,124,12612,2,0,P|316:109|375:107,1,120,0|4,0:0|1:2,0:0:0:0:
447,121,13073,1,0,0:0:0:0:
491,178,13227,2,0,L|486:237,1,60,0|4,1:0|1:2,0:0:0:0:
420,267,13535,2,0,L|424:326,1,60,0|0,0:0|1:0,0:0:0:0:
366,369,13842,2,0,P|306:377|246:379,1,120,0|0,1:0|1:0,0:0:0:0:
174,372,14304,1,0,1:0:0:0:
137,310,14458,6,0,L|77:301,2,60,4|0|0,1:2|0:0|1:0,0:0:0:0:
188,259,14919,2,0,L|247:250,2,60,4|0|0,1:2|0:0|1:0,0:0:0:0:
151,197,15381,2,0,L|91:188,1,60,4|0,1:2|0:0,0:0:0:0:
47,130,15689,2,0,P|61:103|80:80,1,60,0|0,1:0|1:0,0:0:0:0:
138,37,15996,2,0,P|165:24|193:15,1,60,0|0,0:0|1:0,0:0:0:0:
262,41,16304,2,0,L|320:28,2,60,0|0|0,1:0|1:0|1:0,0:0:0:0:
231,106,16765,1,2,1:2:0:0:
260,172,16919,6,0,B|296:185|296:185|375:167,1,120,4|0,1:2|1:0,0:0:0:0:
436,127,17381,2,0,P|448:161|443:193,1,60,4|0,1:2|0:0,0:0:0:0:
446,261,17689,1,0,1:0:0:0:
446,261,17842,2,0,P|475:263|505:260,2,60,4|0|0,1:2|0:0|1:0,0:0:0:0:
373,237,18304,2,0,P|313:233|253:236,1,120,4|0,1:2|1:0,0:0:0:0:
211,294,18765,2,0,L|151:301,1,60,4|4,3:0|3:0,0:0:0:0:
110,361,19073,2,0,L|50:368,1,60,4|4,3:0|3:0,0:0:0:0:
8,309,19381,5,0,1:0:0:0:
8,309,19535,1,0,1:0:0:0:
151,301,19842,2,0,L|211:294,1,60,0|0,1:0|0:0,0:0:0:0:
262,243,20150,2,0,L|322:250,1,60,0|0,1:0|0:0,0:0:0:0:
354,315,20458,2,0,B|436:300|436:300|450:266|450:266|513:246|533:175|486:121,1,300,4|0,1:2|1:0,0:0:0:0:
414,113,21381,2,0,P|423:84|443:62,2,60,0|0|0,1:0|0:0|0:0,0:0:0:0:
428,184,21842,6,0,B|385:194|385:194|309:188,1,120,4|0,1:2|1:0,0:0:0:0:
217,77,22458,2,0,B|173:70|173:70|98:82,1,120,2|0,0:0|0:0,0:0:0:0:
32,112,22919,1,2,1:2:0:0:
26,184,23073,2,0,P|28:243|37:303,1,120,0|0,0:0|0:0,0:0:0:0:
64,371,23535,1,0,1:0:0:0:
135,382,23689,2,0,B|171:363|171:363|184:285,1,120,2|0,0:0|1:0,0:0:0:0:
224,147,24304,6,0,B|283:159|276:185|333:194,1,120,4|0,1:2|1:0,0:0:0:0:
405,195,24765,1,2,1:2:0:0:
470,165,24919,2,0,B|498:200|498:200|487:274,1,120,2|0,0:0|0:0,0:0:0:0:
366,352,25535,2,0,P|306:346|250:326,1,120,0|0,0:0|0:0,0:0:0:0:
197,277,25996,1,0,1:0:0:0:
124,274,26151,2,0,L|68:297,2,60,2|0|0,1:2|0:0|1:0,0:0:0:0:
181,142,26765,6,0,P|122:129|64:143,2,120,4|0|0,0:0|1:0|0:0,0:0:0:0:
322,172,27689,2,0,P|334:144|341:115,1,60,0|0,0:0|1:0,0:0:0:0:
332,44,27996,2,0,B|360:23|360:23|444:16,2,120,0|0|0,0:0|0:0|1:0,0:0:0:0:
415,161,28919,1,0,1:0:0:0:
272,176,29227,6,0,B|278:237|328:276|328:276|323:341|277:383,1,240,0|0,1:0|1:0,0:0:0:0:
173,284,30150,1,2,1:2:0:0:
66,381,30458,2,0,P|36:329|29:270,1,120,0|0,1:0|1:0,0:0:0:0:
58,204,30919,1,0,1:0:0:0:
129,191,31073,2,0,P|158:139|165:80,1,120,0|0,1:0|1:0,0:0:0:0:
114,29,31535,1,0,1:0:0:0:
183,9,31689,6,0,B|226:6|226:6|297:33,1,120,4|0,1:2|1:0,0:0:0:0:
369,36,32150,2,0,P|361:95|360:155,1,120,4|0,1:2|1:0,0:0:0:0:
424,191,32612,2,0,L|424:251,1,60,4|0,1:2|0:0,0:0:0:0:
472,305,32919,1,0,1:0:0:0:
401,319,33073,2,0,P|341:323|281:318,1,120,0|0,1:2|1:0,0:0:0:0:
209,316,33535,2,0,L|213:256,1,60,4|4,3:0|3:0,0:0:0:0:
275,220,33842,2,0,L|270:160,1,60,4|0,3:0|0:0,0:0:0:0:
330,119,34150,6,0,P|270:122|210:119,1,120,4|0,1:2|0:0,0:0:0:0:
160,65,34612,2,0,P|100:61|40:64,1,120,4|4,1:2|1:2,0:0:0:0:
0,125,35073,2,0,L|6:184,1,60,0|0,0:0|1:0,0:0:0:0:
48,243,35381,1,0,1:0:0:0:
110,207,35535,2,0,P|139:204|169:204,1,60,4|4,3:0|3:0,0:0:0:0:
236,233,35842,1,4,3:0:0:0:
283,287,35996,2,0,L|276:346,2,60,0|0|0,0:0|0:0|1:0,0:0:0:0:
343,247,36458,1,0,1:0:0:0:
414,261,36612,6,0,P|443:258|471:246,2,60,4|0|0,1:2|0:0|0:0,0:0:0:0:
366,315,37073,2,0,P|383:339|407:357,2,60,4|0|0,1:2|0:0|1:0,0:0:0:0:
343,247,37535,2,0,P|325:222|301:204,1,60,4|0,1:2|0:0,0:0:0:0:
238,238,37842,1,0,1:0:0:0:
223,309,37996,1,0,1:0:0:0:
169,357,38150,2,0,L|109:350,1,60,0|0,0:0|1:0,0:0:0:0:
62,295,38458,2,0,L|2:301,2,60,0|0|4,1:0|1:0|3:0,0:0:0:0:
99,233,38919,1,4,3:0:0:0:
66,169,39073,6,0,B|77:95|77:95|110:64,1,120,4|0,1:2|0:0,0:0:0:0:
183,70,39535,2,0,L|190:10,2,60,4|0|0,1:2|0:0|0:0,0:0:0:0:
238,115,39996,2,0,L|230:174,1,60,4|0,1:2|0:0,0:0:0:0:
176,222,40304,1,0,1:0:0:0:
203,289,40458,2,0,B|261:297|275:279|323:286,1,120,0|4,1:0|3:0,0:0:0:0:
388,256,40919,2,0,P|399:197|402:137,2,120,4|4|4,3:0|3:0|1:2,0:0:0:0:
397,125,51381,6,0,L|397:245,1,120,2|0,0:0|1:0,0:0:0:0:
115,185,52304,1,0,1:0:0:0:
397,125,52919,1,0,1:0:0:0:
115,65,53535,1,0,1:0:0:0:
115,209,53842,6,0,L|115:329,1,120,0|0,0:0|1:0,0:0:0:0:
397,269,54765,1,0,1:0:0:0:
115,209,55380,1,0,1:0:0:0:
115,354,55689,2,0,P|173:341|221:306,1,120,4|0,3:0|1:0,0:0:0:0:
256,243,56150,1,0,0:0:0:0:
311,197,56304,6,0,P|370:192|430:196,1,120,4|0,1:2|1:0,0:0:0:0:
472,138,56765,2,0,L|472:258,1,120,4|0,1:2|1:0,0:0:0:0:
426,314,57227,2,0,P|427:343|432:373,2,60,4|0|0,1:2|1:0|1:0,0:0:0:0:
353,314,57689,2,0,P|351:343|346:373,2,60,4|0|0,1:2|1:0|1:0,0:0:0:0:
357,241,58150,1,0,1:0:0:0:
357,241,58304,1,0,1:0:0:0:
288,208,58458,2,0,P|282:178|281:148,1,60,0|0,1:0|1:0,0:0:0:0:
281,76,58765,5,4,1:3:0:0:
281,76,58919,2,0,L|340:68,1,60,0|0,1:0|1:0,0:0:0:0:
398,113,59227,2,0,L|457:120,1,60,0|0,1:0|0:0,0:0:0:0:
467,48,59535,2,0,L|407:40,1,60,0|0,1:0|0:0,0:0:0:0:
341,69,59842,1,0,1:0:0:0:
159,320,61227,6,0,P|148:260|145:200,1,120,4|8,1:2|0:0,0:0:0:0:
151,128,61689,1,0,1:0:0:0:
200,76,61842,2,0,P|259:71|319:62,1,120,0|8,1:0|0:0,0:0:0:0:
452,6,62458,2,0,B|469:36|469:36|467:121,1,120,0|8,1:0|0:0,0:0:0:0:
361,218,63073,1,0,1:0:0:0:
498,262,63381,1,8,0:0:0:0:
391,359,63689,6,0,P|331:359|276:335,1,120,0|8,1:0|0:0,0:0:0:0:
136,365,64304,2,0,P|135:305|159:250,1,120,0|8,1:0|0:0,0:0:0:0:
277,335,64919,2,0,P|303:348|331:359,2,60,0|0|8,1:0|1:0|0:0,0:0:0:0:
241,271,65381,1,0,1:0:0:0:
297,226,65535,2,0,P|300:196|301:166,1,60,0|0,1:0|1:0,0:0:0:0:
266,103,65842,1,8,0:0:0:0:
266,103,65996,1,0,0:0:0:0:
278,32,66150,6,0,B|317:13|317:13|393:17,1,120,4|8,1:2|0:0,0:0:0:0:
459,49,66612,1,0,1:0:0:0:
466,120,66765,2,0,P|477:147|493:173,2,60,0|0|8,1:0|0:0|0:0,0:0:0:0:
399,90,67227,1,4,1:2:0:0:
268,151,67535,1,4,1:2:0:0:
400,209,67842,2,0,P|407:149|399:90,1,120,0|2,1:0|1:2,0:0:0:0:
254,88,68458,6,0,P|246:147|254:206,1,120,4|0,1:2|1:0,0:0:0:0:
242,277,68919,2,0,L|182:284,1,60,8|0,0:0|1:0,0:0:0:0:
134,340,69227,2,0,L|74:332,1,60,0|0,1:0|0:0,0:0:0:0:
40,192,69689,2,0,P|44:132|56:73,1,120,4|0,1:2|1:0,0:0:0:0:
126,88,70150,2,0,L|185:79,1,60,8|0,0:0|0:0,0:0:0:0:
231,23,70458,2,0,L|290:31,1,60,4|4,3:0|3:0,0:0:0:0:
334,88,70765,1,8,1:2:0:0:
405,78,70919,1,0,1:0:0:0:
465,118,71073,6,0,B|478:158|478:158|466:234,1,120,4|8,1:2|0:0,0:0:0:0:
433,299,71535,1,0,1:0:0:0:
363,315,71689,2,0,P|303:314|243:304,1,120,0|8,1:0|0:0,0:0:0:0:
238,160,72304,2,0,P|217:103|187:51,2,120,8|8|0,1:2|0:0|1:0,0:0:0:0:
244,304,73227,1,8,0:0:0:0:
116,237,73535,5,0,1:0:0:0:
238,160,73842,1,8,0:0:0:0:
366,227,74150,2,0,P|425:219|483:202,1,120,0|8,1:0|0:0,0:0:0:0:
512,344,74765,2,0,P|454:360|395:370,1,120,4|4,3:0|1:2,0:0:0:0:
322,371,75227,1,0,0:0:0:0:
278,314,75381,2,0,L|218:310,1,60,8|2,0:0|1:2,0:0:0:0:
164,261,75689,2,0,L|104:264,1,60,8|0,0:0|1:0,0:0:0:0:
34,283,75996,6,0,P|34:312|40:342,2,60,4|0|0,1:2|1:0|0:0,0:0:0:0:
48,211,76458,2,0,P|47:181|41:151,2,60,4|0|0,1:2|1:0|0:0,0:0:0:0:
104,265,76919,1,4,1:2:0:0:
104,265,77073,2,0,L|163:261,1,60,0|0,1:0|0:0,0:0:0:0:
208,204,77381,1,4,1:2:0:0:
208,204,77535,2,0,L|267:208,1,60,0|0,1:0|0:0,0:0:0:0:
312,151,77842,2,0,L|371:147,1,60,10|0,1:2|0:0,0:0:0:0:
434,110,78150,1,8,1:2:0:0:
434,110,78304,1,8,0:0:0:0:
493,151,78458,6,0,P|488:180|476:208,1,60,0|0,1:0|0:0,0:0:0:0:
432,265,78765,1,8,0:0:0:0:
368,231,78919,2,0,L|309:235,1,60,0|0,1:0|0:0,0:0:0:0:
244,202,79227,1,4,3:0:0:0:
193,253,79381,1,14,0:0:0:0:
225,317,79535,1,4,3:0:0:0:
256,192,79612,12,4,80919,3:0:0:0:
318,68,90765,6,0,P|323:127|335:186,1,120,0|0,1:0|1:0,0:0:0:0:
374,247,91227,1,0,1:0:0:0:
431,291,91381,2,0,P|428:320|423:350,2,60,0|0|0,0:0|1:2|1:0,0:0:0:0:
431,146,91996,1,0,1:0:0:0:
306,218,92304,2,0,P|276:219|246:217,1,60,0|0,1:0|0:0,0:0:0:0:
181,184,92612,1,2,0:0:0:0:
181,184,92765,2,0,P|151:182|121:183,1,60,0|0,1:0|1:0,0:0:0:0:
75,320,93227,6,0,P|134:323|194:322,1,120,0|0,1:0|1:0,0:0:0:0:
243,268,93689,2,0,P|301:256|361:253,1,120,0|0,1:0|1:0,0:0:0:0:
407,309,94150,2,0,L|466:306,1,60,0|0,1:0|0:0,0:0:0:0:
502,242,94458,2,0,B|512:218|512:218|501:124,2,120,0|0|2,1:0|1:0|0:0,0:0:0:0:
466,306,95227,1,0,1:0:0:0:
466,306,95381,2,0,L|406:308,1,60,0|0,1:0|0:0,0:0:0:0:
361,253,95689,6,0,P|301:255|242:267,1,120,0|0,1:0|1:0,0:0:0:0:
112,328,96304,2,0,L|52:324,2,60,2|0|0,0:0|2:0|1:0,0:0:0:0:
174,291,96765,1,0,0:0:0:0:
155,221,96919,2,0,P|153:161|156:101,1,120,0|0,1:0|1:0,0:0:0:0:
187,35,97381,1,0,0:0:0:0:
252,65,97535,2,0,P|281:64|311:59,1,60,2|0,0:0|1:0,0:0:0:0:
380,39,97842,1,0,1:0:0:0:
506,108,98150,6,0,B|512:154|512:154|488:223,1,120,0|0,1:0|1:0,0:0:0:0:
439,276,98612,1,0,1:0:0:0:
370,297,98765,2,0,P|371:326|375:356,2,60,0|0|2,1:0|0:0|1:2,0:0:0:0:
386,226,99227,1,0,0:0:0:0:
339,170,99381,2,0,P|309:163|279:161,1,60,0|0,1:0|3:0,0:0:0:0:
207,151,99689,1,0,1:0:0:0:
207,151,99842,1,0,3:0:0:0:
140,178,99996,2,0,L|136:237,2,60,0|0|0,1:0|3:0|1:0,0:0:0:0:
42,71,100612,6,0,L|45:11,2,60,4|0|0,1:2|3:0|1:0,0:0:0:0:
52,142,101073,2,0,L|-1:168,2,60,4|0|0,1:2|0:0|1:0,0:0:0:0:
109,98,101535,2,0,L|159:131,2,60,4|0|0,1:2|0:0|1:0,0:0:0:0:
42,71,101996,2,0,L|45:11,2,60,0|0|0,1:2|0:0|1:0,0:0:0:0:
52,142,102458,2,0,L|48:201,1,60,4|4,3:0|3:0,0:0:0:0:
111,236,102765,2,0,L|114:295,1,60,4|0,3:0|0:0,0:0:0:0:
159,353,103073,6,0,L|218:355,2,60,4|0|0,1:2|0:0|0:0,0:0:0:0:
115,296,103535,2,0,L|55:298,2,60,4|0|4,1:2|0:0|1:2,0:0:0:0:
159,239,103996,2,0,L|218:236,1,60,0|0,0:0|1:0,0:0:0:0:
279,195,104304,1,0,1:0:0:0:
279,195,104458,2,0,P|287:166|290:136,1,60,4|4,3:0|3:0,0:0:0:0:
290,64,104765,1,4,3:0:0:0:
359,84,104919,2,0,B|380:121|380:121|377:162|367:197,1,120,0|0,0:0|1:0,0:0:0:0:
339,264,105381,1,0,1:0:0:0:
272,290,105535,6,0,P|212:294|152:290,1,120,4|0,1:2|0:0,0:0:0:0:
85,264,105996,1,4,1:2:0:0:
29,219,106150,2,0,L|35:159,1,60,0|0,0:0|1:0,0:0:0:0:
94,117,106458,2,0,L|87:57,1,60,4|0,1:2|0:0,0:0:0:0:
139,7,106765,1,0,1:0:0:0:
200,45,106919,2,0,L|259:34,2,60,0|0|4,1:0|0:0|3:0,0:0:0:0:
196,118,107381,6,0,P|203:177|222:234,1,120,4|0,3:0|0:0,0:0:0:0:
261,294,107842,1,0,1:0:0:0:
330,314,107996,2,0,L|322:373,2,60,4|0|0,1:2|0:0|1:0,0:0:0:0:
395,282,108458,1,4,1:2:0:0:
395,282,108612,2,0,L|387:222,1,60,0|0,0:0|1:0,0:0:0:0:
328,180,108919,2,0,L|335:120,1,60,4|0,1:2|0:0,0:0:0:0:
281,73,109227,2,0,L|221:75,1,60,0|0,1:0|1:0,0:0:0:0:
165,122,109535,2,0,L|105:119,1,60,0|0,0:0|1:0,0:0:0:0:
67,58,109842,2,0,P|71:117|60:176,2,120,0|0|4,1:0|1:0|3:0,0:0:0:0:
323,51,120304,6,0,L|203:51,1,120,2|0,0:0|1:0,0:0:0:0:
263,333,121227,1,0,1:0:0:0:
323,51,121842,1,0,1:0:0:0:
383,333,122458,1,0,1:0:0:0:
239,333,122765,6,0,L|119:333,1,120,2|0,0:0|1:0,0:0:0:0:
179,51,123688,1,0,1:0:0:0:
239,333,124303,1,0,1:0:0:0:
299,51,124919,2,0,P|328:56|358:59,1,60,0|0,1:0|1:0,0:0:0:0:
429,43,125227,6,0,P|438:102|439:162,1,120,4|0,1:2|1:0,0:0:0:0:
372,190,125689,2,0,P|362:249|361:309,1,120,4|0,1:2|1:0,0:0:0:0:
295,338,126150,2,0,P|235:342|175:338,1,120,4|0,1:2|1:0,0:0:0:0:
116,295,126612,2,0,L|56:301,2,60,4|0|0,1:2|0:0|1:0,0:0:0:0:
153,233,127073,2,0,L|212:239,1,60,4|0,1:2|0:0,0:0:0:0:
279,206,127381,1,0,1:0:0:0:
279,206,127535,1,8,0:0:0:0:
327,265,127689,5,0,1:0:0:0:
327,265,127842,2,0,L|386:258,1,60,0|0,1:0|0:0,0:0:0:0:
455,235,128150,2,0,P|462:206|466:176,1,60,0|0,1:0|0:0,0:0:0:0:
404,138,128458,2,0,P|396:109|392:79,1,60,0|0,1:0|0:0,0:0:0:0:
424,15,128765,1,0,1:0:0:0:
347,344,130150,6,0,P|359:285|364:225,1,120,4|8,1:2|0:0,0:0:0:0:
360,153,130612,1,0,1:0:0:0:
294,125,130765,2,0,P|234:127|176:141,1,120,0|8,1:0|0:0,0:0:0:0:
90,258,131381,1,0,1:0:0:0:
32,126,131689,2,0,P|37:96|49:69,1,60,8|2,0:0|0:0,0:0:0:0:
102,19,131996,1,0,1:0:0:0:
176,142,132304,1,8,0:0:0:0:
268,31,132612,6,0,P|326:17|386:15,2,120,0|8|0,1:0|0:0|1:0,0:0:0:0:
176,142,133535,1,8,0:0:0:0:
268,252,133842,2,0,P|326:265|386:267,1,120,0|8,1:0|0:0,0:0:0:0:
457,254,134304,1,0,1:0:0:0:
507,202,134458,2,0,L|498:142,1,60,0|0,1:0|1:0,0:0:0:0:
439,101,134765,2,0,L|447:41,1,60,8|0,0:0|1:0,0:0:0:0:
374,42,135073,6,0,L|316:58,1,60,4|0,1:2|0:0,0:0:0:0:
247,36,135381,2,0,L|213:85,1,60,8|0,0:0|1:0,0:0:0:0:
202,157,135689,2,0,P|142:158|83:147,1,120,0|8,1:0|0:0,0:0:0:0:
39,91,136150,2,0,L|47:210,1,120,4|4,1:2|1:2,0:0:0:0:
0,268,136612,1,0,0:0:0:0:
43,325,136765,2,0,B|105:323|101:301|159:300,1,120,0|2,1:0|1:2,0:0:0:0:
267,204,137381,6,0,P|326:207|386:204,1,120,4|0,1:2|1:0,0:0:0:0:
428,144,137842,2,0,L|487:148,1,60,8|0,0:0|1:0,0:0:0:0:
511,217,138150,2,0,P|503:246|490:273,1,60,0|0,1:0|0:0,0:0:0:0:
346,283,138612,2,0,L|286:287,2,60,4|0|0,1:2|0:0|1:0,0:0:0:0:
333,212,139073,2,0,L|273:207,1,60,8|0,0:0|3:0,0:0:0:0:
229,150,139381,2,0,P|228:120|231:90,2,60,2|8|0,0:0|0:0|1:0,0:0:0:0:
373,148,139996,6,0,P|375:88|367:28,1,120,4|8,1:2|0:0,0:0:0:0:
299,4,140458,1,0,1:0:0:0:
236,40,140612,2,0,P|176:39|116:34,1,120,0|8,1:0|0:0,0:0:0:0:
43,159,141227,2,0,P|102:158|162:153,1,120,8|8,1:2|0:0,0:0:0:0:
230,128,141689,1,2,0:0:0:0:
230,128,141842,1,0,1:0:0:0:
188,266,142150,1,8,0:0:0:0:
310,342,142458,6,0,P|369:339|428:326,2,120,0|8|0,1:0|0:0|1:0,0:0:0:0:
188,266,143381,1,8,0:0:0:0:
66,342,143689,1,4,3:0:0:0:
60,199,143996,2,0,P|61:169|67:139,1,60,4|0,1:2|0:0,0:0:0:0:
124,94,144304,2,0,P|183:87|241:71,1,120,8|8,0:0|0:0,0:0:0:0:
297,26,144765,1,0,1:0:0:0:
365,52,144919,6,0,P|394:55|424:52,2,60,4|0|0,1:2|1:0|0:0,0:0:0:0:
309,97,145381,2,0,P|321:124|338:148,2,60,4|0|0,1:2|1:3|0:3,0:0:0:0:
297,26,145842,1,4,1:2:0:0:
297,26,145996,2,0,P|267:25|238:32,1,60,0|0,1:0|0:0,0:0:0:0:
180,76,146304,1,4,1:2:0:0:
180,76,146458,2,0,L|186:135,1,60,0|0,1:0|0:0,0:0:0:0:
214,201,146765,2,0,P|243:206|273:208,1,60,10|0,1:2|0:0,0:0:0:0:
323,156,147073,2,0,P|352:150|382:148,1,60,8|8,1:2|0:0,0:0:0:0:
451,124,147381,6,0,P|455:153|447:182,1,60,0|0,1:0|0:0,0:0:0:0:
409,244,147689,1,8,0:0:0:0:
338,229,147842,2,0,B|248:241|248:241|226:260,1,120,0|4,1:0|3:0,0:0:0:0:
191,324,148304,1,14,0:0:0:0:
242,378,148458,1,4,3:0:0:0:
256,192,148535,12,0,149842,1:0:0:0:
31,198,166919,6,0,P|89:209|149:211,1,120,4|0,1:2|1:0,0:0:0:0:
197,157,167381,2,0,P|226:157|256:161,1,60,8|0,0:0|0:0,0:0:0:0:
328,150,167689,2,0,P|326:179|313:206,1,60,0|0,1:0|3:0,0:0:0:0:
247,234,167996,2,0,P|248:263|261:290,1,60,8|0,1:2|3:0,0:0:0:0:
325,324,168304,2,0,P|384:330|444:328,1,120,0|8,1:0|1:2,0:0:0:0:
510,300,168765,1,0,3:0:0:0:
471,239,168919,2,0,L|473:179,1,60,0|0,1:0|3:0,0:0:0:0:
423,126,169227,2,0,P|393:128|365:138,1,60,8|0,1:2|3:0,0:0:0:0:
301,104,169535,6,0,B|263:98|263:98|184:118,1,120,0|8,1:0|1:2,0:0:0:0:
122,156,169996,1,8,3:2:0:0:
100,224,170150,2,0,P|125:239|153:249,1,60,0|0,1:0|3:0,0:0:0:0:
226,245,170458,1,0,1:0:0:0:
226,245,170612,1,4,1:2:0:0:
293,270,170765,2,0,P|294:299|291:329,2,60,0|0|8,0:0|1:0|1:2,0:0:0:0:
280,198,171227,1,0,0:0:0:0:
332,148,171381,2,0,P|361:149|391:155,1,60,0|0,1:0|1:0,0:0:0:0:
454,191,171689,1,8,0:0:0:0:
463,262,171842,1,0,1:0:0:0:
410,311,171996,6,0,P|351:322|291:329,2,120,4|8|0,1:2|0:0|1:0,0:0:0:0:
463,262,172765,1,2,0:0:0:0:
454,191,172918,1,8,1:2:0:0:
406,136,173073,2,0,P|346:143|287:154,1,120,0|0,1:0|1:0,0:0:0:0:
224,191,173535,1,8,0:0:0:0:
152,181,173689,2,0,B|127:150|127:150|116:70,1,120,4|4,1:2|3:0,0:0:0:0:
170,22,174150,1,4,3:0:0:0:
234,54,174304,6,0,P|293:52|353:44,1,120,4|0,1:2|1:0,0:0:0:0:
421,20,174765,2,0,L|431:79,1,60,4|0,1:2|0:0,0:0:0:0:
390,138,175073,2,0,L|400:197,2,60,0|8|8,1:0|0:0|0:0,0:0:0:0:
317,139,175535,2,0,B|287:177|287:177|282:248,1,120,4|0,1:2|3:0,0:0:0:0:
219,282,175996,2,0,P|238:304|265:317,1,60,4|0,1:2|0:0,0:0:0:0:
335,298,176304,2,0,P|350:272|354:243,1,60,0|0,3:0|3:0,0:0:0:0:
384,176,176612,1,4,3:2:0:0:
384,176,176765,5,4,1:2:0:0:
256,192,176842,12,0,179381,0:0:0:0:
317,308,189227,6,0,P|354:262|381:208,1,120,2|0,0:0|3:0,0:0:0:0:
112,106,190150,1,0,3:0:0:0:
400,106,190765,1,0,3:0:0:0:
130,208,191381,1,0,3:0:0:0:
256,138,191689,6,0,L|256:18,1,120,0|0,1:0|1:0,0:0:0:0:
112,268,192612,1,0,1:0:0:0:
400,268,193227,1,0,1:0:0:0:
256,18,193842,2,0,L|256:78,1,60,8|0,1:2|0:0,0:0:0:0:
292,141,194150,6,0,P|321:142|350:150,2,60,4|2|0,1:2|0:0|1:0,0:0:0:0:
220,141,194612,2,0,P|190:142|161:150,2,60,4|2|0,1:2|0:0|1:0,0:0:0:0:
256,208,195073,1,4,1:2:0:0:
256,208,195227,2,0,L|256:268,1,60,2|0,0:0|1:0,0:0:0:0:
199,311,195535,1,4,1:2:0:0:
199,311,195689,2,0,L|199:371,1,60,2|0,0:0|1:0,0:0:0:0:
270,383,195996,2,0,P|324:358|363:313,1,120,0|0,1:0|1:0,0:0:0:0:
361,241,196458,1,0,3:0:0:0:
423,205,196612,6,0,B|433:168|433:168|419:87,1,120,0|0,1:2|1:0,0:0:0:0:
347,87,197073,2,0,P|287:93|229:109,1,120,4|0,1:2|1:0,0:0:0:0:
165,143,197535,1,0,0:0:0:0:
112,192,197689,2,0,P|114:251|126:310,1,120,4|0,1:2|1:0,0:0:0:0:
169,368,198150,1,8,0:0:0:0:
301,311,198458,2,0,P|313:252|315:192,1,120,0|0,3:0|3:0,0:0:0:0:
213,91,199073,6,0,B|262:53|262:53|319:48,1,120,4|8,1:2|0:0,0:0:0:0:
388,70,199535,1,0,1:0:0:0:
416,136,199689,1,0,1:0:0:0:
512,29,199996,1,8,0:0:0:0:
480,169,200304,2,0,P|482:228|492:288,2,120,0|8|0,1:0|0:0|1:0,0:0:0:0:
512,29,201227,1,8,0:0:0:0:
374,71,201535,5,0,1:0:0:0:
236,29,201842,1,8,0:0:0:0:
194,167,202150,2,0,P|142:137|106:90,1,120,0|8,1:0|0:0,0:0:0:0:
236,29,202765,2,0,L|296:29,1,60,4|0,1:2|1:0,0:0:0:0:
358,66,203073,1,8,0:0:0:0:
473,153,203381,2,0,L|413:153,1,60,4|0,3:0|1:0,0:0:0:0:
342,136,203689,1,8,0:0:0:0:
342,136,203843,1,0,1:0:0:0:
358,66,203996,6,0,P|298:56|238:52,1,120,4|8,1:2|0:0,0:0:0:0:
166,52,204458,1,0,1:0:0:0:
100,82,204612,2,0,P|95:111|96:141,1,60,0|0,1:0|3:0,0:0:0:0:
100,213,204919,1,8,0:0:0:0:
155,258,205073,1,4,1:2:0:0:
296,287,205381,2,0,P|325:287|355:292,1,60,4|0,1:2|0:0,0:0:0:0:
419,327,205689,1,4,1:2:0:0:
449,186,205996,2,0,P|446:156|438:127,1,60,4|0,1:2|0:0,0:0:0:0:
395,68,206304,6,0,B|336:68|341:86|276:85,1,120,4|0,1:2|1:0,0:0:0:0:
205,76,206765,2,0,L|210:135,1,60,0|8,1:0|0:0,0:0:0:0:
169,195,207073,1,8,0:0:0:0:
169,195,207227,1,0,3:2:0:0:
204,335,207535,2,0,P|144:336|89:314,1,120,4|0,1:2|1:0,0:0:0:0:
21,290,207996,2,0,L|23:230,1,60,8|0,0:0|1:0,0:0:0:0:
86,193,208304,2,0,L|83:133,1,60,0|0,1:0|1:0,0:0:0:0:
58,64,208612,1,8,0:0:0:0:
197,100,208919,6,0,P|256:99|316:91,1,120,4|8,1:2|0:0,0:0:0:0:
383,62,209381,1,0,1:0:0:0:
441,105,209535,1,0,1:0:0:0:
441,248,209842,1,8,0:0:0:0:
317,319,210150,1,0,1:0:0:0:
193,248,210458,2,0,L|193:188,1,60,8|2,1:2|3:2,0:0:0:0:
151,129,210765,2,0,P|91:131|32:145,1,120,0|8,1:0|0:0,0:0:0:0:
54,288,211381,5,0,1:0:0:0:
193,248,211689,2,0,L|193:188,1,60,8|0,0:0|3:0,0:0:0:0:
151,129,211996,1,0,1:0:0:0:
281,68,212304,1,8,0:0:0:0:
393,159,212612,2,0,P|378:217|349:269,1,120,0|12,1:0|1:2,0:0:0:0:
300,322,213073,1,0,0:0:0:0:
245,275,213227,2,0,L|185:270,1,60,0|0,1:0|3:0,0:0:0:0:
119,239,213535,1,8,1:2:0:0:
119,239,213689,1,0,1:0:0:0:
59,278,213842,6,0,P|50:306|46:336,2,60,4|0|0,1:2|1:0|0:0,0:0:0:0:
14,221,214304,2,0,P|5:192|1:162,2,60,4|0|0,1:2|1:0|0:0,0:0:0:0:
86,210,214765,1,4,1:2:0:0:
86,210,214919,2,0,L|145:206,1,60,0|0,1:0|0:0,0:0:0:0:
201,159,215227,1,4,1:2:0:0:
201,159,215381,2,0,L|260:163,1,60,0|0,1:0|0:0,0:0:0:0:
316,209,215689,2,0,P|324:237|328:267,1,60,0|0,1:0|0:0,0:0:0:0:
303,337,215996,1,0,1:0:0:0:
303,337,216150,1,0,1:0:0:0:
231,317,216304,6,0,P|202:319|173:328,1,60,0|0,1:0|1:0,0:0:0:0:
108,361,216612,1,0,3:0:0:0:
73,298,216765,2,0,P|75:268|84:239,1,60,4|0,1:2|0:0,0:0:0:0:
127,181,217073,1,0,3:0:0:0:
86,122,217227,1,8,0:0:0:0:
17,142,217381,1,4,3:0:0:0:
256,192,217458,12,4,218765,1:2:0:0:
451,200,223689,6,0,P|391:204|331:200,1,120,4|8,1:2|0:0,0:0:0:0:
197,147,224304,2,0,L|137:152,1,60,0|2,1:0|0:0,0:0:0:0:
73,120,224612,1,8,0:0:0:0:
10,154,224765,2,0,B|10:219|33:209|33:270,1,120,0|0,3:0|3:0,0:0:0:0:
27,343,225227,1,0,0:0:0:0:
92,313,225381,2,0,B|122:310|122:310|211:321,1,120,0|0,3:0|1:0,0:0:0:0:
280,342,225842,1,0,0:0:0:0:
349,321,225996,6,0,P|362:262|364:202,1,120,4|0,1:2|0:0,0:0:0:0:
320,144,226458,2,0,L|325:84,1,60,4|0,1:2|0:0,0:0:0:0:
370,28,226765,2,0,B|337:13|337:13|253:20,1,120,8|0,0:0|0:0,0:0:0:0:
195,63,227227,2,0,P|135:66|75:63,1,120,4|0,1:2|3:0,0:0:0:0:
11,27,227689,1,8,0:0:0:0:
11,27,227842,2,0,B|0:64|0:64|27:140,1,120,0|0,0:0|1:0,0:0:0:0:
35,212,228304,2,0,L|94:207,1,60,0|0,1:0|1:0,0:0:0:0:
148,158,228612,6,0,P|205:142|265:137,1,120,4|8,1:2|0:0,0:0:0:0:
377,46,229227,2,0,P|361:103|335:158,1,120,0|8,1:0|0:0,0:0:0:0:
266,138,229689,1,2,0:0:0:0:
203,172,229842,2,0,B|194:215|194:215|217:287,1,120,0|8,1:0|0:0,0:0:0:0:
251,351,230304,1,2,0:0:0:0:
316,320,230458,2,0,L|375:327,1,60,0|2,1:0|0:0,0:0:0:0:
425,379,230765,2,0,L|484:371,1,60,8|2,0:0|0:0,0:0:0:0:
512,305,231073,5,0,1:0:0:0:
469,167,231381,2,0,P|469:107|476:47,1,120,8|0,0:0|0:0,0:0:0:0:
333,66,231996,2,0,L|273:60,1,60,8|0,0:0|0:0,0:0:0:0:
224,114,232304,2,0,P|166:129|106:132,1,120,0|4,1:0|1:2,0:0:0:0:
37,113,232765,1,2,3:2:0:0:
0,175,232919,2,0,P|1:204|3:234,1,60,0|2,1:0|3:2,0:0:0:0:
32,301,233227,1,0,1:2:0:0:
25,373,233381,1,2,3:2:0:0:
91,343,233535,6,0,P|120:344|149:336,2,60,0|0|0,1:0|3:0|3:0,0:0:0:0:
32,301,233996,2,0,P|20:273|18:243,2,60,4|0|0,1:2|3:0|3:0,0:0:0:0:
99,271,234458,2,0,L|134:222,1,60,4|0,1:2|3:0,0:0:0:0:
157,154,234765,1,0,3:0:0:0:
225,175,234919,2,0,P|254:174|284:170,1,60,4|0,1:2|3:0,0:0:0:0:
352,145,235227,1,0,3:0:0:0:
420,164,235381,2,0,P|428:193|430:223,1,60,4|0,1:2|0:0,0:0:0:0:
415,294,235689,1,0,1:0:0:0:
358,337,235842,1,0,1:0:0:0:
297,298,235996,6,0,P|267:299|237:305,2,60,0|0|8,1:0|0:0|0:0,0:0:0:0:
321,229,236458,2,0,P|321:199|318:169,1,60,0|0,1:0|0:0,0:0:0:0:
257,132,236765,2,0,P|256:102|259:72,1,60,4|4,3:0|3:0,0:0:0:0:
190,49,237073,2,0,P|185:108|189:168,1,120,4|0,3:0|0:0,0:0:0:0:
193,241,237535,1,2,0:0:0:0:
324,296,237842,2,0,P|323:326|319:356,2,60,0|8|0,1:0|0:0|1:0,0:0:0:0:
324,224,238304,5,4,1:2:0:0:
256,192,238381,12,0,247073,0:0:0:0:
