osu file format v14

[General]
AudioFilename: New World.mp3
AudioLeadIn: 0
PreviewTime: 60612
Countdown: 0
SampleSet: Soft
StackLeniency: 0.3
Mode: 0
LetterboxInBreaks: 0
WidescreenStoryboard: 0

[Editor]
DistanceSpacing: 1.4
BeatDivisor: 4
GridSize: 4
TimelineZoom: 2.4

[Metadata]
Title:New World
TitleUnicode:New World
Artist:FELT
ArtistUnicode:FELT
Creator:Hakurei Yoru
Version:Misure's Hard
Source:東方Project
Tags:z1085684963 CoLouRed GlaZeE Pata-Mon Misure StarrStyx Rumia- sodarose world trick ネクロファンタジア yukari yakumo theme Comiket88 Mika 美歌 Maika 舞花 touhou NAGI☆ 東方妖々夢 ~ Perfect Cherry Blossom 八雲紫
BeatmapID:1042374
BeatmapSetID:486207

[Difficulty]
HPDrainRate:5
CircleSize:3.8
OverallDifficulty:6
ApproachRate:8
SliderMultiplier:1.4
SliderTickRate:1

[Events]
//Background and Video events
0,0,"bg.jpg",0,0
//Break Periods
2,41735,50631
2,81120,85093
2,110658,119554
2,179581,188477
//Storyboard Layer 0 (Background)
//Storyboard Layer 1 (Fail)
//Storyboard Layer 2 (Pass)
//Storyboard Layer 3 (Foreground)
//Storyboard Sound Samples

[TimingPoints]
-311,307.692307692308,4,2,1,70,1,0
11996,-100,4,2,1,75,0,0
20458,-125,4,2,1,65,0,0
21535,-111.111111111111,4,2,1,70,0,0
21689,-111.111111111111,4,2,1,60,0,0
21842,-100,4,2,1,60,0,0
31689,-100,4,2,1,70,0,0
40920,-100,4,2,1,60,0,0
41535,-100,4,2,1,50,0,0
51381,-117.647058823529,4,2,1,60,0,0
56304,-100,4,2,1,75,0,0
58765,-83.3333333333333,4,2,1,70,0,0
59227,-100,4,2,1,70,0,0
59996,-100,4,2,1,50,0,0
61227,-100,4,2,1,80,0,1
79535,-111.111111111111,4,2,1,70,0,1
80304,-100,4,2,1,65,0,1
80919,-100,4,2,1,50,0,0
85842,-111.111111111111,4,2,1,60,0,0
90765,-100,4,2,1,65,0,0
100612,-100,4,2,1,70,0,0
109842,-100,4,2,1,60,0,0
110458,-100,4,2,1,50,0,0
120304,-117.647058823529,4,2,1,60,0,0
125227,-100,4,2,1,75,0,0
127689,-83.3333333333333,4,2,1,70,0,0
128150,-100,4,2,1,70,0,0
128919,-100,4,2,1,50,0,0
130150,-100,4,2,1,80,0,1
148458,-111.111111111111,4,2,1,70,0,1
149227,-100,4,2,1,65,0,1
149842,-117.647058823529,4,2,1,55,0,0
159689,-100,4,2,1,65,0,0
165689,-125,4,2,1,55,0,0
166612,-111.111111111111,4,2,1,65,0,0
166919,-100,4,2,1,75,0,1
176765,-100,4,2,1,60,0,0
176919,-100,4,2,1,50,0,0
177535,-100,4,2,1,40,0,0
178150,-100,4,2,1,30,0,0
178765,-100,4,2,1,20,0,0
179381,-100,4,2,1,50,0,0
189227,-117.647058823529,4,2,1,60,0,0
194150,-100,4,2,1,75,0,0
198458,-100,4,2,1,70,0,0
199073,-100,4,2,1,80,0,1
218765,-100,4,2,1,75,0,0
233535,-100,4,2,1,65,0,0
237073,-100,4,2,1,55,0,0
238304,-100,4,2,1,70,0,0
238458,-100,4,2,1,75,0,0
239073,-100,4,2,1,70,0,0
239689,-100,4,2,1,65,0,0
240304,-100,4,2,1,60,0,0
240919,-100,4,2,1,55,0,0
241535,-100,4,2,1,50,0,0
242150,-100,4,2,1,45,0,0
242765,-100,4,2,1,40,0,0
243381,-100,4,2,1,35,0,0
243996,-100,4,2,1,30,0,0
244612,-100,4,2,1,25,0,0
245227,-100,4,2,1,20,0,0
245842,-100,4,2,1,15,0,0
246458,-100,4,2,1,10,0,0
247073,-100,4,2,1,5,0,0

[Colours]
Combo1 : 255,168,81
Combo2 : 0,128,192
Combo3 : 0,0,255
Combo4 : 244,64,91
Combo5 : 128,0,255

[HitObjects]
48,196,2151,6,0,L|117:206,1,70,4|0,1:2|0:0,0:0:0:0:
148,292,2458,2,0,L|217:281,1,70,0|0,1:0|1:0,0:0:0:0:
260,200,2766,2,0,P|293:190|327:195,1,70,2|0,0:0|1:0,0:0:0:0:
416,220,3074,2,0,P|421:185|411:152,1,70,0|0,0:0|1:0,0:0:0:0:
356,80,3381,6,0,L|286:69,2,70,0|0|2,0:0|1:0|0:0,0:0:0:0:
425,20,3843,1,0,1:2:0:0:
508,60,3997,2,0,P|502:94|511:128,1,70,0|2,1:0|0:0,0:0:0:0:
484,216,4304,2,0,P|450:224|415:219,1,70,0|2,1:0|0:0,0:0:0:0:
372,308,4612,6,0,P|439:323|508:313,1,140,4|0,1:2|1:0,0:0:0:0:
415,219,5074,2,0,P|381:208|346:212,1,70,4|0,1:2|0:0,0:0:0:0:
260,240,5381,1,2,0:0:0:0:
172,212,5535,2,0,L|162:142,1,70,0|2,1:0|0:0,0:0:0:0:
217,69,5843,6,0,P|251:63|284:73,2,70,0|2|0,0:0|0:0|1:0,0:0:0:0:
162,142,6304,1,0,1:0:0:0:
71,123,6458,2,0,P|60:89|62:54,1,70,2|0,0:0|0:0,0:0:0:0:
68,216,6766,2,0,L|0:229,1,70,0|0,1:0|1:0,0:0:0:0:
160,224,7074,5,4,1:2:0:0:
160,224,7227,1,0,0:0:0:0:
208,300,7381,2,0,P|240:310|275:307,2,70,0|0|2,1:0|1:0|0:0,0:0:0:0:
248,220,7843,1,0,1:0:0:0:
248,220,7997,2,0,L|255:150,2,70,0|0|2,1:0|0:0|0:0,0:0:0:0:
336,240,8458,5,0,1:0:0:0:
344,149,8612,2,0,L|351:79,1,70,0|0,0:0|1:0,0:0:0:0:
264,56,8920,2,0,P|230:63|195:59,1,70,0|2,1:0|0:0,0:0:0:0:
108,28,9227,2,0,P|103:62|111:96,1,70,0|2,1:0|0:0,0:0:0:0:
120,188,9535,6,0,L|50:198,1,70,4|0,1:2|0:0,0:0:0:0:
12,280,9843,1,0,0:0:0:0:
60,356,9997,2,0,P|128:366|192:339,1,140,4|0,1:2|1:0,0:0:0:0:
236,260,10458,1,0,0:0:0:0:
212,172,10612,1,0,1:0:0:0:
272,96,10766,6,0,P|306:94|340:102,1,70,0|0,1:0|1:0,0:0:0:0:
388,180,11074,2,0,L|457:171,1,70,2|0,0:0|1:0,0:0:0:0:
476,264,11381,2,0,L|337:280,1,140,0|0,1:0|1:0,0:0:0:0:
264,348,11843,1,2,1:2:0:0:
264,348,11920,1,2,1:2:0:0:
264,348,11997,6,0,P|230:353|195:347,2,70,4|0|0,1:2|0:0|1:0,0:0:0:0:
228,264,12458,2,0,L|221:124,1,140,4|0,1:2|1:0,0:0:0:0:
132,140,12920,6,0,L|62:147,2,70,4|0|0,1:2|0:0|1:0,0:0:0:0:
132,48,13381,2,0,L|62:40,2,70,4|0|0,1:2|0:0|1:0,0:0:0:0:
216,12,13843,1,0,1:0:0:0:
296,56,13997,2,0,P|330:61|365:56,1,70,2|0,0:0|1:0,0:0:0:0:
448,16,14304,1,0,1:0:0:0:
448,16,14381,1,0,1:0:0:0:
448,16,14458,6,0,P|455:49|450:84,1,70,4|0,1:2|0:0,0:0:0:0:
400,164,14766,1,0,1:0:0:0:
444,244,14920,2,0,L|512:227,1,70,4|0,1:2|0:0,0:0:0:0:
424,332,15227,1,0,1:0:0:0:
424,332,15381,2,0,L|355:315,1,70,4|0,1:2|0:0,0:0:0:0:
251,312,15689,6,0,P|244:346|250:380,2,70,0|0|0,1:0|1:0|0:0,0:0:0:0:
308,240,16151,1,0,1:0:0:0:
264,160,16304,2,0,P|231:147|197:147,1,70,0|0,1:0|1:0,0:0:0:0:
108,172,16612,1,0,1:0:0:0:
20,148,16766,1,2,1:2:0:0:
20,148,16843,1,2,1:2:0:0:
20,148,16920,6,0,L|33:287,1,140,4|0,1:2|1:0,0:0:0:0:
108,172,17381,2,0,L|121:32,1,140,4|0,1:2|1:0,0:0:0:0:
220,28,17843,6,0,P|254:27|287:15,2,70,4|0|0,1:2|0:0|1:0,0:0:0:0:
240,115,18304,2,0,P|270:131|304:137,2,70,4|0|0,1:2|0:0|1:0,0:0:0:0:
213,201,18766,2,0,P|230:230|257:253,2,70,4|4|4,3:0|3:0|3:0,0:0:0:0:
136,256,19227,2,0,L|101:259,2,35,4|8|0,3:0|3:0|1:0,0:0:0:0:
172,340,19535,6,0,L|241:349,1,70,0|0,1:0|0:0,0:0:0:0:
304,280,19843,2,0,L|373:289,1,70,0|0,1:0|0:0,0:0:0:0:
432,360,20151,2,0,L|501:369,1,70,0|0,1:0|0:0,0:0:0:0:
476,240,20458,6,0,P|373:154|372:288,1,336,4|4,1:2|3:0,0:0:0:0:
307,356,21535,6,0,P|276:360|246:352,1,62.9999980773926,0|0,1:0|1:0,0:0:0:0:
196,280,21843,6,0,P|127:272|61:293,1,140,4|0,1:2|1:0,0:0:0:0:
56,84,22458,2,0,P|122:105|190:96,1,140,2|0,0:0|0:0,0:0:0:0:
456,63,23074,2,0,L|316:52,1,140
316,264,23689,2,0,L|455:253,1,140,2|0,0:0|1:0,0:0:0:0:
504,176,24151,1,0,0:0:0:0:
440,112,24304,6,0,P|372:104|306:125,1,140,4|0,1:2|1:0,0:0:0:0:
312,336,24920,2,0,P|378:358|447:349,1,140,2|0,0:0|0:0,0:0:0:0:
204,240,25535,2,0,L|192:380,1,140,0|0,0:0|0:0,0:0:0:0:
48,224,26151,2,0,L|36:85,1,140,2|0,1:2|1:0,0:0:0:0:
128,80,26612,1,0,1:0:0:0:
208,36,26766,6,0,P|275:21|343:36,1,140,4|0,1:2|1:0,0:0:0:0:
352,248,27381,2,0,L|212:236,1,140,0|0,0:0|0:0,0:0:0:0:
44,116,27997,2,0,P|112:131|180:115,1,140,0|0,0:0|0:0,0:0:0:0:
244,316,28612,2,0,L|104:328,1,140,0|0,1:0|1:0,0:0:0:0:
44,260,29074,1,0,0:0:0:0:
84,180,29227,6,0,P|151:165|219:181,1,140,0|0,1:0|1:0,0:0:0:0:
424,136,29843,2,0,P|439:69|423:1,1,140,0|2,1:0|1:2,0:0:0:0:
209,41,30458,2,0,L|219:180,1,140,0|0,1:0|1:0,0:0:0:0:
225,272,30920,1,0,1:0:0:0:
302,222,31074,2,0,P|312:188|307:153,2,70,0|0|0,1:0|0:0|1:0,0:0:0:0:
225,272,31535,1,0,1:0:0:0:
225,272,31612,1,0,1:0:0:0:
225,272,31689,6,0,L|155:261,2,70,4|0|0,1:2|0:0|1:0,0:0:0:0:
220,180,32151,2,0,L|150:169,2,70,4|0|0,1:2|0:0|1:0,0:0:0:0:
212,88,32612,2,0,L|142:77,2,70,4|0|0,1:2|0:0|1:0,0:0:0:0:
268,24,33074,6,0,P|332:49|400:37,1,140,0|0,1:2|1:0,0:0:0:0:
476,88,33535,2,0,L|469:157,1,70,4|4,3:0|3:0,0:0:0:0:
488,248,33843,1,4,3:0:0:0:
416,300,33997,1,0,1:0:0:0:
416,300,34074,1,0,1:0:0:0:
416,300,34150,6,0,L|429:368,2,70,4|0|0,1:2|0:0|0:0,0:0:0:0:
324,308,34612,2,0,L|337:376,2,70,4|0|0,1:2|0:0|1:0,0:0:0:0:
232,316,35074,2,0,L|245:384,2,70,4|0|0,1:2|1:0|1:0,0:0:0:0:
176,244,35535,5,4,3:0:0:0:
108,304,35689,2,0,P|73:309|39:301,1,70,4|4,3:0|3:0,0:0:0:0:
0,220,35997,1,0,3:0:0:0:
28,132,36151,2,0,L|20:97,2,35,0|0|0,1:0|1:0|1:0,0:0:0:0:
120,128,36458,1,0,1:0:0:0:
120,128,36535,1,0,1:0:0:0:
120,128,36612,6,0,L|134:59,2,70,4|0|0,1:2|0:0|0:0,0:0:0:0:
212,136,37074,2,0,L|226:67,2,70,4|0|0,1:2|0:0|1:0,0:0:0:0:
304,144,37535,2,0,L|318:75,2,70,4|0|0,1:2|0:0|1:0,0:0:0:0:
316,236,37997,6,0,L|455:213,1,140,0|0,1:0|1:0,0:0:0:0:
504,136,38458,2,0,P|473:121|439:123,1,70,0|0,1:0|1:0,0:0:0:0:
376,192,38766,1,4,3:0:0:0:
392,280,38920,1,4,3:0:0:0:
392,280,38997,1,4,3:0:0:0:
392,280,39074,6,0,L|385:349,2,70,4|0|0,1:2|0:0|1:0,0:0:0:0:
300,284,39535,2,0,L|293:353,2,70,4|0|0,1:2|0:0|1:0,0:0:0:0:
212,256,39997,2,0,L|205:325,2,70,4|0|0,1:2|0:0|1:0,0:0:0:0:
124,232,40458,6,0,P|90:227|57:237,1,70,0|0,1:0|1:0,0:0:0:0:
8,160,40766,1,4,3:0:0:0:
92,120,40920,2,0,L|80:52,1,70,4|4,3:0|3:0,0:0:0:0:
184,120,41227,2,0,L|196:52,1,70,4|0,3:0|0:0,0:0:0:0:
288,96,41535,5,4,3:2:0:0:
260,268,51381,6,0,P|315:287|374:280,1,119.000002269745,2|0,0:0|1:0,0:0:0:0:
157,198,51997,2,0,P|138:253|145:312,1,119.000002269745,0|0,0:0|1:0,0:0:0:0:
227,95,52612,2,0,P|172:76|113:83,1,119.000002269745,0|0,0:0|1:0,0:0:0:0:
330,165,53227,2,0,P|349:110|342:51,1,119.000002269745,0|0,0:0|1:0,0:0:0:0:
260,268,53843,6,0,L|377:285,1,119.000002269745,0|0,0:0|1:0,0:0:0:0:
227,95,54458,2,0,L|110:112,1,119.000002269745,0|0,0:0|1:0,0:0:0:0:
330,165,55074,2,0,L|448:148,1,119.000002269745,0|0,0:0|1:0,0:0:0:0:
492,228,55535,1,0,0:0:0:0:
452,308,55689,2,0,P|394:320|336:307,1,119.000002269745,4|0,3:0|1:0,0:0:0:0:
236,284,56151,1,0,0:0:0:0:
236,284,56227,1,0,0:0:0:0:
236,284,56304,6,0,P|223:316|225:351,2,70,4|0|0,1:2|1:0|1:0,0:0:0:0:
154,241,56766,2,0,P|122:255|98:280,2,70,4|0|0,1:2|1:0|1:0,0:0:0:0:
126,151,57227,2,0,P|93:138|58:140,2,70,4|0|0,1:2|1:0|1:0,0:0:0:0:
169,70,57689,2,0,P|154:38|129:14,2,70,4|0|0,1:2|1:0|1:0,0:0:0:0:
240,128,58151,2,0,L|310:128,1,70,0|0,1:0|1:0,0:0:0:0:
393,87,58458,1,0,1:0:0:0:
386,185,58612,1,8,0:0:0:0:
386,185,58689,1,8,0:0:0:0:
386,185,58765,6,0,L|382:268,1,83.9999974365235,4|0,1:3|1:0,0:0:0:0:
382,268,59227,6,0,L|313:260,1,70,0|0,1:0|0:0,0:0:0:0:
253,337,59535,2,0,L|184:346,1,70,0|0,1:0|0:0,0:0:0:0:
105,285,59842,2,0,L|36:277,1,70,0|0,1:0|0:0,0:0:0:0:
78,110,61227,6,0,P|146:124|215:114,1,140,4|8,1:2|0:0,0:0:0:0:
302,83,61689,1,0,1:0:0:0:
302,83,61766,1,0,1:0:0:0:
302,83,61843,2,0,L|299:153,1,70,0|0,1:0|0:0,0:0:0:0:
280,245,62151,2,0,L|348:258,1,70,8|0,0:0|0:0,0:0:0:0:
299,153,62458,6,0,P|264:154|231:167,1,70,0|2,1:0|0:0,0:0:0:0:
169,233,62766,2,0,P|170:267|183:300,1,70,8|2,0:0|0:0,0:0:0:0:
250,363,63074,2,0,P|284:361|317:348,1,70,0|2,1:0|0:0,0:0:0:0:
379,282,63381,2,0,P|377:247|364:214,1,70,8|0,0:0|1:0,0:0:0:0:
299,153,63689,6,0,L|439:164,1,140,0|8,1:0|0:0,0:0:0:0:
416,68,64151,1,0,1:0:0:0:
416,68,64227,1,0,1:0:0:0:
416,68,64304,2,0,P|381:58|346:60,1,70,0|2,1:0|0:0,0:0:0:0:
256,68,64612,2,0,P|221:77|186:75,1,70,8|2,0:0|0:0,0:0:0:0:
120,12,64920,5,0,1:0:0:0:
48,68,65074,1,0,1:0:0:0:
104,140,65227,2,0,P|107:174|102:209,1,70,8|0,0:0|1:0,0:0:0:0:
36,276,65535,1,0,1:0:0:0:
108,332,65689,2,0,L|105:366,2,35,0|8|8,1:0|0:0|0:0,0:0:0:0:
188,272,65997,1,0,1:0:0:0:
188,272,66074,1,0,1:0:0:0:
188,272,66151,6,0,L|181:202,1,70,4|0,1:2|0:0,0:0:0:0:
328,274,66458,2,0,L|270:314,1,70,8|0,0:0|1:0,0:0:0:0:
260,152,66766,2,0,L|324:180,1,70,0|0,1:0|0:0,0:0:0:0:
404,220,67074,1,8,0:0:0:0:
496,120,67227,6,0,P|444:112|393:124,1,105,4|0,1:2|0:0,0:0:0:0:
353,100,67535,2,0,L|345:30,1,70,4|0,1:2|0:0,0:0:0:0:
260,68,67843,2,0,P|208:75|157:63,1,105,0|0,1:0|0:0,0:0:0:0:
117,88,68151,2,0,L|109:157,1,70,2|0,1:2|0:0,0:0:0:0:
156,242,68458,6,0,P|176:306|148:368,1,140,4|0,1:2|1:0,0:0:0:0:
17,306,68920,2,0,L|86:300,1,70,8|0,0:0|1:0,0:0:0:0:
156,242,69227,1,0,1:0:0:0:
223,182,69381,2,0,L|292:187,1,70,0|8,0:0|0:0,0:0:0:0:
336,276,69689,6,0,P|404:285|470:264,1,140,4|0,1:2|1:0,0:0:0:0:
456,172,70151,2,0,L|387:157,1,70,8|0,0:0|0:0,0:0:0:0:
312,104,70458,1,4,3:0:0:0:
360,28,70612,2,0,L|393:16,2,35,4|0|8,3:0|3:0|1:2,0:0:0:0:
268,24,70920,2,0,L|234:13,1,35,0|0,1:0|1:0,0:0:0:0:
188,28,71074,6,0,L|199:167,1,140,4|8,1:2|0:0,0:0:0:0:
116,208,71535,1,0,1:0:0:0:
116,208,71612,1,0,1:0:0:0:
116,208,71689,2,0,L|121:277,1,70,0|2,1:0|0:0,0:0:0:0:
176,352,71997,2,0,L|244:365,1,70,8|0,0:0|0:0,0:0:0:0:
352,351,72304,6,0,P|352:317|341:284,1,70,8|2,1:2|0:0,0:0:0:0:
259,249,72612,2,0,P|226:260|192:259,1,70,8|2,0:0|0:0,0:0:0:0:
287,95,72920,2,0,P|286:130|297:163,1,70,0|2,1:0|0:0,0:0:0:0:
381,201,73227,2,0,P|413:189|448:190,1,70,8|0,0:0|0:0,0:0:0:0:
503,76,73535,6,0,L|365:52,1,140,0|8,1:0|0:0,0:0:0:0:
287,96,73997,1,0,1:0:0:0:
287,96,74074,1,0,1:0:0:0:
287,96,74151,2,0,L|217:84,1,70,0|2,1:0|0:0,0:0:0:0:
131,108,74458,2,0,P|126:142|135:176,1,70,8|2,0:0|0:0,0:0:0:0:
219,208,74766,5,4,3:0:0:0:
207,300,74920,1,0,0:0:0:0:
115,292,75074,2,0,L|45:303,1,70,4|0,1:2|0:0,0:0:0:0:
116,200,75381,2,0,L|46:188,1,70,8|2,0:0|1:2,0:0:0:0:
4,108,75689,1,8,0:0:0:0:
67,40,75843,1,0,1:0:0:0:
67,40,75920,1,0,1:0:0:0:
67,40,75997,6,0,L|136:51,1,70,4|0,1:2|1:0,0:0:0:0:
207,108,76304,1,0,0:0:0:0:
279,52,76458,2,0,L|348:40,2,70,4|0|0,1:2|1:0|0:0,0:0:0:0:
207,108,76920,6,0,L|218:177,1,70,4|0,1:2|1:0,0:0:0:0:
303,208,77227,1,0,0:0:0:0:
259,288,77381,2,0,L|247:357,2,70,4|0|0,1:2|1:0|0:0,0:0:0:0:
350,287,77843,2,0,P|418:299|484:279,1,140,10|8,1:2|1:2,0:0:0:0:
495,188,78304,1,8,0:0:0:0:
495,188,78381,1,8,0:0:0:0:
495,188,78458,6,0,L|491:118,1,70,0|0,1:0|0:0,0:0:0:0:
459,32,78766,1,8,0:0:0:0:
375,63,78920,2,0,P|308:80|240:66,1,140,0|4,1:0|3:0,0:0:0:0:
156,32,79381,1,14,0:0:0:0:
156,32,79535,2,0,L|166:157,1,125.999996154785,4|0,3:0|0:0,0:0:0:0:
308,360,80304,5,0,1:0:0:0:
392,324,80458,2,0,L|426:326,2,35,0|8|8,1:0|0:0|0:0,0:0:0:0:
320,268,80766,1,0,3:0:0:0:
332,176,80920,5,4,3:0:0:0:
196,36,85843,6,0,L|211:161,1,125.999996154785,0|8,1:0|0:0,0:0:0:0:
140,220,86304,1,0,1:0:0:0:
140,220,86458,2,0,L|124:345,1,125.999996154785,0|8,0:0|0:0,0:0:0:0:
387,345,87074,6,0,L|372:220,1,125.999996154785,0|8,1:0|0:0,0:0:0:0:
300,161,87535,1,0,1:0:0:0:
300,161,87689,2,0,L|316:36,1,125.999996154785,0|8,0:0|0:0,0:0:0:0:
140,220,88304,6,0,P|109:224|79:214,1,62.9999980773926,4|0,0:0|0:0,0:0:0:0:
24,140,88612,1,0,1:0:0:0:
84,72,88766,2,0,L|90:9,2,62.9999980773926,8|0|0,0:0|3:0|0:0,0:0:0:0:
160,124,89227,1,0,3:0:0:0:
236,68,89381,6,0,P|298:63|361:70,1,125.999996154785,0|0,1:0|1:0,0:0:0:0:
308,276,89997,1,0,1:0:0:0:
308,276,90151,2,0,L|300:213,1,62.9999980773926,0|0,0:0|3:0,0:0:0:0:
408,216,90458,2,0,L|400:278,1,62.9999980773926,0|0,3:0|3:0,0:0:0:0:
336,372,90766,6,0,L|196:356,1,140,0|0,1:0|1:0,0:0:0:0:
132,292,91227,1,0,1:0:0:0:
192,224,91381,2,0,L|261:217,1,70,0|0,0:0|1:2,0:0:0:0:
144,140,91689,2,0,L|74:133,1,70,0|0,1:0|0:0,0:0:0:0:
200,64,91997,6,0,P|267:49|331:73,1,140,0|0,1:0|1:0,0:0:0:0:
368,157,92458,1,0,0:0:0:0:
444,108,92612,2,0,L|462:40,2,70,2|0|0,0:0|1:0|1:0,0:0:0:0:
492,184,93074,1,0,0:0:0:0:
480,272,93227,6,0,P|415:296|348:280,1,140,0|0,1:0|1:0,0:0:0:0:
268,236,93689,1,0,1:0:0:0:
208,304,93843,2,0,L|215:373,1,70,2|0,0:0|1:0,0:0:0:0:
112,373,94151,2,0,L|120:304,1,70,0|0,1:0|0:0,0:0:0:0:
36,232,94458,6,0,P|100:256|167:240,1,140,0|0,1:0|1:0,0:0:0:0:
144,152,94920,1,0,1:0:0:0:
144,152,95074,2,0,L|74:155,1,70,2|0,0:0|1:0,0:0:0:0:
16,84,95381,1,0,1:0:0:0:
68,8,95535,1,0,0:0:0:0:
68,8,95612,1,0,0:0:0:0:
68,8,95689,6,0,L|208:24,1,140,0|0,1:0|1:0,0:0:0:0:
260,100,96151,1,0,0:0:0:0:
196,164,96304,2,0,L|188:233,1,70,2|0,0:0|2:0,0:0:0:0:
260,296,96612,2,0,L|263:365,1,70,0|0,1:0|0:0,0:0:0:0:
312,220,96920,6,0,P|379:204|443:228,1,140,0|0,1:0|1:0,0:0:0:0:
488,148,97381,1,0,0:0:0:0:
440,72,97535,2,0,P|405:78|371:70,2,70,2|0|0,0:0|1:0|1:0,0:0:0:0:
488,148,97997,1,0,0:0:0:0:
443,228,98151,6,0,L|432:368,1,140,0|0,1:0|1:0,0:0:0:0:
344,336,98612,1,0,1:0:0:0:
260,299,98766,2,0,P|252:334|259:368,1,70,0|0,1:0|0:0,0:0:0:0:
336,248,99074,2,0,P|343:214|337:179,1,70,2|0,1:2|0:0,0:0:0:0:
260,132,99381,6,0,L|190:140,1,70,0|0,1:0|3:0,0:0:0:0:
74,211,99689,2,0,L|143:219,1,70,0|0,1:0|3:0,0:0:0:0:
190,140,99997,1,0,1:0:0:0:
136,68,100151,1,0,3:0:0:0:
204,8,100304,2,0,L|308:22,1,105,0|0,1:0|0:0,0:0:0:0:
324,64,100612,6,0,P|314:97|319:131,2,70,4|0|0,1:2|3:0|1:0,0:0:0:0:
404,104,101074,2,0,L|473:96,2,70,4|0|0,1:2|0:0|1:0,0:0:0:0:
404,196,101535,2,0,L|473:203,2,70,4|0|0,1:2|0:0|1:0,0:0:0:0:
408,288,101997,6,0,P|341:306|276:284,1,140,0|0,1:2|1:0,0:0:0:0:
188,256,102458,2,0,L|184:325,1,70,4|4,3:0|3:0,0:0:0:0:
100,356,102766,1,4,3:0:0:0:
68,272,102920,1,0,1:0:0:0:
68,272,102997,1,0,1:0:0:0:
68,272,103074,6,0,P|35:262|1:267,2,70,4|0|0,1:2|0:0|0:0,0:0:0:0:
104,188,103535,2,0,L|96:118,2,70,4|0|0,1:2|0:0|1:0,0:0:0:0:
196,188,103997,2,0,L|203:118,2,70,4|0|0,1:2|1:0|1:0,0:0:0:0:
236,268,104458,5,4,3:0:0:0:
304,208,104612,2,0,P|337:198|371:203,1,70,4|4,3:0|3:0,0:0:0:0:
420,280,104920,1,0,3:0:0:0:
476,212,105074,2,0,L|510:205,2,35,0|0|0,1:0|1:0|1:0,0:0:0:0:
432,132,105381,1,0,1:0:0:0:
432,132,105458,1,0,1:0:0:0:
432,132,105535,6,0,P|442:99|437:65,2,70,4|0|0,1:2|0:0|0:0,0:0:0:0:
352,92,105997,2,0,L|283:85,2,70,4|0|0,1:2|0:0|1:0,0:0:0:0:
352,184,106458,2,0,L|283:192,2,70,4|0|0,1:2|0:0|1:0,0:0:0:0:
352,276,106920,6,0,P|285:294|220:272,1,140,0|4,1:0|3:0,0:0:0:0:
184,188,107381,2,0,L|191:118,1,70,4|4,3:0|3:0,0:0:0:0:
160,32,107689,1,0,0:0:0:0:
72,52,107843,1,0,1:0:0:0:
72,52,107920,1,0,1:0:0:0:
72,52,107997,6,0,P|39:62|5:57,2,70,4|0|0,1:2|0:0|1:0,0:0:0:0:
100,140,108458,2,0,L|92:210,2,70,4|0|0,1:2|0:0|1:0,0:0:0:0:
192,140,108920,2,0,L|199:210,2,70,4|0|0,1:2|0:0|1:0,0:0:0:0:
256,68,109381,6,0,P|290:63|325:65,1,70,0|0,1:0|0:0,0:0:0:0:
396,124,109689,1,0,1:0:0:0:
400,216,109843,2,0,P|366:227|332:231,1,70,0|0,1:0|0:0,0:0:0:0:
236,300,110151,2,0,P|269:312|304:316,1,70,0|0,1:0|0:0,0:0:0:0:
200,208,110458,5,4,3:0:0:0:
88,296,120304,6,0,L|69:178,1,119.000002269745,2|0,0:0|1:0,0:0:0:0:
289,58,120920,2,0,L|307:175,1,119.000002269745,2|0,0:0|1:0,0:0:0:0:
228,372,121535,2,0,L|209:254,1,119.000002269745,2|0,0:0|1:0,0:0:0:0:
429,134,122151,2,0,L|447:251,1,119.000002269745,2|0,0:0|1:0,0:0:0:0:
209,254,122766,6,0,P|198:195|211:137,1,119.000002269745,2|0,0:0|1:0,0:0:0:0:
447,251,123381,2,0,P|449:309|429:364,1,119.000002269745,2|0,0:0|1:0,0:0:0:0:
296,180,123997,2,0,L|414:165,1,119.000002269745,2|0,0:0|1:0,0:0:0:0:
466,90,124458,1,0,0:0:0:0:
413,16,124612,2,0,P|354:10|297:27,1,119.000002269745,2|0,0:0|1:0,0:0:0:0:
208,76,125074,1,0,1:0:0:0:
208,76,125151,1,0,1:0:0:0:
208,76,125227,6,0,P|176:89|141:87,2,70,4|0|0,1:2|0:0|1:0,0:0:0:0:
268,148,125689,2,0,P|299:162|334:161,2,70,4|0|0,1:2|0:0|1:0,0:0:0:0:
200,212,126151,2,0,P|168:225|133:223,2,70,4|0|0,1:2|0:0|1:0,0:0:0:0:
260,284,126612,2,0,P|291:298|326:297,2,70,4|0|0,1:2|0:0|1:0,0:0:0:0:
192,348,127074,2,0,L|122:340,1,70,4|0,1:2|0:0,0:0:0:0:
48,284,127381,1,0,1:0:0:0:
92,202,127535,1,8,0:0:0:0:
92,202,127612,1,8,0:0:0:0:
92,202,127689,6,0,L|96:119,1,83.9999974365235,4|0,1:3|1:0,0:0:0:0:
96,118,128150,6,0,L|165:126,1,70,0|0,1:0|0:0,0:0:0:0:
225,49,128458,2,0,L|294:40,1,70,0|0,1:0|0:0,0:0:0:0:
373,101,128765,2,0,L|442:109,1,70,0|0,1:0|0:0,0:0:0:0:
420,328,130151,6,0,P|352:342|283:332,1,140,4|8,1:2|0:0,0:0:0:0:
292,240,130612,1,0,1:0:0:0:
292,240,130689,1,0,1:0:0:0:
292,240,130766,2,0,L|359:222,1,70,0|0,1:0|0:0,0:0:0:0:
228,180,131074,2,0,L|245:112,1,70,8|0,0:0|0:0,0:0:0:0:
148,48,131381,6,0,P|115:60|80:61,1,70,0|2,1:0|0:0,0:0:0:0:
16,128,131689,2,0,P|28:160|29:195,1,70,8|2,0:0|0:0,0:0:0:0:
96,260,131997,2,0,P|128:247|163:246,1,70,0|2,1:0|0:0,0:0:0:0:
228,180,132304,2,0,P|215:147|214:112,1,70,8|0,0:0|1:0,0:0:0:0:
304,128,132612,6,0,L|443:123,1,140,0|8,1:0|0:0,0:0:0:0:
487,203,133074,1,0,1:0:0:0:
487,203,133151,1,0,1:0:0:0:
487,203,133227,2,0,P|454:214|419:211,1,70,0|2,1:0|0:0,0:0:0:0:
352,272,133535,2,0,P|350:306|359:340,1,70,8|2,0:0|0:0,0:0:0:0:
440,300,133843,5,0,1:0:0:0:
419,211,133997,1,0,1:0:0:0:
336,175,134151,2,0,L|266:185,1,70,8|0,0:0|1:0,0:0:0:0:
208,256,134458,1,0,1:0:0:0:
124,224,134612,2,0,L|89:229,2,35,0|8|8,1:0|0:0|0:0,0:0:0:0:
179,152,134920,1,0,1:0:0:0:
179,152,134997,1,0,1:0:0:0:
179,152,135074,6,0,P|182:117|173:84,1,70,4|0,1:2|0:0,0:0:0:0:
321,146,135381,2,0,P|290:159|266:185,1,70,8|0,0:0|1:0,0:0:0:0:
245,23,135689,2,0,P|274:44|308:52,1,70,0|0,1:0|0:0,0:0:0:0:
396,12,135997,1,8,0:0:0:0:
484,56,136151,6,0,L|468:159,1,105,4|0,1:2|0:0,0:0:0:0:
440,196,136458,2,0,L|449:265,1,70,4|0,1:2|0:0,0:0:0:0:
372,324,136766,2,0,L|356:220,1,105,0|0,1:0|0:0,0:0:0:0:
324,188,137074,2,0,P|294:206|260:212,1,70,2|0,1:2|0:0,0:0:0:0:
168,196,137381,6,0,L|152:335,1,140,4|0,1:2|1:0,0:0:0:0:
228,384,137843,2,0,L|297:380,1,70,8|0,0:0|1:0,0:0:0:0:
372,324,138151,1,0,1:0:0:0:
312,256,138304,2,0,P|277:250|244:260,1,70,0|8,0:0|0:0,0:0:0:0:
168,196,138612,6,0,P|101:217|33:208,1,140,4|0,1:2|1:0,0:0:0:0:
8,120,139074,2,0,L|0:50,1,70,8|0,0:0|3:0,0:0:0:0:
80,8,139381,1,2,0:0:0:0:
156,60,139535,2,0,L|149:94,2,35,8|8|0,0:0|0:0|1:0,0:0:0:0:
236,16,139843,1,0,1:0:0:0:
324,60,139997,6,0,L|338:199,1,140,4|8,1:2|0:0,0:0:0:0:
316,288,140458,1,0,1:0:0:0:
316,288,140535,1,0,1:0:0:0:
316,288,140612,2,0,P|282:298|248:293,1,70,0|2,1:0|0:0,0:0:0:0:
220,204,140920,2,0,P|220:169|236:138,1,70,8|0,0:0|0:0,0:0:0:0:
338,199,141227,6,0,L|408:192,1,70,8|2,1:2|0:0,0:0:0:0:
484,296,141535,2,0,L|415:290,1,70,8|2,0:0|0:0,0:0:0:0:
300,380,141842,2,0,L|370:373,1,70,0|2,1:0|0:0,0:0:0:0:
248,293,142150,2,0,L|179:287,1,70,8|0,0:0|0:0,0:0:0:0:
96,348,142458,6,0,P|133:291|114:226,1,140,0|8,1:0|0:0,0:0:0:0:
39,147,142920,1,0,1:0:0:0:
39,147,142997,1,0,1:0:0:0:
39,147,143074,2,0,L|108:136,1,70,0|2,1:0|0:0,0:0:0:0:
192,170,143381,2,0,P|199:136|195:102,1,70,8|2,0:0|0:0,0:0:0:0:
268,44,143689,5,4,3:0:0:0:
296,132,143843,1,0,0:0:0:0:
372,80,143997,2,0,L|440:68,1,70,4|0,1:2|0:0,0:0:0:0:
376,172,144304,2,0,L|446:183,1,70,8|2,0:0|1:2,0:0:0:0:
492,264,144612,1,8,0:0:0:0:
452,344,144766,1,0,1:0:0:0:
452,344,144843,1,0,1:0:0:0:
452,344,144920,6,0,P|418:353|383:352,1,70,4|0,1:2|1:0,0:0:0:0:
316,288,145227,1,0,0:0:0:0:
232,324,145381,2,0,L|162:320,2,70,4|0|0,1:2|1:3|0:3,0:0:0:0:
316,288,145843,6,0,P|325:254|324:219,1,70,4|0,1:2|1:0,0:0:0:0:
252,168,146151,1,0,0:0:0:0:
312,100,146304,2,0,L|308:30,2,70,4|0|0,1:2|1:0|0:0,0:0:0:0:
220,84,146766,2,0,P|152:72|86:92,1,140,10|8,1:2|1:2,0:0:0:0:
44,172,147227,1,8,0:0:0:0:
44,172,147304,1,8,0:0:0:0:
44,172,147381,6,0,L|48:242,1,70,0|0,1:0|0:0,0:0:0:0:
120,300,147689,1,8,0:0:0:0:
196,252,147843,2,0,L|335:265,1,140,0|4,1:0|3:0,0:0:0:0:
424,240,148304,1,14,0:0:0:0:
424,240,148458,2,0,P|437:179|426:117,1,125.999996154785,4|0,3:0|0:0,0:0:0:0:
204,32,149227,5,0,1:0:0:0:
120,68,149381,2,0,L|86:66,2,35,0|8|8,1:0|0:0|0:0,0:0:0:0:
192,124,149689,1,14,3:0:0:0:
180,216,149843,5,0,1:0:0:0:
0,96,150151,1,0,1:0:0:0:
44,248,150458,1,0,1:0:0:0:
192,124,150766,1,0,0:0:0:0:
284,288,151074,6,0,P|278:317|282:346,2,59.5000011348725,0|2|0,1:0|0:0|0:0,0:0:0:0:
372,320,151535,2,0,L|432:318,1,59.5000011348725,8|0,0:0|1:0,0:0:0:0:
472,156,151997,1,0,1:0:0:0:
316,100,152304,6,0,P|302:157|319:213,1,119.000002269745,4|0,1:0|0:0,0:0:0:0:
256,280,152766,1,4,1:2:0:0:
179,233,152920,2,0,L|119:239,1,59.5000011348725,0|2,0:0|0:0,0:0:0:0:
4,305,153227,2,0,L|63:311,1,59.5000011348725,0|0,1:0|0:0,0:0:0:0:
120,240,153535,6,0,L|126:180,2,59.5000011348725,0|2|0,1:0|0:0|0:0,0:0:0:0:
32,208,153997,2,0,L|38:148,1,59.5000011348725,8|0,0:0|1:0,0:0:0:0:
152,12,154458,1,0,1:0:0:0:
152,12,154612,1,0,0:0:0:0:
208,80,154766,6,0,L|326:91,1,119.000002269745,0|0,1:0|1:0,0:0:0:0:
324,256,155381,2,0,L|205:267,1,119.000002269745,0|0,1:0|1:0,0:0:0:0:
60,124,155997,6,0,P|88:115|117:114,2,59.5000011348725,0|2|0,1:0|0:0|0:0,0:0:0:0:
105,206,156458,2,0,L|99:265,1,59.5000011348725,8|0,0:0|1:0,0:0:0:0:
212,380,156920,1,0,1:0:0:0:
332,273,157227,6,0,P|349:216|335:159,1,119.000002269745,4|0,1:0|0:0,0:0:0:0:
240,188,157689,2,0,L|246:247,1,59.5000011348725,4|0,1:2|0:0,0:0:0:0:
368,360,158151,1,0,1:0:0:0:
423,200,158458,6,0,L|463:144,2,59.5000011348725,0|2|0,1:0|0:0|0:0,0:0:0:0:
336,160,158920,1,8,0:0:0:0:
336,160,159074,2,0,L|219:141,1,119.000002269745,0|0,3:0|0:0,0:0:0:0:
156,210,159535,1,8,0:0:0:0:
156,210,159612,1,8,0:0:0:0:
156,210,159689,6,0,P|151:245|161:278,2,70,4|2|0,1:2|0:0|1:0,0:0:0:0:
88,147,160151,2,0,P|53:142|20:152,2,70,4|2|0,1:2|0:0|1:0,0:0:0:0:
151,78,160612,2,0,P|155:43|145:10,2,70,4|2|0,1:2|0:0|1:0,0:0:0:0:
219,141,161074,2,0,P|253:145|286:135,2,70,4|2|4,3:2|0:0|3:0,0:0:0:0:
156,210,161535,2,0,L|164:350,1,140,0|0,3:0|3:0,0:0:0:0:
267,307,161997,1,2,0:0:0:0:
267,307,162073,1,2,0:0:0:0:
267,307,162151,6,0,P|261:341|241:369,2,70,4|2|0,1:2|0:0|1:0,0:0:0:0:
338,245,162612,2,0,P|368:261|389:288,2,70,4|2|0,1:2|0:0|1:0,0:0:0:0:
302,159,163074,2,0,P|326:134|359:123,2,70,4|2|0,1:2|0:0|1:0,0:0:0:0:
210,167,163535,2,0,P|194:135|193:101,2,70,12|2|8,1:2|0:0|1:2,0:0:0:0:
189,256,163997,2,0,P|154:261|121:251,1,70,0|2,3:0|0:0,0:0:0:0:
75,171,164304,1,0,3:0:0:0:
124,96,164458,1,2,0:0:0:0:
124,96,164535,1,0,1:0:0:0:
124,96,164612,6,0,L|193:102,1,70,4|2,1:2|0:0,0:0:0:0:
284,108,164920,1,0,1:0:0:0:
328,28,165074,2,0,L|397:34,1,70,4|2,1:2|0:0,0:0:0:0:
488,44,165381,1,0,1:0:0:0:
512,132,165535,1,4,1:2:0:0:
485,217,165689,6,0,P|385:291|324:184,1,280
324,184,166612,6,0,L|262:199,1,62.9999980773926,4|0,1:2|0:0,0:0:0:0:
189,274,166920,6,0,P|250:303|317:286,1,140,4|0,1:2|1:0,0:0:0:0:
123,350,167381,2,0,L|54:343,1,70,8|0,0:0|0:0,0:0:0:0:
19,250,167689,2,0,L|89:243,1,70,0|0,1:0|3:0,0:0:0:0:
123,150,167997,2,0,L|54:143,1,70,8|0,1:2|3:0,0:0:0:0:
207,70,168304,6,0,L|215:139,1,70,0|0,1:0|3:0,0:0:0:0:
305,182,168612,2,0,L|313:113,1,70,8|0,1:2|3:0,0:0:0:0:
407,70,168920,2,0,L|415:139,1,70,0|0,1:0|3:0,0:0:0:0:
501,190,169227,2,0,L|509:121,1,70,8|0,1:2|3:0,0:0:0:0:
455,274,169535,6,0,P|450:305|462:343,2,70,0|0|8,1:0|3:0|1:2,0:0:0:0:
355,266,169997,1,8,3:2:0:0:
355,266,170074,1,8,0:0:0:0:
355,266,170150,2,0,L|279:290,2,70,0|0|0,1:0|3:0|1:0,0:0:0:0:
418,190,170612,6,0,P|444:126|414:65,1,140,4|0,1:2|1:0,0:0:0:0:
335,118,171073,1,8,1:2:0:0:
259,62,171227,2,0,L|252:27,2,35,0|8|0,0:0|0:0|1:0,0:0:0:0:
199,138,171535,2,0,L|164:131,2,35,0|0|8,1:0|1:0|0:0,0:0:0:0:
239,230,171843,1,0,1:0:0:0:
239,230,171920,1,0,1:0:0:0:
238,230,171997,6,0,P|178:261|114:239,1,140,4|8,1:2|0:0,0:0:0:0:
52,164,172458,1,0,0:0:0:0:
116,96,172612,2,0,P|122:61|116:27,2,70,0|2|8,1:0|0:0|1:2,0:0:0:0:
216,96,173074,6,0,L|353:122,1,140,0|0,1:0|1:0,0:0:0:0:
432,72,173535,1,8,0:0:0:0:
504,168,173689,2,0,L|435:181,1,70,4|0,1:2|0:0,0:0:0:0:
355,225,173997,1,4,3:0:0:0:
400,304,174151,1,4,3:0:0:0:
344,384,174304,6,0,L|206:357,1,140,4|0,1:2|1:0,0:0:0:0:
152,284,174766,2,0,P|182:268|217:267,1,70,4|0,1:2|0:0,0:0:0:0:
303,299,175074,1,0,1:0:0:0:
355,225,175227,2,0,L|361:190,2,35,8|8|8,0:0|0:0|0:0,0:0:0:0:
268,192,175535,6,0,L|264:52,1,140,4|0,1:2|3:0,0:0:0:0:
185,6,175997,2,0,P|173:38|175:73,1,70,4|0,1:2|0:0,0:0:0:0:
156,164,176304,2,0,L|86:158,1,70,0|0,3:0|3:0,0:0:0:0:
16,96,176612,1,4,3:2:0:0:
52,240,176766,1,4,1:2:0:0:
256,192,176843,12,0,178766,0:0:0:0:
256,192,179381,5,0,0:0:0:0:
104,228,189227,6,0,P|158:249|216:239,1,119.000002269745,2|0,0:0|3:0,0:0:0:0:
172,28,189843,2,0,L|164:146,1,119.000002269745,2|0,0:0|3:0,0:0:0:0:
400,112,190458,2,0,P|345:90|287:100,1,119.000002269745,2|0,0:0|3:0,0:0:0:0:
332,312,191074,2,0,L|339:193,1,119.000002269745,2|0,0:0|3:0,0:0:0:0:
140,88,191689,5,2,0:0:0:0:
40,156,191997,1,0,1:0:0:0:
40,276,192304,1,2,0:0:0:0:
136,348,192612,1,0,1:0:0:0:
240,276,192920,2,0,P|300:272|357:280,1,119.000002269745,2|0,0:0|1:0,0:0:0:0:
404,360,193381,1,0,0:0:0:0:
404,360,193535,2,0,L|419:241,1,119.000002269745,2|8,0:0|1:2,0:0:0:0:
407,143,193997,1,0,0:0:0:0:
407,143,194074,1,0,0:0:0:0:
407,143,194151,6,0,P|441:140|471:122,2,70,4|2|0,1:2|0:0|1:0,0:0:0:0:
297,112,194612,2,0,P|267:93|232:90,2,70,4|2|0,1:2|0:0|1:0,0:0:0:0:
367,203,195074,2,0,P|380:235|406:258,2,70,4|2|0,1:2|0:0|1:0,0:0:0:0:
364,87,195535,2,0,P|372:53|364:19,2,70,4|2|0,1:2|0:0|1:0,0:0:0:0:
299,182,195997,2,0,P|272:204|258:236,1,70,0|0,1:0|3:0,0:0:0:0:
276,328,196304,1,0,1:0:0:0:
188,312,196458,1,0,3:0:0:0:
188,312,196535,1,0,1:0:0:0:
188,312,196612,6,0,L|118:315,1,70,0|0,1:2|0:0,0:0:0:0:
40,268,196920,1,0,1:0:0:0:
104,204,197074,2,0,L|173:200,1,70,4|0,1:2|0:0,0:0:0:0:
152,104,197381,2,0,L|82:107,1,70,0|0,1:0|0:0,0:0:0:0:
196,32,197689,6,0,P|183:96|239:132,1,140,4|0,1:2|1:0,0:0:0:0:
332,120,198151,2,0,L|341:189,1,70,8|0,0:0|0:0,0:0:0:0:
332,280,198458,1,0,3:0:0:0:
420,84,198766,1,0,3:0:0:0:
244,228,199074,6,0,L|104:221,1,140,4|8,1:2|0:0,0:0:0:0:
52,148,199535,1,0,1:0:0:0:
52,148,199612,1,0,1:0:0:0:
52,148,199689,2,0,P|75:122|86:89,1,70,0|0,1:0|3:0,0:0:0:0:
156,28,199997,2,0,P|190:28|222:43,1,70,8|0,0:0|3:0,0:0:0:0:
292,112,200304,6,0,L|360:96,1,70,0|2,1:0|0:0,0:0:0:0:
508,140,200612,2,0,L|440:121,1,70,8|2,0:0|0:0,0:0:0:0:
312,196,200920,2,0,L|380:180,1,70,0|2,1:0|0:0,0:0:0:0:
496,52,201227,2,0,L|428:34,1,70,8|0,0:0|1:0,0:0:0:0:
296,56,201535,6,0,L|312:196,1,140,0|8,1:0|0:0,0:0:0:0:
368,272,201997,1,0,1:0:0:0:
368,272,202074,1,0,1:0:0:0:
368,272,202151,2,0,P|402:277|435:266,1,70,0|0,1:0|3:0,0:0:0:0:
320,352,202458,2,0,P|285:346|252:357,1,70,8|0,0:0|3:0,0:0:0:0:
172,300,202766,5,4,1:2:0:0:
228,228,202920,1,0,1:0:0:0:
192,144,203074,2,0,L|184:74,1,70,8|0,0:0|1:0,0:0:0:0:
116,12,203381,1,4,3:0:0:0:
48,72,203535,2,0,L|13:69,2,35,0|0|8,1:0|3:0|0:0,0:0:0:0:
84,156,203843,1,0,1:0:0:0:
84,156,203920,1,0,1:0:0:0:
84,156,203997,6,0,P|88:190|78:223,1,70,4|0,1:2|0:0,0:0:0:0:
132,366,204304,2,0,P|123:333|126:299,1,70,8|0,0:0|1:0,0:0:0:0:
193,164,204612,2,0,P|197:198|187:231,1,70,0|0,1:0|3:0,0:0:0:0:
256,292,204920,1,8,0:0:0:0:
336,236,205074,6,0,L|440:243,1,105,4|0,1:2|0:0,0:0:0:0:
479,220,205381,2,0,P|493:188|489:153,1,70,4|0,1:2|0:0,0:0:0:0:
412,100,205689,2,0,L|307:107,1,105,4|0,1:2|0:0,0:0:0:0:
268,84,205997,2,0,P|253:52|257:17,1,70,4|0,1:2|0:0,0:0:0:0:
156,40,206304,6,0,L|171:179,1,140,4|0,1:2|1:0,0:0:0:0:
96,232,206766,2,0,L|87:301,1,70,0|8,1:0|0:0,0:0:0:0:
164,352,207074,1,8,0:0:0:0:
236,300,207227,2,0,P|270:296|304:303,1,70,0|0,3:2|3:2,0:0:0:0:
377,364,207535,6,0,L|392:224,1,140,4|0,1:2|1:0,0:0:0:0:
480,193,207997,2,0,P|484:227|477:261,1,70,8|0,0:0|1:0,0:0:0:0:
392,225,208304,1,0,1:0:0:0:
348,148,208458,2,0,L|313:145,2,35,0|0|8,1:0|3:0|0:0,0:0:0:0:
432,108,208766,1,0,1:0:0:0:
380,28,208920,6,0,P|311:39|241:39,1,140,4|8,1:2|0:0,0:0:0:0:
156,76,209381,1,0,1:0:0:0:
156,76,209458,1,0,1:0:0:0:
156,76,209535,2,0,L|152:145,1,70,0|0,1:0|3:0,0:0:0:0:
212,216,209843,2,0,L|280:229,1,70,8|0,0:0|3:0,0:0:0:0:
380,200,210151,6,0,P|388:166|379:132,1,70,0|2,1:0|3:2,0:0:0:0:
508,136,210458,2,0,L|495:204,1,70,8|2,1:2|3:2,0:0:0:0:
420,288,210766,2,0,P|386:297|352:290,1,70,0|2,1:0|3:2,0:0:0:0:
495,204,211074,2,0,L|507:272,1,70,8|0,0:0|1:0,0:0:0:0:
455,368,211381,6,0,P|388:384|320:370,1,140,0|8,1:0|0:0,0:0:0:0:
252,304,211843,1,0,1:0:0:0:
252,304,211920,1,0,1:0:0:0:
252,304,211997,2,0,L|182:313,1,70,0|0,1:0|3:0,0:0:0:0:
96,283,212304,2,0,P|91:318|100:352,1,70,8|0,0:0|3:0,0:0:0:0:
164,220,212612,5,0,1:0:0:0:
168,128,212766,1,0,0:0:0:0:
120,48,212920,2,0,L|50:36,1,70,12|0,1:2|0:0,0:0:0:0:
212,40,213227,2,0,L|281:28,1,70,0|0,1:0|3:0,0:0:0:0:
364,68,213535,1,8,1:2:0:0:
460,48,213689,1,0,1:0:0:0:
460,48,213766,1,0,1:0:0:0:
460,48,213843,6,0,L|444:116,1,70,4|0,1:2|1:0,0:0:0:0:
400,196,214151,1,0,0:0:0:0:
444,276,214304,2,0,P|478:279|510:266,2,70,4|0|0,1:2|1:0|0:0,0:0:0:0:
400,196,214766,6,0,L|331:180,1,70,4|0,1:2|1:0,0:0:0:0:
252,224,215074,1,0,0:0:0:0:
164,200,215227,2,0,P|160:234|171:267,2,70,4|0|0,1:2|1:0|0:0,0:0:0:0:
224,132,215689,2,0,L|69:139,1,140,0|0,1:0|1:0,0:0:0:0:
28,208,216151,1,0,1:0:0:0:
28,208,216227,1,0,1:0:0:0:
28,208,216304,6,0,L|35:277,1,70,0|0,1:0|1:0,0:0:0:0:
104,340,216612,1,0,3:0:0:0:
171,267,216766,2,0,P|238:252|306:269,1,140,4|0,1:2|3:0,0:0:0:0:
347,351,217227,1,8,0:0:0:0:
347,351,217381,6,0,L|367:213,1,140,4|0,3:0|1:0,0:0:0:0:
329,128,217843,1,8,1:2:0:0:
384,52,217997,1,0,1:0:0:0:
384,52,218074,1,0,1:0:0:0:
384,52,218151,2,0,L|453:48,1,70,0|0,1:0|3:0,0:0:0:0:
504,132,218458,2,0,L|512:166,3,35,8|8|8|8,0:0|0:0|0:0|0:0,0:0:0:0:
500,210,218766,6,0,P|434:230|367:213,1,140,4|8,1:2|0:0,0:0:0:0:
288,168,219227,1,0,1:0:0:0:
212,220,219381,2,0,L|218:289,1,70,0|0,1:0|3:0,0:0:0:0:
152,352,219689,2,0,L|84:364,1,70,8|0,0:0|3:0,0:0:0:0:
20,296,219997,6,0,P|1:228|14:160,1,140,0|8,1:0|0:0,0:0:0:0:
104,168,220458,1,2,0:0:0:0:
148,88,220612,2,0,P|181:79|216:83,1,70,0|0,1:0|0:0,0:0:0:0:
304,167,220920,2,0,P|270:175|235:171,1,70,8|0,0:0|0:0,0:0:0:0:
216,83,221227,6,0,L|219:13,1,70,4|0,3:0|0:0,0:0:0:0:
312,12,221535,2,0,L|315:81,1,70,8|0,0:0|1:0,0:0:0:0:
408,84,221843,2,0,L|411:14,2,70,4|2|8,3:0|0:0|0:0,0:0:0:0:
360,164,222304,1,2,0:0:0:0:
424,232,222458,6,0,P|457:240|492:234,1,70,4|0,1:2|0:0,0:0:0:0:
488,328,222766,1,8,0:0:0:0:
408,376,222920,2,0,L|373:369,2,35,0|0|0,3:0|3:0|1:0,0:0:0:0:
340,280,223227,2,0,L|305:286,2,35,0|0|0,3:0|3:0|1:0,0:0:0:0:
424,232,223535,1,0,3:0:0:0:
424,232,223612,1,0,3:0:0:0:
424,232,223689,6,0,L|436:92,1,140,4|8,1:2|0:0,0:0:0:0:
344,72,224151,1,0,3:0:0:0:
344,72,224304,2,0,L|337:2,2,70,0|2|8,1:0|0:0|0:0,0:0:0:0:
283,143,224766,6,0,P|217:166|150:153,1,140,0|0,3:0|3:0,0:0:0:0:
99,75,225227,1,0,0:0:0:0:
150,153,225381,2,0,L|136:292,1,140,0|0,3:0|1:0,0:0:0:0:
76,364,225843,1,0,0:0:0:0:
136,292,225997,6,0,P|204:284|267:312,1,140,4|0,1:2|0:0,0:0:0:0:
400,248,226458,2,0,L|331:242,1,70,4|0,1:2|0:0,0:0:0:0:
272,168,226766,1,8,0:0:0:0:
336,104,226920,2,0,L|370:106,2,35,0|0|0,1:0|3:0|3:0,0:0:0:0:
256,43,227227,6,0,P|187:55|120:37,1,140,4|0,1:2|3:0,0:0:0:0:
43,85,227689,1,8,0:0:0:0:
80,168,227843,2,0,P|94:235|76:302,1,140,0|0,0:0|1:0,0:0:0:0:
136,372,228304,1,0,1:0:0:0:
184,296,228458,1,0,1:0:0:0:
272,324,228612,6,0,L|411:317,1,140,4|8,1:2|0:0,0:0:0:0:
372,228,229074,1,0,0:0:0:0:
372,228,229227,2,0,L|302:224,1,70,0|2,1:0|0:0,0:0:0:0:
228,168,229535,2,0,P|219:134|222:99,1,70,8|2,0:0|0:0,0:0:0:0:
288,28,229843,6,0,L|427:35,1,140,0|8,1:0|0:0,0:0:0:0:
512,72,230304,1,2,0:0:0:0:
512,164,230458,2,0,P|512:198|497:230,1,70,0|2,1:0|0:0,0:0:0:0:
353,185,230766,2,0,P|388:189|421:178,1,70,8|2,0:0|0:0,0:0:0:0:
417,282,231074,6,0,P|348:284|284:257,1,140,0|8,1:0|0:0,0:0:0:0:
228,184,231535,1,0,1:0:0:0:
172,256,231689,2,0,L|179:325,1,70
80,256,231997,2,0,L|72:325,1,70,8|0,0:0|0:0,0:0:0:0:
16,172,232304,6,0,P|50:177|84:169,1,70,0|0,1:0|0:0,0:0:0:0:
164,116,232612,1,4,1:2:0:0:
172,24,232766,2,0,L|241:13,2,70,2|0|2,3:2|1:0|3:2,0:0:0:0:
88,60,233227,1,0,1:2:0:0:
164,116,233381,1,2,3:2:0:0:
164,116,233458,1,0,1:0:0:0:
164,116,233535,6,0,P|172:149|167:184,2,70,4|0|0,1:2|3:0|3:0,0:0:0:0:
260,108,233997,2,0,L|329:97,2,70,4|0|0,1:2|3:0|3:0,0:0:0:0:
256,204,234458,2,0,P|264:237|259:272,2,70,4|0|0,1:2|3:0|3:0,0:0:0:0:
356,200,234920,2,0,L|425:189,2,70,4|0|0,1:2|3:0|3:0,0:0:0:0:
369,289,235381,2,0,P|377:322|372:357,1,70,0|0,1:0|0:0,0:0:0:0:
280,376,235689,1,0,1:0:0:0:
196,340,235843,1,0,1:0:0:0:
196,340,235920,1,0,1:0:0:0:
196,340,235997,6,0,P|191:306|199:272,1,70,0|0,1:0|0:0,0:0:0:0:
268,200,236304,1,8,0:0:0:0:
228,116,236458,2,0,L|158:106,1,70,0|0,1:0|0:0,0:0:0:0:
124,192,236766,2,0,L|54:182,1,70,4|4,3:0|3:0,0:0:0:0:
158,106,237074,6,0,L|296:86,1,140,4|0,3:0|0:0,0:0:0:0:
296,86,237535,1,2,0:0:0:0:
376,304,237843,2,0,P|341:308|308:298,1,70,0|8,1:0|0:0,0:0:0:0:
308,298,238074,1,8,0:0:0:0:
308,298,238151,1,0,1:0:0:0:
256,192,238304,1,4,1:2:0:0:
256,192,238381,12,0,247073,0:0:0:0:
