osu file format v14

[General]
AudioFilename: New World.mp3
AudioLeadIn: 0
PreviewTime: 60612
Countdown: 0
SampleSet: Soft
StackLeniency: 0.4
Mode: 0
LetterboxInBreaks: 0
WidescreenStoryboard: 0

[Editor]
Bookmarks: 21842,41535,61227,80919,100612,130150,149842,167073,179381,194150,218765,238304
DistanceSpacing: 1
BeatDivisor: 4
GridSize: 32
TimelineZoom: 2.4

[Metadata]
Title:New World
TitleUnicode:New World
Artist:FELT
ArtistUnicode:FELT
Creator:Hakurei Yoru
Version:Nightmare
Source:東方Project
Tags:z1085684963 CoLouRed GlaZeE Pata-Mon Misure StarrStyx Rumia- sodarose world trick ネクロファンタジア yukari yakumo theme Comiket88 Mika 美歌 Maika 舞花 touhou NAGI☆ 東方妖々夢 ~ Perfect Cherry Blossom 八雲紫
BeatmapID:1036841
BeatmapSetID:486207

[Difficulty]
HPDrainRate:6
CircleSize:4.3
OverallDifficulty:9
ApproachRate:9.4
SliderMultiplier:1.9
SliderTickRate:1

[Events]
//Background and Video events
0,0,"bg.jpg",0,0
//Break Periods
2,41735,50841
2,110658,119764
2,179381,188612
//Storyboard Layer 0 (Background)
//Storyboard Layer 1 (Fail)
//Storyboard Layer 2 (Pass)
//Storyboard Layer 3 (Foreground)
//Storyboard Sound Samples

[TimingPoints]
-311,307.692307692308,4,1,1,80,1,0
2150,-100,4,2,1,80,0,0
9535,-76.9230769230769,4,2,1,80,0,0
10765,-100,4,2,1,80,0,0
18765,-133.333333333333,4,2,1,80,0,0
19535,-75.187969924812,4,2,1,80,0,0
20458,-133.333333333333,4,2,1,80,0,0
21227,-100,4,2,1,60,0,0
33073,-133.333333333333,4,2,1,60,0,0
34150,-100,4,2,1,60,0,0
41458,-100,4,2,1,5,0,0
41535,-100,4,2,1,55,0,0
51381,-133.333333333333,4,2,1,60,0,0
55689,-100,4,2,1,60,0,0
61227,-83.3333333333333,4,2,1,85,0,1
62150,-100,4,2,1,85,0,1
69689,-83.3333333333333,4,2,1,85,0,1
71073,-100,4,2,1,85,0,1
76150,-133.333333333333,4,2,1,85,0,1
77842,-100,4,2,1,85,0,1
80919,-83.3333333333333,4,2,1,60,0,0
84304,-83.3333333333333,4,2,1,35,0,0
84612,-100,4,2,1,45,0,0
90765,-111.111111111111,4,2,1,65,0,0
101073,-100,4,2,1,65,0,0
109842,-133.333333333333,4,2,1,65,0,0
130150,-83.3333333333333,4,2,1,85,0,1
131073,-100,4,2,1,85,0,1
144919,-133.333333333333,4,2,1,85,0,1
147073,-100,4,2,1,85,0,1
149842,-133.333333333333,4,2,1,65,0,0
165535,-100,4,2,1,65,0,0
166458,-66.6666666666667,4,2,1,65,0,0
166612,-100,4,2,1,65,0,0
166919,-83.3333333333333,4,2,1,100,0,1
167381,-100,4,2,1,100,0,1
170612,-66.6666666666667,4,2,1,100,0,1
171073,-76.9230769230769,4,2,1,100,0,1
176765,-181.818181818182,4,2,1,65,0,0
176919,-181.818181818182,4,2,1,5,0,0
189227,-181.818181818182,4,2,1,55,0,0
191689,-133.333333333333,4,2,1,55,0,0
194150,-100,4,2,1,55,0,0
198458,-200,4,2,1,85,0,0
199073,-90.9090909090909,4,2,1,100,0,1
213842,-133.333333333333,4,2,1,100,0,1
216765,-100,4,2,1,100,0,1
218765,-100,4,2,1,100,0,0
227996,-83.3333333333333,4,2,1,100,0,0
228612,-100,4,2,1,100,0,0
233535,-133.333333333333,4,2,1,100,0,0
235996,-100,4,2,1,100,0,0
238381,-100,4,2,1,5,0,0

[Colours]
Combo1 : 255,168,81
Combo2 : 0,128,192
Combo3 : 0,0,255
Combo4 : 244,64,91
Combo5 : 128,0,255

[HitObjects]
39,65,2150,5,4,1:2:0:0:
212,22,2304,1,0,0:0:0:0:
178,197,2458,1,0,1:0:0:0:
212,22,2612,1,0,1:0:0:0:
106,153,2765,6,0,P|93:203|120:260,1,95,2|0,0:0|1:0,0:0:0:0:
237,268,3073,1,0,0:0:0:0:
290,94,3227,1,0,1:0:0:0:
441,220,3381,6,0,L|436:314,1,95,0|0,0:0|1:0,0:0:0:0:
370,356,3612,1,0,0:0:0:0:
370,356,3689,2,0,P|318:362|280:346,1,95,2|0,0:0|1:2,0:0:0:0:
141,325,3996,5,0,1:0:0:0:
341,250,4150,1,2,0:0:0:0:
200,123,4304,1,0,1:0:0:0:
341,250,4458,1,2,0:0:0:0:
393,22,4612,6,0,B|410:66|410:66|387:133,1,95,4|0,1:2|0:0,0:0:0:0:
212,43,4919,1,0,1:0:0:0:
130,167,5073,2,0,B|115:122|115:122|132:78,1,95,4|0,1:2|0:0,0:0:0:0:
200,123,5381,1,2,0:0:0:0:
141,325,5535,1,0,1:0:0:0:
55,257,5689,1,2,0:0:0:0:
141,325,5842,6,0,P|201:318|244:332,1,95,0|0,0:0|1:0,0:0:0:0:
291,257,6073,1,0,0:0:0:0:
291,257,6150,2,0,P|337:249|378:225,1,95,2|0,0:0|1:0,0:0:0:0:
468,82,6458,2,0,L|342:97,1,95,2|0,0:0|0:0,0:0:0:0:
244,55,6765,2,0,L|251:133,1,47.5,0|0,1:0|0:0,0:0:0:0:
362,96,6919,2,0,L|290:63,1,47.5,0|0,1:0|0:0,0:3:0:0:
83,147,7073,6,0,P|145:164|197:137,1,95,4|0,1:2|0:0,0:0:0:0:
244,55,7381,1,0,1:0:0:0:
362,96,7535,2,0,L|468:87,1,95,0|2,1:0|0:0,0:0:0:0:
459,252,7842,1,0,1:0:0:0:
295,250,7996,1,0,0:0:0:0:
196,380,8150,1,0,1:0:0:0:
54,297,8304,2,0,P|111:288|162:310,1,95,0|0,1:0|1:0,0:0:0:0:
196,380,8535,1,0,0:0:0:0:
196,380,8612,2,0,L|319:368,1,95,0|0,0:0|1:0,0:0:0:0:
431,123,8919,5,0,1:0:0:0:
409,210,9073,1,2,0:0:0:0:
493,188,9227,1,0,1:0:0:0:
347,145,9381,1,2,0:0:0:0:
145,299,9535,6,0,P|84:305|22:255,1,123.499994346619,4|0,1:2|0:0,0:0:0:0:
109,208,9842,1,0,0:0:0:0:
283,311,9996,2,0,P|334:278|394:284,1,123.499994346619,4|0,1:2|0:0,0:0:0:0:
347,145,10304,1,0,1:0:0:0:
283,311,10458,1,0,0:0:0:0:
173,165,10612,1,0,1:0:0:0:
283,311,10765,6,0,L|405:317,1,95,0|0,1:0|1:0,0:0:0:0:
444,358,10996,1,0,0:0:0:0:
444,358,11073,2,0,P|458:303|418:249,1,95,2|0,0:0|1:0,0:0:0:0:
354,191,11381,2,0,L|347:145,1,47.5,0|0,1:0|0:0,0:0:0:0:
279,41,11535,2,0,L|273:89,1,47.5,0|0,1:0|0:0,0:0:0:0:
219,263,11689,2,0,L|203:169,1,95,0|2,1:0|1:2,0:0:0:0:
80,97,11919,1,2,1:2:0:0:
80,97,11996,5,4,1:2:0:0:
95,320,12150,1,0,0:0:0:0:
0,215,12304,1,0,1:0:0:0:
289,221,12458,6,0,B|303:265|303:265|277:336,1,95,4|0,1:2|0:0,0:0:0:0:
219,263,12765,1,0,1:0:0:0:
208,116,12919,6,0,L|338:101,1,95,4|0,1:2|0:0,0:0:0:0:
386,171,13227,1,0,1:0:0:0:
428,376,13381,6,0,P|419:314|443:272,1,95,4|0,1:2|0:0,0:0:0:0:
413,30,13689,1,0,1:0:0:0:
452,109,13842,1,0,1:0:0:0:
386,171,13996,1,2,0:0:0:0:
208,116,14150,1,0,1:0:0:0:
129,39,14304,1,0,1:0:0:0:
129,39,14381,1,0,1:0:0:0:
129,39,14458,6,0,L|24:34,1,95,4|0,1:2|0:0,0:0:0:0:
167,323,14765,1,0,1:0:0:0:
115,258,14919,6,0,P|176:240|218:257,1,95,4|0,1:2|0:0,0:0:0:0:
386,171,15227,1,0,1:0:0:0:
371,365,15381,5,4,1:2:0:0:
205,249,15535,1,0,0:0:0:0:
380,86,15689,1,0,1:0:0:0:
316,225,15842,6,0,P|297:180|308:130,1,95,0|0,1:0|0:0,0:0:0:0:
464,75,16150,1,0,1:0:0:0:
316,225,16304,1,8,1:2:0:0:
265,33,16458,1,8,1:2:0:0:
457,227,16612,1,8,1:2:0:0:
247,330,16765,1,2,1:2:0:0:
247,330,16842,1,2,1:2:0:0:
247,330,16919,6,0,P|189:338|156:324,1,95,4|0,1:2|0:0,0:0:0:0:
100,183,17227,1,0,1:0:0:0:
240,78,17381,6,0,L|373:73,1,95,4|0,1:2|0:0,0:0:0:0:
149,20,17689,1,0,1:0:0:0:
424,183,17842,6,0,L|291:178,1,95,4|0,1:2|0:0,0:0:0:0:
512,100,18150,1,0,1:0:0:0:
178,263,18304,6,0,L|311:258,1,95,4|0,1:2|0:0,0:0:0:0:
100,183,18612,1,0,1:0:0:0:
349,263,18765,6,4,L|355:345,1,71.2500027179719,4|4,3:0|3:0,3:0:0:0:
178,263,19073,2,4,L|172:191,1,71.2500027179719,4|4,3:0|3:0,3:0:0:0:
119,328,19381,1,0,1:0:0:0:
79,87,19535,6,0,B|112:76|150:97|150:97|220:55|309:77,1,189.524992191811,0|0,1:0|0:0,0:0:0:0:
361,171,19842,2,0,B|295:145|221:162|221:162|272:203,1,189.524992191811,0|0,1:0|0:0,0:0:0:0:
343,273,20150,2,0,B|409:247|483:264|483:264|432:305,1,189.524992191811,0|0,1:0|0:0,0:0:0:0:
371,347,20458,6,0,B|317:361|281:323|281:323|214:352|214:352|196:308|111:315|111:315|120:336|163:342,1,320.625012230874,4|0,1:2|0:0,0:0:0:0:
161,336,21227,6,0,P|179:275|153:244,1,95,0|0,1:0|1:0,1:0:0:0:
16,99,21535,1,0,1:0:0:0:
90,175,21689,1,0,1:0:0:0:
90,175,21765,1,0,1:0:0:0:
90,175,21842,6,0,L|184:157,1,95,4|0,1:2|0:0,0:0:0:0:
261,231,22150,1,0,1:0:0:0:
425,94,22304,1,2,1:2:0:0:
420,136,22381,1,2,0:0:0:0:
415,178,22458,1,2,0:0:0:0:
468,298,22612,1,0,1:0:0:0:
415,178,22765,1,0,0:0:0:0:
301,309,22919,6,0,P|248:317|193:285,1,95,2|0,1:2|0:0,0:0:0:0:
16,264,23227,2,0,P|60:248|107:257,1,95,2|0,1:2|0:0,0:0:0:0:
66,330,23535,1,0,1:0:0:0:
156,33,23689,1,2,0:0:0:0:
139,71,23765,1,2,0:0:0:0:
137,113,23842,1,2,0:0:0:0:
146,154,23919,1,2,0:0:0:0:
171,188,23996,2,0,L|268:178,1,95,0|0,1:0|0:0,0:0:0:0:
432,117,24304,6,0,L|335:107,1,95,4|0,1:2|0:0,0:0:0:0:
421,259,24612,1,0,1:0:0:0:
354,214,24765,1,2,1:2:0:0:
338,254,24842,1,2,0:0:0:0:
348,295,24919,1,2,0:0:0:0:
486,314,25073,1,0,1:0:0:0:
356,140,25227,1,0,0:0:0:0:
185,259,25381,6,0,P|169:319|185:352,1,95,2|0,1:2|0:0,0:0:0:0:
231,142,25689,2,0,L|113:147,1,95,2|0,1:2|0:0,0:0:0:0:
78,251,25996,1,0,1:0:0:0:
319,231,26150,2,0,P|358:179|320:57,1,190,2|0,1:2|1:0,0:0:0:0:
74,53,26612,1,0,1:0:0:0:
74,53,26689,1,0,1:0:0:0:
74,53,26765,5,4,1:2:0:0:
231,142,26919,1,0,0:0:0:0:
78,251,27073,1,0,1:0:0:0:
231,142,27227,2,0,P|243:195|222:242,1,95,0|0,1:0|0:0,0:0:0:0:
166,384,27535,2,0,L|161:280,1,95,0|0,1:0|0:0,0:0:0:0:
319,231,27842,6,0,B|376:224|376:224|441:254|441:254|510:242,2,190,0|0|0,1:0|1:0|1:0,0:0:0:0:
364,312,28612,1,0,1:0:0:0:
459,80,28765,1,0,1:0:0:0:
459,80,28842,1,0,0:0:0:0:
459,80,28919,2,0,L|453:175,1,95,0|0,1:0|0:0,0:0:0:0:
320,231,29227,5,0,1:0:0:0:
364,312,29381,1,2,0:0:0:0:
269,357,29535,5,0,1:0:0:0:
320,231,29689,1,2,0:0:0:0:
186,248,29842,5,0,1:0:0:0:
269,357,29996,1,2,0:0:0:0:
51,284,30150,5,2,1:2:0:0:
51,284,30227,1,2,0:0:0:0:
51,284,30304,1,2,1:2:0:0:
51,284,30381,1,2,0:0:0:0:
51,284,30458,6,0,B|25:213|25:213|68:131,1,142.5,0|0,1:0|0:0,0:0:0:0:
57,154,30765,2,0,L|172:164,1,95,0|0,1:0|1:0,0:0:0:0:
285,154,31073,1,0,1:0:0:0:
330,49,31227,1,0,0:0:0:0:
435,253,31381,1,0,1:0:0:0:
473,164,31535,1,0,1:0:0:0:
473,164,31612,1,0,0:0:0:0:
473,164,31689,5,4,1:2:0:0:
255,302,31842,1,0,0:0:0:0:
39,164,31996,1,0,1:0:0:0:
341,224,32150,6,0,L|347:325,1,95,4|0,1:2|0:0,0:0:0:0:
165,318,32458,1,0,1:0:0:0:
168,271,32535,1,2,0:0:0:0:
171,224,32611,5,4,1:2:0:0:
256,37,32765,1,0,0:0:0:0:
256,218,32919,1,0,1:0:0:0:
81,334,33073,6,0,L|-1:324,1,71.2500027179719,0|0,1:2|0:0,0:0:0:0:
128,151,33381,1,0,1:0:0:0:
341,224,33535,5,4,3:0:0:0:
292,297,33689,1,4,3:0:0:0:
306,147,33842,1,4,3:0:0:0:
424,244,33996,1,0,0:0:0:0:
424,244,34073,1,0,0:0:0:0:
424,244,34150,6,0,B|441:286|441:286|415:353,1,95,4|0,1:2|0:0,0:0:0:0:
256,218,34458,1,0,0:0:0:0:
88,332,34612,2,0,B|71:286|71:286|88:244,1,95,4|0,1:2|0:0,0:0:0:0:
460,115,34919,2,0,B|414:132|414:132|372:115,1,95,4|0,1:2|0:0,0:0:0:0:
180,39,35227,1,0,1:0:0:0:
372,115,35381,5,0,1:0:0:0:
181,179,35535,1,4,3:0:0:0:
340,10,35689,1,4,3:0:0:0:
424,235,35842,1,4,3:0:0:0:
106,225,35996,2,0,B|94:190|94:190|113:126,1,95
139,60,36227,1,0,1:0:0:0:
139,60,36304,1,0,1:0:0:0:
401,134,36458,1,0,1:0:0:0:
401,134,36535,1,0,1:0:0:0:
401,134,36612,6,0,B|418:190|418:190|406:225,1,95,4|0,1:2|0:0,0:0:0:0:
302,353,36919,1,0,0:0:0:0:
110,134,37073,6,0,B|65:124|65:124|1:146,1,95,4|0,1:2|0:0,0:0:0:0:
255,160,37381,1,0,1:0:0:0:
402,134,37535,6,0,B|447:124|447:124|511:146,1,95,4|0,1:2|0:0,0:0:0:0:
302,353,37842,1,0,1:0:0:0:
156,251,37996,6,0,L|150:151,1,95,4|0,1:2|0:0,0:0:0:0:
389,44,38304,2,0,L|449:52,1,47.5,0|0,1:0|0:0,0:0:0:0:
443,187,38458,2,0,L|395:180,3,47.5,0|0|0|0,1:0|0:0|1:0|0:0,0:0:0:0:
346,284,38765,1,4,3:0:0:0:
305,270,38842,1,4,3:0:0:0:
262,272,38919,1,4,3:0:0:0:
223,291,38996,1,4,3:0:0:0:
197,325,39073,6,0,P|133:331|94:309,1,95,4|0,1:2|0:0,0:0:0:0:
68,180,39381,1,0,0:0:0:0:
392,103,39535,6,0,P|436:87|482:96,1,95,4|0,1:2|0:0,0:0:0:0:
262,272,39842,1,0,0:0:0:0:
29,96,39996,2,0,P|75:87|120:103,1,95,4|0,1:2|0:0,0:0:0:0:
262,272,40304,5,0,1:0:0:0:
204,208,40458,1,0,1:0:0:0:
240,185,40535,1,0,1:0:0:0:
282,185,40612,1,0,1:0:0:0:
320,202,40689,1,0,0:0:0:0:
355,225,40765,1,4,3:0:0:0:
397,222,40842,1,0,0:0:0:0:
433,199,40919,6,0,L|512:202,1,47.5,4|0,3:0|0:0,0:0:0:0:
372,339,41073,2,0,L|324:340,1,47.5,8|0,3:0|0:0,0:0:0:0:
134,263,41227,2,0,B|176:236|176:236|269:274,1,142.5,4|0,3:0|0:0,0:0:0:0:
261,271,41535,5,4,0:0:0:0:
256,38,51381,5,2,0:0:0:0:
122,108,51689,1,0,1:0:0:0:
256,38,51996,1,0,0:0:0:0:
432,146,52304,1,0,1:0:0:0:
256,38,52612,5,0,0:0:0:0:
91,191,52919,1,0,1:0:0:0:
256,38,53227,1,0,0:0:0:0:
472,242,53535,1,0,1:0:0:0:
256,38,53842,5,0,0:0:0:0:
111,268,54150,1,0,1:0:0:0:
256,38,54458,1,0,0:0:0:0:
429,318,54765,1,0,1:0:0:0:
256,38,55073,5,0,0:0:0:0:
170,327,55381,1,0,1:0:0:0:
343,188,55689,2,0,P|314:231|349:327,1,142.5,4|0,3:0|0:0,0:0:0:0:
407,341,55996,2,0,L|521:333,1,95,0|0,1:0|0:0,0:0:0:0:
108,125,56304,5,4,1:2:0:0:
216,74,56458,1,0,1:0:0:0:
451,239,56612,5,0,1:2:0:0:
343,188,56766,1,4,1:2:0:0:
77,291,56919,5,4,1:2:0:0:
185,240,57073,1,0,1:0:0:0:
474,379,57227,5,4,1:2:0:0:
366,328,57381,1,0,1:0:0:0:
167,370,57535,5,0,1:0:0:0:
255,166,57689,1,4,1:2:0:0:
366,328,57842,5,0,1:0:0:0:
248,139,57996,1,0,1:0:0:0:
119,305,58150,5,0,1:0:0:0:
259,115,58304,1,0,1:0:0:0:
404,248,58458,5,0,1:0:0:0:
252,92,58612,1,0,1:0:0:0:
52,232,58765,6,0,P|95:250|142:242,1,95,4|0,1:3|1:0,0:0:0:0:
261,334,59073,1,0,1:0:0:0:
460,360,59227,6,0,L|478:249,1,95,0|0,1:0|0:0,0:0:0:0:
276,43,59535,2,0,L|276:159,1,95,0|0,1:0|0:0,0:0:0:0:
97,359,59842,2,0,L|81:265,1,95,0|0,1:0|0:0,0:0:0:0:
478,274,61227,6,0,B|405:257|405:257|337:279,1,113.999996520996,4|0,1:2|0:0,0:0:0:0:
140,173,61535,1,8,0:0:0:0:
97,282,61689,1,0,1:0:0:0:
97,282,61765,1,0,1:0:0:0:
97,282,61842,1,0,1:0:0:0:
273,179,61996,1,0,0:0:0:0:
86,0,62150,2,0,L|91:97,1,95,8|0,0:0|0:0,0:0:0:0:
90,94,62381,1,0,0:0:0:0:
90,94,62458,5,0,1:0:0:0:
199,73,62612,1,2,0:0:0:0:
90,94,62765,5,8,0:0:0:0:
273,179,62919,1,2,0:0:0:0:
88,189,63073,5,0,1:0:0:0:
282,283,63227,1,2,0:0:0:0:
110,384,63381,2,0,P|103:312|129:269,1,95,8|0,0:0|1:0,0:0:0:0:
187,277,63612,1,0,1:0:0:0:
187,277,63689,6,0,L|316:285,1,95,0|0,1:0|0:0,0:0:0:0:
462,143,63996,1,8,0:0:0:0:
273,179,64150,1,0,0:0:0:0:
461,237,64304,5,0,1:0:0:0:
376,93,64458,1,2,0:0:0:0:
273,179,64612,1,8,0:0:0:0:
216,74,64765,1,2,0:0:0:0:
195,239,64919,6,0,B|184:287|184:287|206:338,1,95,0|0,1:0|1:0,0:0:0:0:
277,348,65150,1,8,0:0:0:0:
277,348,65227,1,8,0:0:0:0:
103,229,65381,1,0,1:0:0:0:
251,168,65535,2,0,P|184:151|126:181,1,95,0|0,1:0|1:0,0:0:0:0:
85,144,65765,1,8,0:0:0:0:
85,144,65842,2,0,L|27:136,1,47.5,8|0,1:2|0:0,0:0:0:0:
291,68,65996,1,0,1:0:0:0:
291,68,66073,1,0,1:0:0:0:
291,68,66150,6,0,L|392:61,1,95,4|0,1:2|0:0,0:0:0:0:
384,239,66458,1,8,0:0:0:0:
254,163,66612,1,0,1:0:0:0:
254,163,66689,1,0,1:0:0:0:
254,163,66765,1,0,1:0:0:0:
175,323,66919,1,0,0:0:0:0:
58,157,67073,1,8,0:0:0:0:
248,279,67227,6,0,B|261:322|261:322|240:386,1,95,4|0,1:2|0:0,0:0:0:0:
58,157,67535,2,0,B|45:114|45:114|66:50,1,95,4|0,1:2|0:0,0:0:0:0:
182,4,67842,2,0,L|310:16,1,95,0|0,1:0|0:0,0:0:0:0:
307,224,68150,2,0,P|350:176|429:184,1,142.5,2|0,1:2|0:0,0:0:0:0:
423,180,68458,6,0,P|358:183|296:134,1,142.5,4|0,1:2|0:0,0:0:0:0:
294,102,68765,1,0,1:0:0:0:
413,22,68919,1,8,0:0:0:0:
381,292,69073,1,0,1:0:0:0:
381,292,69150,1,8,1:2:0:0:
381,292,69227,1,0,1:0:0:0:
223,131,69381,2,0,P|216:88|225:64,2,47.5,0|0|8,1:0|0:0|1:2,0:0:0:0:
123,363,69689,6,0,P|189:328|150:187,1,227.999993041992,4|0,1:2|0:0,0:0:0:0:
166,195,70073,1,0,1:0:0:0:
166,195,70150,2,0,P|239:212|300:177,1,113.999996520996,8|0,0:0|0:0,0:0:0:0:
475,277,70458,6,0,L|463:341,1,56.9999982604981,4|0,3:0|0:0,0:0:0:0:
381,144,70612,2,0,L|389:207,1,56.9999982604981,4|0,3:0|0:0,0:0:0:0:
463,19,70765,5,8,1:2:0:0:
431,43,70842,1,0,1:0:0:0:
393,57,70919,1,0,1:0:0:0:
353,57,70996,1,0,1:0:0:0:
315,44,71073,6,0,L|204:48,1,95,4|0,1:2|0:0,0:0:0:0:
15,238,71381,1,8,0:0:0:0:
149,146,71535,1,0,1:0:0:0:
149,146,71612,1,0,1:0:0:0:
149,146,71689,1,0,1:0:0:0:
71,335,71842,1,2,0:0:0:0:
263,298,71996,2,0,B|217:286|217:286|148:312,1,95,8|0,0:0|0:0,0:0:0:0:
173,303,72227,1,0,0:0:0:0:
173,303,72304,5,8,1:2:0:0:
256,186,72458,1,2,0:0:0:0:
356,338,72612,5,8,0:0:0:0:
255,166,72765,1,2,0:0:0:0:
138,378,72919,5,0,1:0:0:0:
254,151,73073,1,2,0:0:0:0:
390,262,73227,2,0,L|511:270,1,95,8|0,0:0|0:0,0:0:0:0:
266,46,73535,6,0,L|143:54,1,95,0|0,1:0|0:0,0:0:0:0:
50,68,73842,1,8,0:0:0:0:
130,193,73996,1,0,0:0:0:0:
288,159,74150,5,0,1:0:0:0:
266,46,74304,1,2,0:0:0:0:
171,279,74458,1,8,0:0:0:0:
126,110,74612,1,2,0:0:0:0:
41,244,74765,6,0,P|74:295|171:278,1,142.5,4|0,3:0|0:0,0:0:0:0:
171,279,75073,2,0,L|282:284,1,95,4|0,1:2|0:0,0:0:0:0:
438,352,75381,1,8,0:0:0:0:
410,171,75535,1,2,1:2:0:0:
266,283,75689,1,8,0:0:0:0:
496,186,75842,1,0,1:0:0:0:
496,186,75919,1,0,1:0:0:0:
496,186,75996,5,4,1:2:0:0:
336,46,76150,2,0,L|243:53,1,71.2500027179719,0|0,1:0|0:0,0:0:0:0:
88,315,76458,5,4,1:2:0:0:
184,129,76612,2,0,L|277:136,1,71.2500027179719,0|0,1:0|0:0,0:0:0:0:
483,383,76919,5,4,1:2:0:0:
334,206,77073,2,0,L|241:213,1,71.2500027179719,0|0,1:0|0:0,0:0:0:0:
86,43,77381,5,4,1:2:0:0:
184,284,77535,2,0,L|277:291,1,71.2500027179719,0|0,1:0|0:0,0:0:0:0:
425,273,77842,2,0,L|436:177,1,95,10|0,1:2|0:0,0:0:0:0:
86,43,78150,2,0,P|81:89|104:130,1,95,8|8,1:2|0:0,0:0:0:0:
179,163,78381,1,8,0:0:0:0:
179,163,78458,6,0,L|295:155,1,95,0|0,1:0|0:0,0:0:0:0:
282,276,78765,1,8,0:0:0:0:
346,76,78919,2,0,B|390:62|390:62|468:77,1,95,0|0,1:0|0:0,0:0:0:0:
508,317,79227,5,4,3:0:0:0:
394,260,79381,1,14,0:0:0:0:
395,142,79535,1,4,3:0:0:0:
395,142,80304,6,0,P|344:157|291:136,1,95,0|0,1:0|1:0,0:0:0:0:
279,123,80535,1,8,0:0:0:0:
269,91,80612,1,8,0:0:0:0:
290,21,80765,1,0,3:0:0:0:
364,3,80919,5,4,3:2:0:0:
256,192,80996,12,0,84304,0:0:0:0:
186,132,84612,5,2,0:0:0:0:
186,132,84765,2,0,L|88:119,1,95,4|0,1:2|0:0,0:0:0:0:
254,41,85073,1,0,1:0:0:0:
305,147,85227,2,0,P|320:208|294:255,1,95,0|0,1:0|0:0,0:0:0:0:
158,384,85535,2,0,P|143:323|169:276,1,95,0|0,1:0|0:0,0:0:0:0:
223,252,85842,6,0,L|435:271,1,190,4|8,1:2|0:0,0:0:0:0:
495,164,86304,2,0,L|305:147,1,190,0|0,1:0|1:0,0:0:0:0:
103,91,86765,2,0,P|93:37|112:-10,1,95,8|0,0:0|0:0,0:0:0:0:
181,135,87073,6,0,P|139:170|19:125,1,190,0|8,1:0|0:0,0:3:0:0:
185,49,87535,2,0,P|236:67|257:194,1,190,0|0,1:0|1:0,0:3:0:0:
127,302,87996,2,0,P|178:289|234:304,1,95,8|0,0:0|0:0,0:0:0:0:
329,353,88304,6,0,P|380:366|436:351,1,95,4|0,0:0|0:0,0:0:0:0:
335,184,88612,1,0,1:0:0:0:
409,144,88765,2,0,B|425:186|425:186|399:250,1,95,12|0,1:2|0:0,0:0:0:0:
350,48,89073,2,0,L|468:56,1,95,0|0,1:0|0:0,0:0:0:0:
267,228,89381,6,0,B|251:186|251:186|277:122,1,95,0|0,1:0|0:0,0:0:0:0:
350,48,89689,2,0,L|232:40,1,95,0|0,1:0|0:0,0:0:0:0:
1,194,89996,2,0,P|71:181|114:192,1,95,0|0,1:0|0:0,0:0:0:0:
58,269,90304,5,0,3:0:0:0:
0,193,90458,1,0,3:0:0:0:
36,101,90612,1,0,3:0:0:0:
143,87,90765,6,0,L|248:78,1,85.4999973907472,4|0,1:2|0:0,0:0:0:0:
318,143,91073,1,0,1:0:0:0:
450,253,91227,2,0,B|341:237|341:237|270:285,1,170.999994781494,0|0,1:0|1:2,0:0:0:0:
191,349,91689,2,0,P|138:349|91:317,1,85.4999973907472,0|0,1:0|0:0,0:0:0:0:
59,149,91996,6,0,L|47:49,1,85.4999973907472,0|0,1:0|0:0,0:0:0:0:
269,72,92304,2,0,B|357:38|357:106|440:63,1,170.999994781494,0|2,1:0|0:0,0:0:0:0:
388,3,92765,1,0,1:0:0:0:
318,143,92919,2,0,L|307:227,1,85.4999973907472,0|0,1:0|0:0,0:0:0:0:
379,324,93227,6,0,P|424:336|475:325,1,85.4999973907472,0|0,1:0|0:0,0:0:0:0:
498,224,93535,1,0,1:0:0:0:
472,66,93689,1,0,1:0:0:0:
472,66,93765,1,2,0:0:0:0:
472,66,93842,1,2,0:0:0:0:
318,143,93996,1,0,1:0:0:0:
393,105,94150,2,0,B|406:142|406:142|385:203,1,85.4999973907472,0|0,1:0|0:0,0:0:0:0:
181,302,94458,6,0,L|189:184,1,85.4999973907472,0|0,1:0|0:0,0:0:0:0:
145,65,94765,1,0,1:0:0:0:
53,120,94919,1,0,1:0:0:0:
53,120,94996,1,2,0:0:0:0:
53,120,95073,1,2,0:0:0:0:
239,124,95227,2,0,P|257:72|232:19,2,85.4999973907472,0|0|0,1:0|1:0|0:0,0:0:0:0:
151,210,95689,6,0,L|45:204,1,85.4999973907472,4|0,1:2|0:0,0:0:0:0:
261,344,95996,2,0,P|325:309|425:326,1,170.999994781494,0|2,1:0|0:0,0:0:0:0:
490,79,96458,1,0,2:0:0:0:
421,231,96612,2,0,P|407:174|426:130,1,85.4999973907472,0|0,1:0|0:0,0:0:0:0:
490,79,96919,6,0,L|480:-16,1,85.4999973907472,0|0,1:0|0:0,0:0:0:0:
249,86,97227,2,0,P|186:102|88:55,1,170.999994781494,0|2,1:0|0:0,0:0:0:0:
151,210,97689,1,0,1:0:0:0:
47,196,97842,2,0,L|54:293,1,85.4999973907472,0|0,1:0|0:0,0:0:0:0:
261,381,98150,6,0,P|299:334|253:242,1,170.999994781494,0|0,1:0|1:0,0:0:0:0:
167,349,98612,1,0,1:0:0:0:
384,339,98765,2,0,L|481:338,2,85.4999973907472,0|0|2,1:0|0:0|1:2,0:0:0:0:
475,114,99227,1,0,0:0:0:0:
369,156,99381,5,0,1:0:0:0:
255,46,99535,1,0,3:0:0:0:
401,49,99689,5,0,1:0:0:0:
143,156,99842,1,0,3:0:0:0:
111,49,99996,5,0,1:0:0:0:
224,213,100150,1,0,3:0:0:0:
143,156,100304,5,0,1:0:0:0:
369,156,100458,1,0,3:0:0:0:
119,347,100612,5,4,1:2:0:0:
256,138,100765,1,0,3:0:0:0:
393,347,100919,1,0,1:0:0:0:
204,255,101073,6,0,L|109:260,1,95,4|0,1:2|0:0,0:0:0:0:
402,260,101381,1,0,1:0:0:0:
360,258,101457,1,2,0:0:0:0:
317,255,101534,5,4,1:2:0:0:
319,84,101688,1,0,0:0:0:0:
471,170,101842,1,0,1:0:0:0:
316,254,101996,6,0,L|305:151,1,95,0|0,1:2|0:0,0:0:0:0:
122,58,102304,1,0,1:0:0:0:
319,84,102458,5,4,3:0:0:0:
316,254,102612,1,4,3:0:0:0:
174,324,102765,1,4,3:0:0:0:
45,232,102919,1,0,0:0:0:0:
45,232,102996,1,0,0:0:0:0:
45,232,103073,6,0,B|155:240,1,95,4|0,1:2|0:0,0:0:0:0:
257,355,103381,1,0,0:0:0:0:
45,232,103535,6,0,P|32:188|53:128,1,95,4|0,1:2|0:0,0:0:0:0:
277,23,103842,2,0,P|230:14|199:25,1,47.5,0|0,1:2|0:0,0:0:0:0:
150,49,103996,6,0,P|195:61|240:49,1,95,4|0,1:2|0:0,0:0:0:0:
337,266,104304,5,0,1:0:0:0:
240,161,104458,1,4,3:0:0:0:
277,23,104612,1,4,3:0:0:0:
371,175,104765,1,4,3:0:0:0:
269,324,104919,2,0,L|173:333,1,95,0|0,3:0|0:0,0:0:0:0:
93,342,105150,1,0,1:0:0:0:
93,342,105227,1,0,1:0:0:0:
97,76,105381,1,0,1:0:0:0:
97,76,105458,1,0,1:0:0:0:
97,76,105535,6,0,L|91:178,1,95,4|0,1:2|0:0,0:0:0:0:
255,292,105842,1,0,0:0:0:0:
420,170,105996,6,0,L|415:76,1,95,4|0,1:2|0:0,0:0:0:0:
253,34,106304,1,0,1:0:0:0:
385,273,106458,6,0,P|431:280|476:266,1,95,4|0,1:2|0:0,0:0:0:0:
415,75,106765,1,0,1:0:0:0:
147,97,106919,2,0,B|135:142|135:142|152:191,1,95,0|0,1:0|0:0,0:0:0:0:
204,332,107227,1,4,3:0:0:0:
357,287,107381,1,4,3:0:0:0:
326,144,107535,2,0,L|219:135,1,95,4|0,3:0|0:0,0:0:0:0:
125,34,107842,1,0,1:0:0:0:
125,34,107919,1,0,1:0:0:0:
125,34,107996,5,4,1:2:0:0:
108,300,108150,1,0,0:0:0:0:
179,165,108304,1,0,1:0:0:0:
125,34,108458,6,0,L|27:44,1,95,4|0,1:2|0:0,0:0:0:0:
179,165,108765,1,0,1:0:0:0:
324,74,108919,6,0,B|372:61|372:61|459:86,1,95,4|0,1:2|0:0,0:0:0:0:
456,306,109227,1,0,1:0:0:0:
369,239,109381,6,0,L|373:139,1,95,4|0,1:2|0:0,0:0:0:0:
108,300,109689,1,0,1:0:0:0:
186,339,109842,6,0,P|229:333|262:314,1,71.2500027179719,0|0,1:0|0:0,0:0:0:0:
369,239,110150,2,0,P|333:234|301:219,1,71.2500027179719,0|0,1:0|0:0,0:0:0:0:
252,153,110458,5,4,3:0:0:0:
87,27,120304,5,2,0:0:0:0:
229,197,120612,1,0,1:0:0:0:
1,127,120919,1,2,0:0:0:0:
210,46,121227,1,0,1:0:0:0:
90,231,121535,5,2,0:0:0:0:
267,289,121842,1,0,1:0:0:0:
93,342,122150,1,2,0:0:0:0:
205,194,122458,1,0,1:0:0:0:
174,284,122765,5,2,0:0:0:0:
202,380,123073,1,0,1:0:0:0:
347,284,123381,1,2,0:0:0:0:
264,225,123689,1,0,1:0:0:0:
174,284,123996,5,2,0:0:0:0:
202,380,124304,1,0,1:0:0:0:
318,383,124612,1,2,0:0:0:0:
479,237,124919,6,0,L|397:230,1,71.2500027179719,0|0,1:0|1:0,0:0:0:0:
347,284,125150,1,0,1:0:0:0:
347,284,125227,5,4,1:2:0:0:
174,284,125381,1,0,0:0:0:0:
318,383,125535,1,0,1:0:0:0:
264,225,125689,5,4,1:2:0:0:
202,380,125842,1,0,0:0:0:0:
394,208,125996,1,0,1:0:0:0:
89,234,126150,5,4,1:2:0:0:
93,342,126304,1,0,0:0:0:0:
260,311,126458,1,0,1:0:0:0:
203,194,126612,5,4,1:2:0:0:
89,234,126765,1,0,0:0:0:0:
210,46,126919,1,0,1:0:0:0:
0,135,127073,5,4,1:2:0:0:
203,194,127227,1,0,0:0:0:0:
361,22,127381,1,0,1:0:0:0:
210,46,127535,1,8,0:0:0:0:
210,46,127612,1,8,0:0:0:0:
210,46,127689,5,0,1:0:0:0:
379,102,127842,1,0,3:0:0:0:
210,46,127996,1,0,3:0:0:0:
70,72,128150,6,0,L|-18:63,1,71.2500027179719,0|0,1:0|0:0,0:0:0:0:
379,102,128458,2,0,L|467:93,1,71.2500027179719,0|0,1:0|0:0,0:0:0:0:
89,157,128765,2,0,L|1:148,1,71.2500027179719,0|0,1:0|0:0,0:0:0:0:
414,178,130150,6,0,B|407:296,1,113.999996520996,4|0,1:2|0:0,0:0:0:0:
163,350,130458,1,8,0:0:0:0:
317,294,130612,1,0,1:0:0:0:
317,294,130688,1,0,1:0:0:0:
317,294,130765,1,0,1:0:0:0:
124,257,130919,1,0,0:0:0:0:
331,155,131073,2,0,B|345:105|345:105|332:59,1,95,8|0,0:0|0:0,0:0:0:0:
294,0,131304,1,0,0:0:0:0:
294,0,131381,5,0,1:0:0:0:
223,128,131535,1,2,0:0:0:0:
132,28,131688,5,8,0:0:0:0:
331,155,131842,1,2,0:0:0:0:
368,69,131996,5,0,1:0:0:0:
262,199,132150,1,2,0:0:0:0:
317,294,132304,2,0,L|446:276,1,95,8|0,0:0|1:0,0:0:0:0:
466,216,132535,1,0,1:0:0:0:
466,216,132612,6,0,B|480:167|480:167|460:94,1,95,0|0,1:0|0:0,0:0:0:0:
368,69,132919,1,8,0:0:0:0:
223,128,133073,1,0,0:0:0:0:
110,22,133227,5,0,1:0:0:0:
22,154,133381,1,2,0:0:0:0:
110,22,133535,1,8,0:0:0:0:
262,199,133688,1,2,0:0:0:0:
314,140,133842,6,0,B|270:122|270:122|215:129,1,95,0|0,1:0|1:0,0:0:0:0:
224,127,134073,1,8,0:0:0:0:
224,127,134150,1,8,0:0:0:0:
269,293,134304,1,0,1:0:0:0:
262,199,134458,2,0,L|270:303,1,95,0|0,1:0|1:0,0:0:0:0:
332,336,134688,1,8,0:0:0:0:
332,336,134765,1,8,0:0:0:0:
176,307,134919,1,0,1:0:0:0:
176,307,134996,1,0,1:0:0:0:
176,307,135073,6,0,L|75:314,1,95,4|0,1:2|0:0,0:0:0:0:
53,185,135381,1,8,0:0:0:0:
224,127,135535,1,0,1:0:0:0:
224,127,135612,1,0,1:0:0:0:
224,127,135688,1,0,1:0:0:0:
170,0,135842,1,0,0:0:0:0:
81,99,135996,1,8,0:0:0:0:
319,95,136150,6,0,B|434:82,1,95,4|0,1:2|0:0,0:0:0:0:
270,317,136458,2,0,B|176:307,1,95,4|0,1:2|0:0,0:0:0:0:
53,185,136765,2,0,B|100:188|100:188|148:163,1,95,0|0,1:0|0:0,0:0:0:0:
420,46,137073,2,0,B|381:11|381:11|264:28,1,142.5,2|0,1:2|0:0,0:0:0:0:
214,59,137381,6,0,P|190:95|213:202,1,142.5,4|0,1:2|0:0,0:0:0:0:
242,208,137688,1,0,1:0:0:0:
340,315,137842,1,8,0:0:0:0:
215,346,137996,1,0,1:0:0:0:
215,346,138073,1,0,1:0:0:0:
215,346,138150,5,0,1:0:0:0:
412,252,138304,1,0,0:0:0:0:
146,281,138458,1,8,0:0:0:0:
402,384,138612,6,0,P|425:347|403:241,1,142.5,4|0,1:2|0:0,0:0:0:0:
326,231,138919,1,0,1:0:0:0:
326,231,138996,1,0,1:0:0:0:
326,231,139073,2,0,L|210:234,1,95,8|0,0:0|3:0,0:0:0:0:
49,221,139381,1,2,0:0:0:0:
79,243,139458,1,2,0:0:0:0:
116,251,139535,1,8,0:0:0:0:
153,248,139612,1,8,0:0:0:0:
187,232,139689,6,0,L|216:185,1,47.5,8|0,1:2|0:0,0:0:0:0:
308,187,139842,2,0,L|295:133,1,47.5,0|0,1:0|0:0,0:0:0:0:
163,9,139996,6,0,L|167:120,1,95,4|0,1:2|0:0,0:0:0:0:
355,58,140304,1,8,0:0:0:0:
308,187,140458,1,0,1:0:0:0:
308,187,140535,1,0,1:0:0:0:
308,187,140612,1,0,1:0:0:0:
478,106,140765,1,2,0:0:0:0:
231,150,140919,2,0,B|219:196|219:196|245:265,1,95,8|0,0:0|0:0,0:0:0:0:
284,305,141150,1,0,0:0:0:0:
284,305,141227,5,8,1:2:0:0:
308,187,141381,1,2,0:0:0:0:
176,305,141535,5,8,0:0:0:0:
388,252,141688,1,2,0:0:0:0:
166,209,141842,5,0,1:0:0:0:
375,342,141996,1,2,0:0:0:0:
478,106,142150,2,0,L|383:112,1,95,8|0,0:0|0:0,0:0:0:0:
167,120,142458,6,0,B|149:159|149:159|172:228,1,95,0|0,1:0|0:0,0:0:0:0:
199,296,142765,1,8,0:0:0:0:
48,229,142919,1,0,0:0:0:0:
112,381,143073,5,0,1:0:0:0:
284,305,143227,1,2,0:0:0:0:
48,229,143381,1,8,0:0:0:0:
246,135,143535,1,2,0:0:0:0:
105,87,143688,6,0,P|102:155|157:195,1,142.5,4|0,3:0|0:0,0:0:0:0:
246,135,143996,2,0,L|257:18,1,95,4|0,1:2|0:0,0:0:0:0:
35,14,144304,1,8,0:0:0:0:
48,229,144458,1,2,1:2:0:0:
169,123,144612,1,8,0:0:0:0:
162,288,144765,1,0,1:0:0:0:
162,288,144842,1,0,1:0:0:0:
162,288,144919,5,4,1:2:0:0:
366,113,145073,2,0,L|273:106,1,71.2500027179719,0|0,1:0|0:0,0:0:0:0:
208,21,145381,5,4,1:2:0:0:
278,247,145535,2,0,L|318:188,1,71.2500027179719,0|0,1:3|0:3,0:3:0:0:
435,201,145842,5,4,1:2:0:0:
209,106,145996,2,0,L|247:188,1,71.2500027179719,0|0,1:0|0:0,0:0:0:0:
329,65,146304,5,4,1:2:0:0:
129,71,146458,2,0,P|122:97|132:151,1,71.2500027179719,0|0,1:0|0:0,0:0:0:0:
281,258,146765,2,0,P|301:207|279:150,1,106.875004076958,10|0,1:2|0:0,0:0:0:0:
209,106,147073,2,0,P|249:129|296:124,1,95,8|8,1:2|0:0,0:0:0:0:
361,66,147304,1,8,0:0:0:0:
361,66,147381,6,0,L|367:160,1,95,0|0,1:0|0:0,0:0:0:0:
278,308,147688,1,8,0:0:0:0:
134,291,147842,2,0,B|86:300|86:300|42:286,1,95,0|0,1:0|0:0,0:0:0:0:
202,351,148150,5,4,3:0:0:0:
226,161,148304,1,8,3:2:0:0:
365,292,148458,1,4,3:0:0:0:
298,235,149227,6,0,L|404:243,1,95,0|0,1:0|1:0,0:0:0:0:
426,244,149458,1,8,0:0:0:0:
459,246,149535,1,8,0:0:0:0:
304,356,149689,1,14,3:0:0:0:
214,235,149842,6,0,L|205:154,1,71.2500027179719,4|0,1:2|0:0,0:0:0:0:
162,49,150150,1,0,1:0:0:0:
104,142,150304,1,0,0:0:0:0:
290,89,150458,2,0,P|333:72|354:52,1,71.2500027179719,0|2,1:0|0:0,0:0:0:0:
418,119,150765,2,0,P|463:125|491:118,1,71.2500027179719
451,40,151073,5,0,1:0:0:0:
379,305,151227,2,0,P|321:269|249:285,1,142.500005435944,2|8,0:0|0:0,0:0:0:0:
104,275,151689,2,0,L|114:356,1,71.2500027179719,0|2,1:0|0:0,0:0:0:0:
225,135,151996,2,0,L|216:205,1,71.2500027179719,0|0,1:0|0:0,0:0:0:0:
163,50,152304,6,0,B|236:37|236:37|320:80,1,142.500005435944,4|0,1:0|0:0,0:0:0:0:
511,33,152765,2,0,B|438:46|438:46|354:3,1,142.500005435944,4|2,1:2|0:0,0:0:0:0:
418,163,153227,2,0,L|407:257,1,71.2500027179719,0|0,1:0|0:0,0:0:0:0:
446,318,153535,5,0,1:0:0:0:
169,268,153689,2,0,P|228:249|314:282,1,142.500005435944,2|8,0:0|0:0,0:0:0:0:
96,318,154150,2,0,P|81:259|88:237,1,71.2500027179719,0|0,1:0|0:0,0:0:0:0:
196,47,154458,2,0,P|211:106|204:128,1,71.2500027179719,0|0,1:0|0:0,0:0:0:0:
127,174,154765,6,0,L|38:166,1,71.2500027179719,4|0,1:2|0:0,0:0:0:0:
286,224,155073,1,0,1:0:0:0:
282,142,155227,1,0,0:0:0:0:
405,253,155381,2,0,P|415:292|399:332,1,71.2500027179719,0|2,1:0|0:0,0:0:0:0:
210,182,155689,2,0,P|200:143|216:103,1,71.2500027179719,0|0,1:0|0:0,0:0:0:0:
297,37,155996,5,0,1:0:0:0:
365,178,156150,2,0,B|419:162|419:162|517:181,1,142.500005435944,2|8,0:0|0:0,0:0:0:0:
249,320,156612,2,0,L|154:300,1,71.2500027179719,0|2,1:0|0:0,0:0:0:0:
51,221,156919,2,0,L|146:201,1,71.2500027179719,0|0,1:0|0:0,0:0:0:0:
218,17,157227,6,0,P|235:60|198:149,1,142.500005435944,4|0,1:0|0:0,0:0:0:0:
76,134,157689,2,0,P|59:91|96:2,1,142.500005435944,4|0,1:2|0:0,0:0:0:0:
324,28,158150,2,0,L|425:24,1,71.2500027179719,0|0,1:0|0:0,0:0:0:0:
460,135,158458,5,0,1:0:0:0:
460,135,158612,2,0,L|359:131,1,71.2500027179719,2|0,0:0|0:0,0:0:0:0:
284,198,158919,1,8,0:0:0:0:
160,177,159073,2,0,L|153:247,2,71.2500027179719,0|0|0,3:0|0:0|0:0,0:0:0:0:
184,46,159535,5,8,0:0:0:0:
184,46,159612,1,8,0:0:0:0:
184,46,159689,5,4,1:2:0:0:
59,87,159842,1,2,0:0:0:0:
160,177,159996,1,0,1:0:0:0:
133,104,160150,5,4,1:2:0:0:
118,304,160304,1,2,0:0:0:0:
264,69,160458,1,0,1:0:0:0:
91,228,160612,5,4,1:2:0:0:
371,188,160765,1,2,0:0:0:0:
91,228,160919,1,0,1:0:0:0:
404,290,161073,5,4,3:2:0:0:
238,205,161227,1,2,0:0:0:0:
370,381,161381,1,4,3:0:0:0:
447,132,161535,2,0,P|455:87|429:42,1,71.2500027179719,0|2,3:0|0:0,0:0:0:0:
118,304,161842,2,0,P|110:349|136:394,1,71.2500027179719,0|2,3:0|0:0,0:0:0:0:
404,290,162150,5,4,1:2:0:0:
196,332,162304,1,2,0:0:0:0:
404,290,162458,1,0,1:0:0:0:
140,110,162612,5,4,1:2:0:0:
448,132,162765,1,2,0:0:0:0:
238,205,162919,1,0,1:0:0:0:
342,15,163073,5,4,1:2:0:0:
309,278,163227,1,2,0:0:0:0:
245,55,163381,1,0,1:0:0:0:
433,51,163535,5,12,1:2:0:0:
134,237,163689,1,2,0:0:0:0:
450,365,163842,1,8,1:2:0:0:
196,332,163996,6,0,P|160:338|109:324,1,71.2500027179719,0|2,3:0|0:0,0:0:0:0:
100,157,164304,2,0,P|136:151|187:165,1,71.2500027179719,0|2,3:0|0:0,0:0:0:0:
236,222,164535,1,0,1:0:0:0:
236,222,164612,5,4,1:2:0:0:
127,69,164765,1,2,0:0:0:0:
57,239,164919,1,0,1:0:0:0:
272,340,165073,5,4,1:2:0:0:
304,53,165227,1,2,0:0:0:0:
30,136,165381,1,0,1:0:0:0:
272,340,165535,6,0,B|401:344,1,95,4|0,1:2|0:0,0:0:0:0:
236,222,165842,2,0,P|193:204|132:223,1,95,2|0,0:0|0:0,0:0:0:0:
70,260,166150,2,0,B|109:205|109:205|91:96,1,142.5,2|0,0:0|0:0,0:0:0:0:
96,130,166458,6,0,P|136:138|178:131,1,71.2500027179719,8|0,1:2|0:0,0:0:0:0:
419,270,166612,2,0,P|361:231|264:261,1,142.5,12|0,1:2|0:0,0:0:0:0:
292,240,166919,6,0,P|321:154|272:69,1,170.999994781494,4|0,1:2|0:0,0:0:0:0:
263,65,167227,1,0,1:0:0:0:
161,202,167381,2,0,L|174:324,1,95,8|0,0:0|0:0,0:0:0:0:
323,334,167689,5,0,1:0:0:0:
191,67,167842,1,0,3:0:0:0:
110,253,167996,1,8,1:2:0:0:
401,143,168150,1,0,3:0:0:0:
93,149,168304,5,0,1:0:0:0:
406,272,168458,1,0,3:0:0:0:
311,59,168612,1,8,1:2:0:0:
200,353,168765,1,0,3:0:0:0:
200,353,168842,1,8,3:0:0:0:
200,353,168919,5,0,1:0:0:0:
259,3,169073,1,0,3:0:0:0:
45,144,169227,1,8,1:2:0:0:
402,203,169381,1,0,3:0:0:0:
242,171,169535,5,0,1:0:0:0:
367,286,169689,1,0,3:0:0:0:
510,198,169842,5,8,1:2:0:0:
198,284,169996,1,8,3:2:0:0:
117,168,170150,5,0,1:0:0:0:
458,322,170304,1,0,3:0:0:0:
510,198,170458,5,8,1:2:0:0:
93,291,170612,2,0,B|38:268|15:202|38:143|88:111|88:111|116:184|147:191,1,285.000010871888,4|0,1:2|1:0,0:0:0:0:
231,149,170996,1,0,1:0:0:0:
231,149,171073,6,0,L|366:153,1,123.499994346619,12|0,1:2|0:0,0:0:0:0:
470,233,171304,1,10,0:0:0:0:
470,233,171381,6,0,L|463:305,1,61.7499971733095,4|0,1:2|0:0,0:0:0:0:
354,152,171535,2,0,L|360:91,1,61.7499971733095,8|0,1:2|0:0,0:0:0:0:
239,347,171689,2,0,L|244:285,1,61.7499971733095,8|0,1:2|0:0,0:0:0:0:
125,66,171842,2,0,L|131:128,1,61.7499971733095,0|0,1:0|0:0,0:0:0:0:
75,333,171996,6,0,P|40:273|170:229,2,246.999988693238,4|8|0,1:2|0:0|1:0,0:0:0:0:
286,338,172765,1,2,0:0:0:0:
244,153,172919,1,8,1:2:0:0:
244,264,173073,6,0,P|314:259|370:302,1,123.499994346619,0|0,1:0|0:0,0:0:0:0:
444,110,173381,1,0,1:0:0:0:
244,153,173535,1,8,0:0:0:0:
279,19,173689,6,0,P|220:44|150:28,1,123.499994346619,4|0,1:2|0:0,0:0:0:0:
26,121,173996,1,4,3:0:0:0:
244,264,174150,1,4,3:0:0:0:
134,359,174304,6,0,P|99:263|165:152,1,185.249991519928,4|0,1:2|0:0,0:0:0:0:
244,264,174612,1,0,1:0:0:0:
485,199,174765,2,0,P|397:175|334:199,1,123.499994346619,4|0,1:2|0:0,0:0:0:0:
134,359,175073,1,0,1:0:0:0:
247,156,175227,2,8,P|246:121|236:95,2,61.7499971733095
50,128,175535,6,0,P|108:153|219:120,1,123.499994346619,4|0,1:2|0:0,0:0:0:0:
371,13,175842,1,0,3:0:0:0:
371,13,175919,1,0,3:0:0:0:
371,13,175996,5,4,1:2:0:0:
451,318,176150,1,0,0:0:0:0:
167,218,176304,1,0,3:0:0:0:
334,95,176458,1,0,3:0:0:0:
343,307,176612,1,4,3:2:0:0:
164,296,176765,6,0,B|108:290|88:253|66:218|78:174|111:133|159:124|210:129|243:186|243:186|279:159|279:159|324:196|382:166|382:166,1,470.250014350892,4|0,1:2|0:0,0:0:0:0:
166,32,189227,5,2,0:0:0:0:
346,352,189535,1,0,3:0:0:0:
257,49,189842,5,2,0:0:0:0:
255,335,190150,1,0,3:0:0:0:
308,125,190458,5,2,0:0:0:0:
204,259,190765,1,0,3:0:0:0:
301,216,191073,5,2,0:0:0:0:
211,168,191381,1,0,3:0:0:0:
301,216,191535,1,2,0:0:0:0:
389,157,191689,6,0,L|478:143,1,71.2500027179719,0|0,1:0|0:0,0:0:0:0:
359,359,191996,2,0,P|298:338|197:367,1,142.500005435944,0|2,1:0|0:0,0:0:0:0:
31,252,192458,1,0,0:0:0:0:
31,252,192612,2,0,P|100:265|167:244,1,142.500005435944,0|2,1:0|0:0,0:0:0:0:
162,77,193073,5,0,0:0:0:0:
162,77,193227,2,0,L|151:-12,1,71.2500027179719,0|0,1:0|0:0,0:0:0:0:
121,156,193535,2,0,L|132:67,1,71.2500027179719,2|0,1:2|0:0,0:0:0:0:
167,243,193842,2,0,L|156:154,1,71.2500027179719,10|0,1:2|0:0,0:0:0:0:
109,298,194150,5,4,1:2:0:0:
368,231,194304,1,2,0:0:0:0:
389,305,194458,1,0,1:0:0:0:
423,144,194612,5,4,1:2:0:0:
110,78,194765,1,2,0:0:0:0:
85,155,194919,1,0,1:0:0:0:
152,0,195073,6,0,L|145:97,1,95,4|2,1:2|0:0,0:0:0:0:
315,301,195381,1,0,1:0:0:0:
359,230,195535,6,0,B|312:219|312:219|251:237,1,95,4|2,1:2|0:0,0:0:0:0:
170,316,195842,1,0,1:0:0:0:
49,276,195996,6,0,L|58:380,1,95,0|0,1:0|3:0,0:0:0:0:
444,217,196304,2,0,L|435:113,1,95,0|0,1:0|3:0,0:0:0:0:
386,62,196535,1,0,1:0:0:0:
386,62,196612,6,0,P|323:51|280:67,1,95,4|0,1:2|0:0,0:0:0:0:
174,186,196919,1,0,1:0:0:0:
315,301,197073,5,4,1:2:0:0:
335,132,197227,1,0,0:0:0:0:
315,301,197381,1,0,1:0:0:0:
444,217,197535,1,0,0:0:0:0:
239,256,197689,6,0,B|227:304|227:304|244:349,1,95,4|0,1:2|0:0,0:0:0:0:
174,186,197996,1,0,1:0:0:0:
335,132,198150,2,0,B|347:84|347:84|330:39,1,95,8|0,0:0|0:0,0:0:0:0:
57,285,198458,6,0,L|48:347,1,47.5,0|0,3:0|3:0,3:0:0:0:
69,308,198765,6,0,L|60:370,1,47.5,0|0,3:0|3:0,3:0:0:0:
174,186,199073,6,0,B|185:117|185:117|150:68,1,104.500003189087,4|0,1:2|0:0,0:0:0:0:
45,43,199381,1,8,0:0:0:0:
165,89,199535,1,0,1:0:0:0:
211,83,199612,1,0,1:0:0:0:
257,77,199689,5,0,1:0:0:0:
276,239,199842,1,0,3:0:0:0:
174,186,199996,1,8,0:0:0:0:
226,319,200150,1,0,3:0:0:0:
276,239,200304,5,0,1:0:0:0:
226,319,200458,1,2,0:0:0:0:
174,186,200612,5,8,0:0:0:0:
305,355,200765,1,2,0:0:0:0:
350,178,200919,5,0,1:0:0:0:
155,372,201073,1,2,0:0:0:0:
229,124,201227,2,0,B|180:104|180:104|108:119,1,104.500003189087,8|0,0:0|1:0,0:0:0:0:
48,144,201458,1,0,1:0:0:0:
48,144,201535,6,0,L|58:261,1,104.500003189087,0|0,1:0|0:0,0:0:0:0:
155,372,201842,1,8,0:0:0:0:
383,264,201996,1,0,3:0:0:0:
220,206,202150,5,0,1:0:0:0:
490,160,202304,1,0,3:0:0:0:
303,332,202458,1,8,0:0:0:0:
481,299,202612,1,0,3:0:0:0:
369,26,202765,6,0,L|355:137,1,104.500003189087,4|0,1:2|1:0,0:0:0:0:
300,194,202996,1,0,1:0:0:0:
300,194,203073,1,8,0:0:0:0:
99,84,203227,1,0,1:0:0:0:
142,64,203304,1,0,1:0:0:0:
188,68,203381,5,4,3:0:0:0:
281,272,203535,1,0,1:0:0:0:
240,296,203612,1,0,3:0:0:0:
193,291,203689,1,8,0:0:0:0:
154,264,203765,1,0,3:0:0:0:
117,234,203842,1,0,1:0:0:0:
70,228,203919,1,0,3:0:0:0:
25,244,203996,6,0,L|37:367,1,104.500003189087,4|0,1:2|0:0,0:0:0:0:
221,218,204304,1,8,0:0:0:0:
188,68,204458,1,0,1:0:0:0:
188,68,204535,1,0,1:0:0:0:
188,68,204612,1,0,1:0:0:0:
154,156,204765,1,0,3:0:0:0:
417,174,204919,1,8,0:0:0:0:
160,363,205073,6,0,B|141:304|141:304|168:224,1,104.500003189087,4|0,1:2|0:0,0:0:0:0:
481,113,205381,2,0,B|500:172|500:172|473:252,1,104.500003189087,4|0,1:2|0:0,0:0:0:0:
154,156,205689,2,0,L|43:143,1,104.500003189087,4|0,1:2|0:0,0:0:0:0:
309,81,205996,2,0,B|335:51|335:51|328:181,1,156.750004783631,4|0,1:2|0:0,0:0:0:0:
371,244,206304,6,0,P|424:258|489:222,1,104.500003189087,4|0,1:2|0:0,0:0:0:0:
229,335,206612,1,0,1:0:0:0:
117,82,206765,1,0,1:0:0:0:
86,117,206842,1,0,1:0:0:0:
77,163,206919,5,8,0:0:0:0:
92,207,206996,1,8,0:0:0:0:
132,231,207073,1,8,0:0:0:0:
408,173,207227,1,0,3:2:0:0:
361,165,207304,1,0,3:2:0:0:
318,185,207381,1,0,3:2:0:0:
380,348,207535,6,0,L|369:229,1,104.500003189087,4|0,1:2|0:0,0:0:0:0:
259,41,207842,1,0,1:0:0:0:
259,41,207919,1,0,1:0:0:0:
259,41,207996,1,8,0:0:0:0:
229,335,208150,1,0,1:0:0:0:
20,242,208304,5,0,1:0:0:0:
31,288,208381,1,0,3:0:0:0:
69,317,208458,1,0,1:0:0:0:
116,322,208534,1,0,3:0:0:0:
159,301,208611,1,8,1:2:0:0:
191,266,208688,1,0,3:0:0:0:
237,260,208765,1,0,1:0:0:0:
280,276,208842,1,0,3:0:0:0:
302,317,208919,6,0,L|313:197,1,104.500003189087,4|0,1:2|0:0,0:0:0:0:
415,38,209227,1,8,0:0:0:0:
178,142,209381,1,0,1:0:0:0:
178,142,209458,1,0,1:0:0:0:
178,142,209535,6,0,L|57:134,1,104.500003189087,0|0,1:0|3:0,0:0:0:0:
302,317,209842,2,0,L|423:309,1,104.500003189087,8|0,1:2|3:0,0:0:0:0:
460,151,210150,5,0,1:0:0:0:
150,47,210304,1,2,3:2:0:0:
136,260,210458,5,8,1:2:0:0:
489,67,210612,1,2,3:2:0:0:
477,347,210765,5,0,1:0:0:0:
105,174,210919,1,2,3:2:0:0:
406,310,211073,2,0,B|426:261|426:261|411:211,1,104.500003189087,8|0,0:0|1:0,0:0:0:0:
301,80,211304,1,0,1:0:0:0:
301,80,211381,6,0,L|308:205,1,104.500003189087,0|0,1:0|0:0,0:0:0:0:
144,340,211689,1,8,0:0:0:0:
301,80,211842,1,0,3:0:0:0:
406,310,211996,5,0,1:0:0:0:
133,138,212150,1,0,3:0:0:0:
306,184,212304,1,8,0:0:0:0:
63,295,212458,1,0,3:0:0:0:
143,240,212612,6,0,B|159:286|159:286|143:339,1,104.500003189087,0|0,1:0|0:0,0:0:0:0:
174,41,212919,2,0,L|53:31,1,104.500003189087,12|0,1:2|0:0,0:0:0:0:
63,295,213227,1,0,1:0:0:0:
302,200,213381,1,0,3:0:0:0:
138,145,213535,1,8,1:2:0:0:
364,314,213689,1,0,1:0:0:0:
375,268,213765,1,0,1:0:0:0:
385,223,213842,5,4,1:2:0:0:
298,45,213996,2,0,P|331:33|368:31,1,71.2500027179719,0|0,1:0|0:0,0:0:0:0:
300,373,214304,5,4,1:2:0:0:
215,114,214458,2,0,P|181:102|144:100,1,71.2500027179719,0|0,1:0|0:0,0:0:0:0:
232,327,214765,5,4,1:2:0:0:
420,124,214919,2,0,P|455:122|489:110,1,71.2500027179719,0|0,1:0|0:0,0:0:0:0:
167,361,215227,5,4,1:2:0:0:
91,162,215381,2,0,P|55:163|21:175,1,71.2500027179719,0|0,1:0|0:0,0:0:0:0:
208,225,215689,2,0,L|221:155,1,71.2500027179719,0|0,1:0|0:0,0:0:0:0:
300,206,215996,2,0,L|287:276,1,71.2500027179719,0|0,1:0|1:0,0:0:0:0:
386,297,216227,1,0,1:0:0:0:
386,297,216304,5,0,1:0:0:0:
162,66,216458,1,0,1:0:0:0:
82,366,216612,1,0,3:0:0:0:
286,276,216765,6,0,P|296:215|283:179,1,95,4|0,1:2|0:0,0:0:0:0:
80,124,217073,1,0,3:0:0:0:
286,184,217227,1,8,0:0:0:0:
488,26,217381,6,0,B|457:19|457:19|474:136|474:136|503:92,1,190,4|0,1:3|0:0,0:0:0:0:
496,102,217765,1,0,1:0:0:0:
475,135,217842,6,0,L|466:233,1,95,8|0,1:2|1:0,0:0:0:0:
461,303,218073,1,0,1:0:0:0:
461,303,218150,1,0,1:0:0:0:
242,273,218304,1,0,3:0:0:0:
192,255,218381,1,0,3:0:0:0:
168,208,218458,1,8,0:0:0:0:
171,155,218535,1,8,0:0:0:0:
201,112,218612,1,8,0:0:0:0:
381,74,218765,6,0,L|490:66,1,95,4|0,1:2|3:0,0:0:0:0:
254,191,219073,1,8,0:0:0:0:
160,32,219227,1,0,1:0:0:0:
160,32,219304,1,0,1:0:0:0:
160,32,219381,5,0,1:0:0:0:
38,168,219535,1,0,3:0:0:0:
331,151,219689,2,0,P|343:197|324:242,1,95,8|0,0:0|3:0,0:0:0:0:
113,291,219996,5,0,1:0:0:0:
325,239,220150,1,2,0:0:0:0:
207,217,220304,1,8,0:0:0:0:
369,349,220458,1,2,0:0:0:0:
421,157,220612,2,0,B|376:139|376:139|330:150,1,95,0|0,1:0|0:0,0:0:0:0:
23,284,220919,2,0,B|68:302|68:302|113:290,1,95,8|0,0:0|0:0,0:0:0:0:
254,191,221227,6,0,L|245:82,1,95,4|0,3:0|0:0,0:0:0:0:
91,52,221535,1,8,0:0:0:0:
246,96,221689,1,0,1:0:0:0:
246,96,221765,1,0,1:0:0:0:
246,96,221842,5,4,3:0:0:0:
113,143,221996,1,2,0:0:0:0:
385,22,222150,1,8,0:0:0:0:
405,65,222227,1,0,3:0:0:0:
408,112,222304,1,2,0:0:0:0:
392,156,222381,1,0,1:0:0:0:
355,186,222458,6,0,P|341:240|359:299,1,95,4|0,1:2|0:0,0:0:0:0:
451,238,222765,1,8,0:0:0:0:
405,65,222919,1,0,3:0:0:0:
405,65,222996,1,0,3:0:0:0:
405,65,223073,1,0,1:0:0:0:
285,326,223227,1,0,3:0:0:0:
285,326,223304,1,0,3:0:0:0:
285,326,223381,1,0,1:0:0:0:
192,153,223535,1,0,3:0:0:0:
192,153,223612,1,0,3:0:0:0:
192,153,223689,6,0,P|140:145|90:163,1,95,4|0,1:2|0:0,0:0:0:0:
43,257,223996,1,8,0:0:0:0:
170,71,224150,1,0,3:0:0:0:
151,263,224304,2,0,L|144:360,1,95,0|2,1:0|0:0,0:0:0:0:
43,257,224612,1,8,0:0:0:0:
236,303,224765,6,0,B|301:292|301:292|352:318|352:318|425:303,2,190,0|0|4,3:0|3:0|3:2,3:0:0:0:
373,230,225535,1,8,0:0:0:0:
262,86,225689,2,0,P|208:89|154:43,1,95,0|0,1:0|0:0,0:0:0:0:
230,13,225996,6,0,L|240:205,1,190,4|0,1:2|0:0,0:0:0:0:
76,361,226458,2,0,P|80:265|142:253,1,142.5,4|0,1:2|0:0,0:0:0:0:
140,257,226765,1,8,0:0:0:0:
262,86,226919,2,0,B|247:118|247:118|368:100,1,142.5,0|0,1:0|0:0,0:0:0:0:
410,148,227227,6,0,P|430:99|402:52,1,95,4|0,1:2|0:0,0:0:0:0:
305,222,227535,1,0,3:0:0:0:
305,222,227612,1,0,3:0:0:0:
305,222,227689,6,0,P|289:265|309:307,1,95,8|0,0:0|0:0,0:0:0:0:
422,354,227996,2,0,L|501:342,1,56.9999982604981,4|0,1:2|0:0,0:0:0:0:
162,299,228150,1,0,1:0:0:0:
162,299,228227,1,0,1:0:0:0:
162,299,228304,6,0,L|87:295,1,56.9999982604981,0|0,1:0|0:0,0:0:0:0:
410,148,228458,2,0,L|485:144,1,56.9999982604981,4|0,1:2|0:0,0:0:0:0:
210,210,228612,6,0,L|201:106,1,95,4|0,1:2|0:0,0:0:0:0:
374,0,228919,2,0,B|396:43|396:43|384:100,1,95,8|0,0:0|0:0,0:0:0:0:
305,222,229227,5,0,1:0:0:0:
313,57,229381,1,2,0:0:0:0:
305,222,229535,1,8,0:0:0:0:
155,133,229689,1,2,0:0:0:0:
386,88,229842,5,0,1:0:0:0:
155,133,229996,1,2,0:0:0:0:
194,21,230150,1,8,0:0:0:0:
399,192,230304,1,2,0:0:0:0:
399,192,230381,1,0,1:0:0:0:
399,192,230458,5,0,1:0:0:0:
128,218,230612,1,2,0:0:0:0:
274,306,230765,1,8,0:0:0:0:
147,351,230919,1,2,0:0:0:0:
299,383,231073,6,0,L|493:370,1,190,0|8,1:0|0:0,0:0:0:0:
190,201,231535,2,0,B|98:227|98:227|9:167,1,190,0|0,1:0|0:0,0:0:0:0:
228,25,231996,2,0,P|257:76|251:116,1,95,8|0,0:0|0:0,0:0:0:0:
251,344,232304,6,0,P|249:297|276:258,1,95,0|0,1:0|0:0,0:0:0:0:
370,235,232612,5,4,1:2:0:0:
439,306,232765,1,2,3:2:0:0:
366,217,232919,5,0,1:0:0:0:
502,184,233073,1,2,3:2:0:0:
361,200,233227,5,0,1:2:0:0:
459,77,233381,1,2,3:2:0:0:
459,77,233458,1,0,1:0:0:0:
459,77,233535,6,0,L|450:-6,1,71.2500027179719,0|0,1:0|3:0,0:0:0:0:
250,273,233842,1,0,3:0:0:0:
53,77,233996,6,0,L|62:-6,1,71.2500027179719,4|0,1:2|3:0,0:0:0:0:
261,288,234304,1,0,3:0:0:0:
502,184,234458,6,0,L|493:101,1,71.2500027179719,4|0,1:2|3:0,0:0:0:0:
254,306,234765,1,0,3:0:0:0:
10,184,234919,6,0,L|19:101,1,71.2500027179719,4|0,1:2|3:0,0:0:0:0:
262,323,235227,1,0,3:0:0:0:
449,303,235381,6,0,L|440:220,1,71.2500027179719,4|0,1:2|0:0,0:0:0:0:
63,303,235689,2,0,L|72:220,1,71.2500027179719,0|0,1:0|1:0,0:0:0:0:
128,177,235919,1,0,1:0:0:0:
128,177,235996,6,0,B|177:156|221:178|221:178|270:203|320:175,1,190,0|8,1:0|0:0,0:0:0:0:
388,125,236458,2,0,P|400:82|375:32,1,95,0|0,1:0|0:0,0:0:0:0:
261,22,236765,5,4,3:0:0:0:
311,179,236919,1,4,3:0:0:0:
479,150,237073,1,4,3:0:0:0:
311,179,237535,6,0,L|155:187,1,142.5,2|0,0:0|0:0,0:0:0:0:
131,187,237842,1,0,1:0:0:0:
120,349,237996,1,8,0:0:0:0:
120,349,238073,1,8,0:0:0:0:
120,349,238150,1,0,1:0:0:0:
42,80,238304,5,4,1:2:0:0:
256,192,238381,12,0,240919,0:0:0:0:
256,192,240996,12,0,247073,0:0:0:0:
