osu file format v14

[General]
AudioFilename: audio.mp3
AudioLeadIn: 0
PreviewTime: 120649
Countdown: 0
SampleSet: Soft
StackLeniency: 0.7
Mode: 0
LetterboxInBreaks: 0
WidescreenStoryboard: 0

[Editor]
Bookmarks: 15886,31004,46122,59941,61240,76358,106594,121712,151948,167067,197303,204862,235098,250216,265334
DistanceSpacing: 1.6
BeatDivisor: 4
GridSize: 8
TimelineZoom: 1.9

[Metadata]
Title:Midnight Boogie
TitleUnicode:Midnight Boogie
Artist:FELT
ArtistUnicode:FELT
Creator:[Mad]
Version:Disco Fever
Source:東方輝針城 ~ Double Dealing Character.
Tags:東方project Vivienne Pure Heart ミストレイク comiket c95 Touhou english video game jazz mist lake cirno チルノ
BeatmapID:2408244
BeatmapSetID:1153893

[Difficulty]
HPDrainRate:5
CircleSize:3.8
OverallDifficulty:9.2
ApproachRate:9
SliderMultiplier:2
SliderTickRate:1

[Events]
//Background and Video events
0,0,"It's time to boogie.jpg",0,0
//Break Periods
//Storyboard Layer 0 (Background)
//Storyboard Layer 1 (Fail)
//Storyboard Layer 2 (Pass)
//Storyboard Layer 3 (Foreground)
//Storyboard Layer 4 (Overlay)
//Storyboard Sound Samples

[TimingPoints]
15886,472.44094488189,4,2,1,45,1,0
15886,-200,4,2,1,45,0,0
23445,-166.666666666667,4,2,1,45,0,0
28996,-333.333333333334,4,2,1,45,0,0
30059,-100,4,2,1,70,0,0
30295,-83.3333333333333,4,2,1,70,0,0
30531,-100,4,2,1,70,0,0
31004,-66.6666666666667,4,2,1,65,0,0
31476,-83.3333333333333,4,2,1,65,0,0
38563,-76.9230769230769,4,2,1,65,0,0
46122,-66.6666666666667,4,2,1,60,0,0
46476,-76.9230769230769,4,2,1,60,0,0
51319,-62.5,4,2,1,60,0,0
51673,-76.9230769230769,4,2,1,60,0,0
59823,-76.9230769230769,4,2,1,65,0,0
60767,-76.9230769230769,4,2,1,75,0,0
61240,-62.5,4,2,1,70,0,1
61358,-62.5,4,2,1,70,0,0
61712,-45.4545454545455,4,2,1,70,0,0
62421,-62.5,4,2,1,70,0,0
63366,-100,4,2,1,70,0,0
63602,-62.5,4,2,1,70,0,0
64074,-50,4,2,1,70,0,0
65492,-62.5,4,2,1,70,0,0
69271,-45.4545454545455,4,2,1,70,0,0
69980,-62.5,4,2,1,70,0,0
70925,-100,4,2,1,70,0,0
71161,-62.5,4,2,1,70,0,0
71633,-50,4,2,1,70,0,0
73051,-62.5,4,2,1,70,0,0
74586,-71.4285714285714,4,2,1,70,0,0
75059,-83.3333333333333,4,2,1,70,0,0
76004,-55.5555555555556,4,2,1,70,0,0
76476,-100,4,2,1,50,0,0
91476,-76.9230769230769,4,2,1,50,0,0
91830,-100,4,2,1,50,0,0
92893,-76.9230769230769,4,2,1,50,0,0
93366,-100,4,2,1,50,0,0
98563,-76.9230769230769,4,2,1,50,0,0
99035,-200,4,2,1,50,0,0
99389,-57.1428571428571,4,2,1,50,0,0
99744,-100,4,2,1,50,0,0
106122,-76.9230769230769,4,2,1,50,0,0
106594,-200,4,2,1,40,0,0
107775,-250,4,2,1,40,0,0
108484,-200,4,2,1,40,0,0
109665,-250,4,2,1,40,0,0
110374,-200,4,2,1,40,0,0
111555,-250,4,2,1,40,0,0
112263,-100,4,2,1,40,0,0
112736,-133.333333333333,4,2,1,40,0,0
113208,-80,4,2,1,40,0,0
113681,-66.6666666666667,4,2,1,40,0,0
114153,-200,4,2,1,40,0,0
115334,-250,4,2,1,40,0,0
116043,-200,4,2,1,40,0,0
117224,-250,4,2,1,40,0,0
117933,-333.333333333333,4,2,1,40,0,0
119350,-166.666666666667,4,2,1,40,0,0
119823,-83.3333333333333,4,2,1,60,0,0
120767,-71.4285714285714,4,2,1,65,0,0
121240,-50,4,2,1,65,0,0
121712,-40,4,2,1,80,0,1
122421,-66.6666666666667,4,2,1,80,0,1
124311,-40,4,2,1,80,0,1
125492,-100,4,2,1,80,0,1
125846,-66.6666666666667,4,2,1,80,0,1
128090,-50,4,2,1,80,0,1
128917,-66.6666666666667,4,2,1,80,0,1
129271,-50,4,2,1,80,0,1
129980,-66.6666666666667,4,2,1,80,0,1
131870,-50,4,2,1,80,0,1
133051,-100,4,2,1,80,0,1
134941,-100,4,2,1,80,0,1
135649,-50,4,2,1,80,0,1
135886,-40,4,2,1,80,0,1
136594,-40,4,2,1,80,0,0
136830,-33.3333333333333,4,2,1,80,0,1
137185,-66.6666666666667,4,2,1,80,0,1
137539,-66.6666666666667,4,2,1,80,0,1
138011,-40,4,2,1,80,0,1
138248,-28.5714285714286,4,2,1,80,0,1
138602,-40,4,2,1,80,0,1
138720,-66.6666666666667,4,2,1,80,0,1
140610,-50,4,2,1,80,0,1
142500,-66.6666666666667,4,2,1,80,0,1
143445,-50,4,2,1,80,0,1
143917,-66.6666666666667,4,2,1,80,0,1
144389,-40,4,2,1,80,0,1
144744,-66.6666666666667,4,2,1,80,0,1
146279,-100,4,2,1,80,0,1
147224,-80,4,2,1,80,0,1
147697,-66.6666666666667,4,2,1,80,0,1
148169,-52.6315789473684,4,2,1,80,0,1
148523,-66.6666666666667,4,2,1,80,0,1
148878,-50,4,2,1,80,0,1
149232,-66.6666666666667,4,2,1,80,0,1
149586,-47.6190476190476,4,2,1,80,0,1
149941,-66.6666666666667,4,2,1,80,0,1
150295,-57.1428571428571,4,2,1,80,0,1
151476,-71.4285714285714,4,2,1,80,0,1
151712,-83.3333333333333,4,2,1,80,0,0
151948,-62.5,4,2,1,70,0,1
152067,-62.5,4,2,1,70,0,0
152421,-45.4545454545455,4,2,1,70,0,0
153130,-62.5,4,2,1,70,0,0
154074,-100,4,2,1,70,0,0
154311,-62.5,4,2,1,70,0,0
154783,-50,4,2,1,70,0,0
156200,-62.5,4,2,1,70,0,0
159980,-45.4545454545455,4,2,1,70,0,0
160689,-62.5,4,2,1,70,0,0
161634,-100,4,2,1,70,0,0
161870,-62.5,4,2,1,70,0,0
162342,-50,4,2,1,70,0,0
163760,-62.5,4,2,1,70,0,0
165295,-71.4285714285714,4,2,1,70,0,0
165767,-83.3333333333333,4,2,1,70,0,0
166712,-55.5555555555556,4,2,1,70,0,0
167067,-142.857142857143,4,2,1,45,0,0
174626,-100,4,2,1,50,0,0
182185,-76.9230769230769,4,2,1,50,0,0
182539,-100,4,2,1,50,0,0
196830,-76.9230769230769,4,2,1,50,0,0
197539,-133.333333333333,4,2,1,40,0,0
202972,-83.3333333333333,4,2,1,60,0,0
203917,-71.4285714285714,4,2,1,65,0,0
204389,-41.6666666666667,4,2,1,70,0,0
204508,-50,4,2,1,70,0,0
204626,-62.5,4,2,1,70,0,0
204862,-40,4,2,1,80,0,1
205571,-66.6666666666667,4,2,1,80,0,1
207460,-40,4,2,1,80,0,1
208641,-100,4,2,1,80,0,1
208996,-66.6666666666667,4,2,1,80,0,1
211240,-50,4,2,1,80,0,1
212067,-66.6666666666667,4,2,1,80,0,1
212421,-50,4,2,1,80,0,1
213130,-66.6666666666667,4,2,1,80,0,1
215019,-50,4,2,1,80,0,1
216200,-100,4,2,1,80,0,1
218091,-100,4,2,1,80,0,1
218799,-50,4,2,1,80,0,1
219035,-40,4,2,1,80,0,1
219744,-40,4,2,1,80,0,0
219980,-33.3333333333333,4,2,1,80,0,1
220334,-66.6666666666667,4,2,1,80,0,1
220689,-66.6666666666667,4,2,1,80,0,1
221161,-40,4,2,1,80,0,1
221397,-28.5714285714286,4,2,1,80,0,1
221752,-40,4,2,1,80,0,1
221870,-66.6666666666667,4,2,1,80,0,1
223760,-50,4,2,1,80,0,1
225649,-66.6666666666667,4,2,1,80,0,1
226594,-50,4,2,1,80,0,1
227067,-66.6666666666667,4,2,1,80,0,1
227539,-40,4,2,1,80,0,1
227893,-66.6666666666667,4,2,1,80,0,1
229429,-100,4,2,1,80,0,1
230374,-80,4,2,1,80,0,1
230846,-66.6666666666667,4,2,1,80,0,1
231319,-52.6315789473684,4,2,1,80,0,1
231673,-66.6666666666667,4,2,1,80,0,1
232027,-50,4,2,1,80,0,1
232382,-66.6666666666667,4,2,1,80,0,1
232736,-47.6190476190476,4,2,1,80,0,1
233090,-66.6666666666667,4,2,1,80,0,1
233445,-57.1428571428571,4,2,1,80,0,1
234626,-71.4285714285714,4,2,1,80,0,1
234862,-83.3333333333333,4,2,1,80,0,0
235098,-62.5,4,2,1,70,0,1
235216,-62.5,4,2,1,70,0,0
235571,-45.4545454545455,4,2,1,70,0,0
236279,-62.5,4,2,1,70,0,0
237224,-100,4,2,1,70,0,0
237460,-62.5,4,2,1,70,0,0
237933,-50,4,2,1,70,0,0
239350,-62.5,4,2,1,70,0,0
243130,-45.4545454545455,4,2,1,70,0,0
243838,-62.5,4,2,1,70,0,0
244783,-100,4,2,1,70,0,0
245019,-62.5,4,2,1,70,0,0
245492,-50,4,2,1,70,0,0
246909,-62.5,4,2,1,70,0,0
248445,-83.3333333333333,4,2,1,70,0,0
248917,-100,4,2,1,70,0,0
249862,-55.5555555555556,4,2,1,70,0,0
250216,-133.333333333333,4,2,1,50,0,0
253760,-100,4,2,1,50,0,0
253996,-133.333333333333,4,2,1,50,0,0
264744,-100,4,2,1,50,0,0
267106,-333.333333333333,4,2,1,40,0,0
268523,-200,4,2,1,40,0,0
270886,-333.333333333333,4,2,1,40,0,0
272303,-200,4,2,1,40,0,0
272893,-333.333333333333,4,2,1,35,0,0

[Colours]
Combo1 : 0,213,213
Combo2 : 128,128,255
Combo3 : 128,255,255
Combo4 : 128,0,255

[HitObjects]
108,79,15886,6,0,L|166:100,1,50,2|0,0:0|0:0,0:0:0:0:
74,120,16358,2,0,L|134:109,1,50,2|0,0:0|0:0,0:0:0:0:
65,172,16830,2,0,L|112:132,1,50,2|0,0:0|0:0,0:0:0:0:
83,221,17303,2,0,L|102:164,1,50,2|0,0:0|0:0,0:0:0:0:
193,231,17657,2,0,L|153:224,1,25,2|0,0:0|0:0,0:0:0:0:
0,299,17893,1,0,0:0:0:0:
22,311,18011,2,0,L|77:301,1,50,2|0,0:0|0:0,0:0:0:0:
63,320,18720,5,0,0:0:0:0:
151,300,18838,1,2,0:0:0:0:
56,336,19074,1,0,0:0:0:0:
156,279,19311,1,0,0:0:0:0:
230,317,19429,2,0,L|235:350,1,25,2|0,0:0|0:0,0:0:0:0:
209,200,19665,6,0,L|220:133,1,50,2|0,0:0|0:0,0:0:0:0:
247,224,20137,2,0,L|235:157,1,50,2|0,0:0|0:0,0:0:0:0:
290,233,20610,2,0,L|256:174,1,50,2|0,0:0|0:0,0:0:0:0:
334,226,21082,2,0,L|281:182,1,50,2|0,0:0|0:0,0:0:0:0:
297,87,21437,2,0,L|291:115,1,25,2|0,0:0|0:0,0:0:0:0:
145,97,21673,1,0,0:0:0:0:
161,82,21791,2,0,L|210:90,2,50,2|0|0,0:0|0:0|0:0,0:0:0:0:
148,64,22499,5,0,0:0:0:0:
216,12,22618,1,2,0:0:0:0:
108,40,22854,2,0,L|133:45,1,25,2|0,0:0|0:0,0:0:0:0:
240,20,23090,1,0,0:0:0:0:
311,58,23208,2,0,L|306:82,1,25,2|0,0:0|0:0,0:0:0:0:
266,232,23445,6,0,L|255:291,1,59.9999981689454,2|0,0:0|0:0,0:0:0:0:
342,162,23917,2,0,L|353:221,1,59.9999981689454,2|0,0:0|0:0,0:0:0:0:
269,92,24389,2,0,L|258:151,1,59.9999981689454,2|0,0:0|0:0,0:0:0:0:
337,22,24862,2,0,L|348:81,1,59.9999981689454,2|0,0:0|0:0,0:0:0:0:
475,151,25216,2,0,L|468:187,1,29.9999990844727,2|0,0:0|0:0,0:0:0:0:
377,332,25452,1,0,0:0:0:0:
397,295,25571,2,0,L|338:306,2,59.9999981689454,2|0|0,0:0|0:0|0:0,0:0:0:0:
466,338,26279,5,0,0:0:0:0:
387,280,26397,1,2,0:0:0:0:
489,330,26634,1,0,0:0:0:0:
375,290,26870,1,0,0:0:0:0:
294,339,26988,2,0,L|345:358,1,29.9999990844727,2|0,0:0|0:0,0:0:0:0:
393,186,27224,6,0,L|318:218,1,59.9999981689454,2|0,0:0|0:0,0:0:0:0:
328,70,27697,2,0,L|318:150,1,59.9999981689454,2|0,0:0|0:0,0:0:0:0:
196,64,28169,2,0,L|261:112,1,59.9999981689454,2|0,0:0|0:0,0:0:0:0:
121,169,28642,2,0,L|196:136,1,59.9999981689454,2|0,0:0|0:0,0:0:0:0:
185,272,28996,6,0,L|144:252,1,44.999998626709,2|0,0:0|0:0,0:0:0:0:
133,263,29468,2,0,L|110:268,1,14.9999995422363
51,224,29823,1,0,0:0:0:0:
365,53,30059,6,0,L|368:68,1,12.5,8|0,0:0|0:0,0:0:0:0:
393,178,30177,1,8,0:0:0:0:
356,46,30295,6,0,B|346:38|364:12|392:56|376:113,1,89.9999972534181,2|0,3:2|0:0,0:0:0:0:
449,243,30531,2,0,B|412:248|386:213|384:210|382:207|360:176|308:185,1,150,10|0,0:0|0:0,0:0:0:0:
136,329,31004,6,0,B|176:332|206:304|206:304|241:328|278:317,1,150.000005722046,4|0,3:2|0:0,0:0:0:0:
490,213,31358,1,0,0:0:0:0:
512,195,31476,2,0,P|473:167|398:180,1,119.999996337891,8|0,0:0|0:0,0:0:0:0:
292,311,31830,2,0,P|262:310|227:301,1,59.9999981689454,0|0,0:0|3:2,0:0:0:0:
153,281,32067,1,0,0:0:0:0:
87,228,32185,2,0,P|117:237|153:257,1,59.9999981689454,0|0,0:0|0:0,0:0:0:0:
367,354,32421,1,8,0:0:0:0:
380,365,32539,1,0,0:0:0:0:
397,363,32657,1,0,0:0:0:0:
461,308,32775,6,0,L|388:360,1,59.9999981689454,2|0,0:0|3:2,0:0:0:0:
402,217,33011,1,2,0:0:0:0:
424,206,33130,2,0,L|373:279,1,59.9999981689454,2|0,0:0|0:0,0:0:0:0:
263,207,33366,2,0,P|301:191|361:184,2,59.9999981689454,8|0|0,0:0|0:0|0:0,0:0:0:0:
406,127,33720,2,0,P|377:118|350:105,1,59.9999981689454,0|0,0:0|3:2,0:0:0:0:
148,13,33956,6,0,L|83:32,1,59.9999981689454,2|0,0:0|0:0,0:0:0:0:
248,125,34193,2,0,L|183:106,1,59.9999981689454,2|8,0:0|0:0,0:0:0:0:
309,281,34429,2,0,L|254:240,1,59.9999981689454,2|0,0:0|0:0,0:0:0:0:
131,331,34665,1,2,0:0:0:0:
316,301,34783,6,0,P|365:250|433:249,1,119.999996337891,0|0,3:2|0:0,0:0:0:0:
184,202,35137,1,0,0:0:0:0:
155,205,35256,2,0,P|125:218|85:244,2,59.9999981689454,8|0|0,0:0|0:0|0:0,0:0:0:0:
288,111,35610,2,0,P|309:127|371:143,1,59.9999981689454,0|0,0:0|3:2,0:0:0:0:
422,144,35846,1,0,0:0:0:0:
507,149,35964,2,0,P|482:131|455:120,1,59.9999981689454,0|0,0:0|0:0,0:0:0:0:
267,192,36200,1,8,0:0:0:0:
250,200,36319,1,0,0:0:0:0:
229,203,36437,1,0,0:0:0:0:
141,118,36555,6,0,L|210:130,1,59.9999981689454,2|0,0:0|3:2,0:0:0:0:
197,11,36791,1,2,0:0:0:0:
175,0,36909,2,0,L|220:53,1,59.9999981689454,2|0,0:0|0:0,0:0:0:0:
378,44,37145,2,0,P|347:30|310:25,2,59.9999981689454,8|0|0,0:0|0:0|0:0,0:0:0:0:
291,157,37500,2,0,P|308:125|337:99,1,59.9999981689454,0|0,0:0|3:2,0:0:0:0:
471,26,37736,6,0,L|449:101,1,59.9999981689454,2|0,0:0|0:0,0:0:0:0:
282,32,37972,2,0,L|225:85,1,59.9999981689454,2|8,0:0|0:0,0:0:0:0:
461,179,38208,2,0,L|479:254,1,59.9999981689454,2|0,0:0|0:0,0:0:0:0:
282,294,38445,1,2,0:0:0:0:
120,192,38563,6,0,B|154:182|180:203|183:205|188:208|211:227|245:221,1,129.999994049073,4|0,3:2|0:0,0:0:0:0:
441,348,38917,1,0,0:0:0:0:
435,326,39035,2,0,P|407:306|361:292,2,64.9999970245363,8|0|0,0:0|0:0|0:0,0:0:0:0:
233,210,39389,2,0,P|210:226|179:263,1,64.9999970245363,0|0,0:0|3:2,0:0:0:0:
126,309,39626,1,0,0:0:0:0:
51,340,39744,2,0,P|74:324|105:287,1,64.9999970245363,0|0,0:0|0:0,0:0:0:0:
172,138,39980,1,8,0:0:0:0:
167,116,40098,1,0,0:0:0:0:
158,100,40216,1,0,0:0:0:0:
23,46,40334,6,0,L|42:119,1,64.9999970245363,2|0,0:0|3:2,0:0:0:0:
275,11,40571,1,2,0:0:0:0:
256,0,40689,2,0,L|239:62,1,64.9999970245363,2|0,0:0|0:0,0:0:0:0:
0,32,40925,2,0,P|32:49|61:84,2,64.9999970245363,8|0|0,0:0|0:0|0:0,0:0:0:0:
116,137,41279,2,0,P|151:129|193:103,1,64.9999970245363,0|0,0:0|3:2,0:0:0:0:
275,11,41515,6,0,L|251:100,1,64.9999970245363,2|0,0:0|0:0,0:0:0:0:
279,231,41752,1,2,0:0:0:0:
259,154,41870,2,0,L|280:242,1,64.9999970245363,10|2,0:0|0:0,0:0:0:0:
246,306,42106,1,2,0:0:0:0:
210,373,42224,1,2,0:0:0:0:
330,305,42342,6,0,P|381:261|448:234,1,129.999994049073,0|0,3:2|0:0,0:0:0:0:
126,376,42697,1,0,0:0:0:0:
107,358,42815,2,0,P|92:330|87:285,2,64.9999970245363,8|0|0,0:0|0:0|0:0,0:0:0:0:
140,229,43169,2,0,P|150:201|146:123,1,64.9999970245363,0|0,0:0|3:2,0:0:0:0:
161,88,43405,1,0,0:0:0:0:
115,23,43523,2,0,P|118:55|128:85,1,64.9999970245363,0|0,0:0|0:0,0:0:0:0:
261,195,43760,1,8,0:0:0:0:
279,205,43878,1,0,0:0:0:0:
278,184,43996,1,0,0:0:0:0:
133,167,44114,6,0,L|42:203,1,64.9999970245363,2|0,0:0|3:2,0:0:0:0:
290,222,44350,1,2,0:0:0:0:
309,211,44468,2,0,L|218:175,1,64.9999970245363,2|0,0:0|0:0,0:0:0:0:
25,275,44704,2,0,P|59:285|110:276,2,64.9999970245363,8|0|0,0:0|0:0|0:0,0:0:0:0:
177,250,45059,2,0,P|216:262|253:293,1,64.9999970245363,0|0,0:0|3:2,0:0:0:0:
413,342,45295,6,0,L|299:371,1,64.9999970245363,2|0,0:0|3:3,0:0:0:0:
426,180,45531,2,0,L|357:275,1,64.9999970245363,2|8,0:0|3:3,0:0:0:0:
288,74,45767,1,2,3:2:0:0:
301,117,45885,1,2,3:2:0:0:
207,15,46004,1,2,3:2:0:0:
293,160,46122,6,0,B|252:176|221:146|218:142|213:138|190:114|155:120,1,150.000005722046,4|0,0:0|0:0,0:0:0:0:
89,172,46476,2,0,P|115:154|156:140,1,64.9999970245363,2|0,0:0|3:0,0:0:0:0:
305,180,46712,2,0,P|278:198|247:209,1,64.9999970245363,2|0,0:0|0:0,0:0:0:0:
326,178,46948,2,0,L|437:215,1,64.9999970245363,2|0,0:0|3:2,0:0:0:0:
235,220,47185,1,2,0:0:0:0:
321,201,47303,2,0,B|407:172|407:172|429:178|459:198,1,129.999994049073,2|0,0:0|3:2,0:0:0:0:
372,141,47657,1,2,0:0:0:0:
333,65,47775,1,2,0:0:0:0:
348,43,47893,1,2,0:0:0:0:
327,10,48011,1,0,3:2:0:0:
423,76,48130,2,0,L|480:88,1,32.4999985122681,2|0,0:0|0:0,0:0:0:0:
310,11,48366,2,0,L|239:24,1,64.9999970245363,2|0,0:0|3:2,0:0:0:0:
200,146,48602,2,0,B|179:121|169:89|169:89|200:104|231:109,1,129.999994049073,2|2,0:0|0:0,0:0:0:0:
314,88,48956,1,2,3:2:0:0:
149,71,49074,2,0,P|121:74|77:92,2,64.9999970245363,2|2|2,0:0|0:0|0:0,0:0:0:0:
300,103,49429,1,0,3:2:0:0:
288,180,49547,1,2,0:0:0:0:
271,192,49665,1,0,0:0:0:0:
232,56,49783,1,0,0:0:0:0:
140,157,49901,2,0,P|111:204|76:289,1,129.999994049073,2|0,3:2|0:0,0:0:0:0:
159,165,50256,2,0,P|147:134|144:102,1,64.9999970245363,2|0,0:0|3:2,0:0:0:0:
169,288,50610,2,0,P|180:310|193:340,1,32.4999985122681,2|0,0:0|0:0,0:0:0:0:
179,126,50846,2,0,P|186:111|193:96,1,32.4999985122681,2|0,3:2|0:0,0:0:0:0:
170,270,51082,1,2,0:0:0:0:
323,176,51319,2,0,B|321:148|308:131|308:131|307:120|311:108|311:108|307:96|295:83|295:83|293:71|301:57|301:57|295:44|285:39|285:39|288:25|283:13,1,160,2|0,3:2|0:0,0:0:0:0:
364,119,51673,2,0,P|357:150|343:179,1,64.9999970245363,2|0,0:0|3:2,0:0:0:0:
74,161,51909,1,2,0:0:0:0:
55,180,52027,1,2,0:0:0:0:
97,182,52145,1,2,0:0:0:0:
186,68,52263,2,0,B|202:24|160:16|103:126|20:65,1,194.999991073609,2|0,3:2|0:0,0:0:0:0:
169,138,52736,1,2,3:2:0:0:
186,154,52854,1,2,0:0:0:0:
203,230,52972,2,0,B|191:245|196:272|196:272|189:233|158:187,1,129.999994049073,2|2,0:0|3:2,0:0:0:0:
0,66,53326,1,2,0:0:0:0:
15,49,53445,1,2,0:0:0:0:
48,145,53563,1,2,0:0:0:0:
0,25,53681,2,0,P|29:29|70:38,1,43.3333313496908,6|0,3:2|0:0,0:0:0:0:
119,74,53838,2,0,P|144:84|176:88,1,43.3333313496908,2|0,0:0|0:0,0:0:0:0:
231,139,53996,1,2,0:0:0:0:
362,122,54153,2,0,P|336:126|286:138,1,43.3333313496908,2|0,3:2|0:0,0:0:0:0:
253,171,54311,2,0,P|231:179|177:187,1,43.3333313496908,2|0,0:0|0:0,0:0:0:0:
156,238,54468,1,2,0:0:0:0:
76,219,54626,2,0,P|104:222|136:229,1,43.3333313496908,2|0,3:2|0:0,0:0:0:0:
190,257,54783,2,0,P|215:266|244:270,1,43.3333313496908,2|0,0:0|0:0,0:0:0:0:
296,309,54941,1,2,0:0:0:0:
375,284,55098,2,0,P|336:293|322:296,1,32.4999985122681,2|0,3:2|0:0,0:0:0:0:
224,363,55216,1,2,0:0:0:0:
209,366,55334,2,0,L|178:383,1,32.4999985122681,2|2,0:0|0:0,0:0:0:0:
162,335,55452,2,0,P|204:343|244:375,1,64.9999970245363,2|0,0:0|3:2,0:0:0:0:
423,213,55689,2,0,P|375:193|338:182,1,64.9999970245363,2|0,0:0|0:0,0:0:0:0:
436,233,55925,2,0,P|464:248|496:254,1,64.9999970245363,2|0,0:0|3:2,0:0:0:0:
347,175,56161,1,2,0:0:0:0:
267,179,56279,2,0,P|232:194|173:233,2,64.9999970245363,2|2|0,0:0|0:0|3:2,0:0:0:0:
479,65,56752,1,2,0:0:0:0:
437,130,56870,2,0,P|403:146|349:158,1,64.9999970245363,2|0,0:0|3:2,0:0:0:0:
269,73,57106,1,2,0:0:0:0:
256,57,57224,1,2,0:0:0:0:
355,145,57342,1,2,0:0:0:0:
259,102,57460,2,0,P|222:56|155:32,1,129.999994049073,2|0,3:2|0:0,0:0:0:0:
72,39,57815,2,0,P|109:29|169:30,1,64.9999970245363,2|0,0:0|3:2,0:0:0:0:
411,24,58169,2,0,P|450:20|472:10,1,32.4999985122681,2|0,0:0|0:0,0:0:0:0:
180,50,58405,2,0,P|149:39|130:39,1,32.4999985122681,2|0,3:2|0:0,0:0:0:0:
408,47,58641,2,0,P|423:43|438:36,1,32.4999985122681,2|0,0:0|0:0,0:0:0:0:
208,91,58878,1,2,3:2:0:0:
208,91,59114,2,0,P|268:105|335:159,1,129.999994049073,2|0,0:0|3:2,0:0:0:0:
274,251,59468,2,0,P|307:232|360:227,1,64.9999970245363,2|0,0:0|0:0,0:0:0:0:
415,226,59704,1,2,0:0:0:0:
221,311,59823,1,2,3:2:0:0:
202,323,59941,2,0,P|170:315|142:298,1,64.9999970245363,2|0,0:0|0:0,0:0:0:0:
429,237,60177,2,0,P|460:244|488:261,1,64.9999970245363,2|0,0:0|3:2,0:0:0:0:
124,294,60413,1,2,0:0:0:0:
6,376,60531,2,0,B|43:362|43:362|70:339,1,64.9999970245363,2|0,0:2|0:2,0:0:0:0:
335,136,60767,5,0,3:2:0:0:
216,225,60886,1,0,3:2:0:0:
98,157,61004,1,0,3:2:0:0:
11,191,61123,1,0,3:2:0:0:
172,51,61240,6,0,P|219:29|273:26,1,80,4|0,3:2|0:0,0:0:0:0:
335,53,61476,1,0,0:0:0:0:
36,52,61712,6,2,B|111:71|165:17|170:13|175:7|226:-27|307:54,1,220.000006713867,10|0,0:1|0:0,0:1:0:0:
470,164,62067,2,2,P|424:164|360:113,1,110.000003356934,2|0,0:1|3:2,0:1:0:0:
317,67,62303,5,0,0:0:0:0:
182,106,62421,2,0,P|227:113|261:128,2,80,0|0|8,0:0|0:0|0:0,0:0:0:0:
291,221,62775,1,0,0:0:0:0:
309,230,62893,1,0,0:0:0:0:
398,196,63011,2,0,P|358:201|321:216,1,80,0|0,0:0|3:2,0:0:0:0:
247,288,63248,1,0,0:0:0:0:
243,280,63366,2,0,P|214:274|185:271,1,50,0|0,0:0|0:0,0:0:0:0:
492,286,63602,2,0,P|419:253|313:227,1,160,8|0,0:0|0:0,0:0:0:0:
178,285,63956,1,0,0:0:0:0:
76,128,64074,6,0,P|114:163|130:190,1,50,2|0,3:1|0:0,0:0:0:0:
106,184,64193,2,0,P|104:208|73:289,1,100,2|0,0:1|0:0,0:0:0:0:
188,118,64429,2,0,P|189:93|221:13,1,100,2|8,0:1|0:0,0:0:0:0:
169,318,64665,2,2,B|151:352|204:381|230:323|227:243|163:171,1,200,2|0,0:1|0:0,0:1:0:0:
63,24,65019,2,0,P|85:36|122:44,1,50,2|0,3:1|0:0,0:0:0:0:
206,47,65137,2,0,B|227:42|249:21|249:21|159:32|124:111,1,200,2|0,0:1|0:0,0:0:0:0:
384,43,65492,6,0,P|432:46|492:70,2,80,8|0|0,0:0|0:0|0:0,0:0:0:0:
308,88,65846,1,0,0:0:0:0:
234,139,65964,2,0,P|273:130|343:72,1,80,0|0,3:2|0:0,0:0:0:0:
454,140,66200,2,0,P|414:148|345:207,1,80,0|0,0:0|0:0,0:0:0:0:
167,256,66437,2,0,P|238:225|357:246,1,160,8|0,0:0|0:0,0:0:0:0:
174,224,66791,2,0,P|136:218|100:192,1,80,0|0,0:0|3:2,0:0:0:0:
145,102,67027,2,0,P|184:107|218:133,2,80,0|0|0,0:0|0:0|0:0,0:0:0:0:
223,149,67382,5,10,0:0:0:0:
139,298,67500,2,0,B|130:315|115:334|115:334|168:302|241:294,1,160,2|0,0:0|0:0,0:0:0:0:
440,204,67854,5,0,3:3:0:0:
324,270,67972,1,0,3:2:0:0:
346,267,68090,1,0,0:0:0:0:
390,288,68208,1,2,3:2:0:0:
233,324,68326,1,10,0:0:0:0:
197,241,68445,1,2,0:0:0:0:
224,129,68563,1,2,0:0:0:0:
163,22,68681,1,2,0:0:0:0:
235,140,68799,6,0,P|272:162|335:171,1,80,0|0,3:2|0:0,0:0:0:0:
448,85,69035,2,0,P|409:95|375:115,1,80,0|0,0:0|0:0,0:0:0:0:
124,187,69271,6,2,B|110:204|80:203|80:203|123:122|230:129,1,220.000006713867,10|0,0:1|0:1,0:1:0:0:
404,317,69626,2,0,P|346:292|312:234,1,110.000003356934,2|0,0:1|3:1,0:1:0:0:
308,170,69862,5,0,0:0:0:0:
413,332,69980,2,0,P|453:344|501:373,2,80,0|0|8,0:0|0:0|0:0,0:0:0:0:
318,312,70334,1,0,0:0:0:0:
306,320,70452,1,0,0:0:0:0:
229,366,70571,2,0,P|269:354|317:325,1,80,0|0,0:0|3:2,0:0:0:0:
349,236,70807,1,0,0:0:0:0:
340,230,70925,2,0,P|312:230|282:236,1,50,0|0,0:0|0:0,0:0:0:0:
505,157,71161,2,0,P|428:133|349:123,1,160,8|0,0:0|0:0,0:0:0:0:
212,178,71515,1,0,0:0:0:0:
73,294,71634,6,0,P|81:260|81:209,1,50,2|0,3:1|0:0,0:0:0:0:
94,231,71752,2,0,P|81:180|39:99,1,100,2|0,0:1|0:0,0:0:0:0:
168,290,71988,2,0,P|148:335|136:384,1,100,2|8,0:1|0:0,0:0:0:0:
109,72,72224,2,2,B|99:40|80:26|80:26|59:109|119:167,1,200,2|0,0:1|0:0,0:1:0:0:
291,319,72578,2,0,P|272:301|239:280,1,50,2|0,3:1|0:0,0:0:0:0:
200,213,72697,2,0,B|150:222|128:269|126:277|124:283|101:331|42:329,1,200,2|0,0:1|0:0,0:0:0:0:
217,194,73051,6,0,P|260:198|300:211,2,80,8|0|0,0:0|0:0|0:0,0:0:0:0:
174,95,73405,2,0,P|198:104|226:107,1,40,2|0,0:0|0:0,0:0:0:0:
232,113,73523,2,0,P|271:94|312:86,1,80,2|0,3:2|0:0,0:0:0:0:
442,269,73760,2,0,P|400:259|366:226,1,80,0|0,0:0|0:0,0:0:0:0:
391,109,73996,1,8,0:0:0:0:
394,82,74114,2,0,P|380:43|346:8,2,80,0|0|0,0:0|0:0|0:0,0:0:0:0:
323,310,74468,5,2,3:2:0:0:
216,349,74586,2,0,B|170:346|125:312|125:312|148:274|195:256,1,139.999995727539,2|0,0:0|0:0,0:0:0:0:
224,179,74941,5,10,0:0:0:0:
49,171,75059,2,0,B|65:209|101:216|101:216|133:198|160:203,1,119.999996337891,2|0,0:0|0:0,0:0:0:0:
276,54,75413,6,0,P|246:64|204:87,1,59.9999981689454,2|0,3:2|0:0,0:0:0:0:
154,125,75649,1,2,0:0:0:0:
337,172,75767,5,8,3:2:0:0:
344,168,75826,1,8,0:2:0:0:
350,164,75886,2,0,P|357:143|360:123,1,29.9999990844727,8|0,0:2|0:2,0:2:0:0:
290,236,76004,2,0,B|313:231|333:230|333:230|352:217|366:182,2,89.9999972534181,0|2|0,0:2|0:2|0:2,0:2:0:0:
48,41,76358,1,4,3:2:0:0:
48,41,76594,6,0,P|98:46|147:82,1,100,0|8,0:0|0:0,0:0:0:0:
166,158,76948,1,0,0:0:0:0:
172,169,77067,2,0,P|196:181|250:192,1,50,0|0,0:0|0:0,0:0:0:0:
159,182,77303,2,0,P|121:184|71:220,1,100,2|0,3:2|0:0,0:0:0:0:
231,106,77657,2,0,P|256:83|286:67,1,50,2|8,0:0|0:0,0:0:0:0:
418,32,78011,2,0,P|448:28|480:9,1,50
493,104,78248,6,0,P|453:79|392:53,1,100,2|0,3:2|0:0,0:0:0:0:
315,142,78602,2,0,P|350:136|396:112,1,50,2|8,0:0|0:0,0:0:0:0:
512,217,78838,1,2,0:0:0:0:
488,204,78956,1,2,0:0:0:0:
463,205,79074,1,2,0:0:0:0:
408,263,79193,2,0,P|382:270|349:271,1,50,2|0,3:2|0:0,0:0:0:0:
276,290,79429,2,0,P|258:321|252:349,2,50,0|0|8,0:0|0:0|0:0,0:0:0:0:
375,190,79901,2,0,P|382:164|383:129,1,50
168,254,80137,6,0,P|123:251|66:221,2,100,2|0|10,3:2|0:0|0:0,0:0:0:0:
217,181,80728,2,0,P|272:150|315:138,1,100,2|0,0:0|0:0,0:0:0:0:
429,326,81082,1,2,3:2:0:0:
410,338,81200,2,0,P|382:343|345:355,1,50,2|0,0:0|0:0,0:0:0:0:
253,268,81437,2,0,P|277:274|301:278,1,50,2|8,0:0|0:0,0:0:0:0:
401,226,81673,2,0,P|423:218|463:213,1,50,2|0,0:0|0:0,0:0:0:0:
249,304,82027,6,0,P|200:316|142:343,1,100,2|0,3:2|0:0,0:0:0:0:
274,294,82382,2,0,P|281:260|264:215,1,50,2|8,0:0|0:0,0:0:0:0:
180,141,82618,1,2,0:0:0:0:
185,160,82736,1,2,0:0:0:0:
194,176,82854,1,2,0:0:0:0:
189,253,82972,2,0,P|163:219|139:200,1,50,2|0,3:2|0:0,0:0:0:0:
94,151,83208,2,0,P|51:156|-2:133,1,100,2|8,0:0|0:0,0:0:0:0:
109,131,83563,2,0,P|134:118|189:113,1,50,2|0,0:0|0:0,0:0:0:0:
0,349,83917,1,4,3:2:0:0:
0,349,84153,6,0,P|11:293|56:249,1,100,2|8,0:0|0:0,0:0:0:0:
143,273,84508,1,0,0:0:0:0:
152,260,84626,2,0,P|144:236|132:214,1,50,2|0,0:0|0:0,0:0:0:0:
12,146,84862,2,0,P|32:169|60:189,1,50,2|0,3:2|0:0,0:0:0:0:
184,80,85098,2,0,B|148:79|126:88|126:88|115:121|118:137,1,100,2|8,0:0|0:0,0:0:0:0:
301,84,85571,2,0,P|314:57|322:11,1,50
405,66,85807,6,0,P|356:77|314:103,1,100,2|0,3:2|0:0,0:0:0:0:
222,192,86161,2,0,P|197:196|150:191,1,50,2|8,0:0|0:0,0:0:0:0:
327,119,86397,1,2,0:0:0:0:
339,134,86515,1,2,0:0:0:0:
345,150,86634,1,2,0:0:0:0:
320,228,86752,2,0,P|331:261|351:285,2,50,2|0|0,3:2|0:0|0:0,0:0:0:0:
315,92,87106,2,0,P|304:69|280:44,1,50,0|8,0:0|0:0,0:0:0:0:
403,225,87460,1,0,0:0:0:0:
274,47,87697,6,0,B|249:49|227:62|227:62|198:60|178:72,2,100,2|0|8,3:2|0:0|0:0,0:0:0:0:
113,199,88405,2,0,P|86:208|49:218,1,50,0|0,0:0|0:0,0:0:0:0:
101,112,88641,2,0,P|126:115|163:125,1,50,2|2,3:2|0:0,0:0:0:0:
269,186,88878,1,0,0:0:0:0:
256,196,88996,2,0,P|230:191|200:169,1,50,2|8,0:0|0:0,0:0:0:0:
114,131,89232,2,0,P|94:146|76:163,1,50,0|0,0:0|0:0,0:0:0:0:
203,328,89586,6,0,P|178:324|136:301,1,50,2|0,3:2|0:0,0:0:0:0:
221,315,89823,2,0,P|269:280|317:265,1,100,2|8,0:0|0:0,0:0:0:0:
384,309,90177,1,2,0:0:0:0:
396,320,90295,2,0,P|429:312|455:291,1,50,2|0,0:0|0:0,0:0:0:0:
454,132,90531,6,0,P|427:127|390:112,1,50,0|0,3:2|0:0,0:0:0:0:
325,229,90767,2,0,P|301:238|281:252,1,50,2|2,0:0|0:0,0:0:0:0:
232,83,91004,2,0,P|208:67|182:36,1,50,10|2,0:0|0:0,0:0:0:0:
144,281,91240,1,2,0:0:0:0:
78,351,91358,1,2,0:0:0:0:
82,172,91476,6,0,B|119:165|139:183|143:187|147:190|170:212|211:201,1,129.999994049073,4|0,3:2|0:0,0:0:0:0:
68,148,91830,2,0,P|49:164|34:184,1,50,2|10,0:0|0:0,0:0:0:0:
221,212,92067,2,0,P|216:187|208:164,1,50,2|2,0:0|0:0,0:0:0:0:
103,32,92303,1,0,0:0:0:0:
29,61,92421,1,2,3:2:0:0:
14,82,92539,2,0,P|34:95|58:104,1,50,2|0,0:0|0:0,0:0:0:0:
164,94,92775,1,2,0:0:0:0:
208,27,92893,2,0,P|236:16|271:11,1,64.9999970245363,8|0,0:0|0:0,0:0:0:0:
387,87,93130,1,0,0:0:0:0:
322,175,93366,6,0,P|336:125|401:86,1,100,2|0,3:2|0:0,0:0:0:0:
340,192,93720,2,0,P|341:223|333:255,1,50,2|8,0:0|0:0,0:0:0:0:
208,320,93956,1,2,0:0:0:0:
219,302,94074,1,2,0:0:0:0:
234,290,94193,1,2,0:0:0:0:
309,336,94311,1,2,3:2:0:0:
361,315,94429,1,0,0:0:0:0:
427,352,94547,1,2,0:0:0:0:
494,309,94665,1,0,0:0:0:0:
498,287,94783,1,10,0:0:0:0:
431,330,94901,1,0,0:0:0:0:
364,291,95019,2,0,P|324:289|276:307,1,50,2|0,0:0|0:0,0:0:0:0:
453,193,95256,6,0,P|408:171|331:161,2,100,2|0|10,3:2|0:0|0:0,0:0:0:0:
293,163,95846,2,0,P|317:156|339:145,2,50,2|0|0,0:0|0:0|0:0,0:0:0:0:
186,105,96200,1,2,3:2:0:0:
195,122,96319,2,0,P|199:145|201:180,1,50,2|0,0:0|0:0,0:0:0:0:
250,281,96555,2,0,P|251:256|255:231,1,50,2|8,0:0|0:0,0:0:0:0:
258,72,96791,2,0,P|220:107|189:121,1,50
270,53,97145,6,0,P|326:27|353:25,1,50,0|0,3:2|0:0,0:0:0:0:
124,54,97382,1,2,0:0:0:0:
115,39,97500,2,0,P|91:26|60:25,1,50,0|8,0:0|0:0,0:0:0:0:
101,194,97736,1,2,0:0:0:0:
99,173,97854,1,0,0:0:0:0:
90,149,97972,1,0,0:0:0:0:
5,100,98090,1,2,3:2:0:0:
14,117,98208,2,0,P|38:118|101:100,1,50,0|0,0:0|0:0,0:0:0:0:
224,45,98445,1,2,0:0:0:0:
319,40,98563,2,0,L|395:63,2,64.9999970245363,8|0|0,0:2|0:0|0:0,0:0:0:0:
427,0,99035,6,0,L|471:21,1,50,0|0,3:2|0:0,0:0:0:0:
487,23,99389,2,0,B|457:18|457:18|426:25|396:41,1,87.500000834465,0|14,0:0|0:0,0:0:0:0:
496,306,99626,1,2,0:0:0:0:
474,315,99744,2,0,P|443:306|411:299,1,50,2|2,0:0|0:0,0:0:0:0:
303,252,99980,1,2,3:2:0:0:
235,288,100098,2,0,P|264:287|300:269,1,50,2|0,0:0|0:0,0:0:0:0:
436,276,100334,2,0,P|406:277|373:292,1,50,2|8,0:0|0:0,0:0:0:0:
252,369,100689,1,0,0:0:0:0:
89,356,100925,6,0,P|71:310|59:262,1,100,2|0,3:2|0:0,0:0:0:0:
109,99,101279,2,0,P|93:79|73:64,1,50,2|8,0:0|0:0,0:0:0:0:
116,188,101515,1,2,0:0:0:0:
132,200,101634,1,2,0:0:0:0:
150,208,101752,1,2,0:0:0:0:
233,223,101870,2,0,P|258:234|288:260,2,50,2|0|0,3:2|0:0|0:0,0:0:0:0:
96,184,102224,2,0,P|71:177|48:167,1,50,0|8,0:0|0:0,0:0:0:0:
270,73,102578,1,0,0:0:0:0:
190,247,102815,6,0,B|210:241|226:214|226:214|252:197|287:201,1,100,2|0,3:2|0:0,0:0:0:0:
181,261,103169,2,0,P|148:261|126:269,1,50,2|8,0:0|0:0,0:0:0:0:
285,337,103405,1,0,0:0:0:0:
302,330,103523,2,0,P|322:311|338:286,1,50,2|0,0:0|0:0,0:0:0:0:
347,128,103760,1,2,3:2:0:0:
357,110,103878,1,2,0:0:0:0:
452,116,103996,1,2,0:0:0:0:
367,161,104114,2,0,B|370:138|370:138|384:97,1,50,2|8,0:0|0:0,0:0:0:0:
507,257,104350,2,0,B|482:270|482:270|441:278,1,50,2|0,0:0|0:0,0:0:0:0:
246,69,104704,6,0,P|299:73|351:101,1,100,2|0,3:2|0:0,0:0:0:0:
385,252,105059,2,0,P|361:250|336:244,1,50,2|8,0:0|0:0,0:0:0:0:
211,166,105295,1,2,0:0:0:0:
198,155,105413,2,0,P|173:156|148:162,1,50,2|0,0:0|0:0,0:0:0:0:
405,341,105649,5,2,3:2:0:0:
364,305,105767,1,2,3:2:0:0:
274,338,105886,1,2,0:2:0:0:
172,306,106004,1,2,3:2:0:0:
51,362,106122,6,0,B|81:357|106:330|106:330|145:344|181:327,1,129.999994049073,10|0,0:2|0:0,0:0:0:0:
352,42,106594,6,0,P|293:52|255:76,1,100,4|8,3:2|0:0,0:0:0:0:
391,49,107775,2,0,P|371:44|352:42,1,40,0|8,0:0|0:0,0:0:0:0:
72,261,108484,6,0,P|146:252|185:234,1,100,0|8,0:2|0:0,0:0:0:0:
33,252,109665,2,0,P|48:258|72:261,1,40,0|8,0:0|0:0,0:0:0:0:
447,177,110374,6,0,P|394:163|335:166,1,100,0|8,0:2|0:0,0:0:0:0:
482,194,111555,2,0,P|465:183|446:176,1,40,0|8,0:0|0:0,0:0:0:0:
72,369,112263,6,0,B|102:329|147:325|154:326|164:327|203:341|240:306,1,175,2|0,0:0|0:0,0:0:0:0:
247,211,112736,2,0,P|173:216|187:259,1,131.25000500679,10|0,0:0|0:0,0:0:0:0:
134,96,113208,2,0,B|187:55|253:63|253:63|288:87|303:145,1,218.75,2|0,0:0|0:0,0:0:0:0:
335,292,113681,2,0,B|357:308|393:295|393:295|434:203|379:88,1,262.500010013581,10|0,0:0|0:0,0:0:0:0:
144,110,114153,6,0,P|151:60|166:13,1,100,6|8,0:0|0:0,0:0:0:0:
149,177,115334,2,0,P|146:157|143:137,1,40,0|8,0:0|0:0,0:0:0:0:
341,327,116043,6,0,P|351:252|347:208,1,100,0|8,0:0|0:0,0:0:0:0:
344,366,117224,2,0,P|341:346|341:327,1,40,0|8,0:0|0:0,0:0:0:0:
430,32,117933,6,0,B|394:27|365:45|364:49|363:53|331:83|280:66,1,149.999995422363,2|2,0:0|0:0,0:0:0:0:
369,83,119350,2,0,P|393:93|425:111,1,59.9999981689454,8|0,0:0|0:0,0:0:0:0:
451,288,119823,6,0,P|423:299|393:303,1,59.9999981689454,0|0,3:2|0:0,0:0:0:0:
267,323,120059,1,2,0:0:0:0:
212,267,120177,2,0,P|248:273|285:294,1,59.9999981689454,2|8,0:0|0:0,0:0:0:0:
428,316,120413,1,2,0:0:0:0:
358,266,120531,2,0,P|347:234|348:191,1,59.9999981689454,2|0,0:0|0:0,0:0:0:0:
434,92,120767,6,0,P|456:63|459:-5,1,69.9999978637696,0|0,3:2|0:0,0:0:0:0:
269,282,121004,2,0,P|277:315|299:343,1,69.9999978637696,0|0,3:2|0:0,0:0:0:0:
503,140,121240,2,0,L|289:165,1,200,8|0,3:2|3:2,0:0:0:0:
235,120,121594,1,0,3:2:0:0:
129,244,121712,6,0,P|103:260|65:267,1,62.5,6|0,3:1|0:0,0:0:0:0:
82,161,121830,2,2,P|167:169|142:260,1,187.5,2|0,0:1|0:0,0:1:0:0:
39,384,122067,2,0,P|25:347|142:311,1,125,2|8,0:1|0:0,0:0:0:0:
433,257,122421,6,0,P|456:224|469:163,1,75.0000028610231,2|0,0:0|0:0,0:0:0:0:
337,282,122657,2,0,P|380:274|421:255,1,75.0000028610231,2|0,3:2|0:0,0:0:0:0:
296,98,122893,1,0,0:0:0:0:
278,109,123011,2,0,P|256:141|244:190,1,75.0000028610231,2|8,0:0|0:0,0:0:0:0:
367,37,123248,1,0,0:0:0:0:
383,51,123366,2,0,P|400:82|408:130,1,75.0000028610231,2|0,0:0|0:0,0:0:0:0:
295,342,123602,6,0,P|236:297|107:268,1,150.000005722046,0|0,3:2|0:0,0:0:0:0:
104,325,123956,2,0,P|67:333|30:334,1,75.0000028610231,0|8,0:0|0:0,0:0:0:0:
467,55,124311,6,0,P|431:18|345:19,1,125,2|0,0:1|0:0,0:0:0:0:
483,186,124547,2,2,B|422:211|372:154|369:143|363:132|314:76|223:96,1,250,2|0,3:1|0:0,0:1:0:0:
102,52,124901,2,0,P|168:62|199:-9,1,125,2|8,0:1|0:0,0:0:0:0:
0,245,125137,2,2,B|81:287|182:239|195:146|195:146|144:145|125:188,1,312.5,2|0,0:1|0:1,0:1:0:0:
158,325,125492,6,0,P|181:338|211:347,2,50,2|0|0,3:1|0:0|0:0,0:0:0:0:
100,263,125846,2,0,P|69:243|33:236,1,75.0000028610231,0|8,0:0|0:0,0:0:0:0:
441,341,126200,6,0,P|414:304|402:239,1,75.0000028610231,2|0,0:0|0:0,0:0:0:0:
476,41,126437,2,0,P|462:75|439:105,1,75.0000028610231,2|0,3:2|0:0,0:0:0:0:
331,176,126673,1,0,0:0:0:0:
414,188,126791,2,0,P|377:193|340:188,1,75.0000028610231,2|8,0:0|0:0,0:0:0:0:
167,51,127027,1,0,0:0:0:0:
182,43,127145,1,2,0:0:0:0:
264,77,127263,1,2,0:0:0:0:
212,148,127382,6,0,P|182:133|50:143,1,150.000005722046,0|0,3:2|0:0,0:0:0:0:
46,212,127736,2,0,P|76:239|104:293,1,75.0000028610231,0|8,0:0|0:0,0:0:0:0:
78,11,128090,6,0,P|131:13|158:93,1,100,2|0,0:1|0:0,0:0:0:0:
307,255,128326,2,0,P|333:272|371:277,1,50,2|0,3:1|0:0,0:0:0:0:
374,284,128445,2,0,B|393:281|410:253|410:253|313:235|248:290,1,200,2|0,0:1|0:0,0:0:0:0:
164,334,128740,1,0,0:0:0:0:
164,334,128799,2,0,P|194:348|237:352,1,50,10|0,0:1|0:0,0:0:0:0:
189,209,128917,2,0,P|153:221|125:245,2,75.0000028610231,2|0|0,0:1|0:0|0:0,0:0:0:0:
395,60,129271,6,0,P|422:68|449:87,1,50,2|0,3:1|0:0,0:0:0:0:
315,135,129389,2,0,B|269:172|214:68|366:53|443:84|529:211,1,300,2|8,0:1|0:0,0:0:0:0:
114,312,129980,6,0,P|119:278|138:241,1,75.0000028610231,2|0,0:0|0:0,0:0:0:0:
44,364,130216,2,0,P|32:332|29:290,1,75.0000028610231,2|0,3:2|0:0,0:0:0:0:
121,156,130452,1,0,0:0:0:0:
125,174,130571,2,0,P|119:207|100:244,1,75.0000028610231,2|8,0:0|0:0,0:0:0:0:
31,86,130807,1,0,0:0:0:0:
25,104,130925,2,0,P|24:137|36:178,1,75.0000028610231,2|0,0:0|0:0,0:0:0:0:
219,313,131161,6,0,P|246:292|293:284,2,75.0000028610231,0|0|0,3:2|0:0|0:0,0:0:0:0:
153,367,131515,2,0,P|172:335|199:309,1,75.0000028610231,0|8,0:0|0:0,0:0:0:0:
369,27,131870,6,0,P|411:45|418:94,1,100,2|0,0:1|0:0,0:0:0:0:
235,142,132106,2,2,B|288:138|325:178|325:178|379:156|426:180,1,200,2|2,3:1|0:1,0:1:0:0:
60,231,132460,1,0,0:0:0:0:
10,304,132578,2,2,B|88:296|119:204|119:204|92:204|78:219,1,200,10|2,0:1|0:1,0:1:0:0:
197,234,132933,2,0,P|211:214|220:190,1,50,2|0,0:1|0:0,0:0:0:0:
227,104,133051,6,0,P|219:79|218:45,3,50,0|0|0|0,3:2|0:0|0:0|0:0,0:0:0:0:
254,178,133523,2,0,P|251:202|244:226,3,50,8|0|0|0,0:0|0:0|0:0|0:0,0:0:0:0:
199,115,133996,2,0,P|200:88|210:56,1,50,2|0,3:2|0:0,0:0:0:0:
245,184,134232,1,2,0:0:0:0:
260,197,134350,2,0,P|268:221|269:255,1,50,2|8,0:0|0:0,0:0:0:0:
182,101,134586,1,0,0:0:0:0:
181,79,134704,2,0,P|187:54|198:32,1,50,0|0,0:0|0:0,0:0:0:0:
380,277,134941,5,0,3:2:0:0:
346,348,135059,2,0,B|338:355|324:360|324:360|322:348|327:336,1,50,2|0,0:0|0:0,0:0:0:0:
393,264,135295,2,0,P|398:235|372:189,2,50,2|10|0,0:0|0:0|0:0,0:0:0:0:
340,51,135649,6,0,P|381:47|402:109,1,100,2|0,0:1|0:0,0:0:0:0:
330,133,135886,2,0,B|280:139|250:101|244:92|242:87|225:41|181:34,1,187.5,2|0,3:1|0:0,0:0:0:0:
157,112,136122,2,0,P|141:138|117:158,1,62.5,2|0,0:1|0:0,0:0:0:0:
0,224,136240,2,0,P|19:199|134:175,1,125,2|8,0:1|0:0,0:0:0:0:
154,283,136476,2,0,P|177:310|210:327,1,62.5,2|0,0:1|0:0,0:0:0:0:
399,284,136594,2,0,P|288:301|198:337,1,187.5,2|0,0:1|0:0,0:1:0:0:
13,244,136830,6,0,B|-13:274|-5:309|-5:309|107:341|200:221,1,300.000011444092,6|0,3:1|0:0,0:0:0:0:
146,125,137185,2,0,P|112:111|75:110,1,75.0000028610231,2|8,0:1|0:0,0:0:0:0:
235,110,137421,5,0,0:0:0:0:
381,64,137539,2,0,P|349:70|309:113,1,75.0000028610231,2|0,0:0|0:0,0:0:0:0:
196,26,137775,2,0,P|207:64|254:105,1,75.0000028610231,2|0,3:2|0:0,0:0:0:0:
356,368,138011,6,0,P|293:345|234:281,1,125,2|0,0:1|0:0,0:0:0:0:
1,193,138248,2,2,B|70:245|157:235|202:208|210:158|236:52|431:88,1,437.500004172325,10|0,0:1|0:0,0:1:0:0:
509,107,138602,2,0,P|477:122|413:127,1,62.5,2|0,0:1|0:0,0:0:0:0:
374,96,138720,6,0,P|325:110|268:164,2,75.0000028610231,0|0|0,3:2|0:0|0:0,0:0:0:0:
427,174,139074,2,0,P|460:191|496:199,1,75.0000028610231,0|8,0:0|0:0,0:0:0:0:
323,82,139429,2,0,P|292:103|272:134,1,75.0000028610231,2|0,0:0|0:0,0:0:0:0:
412,272,139665,6,0,B|402:267|393:255|393:255|373:259|357:268|357:268|339:258|327:243|327:243|305:256|281:249,1,150.000005722046,2|0,3:2|0:0,0:0:0:0:
463,380,140019,2,0,P|427:371|396:350,1,75.0000028610231,2|8,0:0|0:0,0:0:0:0:
263,233,140256,1,0,0:0:0:0:
275,220,140374,2,0,P|311:212|349:211,1,75.0000028610231,2|0,0:0|0:0,0:0:0:0:
176,313,140610,5,0,3:2:0:0:
168,300,140728,1,0,0:0:0:0:
183,224,140846,2,0,P|166:176|119:165,1,100,2|0,0:1|0:0,0:0:0:0:
34,295,141082,1,8,0:0:0:0:
85,355,141200,2,0,P|123:312|97:270,1,100,2|0,0:1|0:0,0:0:0:0:
44,173,141437,1,0,0:0:0:0:
77,97,141555,2,0,P|122:78|206:79,1,100,2|0,3:1|0:0,0:0:0:0:
328,118,141791,1,0,0:0:0:0:
342,141,141909,2,0,P|390:173|447:181,1,100,2|8,0:1|0:0,0:0:0:0:
366,41,142145,1,0,0:0:0:0:
354,36,142263,2,0,P|288:42|246:90,1,100,2|0,0:1|0:0,0:0:0:0:
357,258,142500,6,0,B|254:221|254:221|235:198|224:175,2,150.000005722046,0|2|10,3:2|0:1|0:1,0:0:0:0:
156,223,143090,6,0,P|104:280|144:366,1,150.000005722046,2|0,0:1|0:0,0:0:0:0:
28,74,143445,2,2,B|82:60|156:91|202:125|136:170|113:111,1,200,2|2,3:1|0:1,0:1:0:0:
119,40,143799,1,0,3:2:0:0:
119,40,143858,1,0,3:2:0:0:
119,40,143917,2,0,P|153:28|203:31,1,75.0000028610231,10|0,0:1|0:0,0:0:0:0:
293,7,144153,2,0,P|330:31|354:62,1,75.0000028610231,0|0,0:0|0:0,0:0:0:0:
407,274,144389,5,2,3:1:0:0:
285,367,144508,2,0,B|254:348|241:321|241:321|260:298|295:291,1,125,2|0,0:1|0:0,0:0:0:0:
420,290,144744,2,0,P|457:295|485:323,1,75.0000028610231,0|8,0:0|0:0,0:0:0:0:
34,336,145098,6,0,P|18:299|17:238,1,75.0000028610231,0|0,0:0|0:0,0:0:0:0:
118,347,145334,2,0,B|126:295|113:247|113:247|80:208,1,150.000005722046,2|0,3:2|0:0,0:0:0:0:
46,100,145689,2,0,P|23:128|11:178,1,75.0000028610231,2|8,0:0|0:0,0:0:0:0:
194,219,145925,1,0,0:0:0:0:
216,206,146043,2,0,P|254:187|327:188,1,75.0000028610231,0|0,0:0|0:0,0:0:0:0:
407,330,146279,6,0,P|439:342|473:350,3,50,0|0|0|0,3:2|0:0|0:0|0:0,0:0:0:0:
353,269,146752,2,0,P|323:260|278:257,3,50,8|0|0|0,0:0|0:0|0:0|0:0,0:0:0:0:
387,352,147224,2,0,P|420:345|462:328,1,62.5,2|0,3:2|0:0,0:0:0:0:
351,250,147460,2,0,P|320:256|290:266,1,62.5,2|0,0:0|0:0,0:0:0:0:
485,263,147697,6,0,P|480:227|466:162,1,75.0000028610231,10|0,0:1|0:0,0:0:0:0:
348,54,147933,2,0,P|325:26|297:0,1,75.0000028610231,2|0,0:1|0:0,0:0:0:0:
171,362,148169,6,2,P|95:310|-2:260,1,189.999994926453,2|0,3:1|0:1,0:1:0:0:
122,231,148523,2,0,P|164:226|214:205,1,75.0000028610231,0|8,0:0|0:0,0:0:0:0:
291,66,148760,1,0,0:0:0:0:
376,86,148878,6,2,B|457:76|498:16|498:16|464:8|443:26,1,200,2|0,0:1|3:1,0:1:0:0:
442,192,149232,1,0,0:0:0:0:
429,205,149350,2,0,P|390:204|342:185,1,75.0000028610231
63,166,149586,6,2,P|26:72|141:22,1,209.999993591309,10|0,0:1|0:1,0:1:0:0:
95,309,149941,2,0,P|53:321|14:341,1,75.0000028610231,0|0,0:0|3:2,0:0:0:0:
288,102,150295,6,0,P|359:80|432:3,1,175.00000166893,2|8,0:0|0:0,0:0:0:0:
231,239,150649,2,0,P|262:246|312:277,1,87.500000834465,2|0,0:0|0:0,0:0:0:0:
37,354,150886,1,2,0:0:0:0:
42,325,151004,5,2,3:2:0:0:
140,292,151122,1,0,0:0:0:0:
235,322,151240,1,0,0:0:0:0:
117,284,151358,1,0,3:2:0:0:
119,275,151417,1,0,3:2:0:0:
122,264,151476,2,0,P|168:256|232:270,1,69.9999978637696,10|0,0:0|3:2,0:0:0:0:
246,335,151712,2,0,P|270:353|299:361,1,59.9999981689454,0|0,3:2|3:2,0:0:0:0:
368,65,151948,6,0,P|328:69|278:102,1,80,4|0,3:2|0:0,0:0:0:0:
242,149,152185,1,0,0:0:0:0:
488,26,152421,6,2,B|441:74|381:54|377:52|373:50|319:31|262:83,1,220.000006713867,10|0,0:1|0:0,0:1:0:0:
74,179,152775,2,2,P|127:167|164:129,1,110.000003356934,2|0,0:1|3:2,0:1:0:0:
186,41,153011,5,0,0:0:0:0:
340,115,153130,2,0,P|313:97|243:84,2,80,0|0|8,0:0|0:0|0:0,0:0:0:0:
250,169,153484,1,0,0:0:0:0:
234,178,153602,1,0,0:0:0:0:
156,194,153720,2,0,P|182:174|244:152,1,80,0|0,0:0|3:2,0:0:0:0:
138,275,153956,1,0,0:0:0:0:
126,279,154074,2,0,P|100:268|75:247,1,50,0|0,0:0|0:0,0:0:0:0:
306,314,154311,2,0,P|220:283|137:285,1,160,8|0,0:0|0:0,0:0:0:0:
312,330,154665,1,0,0:0:0:0:
453,224,154783,6,0,P|434:180|402:149,1,50,2|0,3:1|0:0,0:0:0:0:
417,169,154901,2,0,P|377:135|354:73,1,100,2|0,0:1|0:0,0:0:0:0:
373,254,155137,2,0,P|351:298|313:330,1,100,2|8,0:1|0:0,0:0:0:0:
274,85,155374,2,2,B|252:43|317:23|384:48|404:181,1,200,2|0,0:1|0:0,0:1:0:0:
285,248,155728,2,0,P|258:244|219:223,1,50,2|0,3:1|0:0,0:0:0:0:
170,177,155846,2,0,P|151:246|273:240,1,200,2|0,0:1|0:0,0:0:0:0:
108,35,156200,6,0,P|78:16|6:-5,2,80,8|0|0,0:0|0:0|0:0,0:0:0:0:
187,99,156555,1,0,0:0:0:0:
279,70,156673,2,0,P|245:70|178:93,1,80,0|0,3:2|0:0,0:0:0:0:
12,118,156909,2,0,P|50:128|90:129,1,80,0|0,0:0|0:0,0:0:0:0:
310,228,157145,2,0,P|253:192|122:205,1,160,8|0,0:0|0:0,0:0:0:0:
3,317,157500,2,0,P|26:276|76:242,1,80,0|0,0:0|3:2,0:0:0:0:
143,322,157736,2,0,P|120:363|70:397,2,80,0|0|0,0:0|0:0|0:0,0:0:0:0:
153,197,158090,5,10,0:0:0:0:
255,346,158208,2,0,B|278:369|304:374|304:374|295:321|323:262,1,160,2|0,0:0|0:0,0:0:0:0:
388,92,158563,5,0,3:3:0:0:
442,193,158681,1,0,3:2:0:0:
450,211,158799,1,0,0:0:0:0:
466,180,158917,1,2,3:2:0:0:
298,199,159035,1,10,0:0:0:0:
325,285,159153,1,2,0:0:0:0:
284,185,159271,1,2,0:0:0:0:
305,64,159389,1,2,0:0:0:0:
203,177,159508,6,0,P|166:194|120:205,1,80,0|0,3:2|0:0,0:0:0:0:
0,112,159744,2,0,P|38:122|74:138,1,80,0|0,0:0|0:0,0:0:0:0:
176,313,159980,6,2,B|191:346|149:401|36:359|58:244,1,220.000006713867,10|0,0:1|0:0,0:1:0:0:
113,60,160334,2,2,P|149:97|134:198,1,110.000003356934,2|0,0:1|3:2,0:1:0:0:
85,188,160571,5,0,0:0:0:0:
243,120,160689,2,0,P|282:99|324:88,2,80,0|0|8,0:0|0:0|0:0,0:0:0:0:
191,211,161043,1,0,0:0:0:0:
208,219,161161,1,0,0:0:0:0:
302,205,161279,2,0,P|261:208|204:235,1,80,0|0,0:0|3:2,0:0:0:0:
170,305,161515,1,0,0:0:0:0:
163,312,161634,2,0,P|136:309|98:287,1,50,0|0,0:0|0:0,0:0:0:0:
366,277,161870,2,0,P|323:343|248:358,1,160,8|0,0:0|0:0,0:0:0:0:
175,207,162224,1,0,0:0:0:0:
324,117,162342,6,0,P|341:135|353:157,1,50,2|0,3:1|0:0,0:0:0:0:
350,180,162460,2,0,P|353:227|385:316,1,100,2|0,0:1|0:0,0:0:0:0:
301,103,162697,2,0,P|314:54|317:5,1,100,2|8,0:1|0:0,0:0:0:0:
435,229,162933,2,2,B|452:256|480:260|480:260|478:191|385:142,1,200,2|0,0:1|0:0,0:1:0:0:
215,92,163287,2,0,P|188:94|146:113,1,50,2|0,3:1|0:0,0:0:0:0:
95,136,163405,2,0,B|139:155|177:136|189:131|203:131|248:93|303:132,1,200,2|0,0:1|0:0,0:0:0:0:
154,244,163760,6,0,P|122:264|58:280,2,80,8|0|0,0:0|0:0|0:0,0:0:0:0:
279,166,164114,1,2,0:0:0:0:
287,149,164232,2,0,P|249:161|215:182,1,80,2|0,3:2|0:0,0:0:0:0:
275,364,164468,2,0,P|296:320|295:279,1,80,0|0,0:0|0:0,0:0:0:0:
130,162,164704,1,8,0:0:0:0:
118,145,164823,2,0,P|123:101|146:65,2,80,0|0|0,0:0|0:0|0:0,0:0:0:0:
303,211,165177,5,2,3:2:0:0:
410,123,165295,2,0,B|410:104|376:79|376:79|331:90|300:134,1,139.999995727539,2|0,0:0|0:0,0:0:0:0:
296,224,165649,5,10,0:0:0:0:
426,352,165767,2,0,P|427:296|371:260,1,119.999996337891,2|0,0:0|0:0,0:0:0:0:
210,235,166122,6,0,P|211:199|229:168,1,59.9999981689454,2|0,3:2|0:0,0:0:0:0:
285,110,166358,1,2,0:0:0:0:
333,24,166476,6,0,P|340:45|341:69,1,29.9999990844727,10|8,3:2|0:0,0:0:0:0:
277,125,166594,1,10,0:2:0:0:
358,61,166712,2,0,B|375:48|397:42|397:42|424:54|461:51,2,89.9999972534181,2|2|2,0:2|0:0|0:0,0:0:0:0:
359,372,167067,6,0,P|324:377|285:355,2,69.9999978637696,0|0|8,3:2|0:0|0:0,0:0:0:0:
370,361,167775,2,0,P|387:353|413:350,1,34.9999989318848
487,379,168011,2,0,L|415:363,1,69.9999978637696,2|0,0:2|0:0,0:0:0:0:
337,273,168366,2,0,L|380:265,1,34.9999989318848,2|8,0:0|0:0,0:0:0:0:
394,272,168720,2,0,L|437:264,1,34.9999989318848
481,203,168956,6,0,P|462:170|420:152,1,69.9999978637696,2|0,0:2|0:0,0:0:0:0:
358,131,169311,2,0,P|335:132|315:140,1,34.9999989318848,2|8,0:0|0:0,0:0:0:0:
310,143,169547,1,2,0:0:0:0:
297,148,169665,1,2,0:0:0:0:
280,150,169783,1,2,0:0:0:0:
204,138,169901,2,0,P|184:128|166:107,2,34.9999989318848,2|0|0,0:2|0:0|0:0,0:0:0:0:
154,103,170256,2,0,P|136:101|119:103,1,34.9999989318848,0|8,0:0|0:0,0:0:0:0:
170,91,170610,2,0,P|184:82|206:56,1,34.9999989318848
65,215,170846,6,0,P|23:207|-11:184,2,69.9999978637696,2|0|10,0:2|0:0|0:0,0:0:0:0:
80,209,171437,2,0,P|113:191|160:187,1,69.9999978637696,2|0,0:0|0:0,0:0:0:0:
56,295,171791,1,2,0:2:0:0:
40,300,171909,2,0,P|19:298|-13:284,1,34.9999989318848,2|0,0:0|0:0,0:0:0:0:
138,302,172145,2,0,P|160:308|181:316,1,34.9999989318848,2|8,0:0|0:0,0:0:0:0:
172,327,172382,2,0,P|155:334|90:327,1,69.9999978637696,2|0,0:0|0:0,0:0:0:0:
243,170,172736,6,0,L|321:150,1,69.9999978637696,2|0,0:2|0:0,0:0:0:0:
334,176,173090,2,0,L|290:168,1,34.9999989318848,2|8,0:0|0:0,0:0:0:0:
236,61,173326,1,2,0:0:0:0:
243,69,173445,1,2,0:0:0:0:
252,78,173563,1,2,0:0:0:0:
181,115,173681,2,0,L|130:103,2,34.9999989318848,2|0|2,0:2|0:0|0:0,0:0:0:0:
331,74,174153,2,0,L|357:50,2,34.9999989318848,8|2|0,0:0|0:0|0:0,0:0:0:0:
374,304,174626,6,0,B|339:309|322:298|318:295|315:293|294:280|269:291,2,100,4|2|8,0:2|0:0|0:0,0:0:0:0:
423,238,175216,1,0,0:0:0:0:
436,229,175334,2,0,P|485:225|513:241,1,50,2|0,0:0|0:0,0:0:0:0:
382,330,175571,2,0,P|357:317|301:306,1,50,2|0,3:2|0:0,0:0:0:0:
280,208,175807,2,0,B|259:200|232:205|232:205|210:225|208:258,1,100,2|0,0:0|0:0,0:0:0:0:
268,354,176279,2,0,P|291:374|330:388,1,50
123,224,176515,6,0,P|74:173|26:157,1,100,2|0,3:2|0:0,0:0:0:0:
6,243,176870,2,0,P|24:264|56:283,1,50,2|8,0:0|0:0,0:0:0:0:
137,203,177106,1,2,0:0:0:0:
143,186,177224,1,2,0:0:0:0:
147,168,177342,1,2,0:0:0:0:
117,92,177460,2,0,P|166:41|182:32,2,50,2|0|0,3:2|0:0|0:0,0:0:0:0:
150,225,177815,2,0,P|101:276|85:285,1,50,0|8,0:0|0:0,0:0:0:0:
0,309,178169,1,0,0:0:0:0:
40,47,178405,6,0,P|86:19|147:18,2,100,2|0|8,3:2|0:0|0:0,0:0:0:0:
16,158,179114,2,0,L|75:144,1,50,0|0,0:0|0:0,0:0:0:0:
215,122,179350,1,2,3:2:0:0:
201,107,179468,2,0,L|146:94,1,50,2|0,0:0|0:0,0:0:0:0:
25,171,179704,2,0,L|102:193,1,50,2|8,0:0|0:0,0:0:0:0:
220,202,179941,2,0,L|172:216,1,50
414,263,180295,6,0,P|423:286|428:311,1,50,2|0,3:2|0:0,0:0:0:0:
418,163,180531,2,0,B|429:160|429:160|418:154,1,25,0|2,0:0|0:0,0:0:0:0:
411,139,180649,2,0,P|385:125|361:120,1,50,2|8,0:0|0:0,0:0:0:0:
335,307,180886,1,0,0:0:0:0:
326,321,181004,2,0,P|300:334|276:339,1,50,2|0,0:0|0:0,0:0:0:0:
88,176,181240,6,0,L|156:152,1,50,2|2,3:2|0:0,0:0:0:0:
285,221,181476,1,2,0:0:0:0:
209,189,181594,1,2,0:0:0:0:
115,281,181712,2,0,L|150:224,1,50,10|0,0:0|0:0,0:0:0:0:
345,340,181948,2,0,L|310:283,1,50,2|0,0:0|0:0,0:0:0:0:
179,68,182185,6,0,P|207:47|307:44,1,129.999994049073,4|0,3:2|0:0,0:0:0:0:
167,86,182539,2,0,P|142:80|120:69,1,50,2|10,0:0|0:0,0:0:0:0:
13,36,182775,2,0,P|35:24|59:19,1,50,2|2,0:0|0:0,0:0:0:0:
252,191,183011,1,0,0:0:0:0:
184,159,183130,1,2,3:2:0:0:
167,172,183248,2,0,P|158:206|161:242,1,50,2|0,0:0|0:0,0:0:0:0:
317,143,183484,2,0,P|315:118|307:94,1,50,2|8,0:0|0:0,0:0:0:0:
149,233,183838,1,0,0:0:0:0:
350,162,184074,6,0,P|404:170|462:187,1,100,2|0,3:2|0:0,0:0:0:0:
471,87,184429,2,0,P|442:91|410:102,1,50,2|8,0:0|0:0,0:0:0:0:
320,182,184665,1,2,0:0:0:0:
307,192,184783,1,2,0:0:0:0:
292,202,184901,1,2,0:0:0:0:
215,220,185019,2,0,P|188:206|164:184,2,50,2|2|0,3:2|0:0|0:0,0:0:0:0:
335,175,185374,2,0,P|363:179|405:193,1,50,0|8,0:0|0:0,0:0:0:0:
465,289,185728,1,0,0:0:0:0:
279,352,185964,5,2,3:2:0:0:
274,343,186082,1,2,0:0:0:0:
237,328,186200,1,2,0:2:0:0:
233,319,186318,1,2,0:0:0:0:
206,291,186437,2,0,P|195:269|186:241,2,50,10|0|2,0:2|0:0|0:2,0:0:0:0:
273,138,186791,1,0,0:0:0:0:
289,148,186909,2,0,P|300:170|308:194,2,50,2|2|0,3:2|0:0|0:0,0:0:0:0:
210,71,187263,2,0,P|212:45|230:12,1,50,2|8,0:0|0:0,0:0:0:0:
268,149,187500,2,0,P|251:167|231:182,1,50,2|0,0:0|0:0,0:0:0:0:
22,64,187854,6,0,P|77:71|135:106,1,100,0|0,3:2|0:0,0:0:0:0:
106,181,188208,2,0,P|130:200|167:215,1,50,2|10,0:0|0:0,0:0:0:0:
278,121,188445,1,2,0:0:0:0:
294,112,188563,2,0,P|318:103|355:100,1,50,2|2,0:0|0:0,0:0:0:0:
267,198,188799,2,0,P|237:190|200:161,2,50,2|0|0,3:2|0:0|0:0,0:0:0:0:
361,202,189153,1,0,0:0:0:0:
454,199,189271,2,0,P|478:199|502:207,2,50,8|0|0,0:2|0:0|0:0,0:0:0:0:
242,319,189744,6,0,L|130:301,1,100,4|0,3:2|0:0,0:0:0:0:
58,209,190098,2,0,P|81:223|108:229,1,50,0|10,0:0|0:0,0:0:0:0:
222,163,190334,1,2,0:0:0:0:
202,153,190452,2,0,P|172:158|147:169,1,50,2|2,0:0|0:0,0:0:0:0:
52,280,190689,1,2,3:2:0:0:
70,260,190807,2,0,P|77:232|76:201,1,50,2|0,0:0|0:0,0:0:0:0:
150,33,191043,2,0,P|131:49|114:68,1,50,2|8,0:0|0:0,0:0:0:0:
65,183,191397,1,0,0:0:0:0:
176,42,191634,6,0,P|222:27|290:34,1,100,2|0,3:2|0:0,0:0:0:0:
380,136,191988,2,0,P|406:148|434:159,1,50,2|8,0:0|0:0,0:0:0:0:
278,111,192224,1,2,0:0:0:0:
259,119,192342,1,2,0:0:0:0:
245,132,192460,1,2,0:0:0:0:
200,198,192578,2,0,P|194:227|193:257,2,50,2|0|0,3:2|0:0|0:0,0:0:0:0:
349,57,192933,2,0,P|357:36|363:-10,1,50,0|8,0:0|0:0,0:0:0:0:
233,116,193287,1,0,0:0:0:0:
485,114,193523,6,0,P|445:138|383:145,1,100,2|0,3:2|0:0,0:0:0:0:
320,111,193878,2,0,P|349:117|387:136,1,50,2|8,0:0|0:0,0:0:0:0:
487,243,194114,1,0,0:0:0:0:
467,255,194232,2,0,P|443:263|419:268,1,50,2|0,0:0|0:0,0:0:0:0:
171,244,194468,1,2,3:2:0:0:
154,236,194586,1,2,0:0:0:0:
223,183,194704,1,2,0:0:0:0:
307,202,194823,2,0,B|329:216|329:216|347:240,1,50,2|8,0:0|0:0,0:0:0:0:
118,340,195059,2,0,B|132:359|132:359|154:373,1,50,2|0,0:0|0:0,0:0:0:0:
164,126,195413,6,0,P|121:134|63:171,1,100,2|0,3:2|0:0,0:0:0:0:
259,83,195767,2,0,P|276:60|290:31,1,50,2|8,0:0|0:0,0:0:0:0:
250,235,196004,1,2,0:0:0:0:
249,254,196122,2,0,P|260:275|275:295,1,50,2|0,0:0|0:0,0:0:0:0:
493,213,196358,5,2,3:2:0:0:
481,186,196476,1,2,3:2:0:0:
407,149,196594,1,2,3:2:0:0:
357,65,196712,1,2,3:2:0:0:
245,66,196830,6,0,B|272:96|307:97|307:97|336:79|380:80,1,129.999994049073,10|0,0:2|3:2,0:0:0:0:
234,48,197185,1,0,3:2:0:0:
119,75,197303,2,0,P|94:92|58:131,1,64.9999970245363,4|0,0:0|0:0,0:0:0:0:
376,8,197539,6,0,L|439:18,1,37.5000014305115,2|0,0:0|0:0,0:0:0:0:
363,24,197775,2,0,L|302:26,2,37.5000014305115,10|0|0,0:0|0:0|0:0,0:0:0:0:
441,35,198130,2,0,L|494:37,1,37.5000014305115,2|0,0:0|0:0,0:0:0:0:
367,95,198366,1,0,0:0:0:0:
352,101,198484,2,0,L|306:113,1,37.5000014305115,2|0,0:0|0:0,0:0:0:0:
441,135,198720,1,10,0:0:0:0:
453,139,198838,1,2,0:0:0:0:
464,142,198956,1,2,0:0:0:0:
471,168,199074,2,0,L|507:174,1,37.5000014305115,2|0,0:0|0:0,0:0:0:0:
377,171,199311,1,0,0:0:0:0:
363,181,199429,2,0,L|330:200,1,37.5000014305115,2|0,0:0|0:0,0:0:0:0:
452,242,199665,2,0,L|491:267,2,37.5000014305115,10|0|0,0:0|0:0|0:0,0:0:0:0:
373,269,200019,2,0,L|349:305,1,37.5000014305115,2|0,0:0|0:0,0:0:0:0:
450,333,200256,1,0,0:0:0:0:
453,344,200374,2,0,L|472:386,1,37.5000014305115,2|0,0:0|0:0,0:0:0:0:
368,346,200610,1,10,0:0:0:0:
367,359,200728,1,2,0:0:0:0:
365,370,200846,1,2,0:0:0:0:
342,384,200964,1,2,0:0:0:0:
438,297,201082,5,2,0:0:0:0:
459,305,201200,2,0,L|478:347,1,37.5000014305115,2|0,0:0|0:0,0:0:0:0:
397,226,201437,1,2,0:0:0:0:
374,241,201555,2,0,L|350:277,1,37.5000014305115,10|0,0:0|0:0,0:0:0:0:
449,159,201791,1,2,0:0:0:0:
481,166,201909,2,0,L|520:191,1,37.5000014305115,2|0,0:0|0:0,0:0:0:0:
383,116,202145,1,2,0:0:0:0:
357,120,202263,2,0,L|324:139,1,37.5000014305115,2|0,0:0|0:0,0:0:0:0:
506,82,202500,6,0,L|469:75,1,37.5000014305115,10|0,0:0|0:0,0:0:0:0:
236,11,202736,2,0,L|181:20,1,37.5000014305115,0|0,0:0|0:0,0:0:0:0:
21,216,202972,6,0,P|27:244|60:282,1,59.9999981689454,0|0,3:2|0:0,0:0:0:0:
156,319,203208,1,2,0:0:0:0:
243,310,203326,2,0,P|215:300|171:304,1,59.9999981689454,2|8,0:0|0:0,0:0:0:0:
23,343,203563,1,2,0:0:0:0:
85,279,203681,2,0,P|98:251|100:213,1,59.9999981689454,2|0,0:0|0:0,0:0:0:0:
20,83,203917,6,0,P|12:49|17:13,1,69.9999978637696,0|0,3:2|0:0,0:0:0:0:
189,279,204153,2,0,P|192:313|184:347,1,69.9999978637696,0|0,3:2|0:0,0:0:0:0:
104,71,204389,6,0,P|130:88|166:92,1,59.9999981689454,2|2,3:2|0:0,0:0:0:0:
154,148,204508,2,0,P|178:133|201:126,1,50,2|2,3:2|0:0,0:0:0:0:
244,104,204626,2,0,P|255:124|272:143,1,40,2|2,3:2|0:0,0:0:0:0:
285,180,204744,1,2,3:2:0:0:
377,109,204862,6,0,P|397:82|440:59,1,62.5,6|0,3:1|0:0,0:0:0:0:
490,151,204980,2,2,P|410:184|361:111,1,187.5,2|0,0:1|0:0,0:1:0:0:
511,0,205216,2,0,P|489:63|438:77,1,125,2|8,0:1|0:0,0:0:0:0:
43,64,205571,6,0,P|78:46|116:39,1,75.0000028610231,2|0,0:0|0:0,0:0:0:0:
0,142,205807,2,0,P|21:108|50:83,1,75.0000028610231,2|0,3:2|0:0,0:0:0:0:
132,258,206043,1,0,0:0:0:0:
140,239,206161,2,0,P|138:199|125:163,1,75.0000028610231,2|8,0:0|0:0,0:0:0:0:
30,327,206397,1,0,0:0:0:0:
22,308,206515,2,0,P|23:268|36:232,1,75.0000028610231,2|0,0:0|0:0,0:0:0:0:
252,330,206752,6,0,P|320:291|398:283,1,150.000005722046,0|0,3:2|0:0,0:0:0:0:
439,353,207106,2,0,P|477:363|519:363,1,75.0000028610231,0|8,0:0|0:0,0:0:0:0:
512,151,207460,6,0,P|451:156|406:114,1,125,2|0,0:1|0:0,0:0:0:0:
201,91,207697,2,2,B|277:130|324:68|328:65|333:64|394:5|453:31,1,250,2|0,3:1|0:0,0:1:0:0:
217,251,208051,2,0,P|274:236|291:178,1,125,2|8,0:1|0:0,0:0:0:0:
9,211,208287,2,2,B|-15:242|-20:275|-20:275|80:297|155:247|172:132,1,312.5,2|0,0:1|0:0,0:1:0:0:
53,46,208641,6,0,P|33:35|-11:19,2,50,2|0|0,3:1|0:0|0:0,0:0:0:0:
121,99,208996,2,0,P|157:90|189:72,1,75.0000028610231,0|8,0:0|0:0,0:0:0:0:
457,2,209350,6,0,P|474:28|485:81,1,75.0000028610231,2|0,0:0|0:0,0:0:0:0:
277,263,209586,2,0,P|291:235|331:199,1,75.0000028610231,2|0,3:2|0:0,0:0:0:0:
429,143,209823,1,0,0:0:0:0:
507,175,209941,2,0,P|475:176|424:159,1,75.0000028610231,2|8,0:0|0:0,0:0:0:0:
150,337,210177,1,0,0:0:0:0:
138,322,210295,1,2,0:0:0:0:
178,248,210413,1,2,0:0:0:0:
232,317,210531,6,0,P|293:290|418:284,1,150.000005722046,0|0,3:2|0:0,0:0:0:0:
493,308,210886,2,0,P|476:273|446:240,1,75.0000028610231,0|8,0:0|0:0,0:0:0:0:
93,62,211240,6,0,P|48:98|45:150,1,100,2|0,0:1|0:0,0:0:0:0:
120,295,211476,2,0,P|99:290|63:292,1,50,2|0,3:1|0:0,0:0:0:0:
57,299,211594,2,0,B|39:322|37:339|37:339|114:321|153:236,1,200,2|0,0:1|0:0,0:0:0:0:
180,123,211889,1,0,0:0:0:0:
180,123,211948,2,0,P|156:143|137:191,1,50,10|0,0:1|0:0,0:0:0:0:
268,118,212067,2,0,P|260:83|220:34,2,75.0000028610231,2|0|0,0:1|0:0|0:0,0:0:0:0:
324,357,212421,6,0,P|306:357|260:335,1,50,2|0,3:1|0:0,0:0:0:0:
374,289,212539,2,0,B|424:241|479:281|412:365|283:366|214:279,1,300,2|8,0:1|0:0,0:0:0:0:
461,15,213130,6,0,P|484:50|498:105,1,75.0000028610231,2|0,0:0|0:0,0:0:0:0:
339,53,213366,2,0,P|379:65|425:98,1,75.0000028610231,2|0,3:2|0:0,0:0:0:0:
252,171,213602,1,0,0:0:0:0:
268,180,213720,2,0,P|308:167|354:134,1,75.0000028610231,2|8,0:0|0:0,0:0:0:0:
183,50,213956,1,0,0:0:0:0:
189,67,214074,2,0,P|227:83|284:87,1,75.0000028610231,2|0,0:0|0:0,0:0:0:0:
421,185,214311,6,0,P|459:192|503:218,2,75.0000028610231,0|0|0,3:2|0:0|0:0,0:0:0:0:
348,229,214665,2,0,P|381:209|432:201,1,75.0000028610231,0|8,0:0|0:0,0:0:0:0:
60,342,215019,6,0,P|15:303|33:236,1,100,2|0,0:1|0:0,0:0:0:0:
267,252,215256,2,2,B|201:265|164:211|164:211|115:194|75:223,1,200,2|2,3:1|0:1,0:1:0:0:
355,67,215610,1,0,0:0:0:0:
431,117,215728,2,2,B|382:157|318:154|318:154|296:120|257:97,1,200,10|2,0:1|0:1,0:1:0:0:
493,179,216082,2,0,P|475:210|446:236,1,50,2|0,0:1|0:0,0:0:0:0:
359,243,216200,6,0,P|339:258|323:277,3,50,0|0|0|0,3:2|0:0|0:0|0:0,0:0:0:0:
446,226,216673,2,0,P|465:210|482:192,3,50,8|0|0|0,0:0|0:0|0:0|0:0,0:0:0:0:
345,234,217145,2,0,P|336:257|331:281,1,50,2|0,3:2|0:0,0:0:0:0:
462,239,217382,1,2,0:0:0:0:
472,228,217500,2,0,P|480:204|485:180,1,50,2|8,0:0|0:0,0:0:0:0:
335,219,217736,1,0,0:0:0:0:
332,237,217854,2,0,P|336:261|344:285,1,50,0|0,0:0|0:0,0:0:0:0:
361,73,218090,5,0,3:2:0:0:
283,48,218208,2,0,B|271:41|265:29|265:29|278:30|291:35,1,50,2|0,0:0|0:0,0:0:0:0:
376,64,218445,2,0,P|397:81|417:108,2,50,2|10|0,0:0|0:0|0:0,0:0:0:0:
108,22,218799,6,0,P|109:66|65:93,1,100,2|0,0:1|0:0,0:0:0:0:
54,208,219035,2,0,B|78:158|126:166|131:167|142:166|190:159|210:113,1,187.5,2|0,3:1|0:0,0:0:0:0:
340,49,219271,2,0,P|324:22|302:0,1,62.5,2|0,0:1|0:0,0:0:0:0:
203,21,219389,2,0,P|243:45|352:35,1,125,2|8,0:1|0:0,0:0:0:0:
304,151,219626,2,0,P|282:178|241:198,1,62.5,2|0,0:1|0:0,0:0:0:0:
353,343,219744,2,0,P|280:304|253:174,1,187.5,2|0,0:1|0:0,0:0:0:0:
494,53,219980,6,0,B|556:-5|401:-44|340:209|497:280,1,300.000011444092,6|0,3:1|0:0,0:0:0:0:
495,355,220334,2,0,P|471:330|423:301,1,75.0000028610231,2|8,0:1|0:0,0:0:0:0:
357,282,220571,5,0,0:0:0:0:
219,343,220689,2,0,P|252:338|303:307,1,75.0000028610231,2|0,0:0|0:0,0:0:0:0:
450,230,220925,2,0,P|416:212|380:206,1,75.0000028610231,2|0,3:2|0:0,0:0:0:0:
55,270,221161,6,0,P|123:260|181:216,1,125,2|0,0:1|0:0,0:0:0:0:
437,72,221397,2,2,B|515:49|428:278|303:70|298:63|294:60|260:26|193:-16|75:46,1,437.500004172325,10|0,0:1|0:0,0:1:0:0:
4,71,221752,2,0,P|39:93|81:100,1,62.5,2|0,0:1|0:0,0:0:0:0:
131,42,221870,6,0,P|169:26|210:21,2,75.0000028610231,0|0|0,3:2|0:0|0:0,0:0:0:0:
69,109,222224,2,0,P|38:126|-10:132,1,75.0000028610231,0|8,0:0|0:0,0:0:0:0:
215,31,222578,2,0,P|254:42|290:70,1,75.0000028610231,2|0,0:0|0:0,0:0:0:0:
90,199,222815,6,0,B|111:194|124:177|124:177|148:189|176:186|176:186|190:159|242:152,1,150.000005722046,2|0,3:2|0:0,0:0:0:0:
107,282,223169,2,0,P|72:280|28:262,1,75.0000028610231,2|8,0:0|0:0,0:0:0:0:
246,231,223405,1,0,0:0:0:0:
269,232,223523,2,0,P|309:250|338:276,1,75.0000028610231,2|0,0:0|0:0,0:0:0:0:
60,362,223760,5,0,3:2:0:0:
41,351,223878,1,0,0:0:0:0:
0,283,223996,2,0,P|17:238|64:229,1,100,2|0,0:1|0:0,0:0:0:0:
208,314,224232,1,8,0:0:0:0:
280,274,224350,2,0,P|256:232|209:229,1,100,2|0,0:1|0:0,0:0:0:0:
39,148,224586,1,0,0:0:0:0:
66,70,224704,2,0,P|120:45|181:62,1,100,2|0,3:1|0:0,0:0:0:0:
313,126,224941,1,0,0:0:0:0:
392,152,225059,2,0,P|444:145|489:124,1,100,2|8,0:1|0:0,0:0:0:0:
279,43,225295,1,0,0:0:0:0:
258,58,225413,2,0,P|232:100|240:174,1,100,2|0,0:1|0:0,0:0:0:0:
438,232,225649,6,0,B|466:267|466:267|465:320|449:369,2,150.000005722046,0|2|10,3:2|0:1|0:1,0:0:0:0:
219,332,226240,6,0,P|279:282|349:283,1,150.000005722046,2|0,0:1|0:0,0:0:0:0:
61,362,226594,2,2,B|125:299|102:214|102:214|75:234|72:282,1,200,2|2,3:1|0:1,0:1:0:0:
192,234,226948,1,0,3:2:0:0:
192,234,227008,1,0,3:2:0:0:
192,234,227067,2,0,P|217:212|233:154,1,75.0000028610231,10|0,0:1|0:0,0:0:0:0:
164,107,227303,2,0,P|157:74|115:31,1,75.0000028610231,0|0,0:0|0:0,0:0:0:0:
420,327,227539,5,2,3:1:0:0:
497,244,227657,2,0,B|500:207|476:177|476:177|439:181|418:205,1,125,2|0,0:1|0:0,0:0:0:0:
334,305,227893,2,0,P|296:291|258:266,1,75.0000028610231,0|8,0:0|0:0,0:0:0:0:
19,6,228248,6,0,P|55:16|89:34,1,75.0000028610231,0|0,0:0|0:0,0:0:0:0:
288,54,228484,2,0,P|220:84|136:96,1,150.000005722046,2|0,3:2|0:0,0:0:0:0:
19,186,228838,2,0,P|53:170|89:162,1,75.0000028610231,2|8,0:0|0:0,0:0:0:0:
263,152,229074,1,0,0:0:0:0:
284,168,229193,2,0,P|317:177|362:181,1,75.0000028610231,0|0,0:0|0:0,0:0:0:0:
65,290,229429,6,0,P|41:312|18:349,3,50,0|0|0|0,3:2|0:0|0:0|0:0,0:0:0:0:
154,284,229901,2,0,P|178:262|201:225,3,50,8|0|0|0,0:0|0:0|0:0|0:0,0:0:0:0:
48,285,230374,2,0,P|38:316|35:359,1,62.5,2|0,3:2|0:0,0:0:0:0:
170,292,230610,2,0,P|178:261|180:217,1,62.5,2|0,0:0|0:0,0:0:0:0:
425,340,230846,6,0,P|454:324|497:289,1,75.0000028610231,10|0,0:1|0:0,0:0:0:0:
467,72,231082,2,0,P|478:41|489:-14,1,75.0000028610231,2|0,0:1|0:0,0:0:0:0:
75,262,231319,6,2,P|35:153|-6:67,1,189.999994926453,2|0,3:1|0:0,0:1:0:0:
137,175,231673,2,0,P|158:150|183:91,1,75.0000028610231,0|8,0:0|0:0,0:0:0:0:
342,283,231909,1,0,0:0:0:0:
387,357,232027,6,2,P|484:326|493:217,1,200,2|0,0:1|3:2,0:1:0:0:
437,83,232382,1,0,0:0:0:0:
429,104,232500,2,0,P|451:141|502:175,1,75.0000028610231,0|0,0:0|0:0,0:0:0:0:
183,23,232736,6,2,B|161:75|104:101|104:101|53:104|-9:68,1,209.999993591309,10|0,0:1|0:0,0:1:0:0:
193,274,233090,2,0,P|189:314|174:347,1,75.0000028610231,0|0,0:0|3:2,0:0:0:0:
434,129,233445,6,0,P|360:64|267:52,1,175.00000166893,2|8,0:0|0:0,0:0:0:0:
59,266,233799,2,0,P|85:232|136:206,1,87.500000834465,2|0,0:0|0:0,0:0:0:0:
453,296,234035,1,2,0:0:0:0:
435,317,234153,5,2,3:2:0:0:
365,260,234271,1,0,0:0:0:0:
279,286,234389,1,0,0:0:0:0:
381,249,234507,1,0,3:2:0:0:
381,249,234567,1,0,3:2:0:0:
381,249,234626,2,0,P|380:215|365:161,1,69.9999978637696,10|0,0:0|3:2,0:0:0:0:
287,148,234862,2,0,P|291:112|301:85,1,59.9999981689454,0|0,3:2|3:2,0:0:0:0:
69,253,235098,6,0,P|41:215|37:160,1,80,4|0,3:2|0:0,0:0:0:0:
57,107,235334,1,0,0:0:0:0:
45,384,235571,6,2,B|69:324|45:266|42:261|37:255|1:222|22:151,1,220.000006713867,10|0,0:1|0:0,0:1:0:0:
221,5,235925,2,2,P|208:38|136:77,1,110.000003356934,2|0,0:1|3:2,0:1:0:0:
51,90,236161,5,0,0:0:0:0:
192,146,236279,2,0,P|228:152|290:189,2,80,0|0|8,0:0|0:0|0:0,0:0:0:0:
97,250,236634,1,0,0:0:0:0:
108,259,236752,1,0,0:0:0:0:
201,232,236870,2,0,P|165:238|103:275,1,80,0|0,0:0|3:2,0:0:0:0:
75,340,237106,1,0,0:0:0:0:
63,351,237224,2,0,P|37:360|-9:364,1,50,0|0,0:0|0:0,0:0:0:0:
314,368,237460,2,0,P|254:337|156:332,1,160,8|0,0:0|0:0,0:0:0:0:
309,263,237815,1,0,0:0:0:0:
270,123,237933,6,0,P|248:101|219:86,1,50,2|0,3:1|0:0,0:0:0:0:
222,78,238051,2,0,P|169:81|120:100,1,100,2|0,0:1|0:0,0:0:0:0:
381,45,238287,2,0,P|434:42|483:23,1,100,2|8,0:1|0:0,0:0:0:0:
261,206,238523,2,2,B|235:220|242:262|307:252|350:192|358:126,1,200,2|0,0:1|0:0,0:1:0:0:
175,14,238878,2,0,P|182:34|203:61,1,50,2|0,3:1|0:0,0:0:0:0:
284,77,238996,2,0,B|241:62|194:75|190:80|186:88|138:120|85:108,1,200,2|0,0:1|0:0,0:0:0:0:
440,48,239350,6,0,P|482:58|523:88,2,80,8|0|0,0:0|0:0|0:0,0:0:0:0:
364,82,239704,1,0,0:0:0:0:
249,173,239823,2,0,P|290:169|335:143,1,80,0|0,3:2|0:0,0:0:0:0:
480,157,240059,2,0,P|439:161|394:187,1,80,0|0,0:0|0:0,0:0:0:0:
253,353,240295,2,0,P|264:294|345:241,1,160,8|0,0:0|0:0,0:0:0:0:
181,257,240649,2,0,P|149:244|103:211,1,80,0|0,0:0|3:2,0:0:0:0:
173,111,240886,2,0,P|204:123|251:157,2,80,0|0|0,0:0|0:0|0:0,0:0:0:0:
90,135,241240,5,10,0:0:0:0:
8,329,241358,2,0,B|28:339|47:357|47:357|27:297|33:231,1,160,2|0,0:0|0:0,0:0:0:0:
64,59,241712,5,0,3:3:0:0:
172,127,241830,1,0,3:2:0:0:
190,155,241948,1,0,0:0:0:0:
187,175,242067,1,2,3:2:0:0:
146,40,242185,1,10,0:0:0:0:
242,11,242303,1,2,0:0:0:0:
358,56,242421,1,2,0:0:0:0:
486,15,242539,1,2,0:0:0:0:
351,47,242657,6,0,P|309:45|265:60,1,80,4|0,3:2|0:0,0:0:0:0:
207,98,242893,1,0,0:0:0:0:
477,162,243130,6,2,B|413:172|376:127|372:123|370:116|349:79|278:74,1,220.000006713867,10|0,0:1|0:0,0:1:0:0:
67,208,243484,2,2,P|141:190|172:160,1,110.000003356934,2|0,0:1|3:2,0:1:0:0:
200,88,243720,5,0,0:0:0:0:
295,201,243838,2,0,P|333:175|388:163,2,80,0|0|8,0:0|0:0|0:0,0:0:0:0:
206,257,244193,1,0,0:0:0:0:
215,272,244311,1,0,0:0:0:0:
306,319,244429,2,0,P|277:301|232:286,1,80,0|0,0:0|3:2,0:0:0:0:
95,296,244665,1,0,0:0:0:0:
81,297,244783,2,0,P|58:286|37:272,1,50,0|0,0:0|0:0,0:0:0:0:
232,138,245019,2,0,P|165:162|83:217,1,160,8|0,0:0|0:0,0:0:0:0:
202,354,245374,1,0,0:0:0:0:
380,348,245492,6,0,P|409:329|427:306,1,50,2|0,3:1|0:0,0:0:0:0:
430,304,245610,2,0,P|415:250|384:199,1,100,2|0,0:1|0:0,0:0:0:0:
480,17,245846,2,0,P|456:60|443:109,1,100,2|8,0:1|0:0,0:0:0:0:
472,365,246082,2,2,B|490:378|512:379|512:379|486:292|403:258,1,200,2|0,0:1|0:0,0:1:0:0:
329,114,246437,2,0,P|317:141|302:192,1,50,2|0,3:1|0:0,0:0:0:0:
319,244,246555,2,0,B|281:225|278:175|276:169|273:166|261:106|208:83,1,200,2|0,0:1|0:0,0:0:0:0:
112,215,246909,6,0,P|157:200|190:174,2,80,8|0|0,0:0|0:0|0:0,0:0:0:0:
0,209,247263,2,0,P|20:219|42:240,1,40,2|0,0:0|0:0,0:0:0:0:
38,257,247382,2,0,P|65:293|79:347,1,80,2|0,3:2|0:0,0:0:0:0:
49,142,247618,2,0,P|86:114|138:95,1,80
264,149,247854,1,8,0:0:0:0:
278,162,247972,2,0,P|314:176|366:177,2,80,0|0|0,0:0|0:0|0:0,0:0:0:0:
397,32,248326,5,2,3:2:0:0:
402,47,248445,2,0,B|388:79|361:98|361:98|337:84|302:80,1,119.999996337891,2|0,0:0|0:0,0:0:0:0:
262,258,248799,5,10,0:0:0:0:
279,247,248917,2,0,P|298:192|246:152,1,100,2|0,0:0|0:0,0:0:0:0:
128,40,249271,6,0,P|116:63|106:98,1,50,2|0,3:2|0:0,0:0:0:0:
107,162,249508,1,2,0:0:0:0:
203,202,249626,6,0,P|186:190|161:180,1,25,10|8,3:2|3:2,0:0:0:0:
96,172,249744,1,10,0:2:0:0:
201,102,249862,2,0,B|217:83|224:61|224:61|212:37|207:4,2,89.9999972534181,2|2|2,3:2|0:0|0:0,0:0:0:0:
76,368,250216,6,0,L|-12:382,1,75.0000028610231,4|0,3:2|0:0,0:0:0:0:
159,365,250689,2,0,L|71:351,1,75.0000028610231,8|0,0:0|0:0,0:0:0:0:
268,317,251043,2,0,L|231:323,1,37.5000014305115,0|0,0:0|3:2,0:0:0:0:
372,337,251279,1,0,0:0:0:0:
355,356,251397,2,0,L|273:341,1,75.0000028610231,0|8,0:0|0:0,0:0:0:0:
452,348,251870,2,0,L|503:338,2,37.5000014305115,0|0|0,0:0|0:0|3:2,0:0:0:0:
334,364,252342,2,0,L|297:357,2,37.5000014305115,0|0|8,0:0|0:0|0:0,0:0:0:0:
464,332,252815,2,0,L|515:322,2,37.5000014305115,0|0|0,0:0|0:0|3:2,0:0:0:0:
326,374,253287,1,0,0:0:0:0:
305,380,253405,2,0,P|286:376|268:370,1,37.5000014305115,2|8,0:0|0:0,0:0:0:0:
239,242,253641,1,2,0:0:0:0:
249,223,253760,2,0,B|259:209|279:198|279:198|282:234,1,50,2|2,0:0|0:0,0:0:0:0:
161,276,253996,6,0,L|63:262,1,75.0000028610231,0|0,3:2|0:0,0:0:0:0:
313,252,254468,2,0,L|238:241,1,75.0000028610231,8|0,0:0|0:0,0:0:0:0:
421,211,254823,2,0,L|383:216,1,37.5000014305115,0|0,0:0|3:2,0:0:0:0:
512,216,255059,1,0,0:0:0:0:
501,234,255177,2,0,L|426:244,1,75.0000028610231,0|8,0:0|0:0,0:0:0:0:
279,164,255649,2,0,L|316:169,2,37.5000014305115,0|0|0,0:0|0:0|3:2,0:0:0:0:
412,135,256004,6,0,P|396:124|379:116,1,37.5000014305115,2|0,0:0|0:0,0:0:0:0:
222,101,256240,2,0,P|238:92|257:88,1,37.5000014305115,2|8,0:0|0:0,0:0:0:0:
445,126,256476,2,0,P|437:108|426:93,1,37.5000014305115,2|0,0:0|0:0,0:0:0:0:
199,93,256712,2,0,P|209:77|222:64,1,37.5000014305115,2|0,0:0|3:2,0:0:0:0:
412,135,256948,2,0,P|396:124|379:116,1,37.5000014305115,2|0,0:0|0:0,0:0:0:0:
221,101,257184,2,0,P|238:92|257:88,1,37.5000014305115,2|8,0:0|0:0,0:0:0:0:
328,205,257421,1,2,0:0:0:0:
306,226,257539,1,2,0:0:0:0:
340,153,257657,1,2,0:0:0:0:
230,220,257775,6,0,L|157:207,1,75.0000028610231,4|0,3:2|0:0,0:0:0:0:
315,188,258248,2,0,L|242:201,1,75.0000028610231,8|0,0:0|0:0,0:0:0:0:
427,170,258602,2,0,L|371:160,1,37.5000014305115,0|0,0:0|3:2,0:0:0:0:
512,110,258838,1,0,0:0:0:0:
505,135,258956,2,0,L|432:148,1,75.0000028610231,0|8,0:0|0:0,0:0:0:0:
235,119,259429,2,0,L|198:111,2,37.5000014305115,0|0|0,0:0|0:0|3:2,0:0:0:0:
401,61,259783,5,0,0:0:0:0:
426,56,259901,1,2,0:0:0:0:
382,39,260019,1,2,0:0:0:0:
313,86,260137,2,0,P|280:101|221:97,1,75.0000028610231,10|0,0:0|0:0,0:0:0:0:
146,61,260492,2,0,P|149:43|156:26,1,37.5000014305115,2|0,0:0|3:2,0:0:0:0:
382,39,260728,2,0,P|369:25|354:14,1,37.5000014305115,2|0,0:0|0:0,0:0:0:0:
188,29,260964,2,0,P|206:22|225:21,1,37.5000014305115,2|8,0:0|0:0,0:0:0:0:
199,126,261200,1,2,0:0:0:0:
187,156,261319,1,2,0:0:0:0:
197,75,261437,1,2,0:0:0:0:
103,156,261555,6,0,L|21:166,1,75.0000028610231,0|0,3:2|0:0,0:0:0:0:
239,111,262027,2,0,L|157:101,1,75.0000028610231,8|0,0:0|0:0,0:0:0:0:
350,134,262382,2,0,L|288:141,1,37.5000014305115,0|0,0:0|3:2,0:0:0:0:
460,111,262618,1,0,0:0:0:0:
444,122,262736,2,0,L|362:112,1,75.0000028610231,0|8,0:0|0:0,0:0:0:0:
476,10,263208,2,0,L|541:-1,2,37.5000014305115,0|0|0,0:0|0:0|3:2,0:0:0:0:
256,192,263504,12,0,264626,3:2:0:0:
73,199,264744,6,0,P|55:183|28:142,1,50,2|0,0:0|3:2,0:0:0:0:
187,157,264980,1,2,3:2:0:0:
99,204,265098,2,0,B|123:199|140:178|140:178|168:183|193:173,1,100,2|4,0:0|0:2,0:0:0:0:
303,70,265807,5,0,3:2:0:0:
326,87,266279,1,0,0:0:0:0:
197,24,266752,5,0,3:2:0:0:
174,41,267106,2,0,L|157:51,1,14.9999995422363,0|0,0:0|0:0,0:0:0:0:
326,58,267697,5,0,3:2:0:0:
349,75,268169,1,0,0:0:0:0:
186,15,268523,6,0,P|170:12|153:10,1,25,2|0,0:0|3:2,0:0:0:0:
94,56,268760,2,0,P|80:61|64:63,2,25,2|2|2,0:0|0:0|0:0,0:0:0:0:
186,15,269114,5,0,0:0:0:0:
320,157,269586,5,0,3:2:0:0:
343,174,270058,1,0,0:0:0:0:
214,111,270531,5,0,3:2:0:0:
191,128,270886,2,0,L|174:138,1,14.9999995422363,0|0,0:0|0:0,0:0:0:0:
343,145,271476,5,0,3:2:0:0:
366,162,271948,1,0,0:0:0:0:
203,102,272303,6,0,P|187:99|170:97,1,25,2|0,0:0|3:2,0:0:0:0:
111,143,272539,2,0,P|97:148|81:150,2,25,2|2|2,0:0|0:0|0:0,0:0:0:0:
203,102,272893,6,0,P|224:96|249:91,1,44.999998626709,0|0,0:0|0:0,0:0:0:0:
306,150,273602,2,0,P|327:155|351:163,1,44.999998626709,0|0,0:0|0:0,0:0:0:0:
414,111,274311,2,0,P|434:105|459:100,1,44.999998626709,0|0,0:0|0:0,0:0:0:0:
414,111,276082,6,0,P|395:114|378:119,1,29.9999990844727,2|2,0:0|0:0,0:0:0:0:
306,150,276437,2,0,P|297:148|289:145,1,14.9999995422363,2|2,2:0|0:0,0:0:0:0:
203,102,276673,6,0,P|180:105|159:112,5,44.999998626709
159,111,279862,5,2,0:0:0:0:
91,58,280216,1,2,0:0:0:0:
91,58,280334,1,2,0:0:0:0:
