osu file format v14

[General]
AudioFilename: audio.mp3
AudioLeadIn: 0
PreviewTime: 128289
Countdown: 1
SampleSet: Soft
StackLeniency: 0.4
Mode: 0
LetterboxInBreaks: 0
WidescreenStoryboard: 1

[Editor]
Bookmarks: 749,21732,45339,66322,87306,108289,129273,150257,171240,181732,201404,205339,228945,249929,270912
DistanceSpacing: 1.4
BeatDivisor: 4
GridSize: 8
TimelineZoom: 2.4

[Metadata]
Title:Lost in the Abyss
TitleUnicode:Lost in the Abyss
Artist:FELT
ArtistUnicode:FELT
Creator:Nowaie
Version:Minorsonek's Hopelessness
Source:東方地霊殿 ~ Subterranean Animism.
Tags:dtm9 nowa Minorsonek ShiiTsuin Shii Vivienne Renko W.nova Maurits ZUN Cornelis 禅 東方project Touhou project Video game english rock Parsee Mizuhashi Theme Green-eyed Jealousy 水橋 パルスィ 緑眼のジェラシー
BeatmapID:2070594
BeatmapSetID:985041

[Difficulty]
HPDrainRate:6
CircleSize:4.4
OverallDifficulty:9.2
ApproachRate:9.4
SliderMultiplier:2
SliderTickRate:1

[Events]
//Background and Video events
0,0,"Person.jpg",0,0
//Break Periods
//Storyboard Layer 0 (Background)
//Storyboard Layer 1 (Fail)
//Storyboard Layer 2 (Pass)
//Storyboard Layer 3 (Foreground)
//Storyboard Layer 4 (Overlay)
//Storyboard Sound Samples

[TimingPoints]
739,327.868852459016,4,2,1,65,1,0
739,-200,4,2,1,65,0,0
4673,-166.666666666667,4,2,1,65,0,0
5329,-200,4,2,1,65,0,0
7296,-166.666666666667,4,2,1,65,0,0
7952,-200,4,2,1,65,0,0
11230,-181.818181818182,4,2,1,65,0,0
15165,-166.666666666667,4,2,1,65,0,0
20411,-133.333333333333,4,2,1,65,0,0
21722,-100,4,2,1,65,0,0
23198,-111.111111111111,4,2,1,65,0,0
24345,-100,4,2,1,65,0,0
26312,-111.111111111111,4,2,1,65,0,0
26968,-100,4,2,1,65,0,0
29591,-90.9090909090909,4,2,1,65,0,0
31558,-111.111111111111,4,2,1,65,0,0
32214,-100,4,2,1,65,0,0
34837,-90.9090909090909,4,2,1,65,0,0
37460,-83.3333333333333,4,2,1,65,0,0
38935,-100,4,2,1,65,0,0
40083,-111.111111111111,4,2,1,65,0,0
44673,-111.111111111111,4,2,1,85,0,0
45329,-55.5555555555556,4,2,1,85,0,0
45820,-62.5,4,2,1,85,0,0
46312,-66.6666666666667,4,2,1,85,0,0
47624,-62.5,4,2,1,85,0,0
47952,-55.5555555555556,4,2,1,85,0,0
48443,-62.5,4,2,1,85,0,0
48935,-66.6666666666667,4,2,1,85,0,0
50247,-62.5,4,2,1,85,0,0
50575,-55.5555555555556,4,2,1,85,0,0
51066,-62.5,4,2,1,85,0,0
51558,-66.6666666666667,4,2,1,85,0,0
52870,-62.5,4,2,1,85,0,0
53198,-55.5555555555556,4,2,1,85,0,0
53689,-62.5,4,2,1,85,0,0
54181,-66.6666666666667,4,2,1,85,0,0
55165,-62.5,4,2,1,85,0,0
55493,-55.5555555555556,4,2,1,85,0,0
55820,-50,4,2,1,85,0,0
63689,-83.3333333333333,4,2,1,85,0,0
65984,-100,4,2,1,85,0,0
66312,-66.6666666666667,4,2,1,85,0,0
67296,-58.8235294117647,4,2,1,85,0,0
67624,-66.6666666666667,4,2,1,85,0,0
69919,-58.8235294117647,4,2,1,85,0,0
70247,-66.6666666666667,4,2,1,85,0,0
72542,-58.8235294117647,4,2,1,85,0,0
72870,-66.6666666666667,4,2,1,85,0,0
75165,-58.8235294117647,4,2,1,85,0,0
75493,-66.6666666666667,4,2,1,85,0,0
76476,-80,4,2,1,85,0,0
76804,-66.6666666666667,4,2,1,85,0,0
77788,-58.8235294117647,4,2,1,85,0,0
78116,-66.6666666666667,4,2,1,85,0,0
80411,-58.8235294117647,4,2,1,85,0,0
80739,-66.6666666666667,4,2,1,85,0,0
83034,-58.8235294117647,4,2,1,85,0,0
83362,-66.6666666666667,4,2,1,85,0,0
85657,-58.8235294117647,4,2,1,85,0,0
85985,-66.6666666666667,4,2,1,85,0,0
86968,-76.9230769230769,4,2,1,85,0,0
87296,-133.333333333333,4,2,1,65,0,0
106968,-100,4,2,1,65,0,0
107952,-133.333333333333,4,2,1,65,0,0
108279,-100,4,2,1,75,0,0
109263,-76.9230769230769,4,2,1,75,0,0
109591,-100,4,2,1,75,0,0
111886,-76.9230769230769,4,2,1,75,0,0
112214,-100,4,2,1,75,0,0
115820,-76.9230769230769,4,2,1,75,0,0
116148,-100,4,2,1,75,0,0
118771,-90.9090909090909,4,2,1,75,0,0
119755,-76.9230769230769,4,2,1,75,0,0
120083,-90.9090909090909,4,2,1,75,0,0
122378,-76.9230769230769,4,2,1,75,0,0
122706,-90.9090909090909,4,2,1,75,0,0
125329,-83.3333333333333,4,2,1,75,0,0
126312,-76.9230769230769,4,2,1,75,0,0
126640,-62.5,4,2,1,85,0,0
128607,-62.5,4,2,1,75,0,0
128935,-100,4,2,1,95,0,0
129263,-76.9230769230769,4,2,1,85,0,1
134509,-71.4285714285714,4,2,1,85,0,1
140083,-76.9230769230769,4,2,1,85,0,1
145001,-71.4285714285714,4,2,1,85,0,1
150247,-66.6666666666667,4,2,1,85,0,0
171230,-76.9230769230769,4,2,1,65,0,0
171722,-100,4,2,1,65,0,0
179755,-83.3333333333333,4,2,1,65,0,0
181394,-250,4,2,1,65,0,0
181722,-83.3333333333333,4,2,1,85,0,0
183198,-71.4285714285714,4,2,1,85,0,0
183689,-76.9230769230769,4,2,1,85,0,0
184345,-83.3333333333333,4,2,1,85,0,0
186312,-76.9230769230769,4,2,1,85,0,0
186968,-83.3333333333333,4,2,1,85,0,0
188935,-76.9230769230769,4,2,1,85,0,0
189591,-83.3333333333333,4,2,1,85,0,0
190902,-76.9230769230769,4,2,1,85,0,0
191886,-55.5555555555556,4,2,1,85,0,0
192214,-76.9230769230769,4,2,1,85,0,0
193689,-66.6666666666667,4,2,1,85,0,0
194181,-71.4285714285714,4,2,1,85,0,0
194837,-76.9230769230769,4,2,1,85,0,0
196312,-66.6666666666667,4,2,1,85,0,0
196804,-71.4285714285714,4,2,1,85,0,0
197460,-76.9230769230769,4,2,1,85,0,0
198935,-66.6666666666667,4,2,1,85,0,0
199427,-71.4285714285714,4,2,1,85,0,0
200083,-76.9230769230769,4,2,1,85,0,0
201394,-50,4,2,1,85,0,0
201722,-100,4,2,1,85,0,0
202378,-66.6666666666667,4,2,1,75,0,0
202706,-50,4,2,1,75,0,0
203361,-100,4,2,1,75,0,0
203689,-100,4,2,1,60,0,0
204017,-66.6666666666667,4,2,1,75,0,0
204345,-66.6666666666667,4,2,1,60,0,0
204673,-100,4,2,1,60,0,0
205001,-100,4,2,1,65,0,0
205329,-111.111111111111,4,2,1,65,0,0
215820,-90.9090909090909,4,2,1,75,0,0
216804,-76.9230769230769,4,2,1,75,0,0
217132,-90.9090909090909,4,2,1,75,0,0
219427,-76.9230769230769,4,2,1,75,0,0
219755,-90.9090909090909,4,2,1,75,0,0
222378,-83.3333333333333,4,2,1,75,0,0
223361,-76.9230769230769,4,2,1,75,0,0
223689,-62.5,4,2,1,75,0,0
225820,-62.5,4,2,1,55,0,0
225984,-200,4,2,1,55,0,0
225985,-200,4,2,1,55,0,0
227132,-200,4,2,1,65,0,0
227624,-200,4,2,1,75,0,0
227952,-200,4,2,1,85,0,0
228279,-200,4,2,1,65,0,0
228607,-200,4,2,1,95,0,0
228935,-76.9230769230769,4,2,1,85,0,1
234181,-71.4285714285714,4,2,1,85,0,1
239755,-76.9230769230769,4,2,1,85,0,1
244673,-71.4285714285714,4,2,1,85,0,1
249919,-66.6666666666667,4,2,1,85,0,0
260083,-80,4,2,1,85,0,0
260411,-66.6666666666667,4,2,1,85,0,0
270902,-55.5555555555556,4,2,1,85,0,0
271393,-62.5,4,2,1,85,0,0
271885,-66.6666666666667,4,2,1,85,0,0
273197,-62.5,4,2,1,85,0,0
273525,-55.5555555555556,4,2,1,85,0,0
274016,-62.5,4,2,1,85,0,0
274508,-66.6666666666667,4,2,1,85,0,0
275820,-62.5,4,2,1,85,0,0
276148,-55.5555555555556,4,2,1,85,0,0
276639,-62.5,4,2,1,85,0,0
277131,-66.6666666666667,4,2,1,85,0,0
278443,-62.5,4,2,1,85,0,0
278771,-55.5555555555556,4,2,1,85,0,0
279262,-62.5,4,2,1,85,0,0
279754,-66.6666666666667,4,2,1,85,0,0
280738,-62.5,4,2,1,85,0,0
281066,-55.5555555555556,4,2,1,85,0,0
281393,-83.3333333333333,4,2,1,85,0,0
285165,-66.6666666666667,4,2,1,85,0,0
288935,-55.5555555555556,4,2,1,85,0,0
289263,-83.3333333333333,4,2,1,85,0,0
291558,-100,4,2,1,85,0,0
291886,-123.456790123457,4,2,1,85,0,0

[Colours]
Combo1 : 40,208,129
Combo2 : 227,91,224
Combo3 : 140,248,114
Combo4 : 206,45,114

[HitObjects]
15,195,739,6,0,B|137:203|90:67|217:77,1,250,2|0,0:0|0:0,0:0:0:0:
203,207,1722,2,0,L|196:139,1,50,2|0,0:0|0:0,0:0:0:0:
258,274,2050,6,0,P|307:275|347:247,1,100,2|0,0:0|0:0,0:0:0:0:
303,107,2542,2,0,P|277:149|281:197,1,100,2|0,0:0|0:0,0:0:0:0:
399,186,3034,2,0,P|374:170|338:167,1,50,2|0,0:0|0:0,0:0:0:0:
465,306,3361,6,0,L|482:143,1,150,2|0,0:0|0:0,0:0:0:0:
410,358,4017,2,0,L|360:362,1,50
290,292,4345,1,0,0:0:0:0:
231,371,4509,1,0,0:0:0:0:
234,234,4673,6,0,P|265:216|369:292,1,179.999994506836,2|0,0:0|0:0,0:0:0:0:
182,301,5329,2,0,L|123:293,1,50
27,126,5657,2,0,L|86:118,1,50,2|0,0:0|0:0,0:0:0:0:
177,166,5984,6,0,B|128:160|84:193|119:246|63:274|6:260,1,200,2|0,0:0|0:0,0:0:0:0:
33,194,6804,1,0,0:0:0:0:
170,236,6968,2,0,L|219:244,1,50
372,307,7296,6,0,P|322:279|307:143,1,179.999994506836,2|0,0:0|0:0,0:0:0:0:
340,54,7952,2,0,L|335:112,1,50
204,170,8279,2,0,L|199:112,1,50,2|0,0:0|0:0,0:0:0:0:
193,20,8607,6,0,B|150:-10|103:0|89:53|34:62|-1:26,2,200,2|2|0,0:0|0:0|0:0,0:0:0:0:
153,80,10083,1,0,0:0:0:0:
153,80,10247,2,0,L|163:147,1,50
135,228,10575,1,0,0:0:0:0:
83,131,10738,1,0,0:0:0:0:
63,270,10902,1,0,0:0:0:0:
83,292,11230,6,0,B|125:335|219:324|190:239|279:221|329:269,1,275.000008392334,2|0,0:0|0:0,0:0:0:0:
278,376,12214,2,0,L|272:308,1,55.0000016784668,2|0,0:0|0:0,0:0:0:0:
444,369,12542,6,0,P|390:370|348:335,1,110.000003356934,2|0,0:0|0:0,0:0:0:0:
399,193,13034,2,0,P|426:239|417:292,1,110.000003356934,2|0,0:0|0:0,0:0:0:0:
295,276,13525,2,0,P|320:258|349:254,1,55.0000016784668,2|0,0:0|0:0,0:0:0:0:
241,352,13853,6,0,L|56:332,1,165.000005035401,2|0,0:0|0:0,0:0:0:0:
33,236,14509,2,0,L|87:230,1,55.0000016784668
137,141,14837,1,2,0:0:0:0:
58,116,15001,1,0,0:0:0:0:
205,93,15165,6,0,P|277:95|320:151,1,119.999996337891,2|0,0:0|0:0,0:0:0:0:
259,277,15657,2,0,P|224:213|251:148,1,119.999996337891,2|0,0:0|0:0,0:0:0:0:
362,191,16148,2,0,P|336:207|307:211,1,59.9999981689454,2|0,0:0|0:0,0:0:0:0:
456,68,16476,6,0,L|440:247,1,179.999994506836,2|0,0:0|0:0,0:0:0:0:
504,370,17132,2,0,L|497:300,1,59.9999981689454
410,384,17460,1,0,0:0:0:0:
334,314,17624,1,0,0:0:0:0:
247,372,17788,6,0,L|113:386,1,119.999996337891,2|0,0:0|0:0,0:0:0:0:
59,278,18279,2,0,L|193:292,1,119.999996337891,2|0,0:0|0:0,0:0:0:0:
241,188,18771,2,0,L|174:195,1,59.9999981689454,2|0,0:0|0:0,0:0:0:0:
312,228,19099,6,0,P|321:170|289:122,1,119.999996337891,2|0,0:0|0:0,0:0:0:0:
245,272,19591,2,0,P|290:308|349:304,1,119.999996337891,2|0,0:0|0:0,0:0:0:0:
241,188,20083,2,0,P|209:193|179:215,1,59.9999981689454,2|0,0:0|0:0,0:0:0:0:
82,354,20411,6,0,L|72:277,1,75.0000028610231,2|0,0:0|0:0,0:0:0:0:
171,121,20738,2,0,L|161:195,1,75.0000028610231
227,357,21066,1,0,0:0:0:0:
304,320,21230,1,0,0:0:0:0:
152,262,21394,1,2,0:0:0:0:
181,253,21722,6,0,P|269:244|316:144,1,200,6|0,0:0|0:0,0:0:0:0:
21,140,22214,2,0,L|228:163,1,200,2|0,0:0|0:0,0:0:0:0:
355,61,22706,2,0,P|267:70|220:170,1,200,2|0,0:0|0:0,0:0:0:0:
447,300,23198,6,0,L|427:116,1,179.999994506836,2|0,0:0|0:0,0:0:0:0:
305,278,23689,2,0,L|295:367,1,89.9999972534181,2|0,0:0|0:0,0:0:0:0:
182,181,24017,2,0,L|172:91,1,89.9999972534181,2|0,0:0|0:0,0:0:0:0:
38,359,24345,6,0,P|159:348|178:267,1,200,2|0,0:0|0:0,0:0:0:0:
60,95,24837,2,0,P|68:182|98:306,1,200,2|0,0:0|0:0,0:0:0:0:
182,181,25329,2,0,P|221:118|354:141,1,200,2|0,0:0|0:0,0:0:0:0:
461,248,25820,6,0,P|321:227|263:179,1,200,2|0,0:0|0:0,0:0:0:0:
424,176,26312,2,0,P|477:166|516:136,1,89.9999972534181,2|0,0:0|0:0,0:0:0:0:
336,122,26640,2,0,P|283:112|244:82,1,89.9999972534181,2|0,0:0|0:0,0:0:0:0:
477,48,26968,6,0,L|459:268,1,200,2|2,0:0|0:0,0:0:0:0:
244,352,27460,1,2,0:0:0:0:
296,265,27624,2,0,P|352:234|415:247,1,100,2|0,0:0|0:0,0:0:0:0:
150,358,27952,2,0,P|81:354|36:229,1,200,2|0,0:0|0:0,0:0:0:0:
185,157,28443,5,0,0:0:0:0:
185,157,28607,2,0,L|202:288,1,100,2|0,0:0|0:0,0:0:0:0:
276,64,28935,2,0,L|154:13,1,100,2|0,0:0|0:0,0:0:0:0:
311,189,29263,2,0,L|415:108,1,100,2|0,0:0|0:0,0:0:0:0:
489,324,29591,6,0,P|398:286|252:341,1,220.000006713867,2|0,0:0|0:0,0:0:0:0:
120,384,30083,2,0,P|198:324|223:170,1,220.000006713867,2|0,0:0|0:0,0:0:0:0:
252,35,30575,2,0,P|264:132|385:231,1,220.000006713867,2|0,0:0|0:0,0:0:0:0:
489,324,31066,2,0,P|398:286|252:341,1,220.000006713867,2|0,0:0|0:0,0:0:0:0:
231,211,31558,6,0,L|125:196,1,89.9999972534181,2|0,0:0|0:0,0:0:0:0:
24,88,31886,2,0,L|130:73,1,89.9999972534181,2|0,0:0|0:0,0:0:0:0:
102,341,32214,6,0,P|10:308|71:263,1,200,2|0,0:0|0:0,0:0:0:0:
205,377,32706,2,0,P|268:390|360:293,1,200,2|0,0:0|0:0,0:0:0:0:
282,99,33198,2,0,L|261:317,1,200,2|0,0:0|0:0,0:0:0:0:
512,181,33689,2,0,L|333:53,1,200
358,303,34181,2,0,L|457:257,1,100
179,236,34509,2,0,L|79:190,1,100,2|0,0:0|0:0,0:0:0:0:
306,16,34837,6,0,P|318:94|282:249,1,220.000006713867,2|0,0:0|0:0,0:0:0:0:
453,381,35329,2,0,P|441:303|477:148,1,220.000006713867,2|0,0:0|0:0,0:0:0:0:
241,366,35820,2,0,P|151:316|26:306,1,220.000006713867,2|0,0:0|0:0,0:0:0:0:
85,169,36312,2,0,P|175:219|300:229,1,220.000006713867,2|0,0:0|0:0,0:0:0:0:
391,0,36804,2,0,P|395:61|378:127,1,110.000003356934,2|0,0:0|0:0,0:0:0:0:
256,163,37132,2,0,P|201:154|152:131,1,110.000003356934,2|0,0:0|0:0,0:0:0:0:
438,177,37460,6,0,P|483:229|370:231,1,239.999992675781,2|0,0:0|0:0,0:0:0:0:
220,279,37952,2,0,P|207:346|305:291,1,239.999992675781,2|2,0:0|0:0,0:0:0:0:
50,266,38443,2,0,P|76:170|143:243,1,239.999992675781,2|0,0:0|0:0,0:0:0:0:
28,371,38935,6,0,B|53:323|32:274|32:274|6:219|31:176,1,200,2|0,0:0|0:0,0:0:0:0:
209,70,39427,2,0,P|164:90|114:89,1,100,2|0,0:0|0:0,0:0:0:0:
332,30,39755,1,2,0:0:0:0:
305,176,39919,1,2,0:0:0:0:
483,151,40083,6,0,B|523:100|489:25|403:28|351:100|372:175|411:255|499:281|499:281|413:256|418:323|361:319|310:283|346:243|264:253|264:253|325:294|297:360|297:360|224:372|206:290|206:290|111:327|68:280|24:205|69:144|136:141|210:177|187:302|105:366|105:366|41:351|-34:262|-44:170|14:63|156:63|210:135|227:188|227:188|226:120|288:99|288:99|235:53|261:-7,1,2114.99993545532,6|0,0:0|0:0,0:0:0:0:
256,192,44017,12,0,45247,0:0:0:0:
106,336,45329,6,0,B|60:410|-20:358|-16:289|44:232|153:271|113:366|172:374|235:346,1,359.999989013672,12|0,0:0|0:0,0:0:0:0:
294,170,45820,2,0,B|352:140|402:226|327:276|268:257|227:217|227:217|227:271|177:295,1,320,12|0,0:0|0:0,0:0:0:0:
26,146,46312,2,0,B|96:134|97:61|97:61|151:103|81:171|156:223,1,300.000011444092,12|2,0:0|0:0,0:0:0:0:
388,105,46804,2,0,B|304:114|256:38|256:38|259:121|175:164,1,300.000011444092,8|2,0:0|0:0,0:0:0:0:
97,60,47296,2,0,B|64:30|64:30|178:48,1,150.000005722046,14|0,0:0|0:0,0:0:0:0:
293,165,47624,2,0,B|260:195|260:195|374:177,1,160,10|0,0:0|0:0,0:0:0:0:
499,17,47952,6,0,B|427:72|440:165|516:180|536:286|452:343,1,359.999989013672,12|0,0:0|0:0,0:0:0:0:
271,257,48443,2,0,B|246:227|256:190|288:148|377:179|373:250|314:270|340:302|410:320|436:294|462:245|392:195,1,320,12|0,0:0|0:0,0:0:0:0:
132,335,48935,2,0,B|122:261|185:227|185:227|187:295|240:362|318:318,1,300.000011444092,12|2,0:0|0:0,0:0:0:0:
0,222,49427,2,0,B|40:256|56:351|56:351|49:255|100:195,1,300.000011444092,8|2,0:0|0:0,0:0:0:0:
18,42,49919,2,0,B|48:9|48:9|30:123,1,150.000005722046,14|0,0:0|0:0,0:0:0:0:
301,225,50247,2,0,B|271:258|271:258|289:144,1,160,8|0,0:0|0:0,0:0:0:0:
134,96,50575,6,0,B|106:6|214:-24|283:55|236:147|158:136|120:190|160:260,1,359.999989013672,14|0,0:0|0:0,0:0:0:0:
375,212,51066,2,0,B|428:199|456:268|421:308|351:329|295:294|319:189|211:219,1,320,14|0,0:0|0:0,0:0:0:0:
111,370,51558,2,0,B|209:382|238:288|238:288|189:297|140:264|148:205,1,300.000011444092,14|0,0:0|0:0,0:0:0:0:
6,146,52050,2,0,P|89:97|219:232,1,300.000011444092,8|0,0:0|0:0,0:0:0:0:
24,275,52542,2,0,B|-9:305|-9:305|105:287,1,150.000005722046,12|0,0:0|0:0,0:0:0:0:
253,246,52870,2,0,B|220:216|220:216|334:234,1,160,14|2,0:0|0:0,0:0:0:0:
464,366,53198,6,0,P|476:241|365:33,1,359.999989013672,14|0,0:0|0:0,0:0:0:0:
180,117,53689,2,0,B|260:145|316:90|316:90|382:135|402:237,1,320,14|0,0:0|0:0,0:0:0:0:
327,379,54181,2,0,B|354:273|307:184|307:184|251:209|192:194,1,300.000011444092,14|0,0:0|0:0,0:0:0:0:
145,40,54673,2,0,B|82:74|81:152|139:191|139:191|67:170|35:238,1,300.000011444092,8|0,0:0|0:0,0:0:0:0:
21,384,55165,2,0,B|68:363|68:363|110:255,1,160,12|0,0:0|0:0,0:0:0:0:
290,111,55493,2,0,B|238:133|238:133|194:248,1,179.999994506836,14|0,0:0|0:0,0:0:0:0:
469,365,55820,5,12,0:0:0:0:
295,191,55984,1,0,3:0:0:0:
512,83,56148,1,0,3:0:0:0:
321,356,56312,5,12,0:0:0:0:
512,229,56476,1,0,3:0:0:0:
302,89,56640,1,0,3:0:0:0:
261,282,56804,5,12,0:0:0:0:
474,156,56968,1,0,0:0:0:0:
224,365,57132,6,0,P|171:301|223:198,1,200,10|0,0:0|3:0,0:0:0:0:
512,299,57460,1,0,3:0:0:0:
359,20,57624,2,0,P|391:122|320:177,1,200,14|0,0:0|3:2,0:0:0:0:
61,135,57952,1,0,3:2:0:0:
302,89,58116,2,0,L|512:121,1,200,10|0,0:0|3:2,0:0:0:0:
183,21,58443,5,12,0:0:0:0:
41,226,58607,1,0,3:2:0:0:
285,306,58771,1,0,3:2:0:0:
77,37,58935,5,12,0:0:0:0:
306,171,59099,1,0,3:2:0:0:
75,355,59263,1,0,3:2:0:0:
257,66,59427,5,12,0:0:0:0:
194,346,59591,1,0,3:2:0:0:
0,114,59755,1,0,3:2:0:0:
247,243,59919,6,0,P|357:247|228:118,1,400,12|2,0:0|3:2,0:0:0:0:
67,371,60411,5,12,0:0:0:0:
247,46,60575,1,0,3:2:0:0:
209,359,60738,5,10,0:0:0:0:
64,0,60902,1,0,3:2:0:0:
306,172,61066,5,14,0:0:0:0:
128,78,61230,1,0,3:2:0:0:
0,233,61394,1,2,3:2:0:0:
229,18,61558,5,12,0:0:0:0:
178,279,61722,1,0,3:2:0:0:
0,74,61886,1,0,3:2:0:0:
95,340,62050,5,14,0:0:0:0:
211,91,62214,1,0,3:2:0:0:
27,156,62378,5,12,0:0:0:0:
286,255,62542,1,0,3:2:0:0:
233,0,62706,1,0,3:2:0:0:
35,259,62870,5,12,0:0:0:0:
353,139,63034,1,0,3:2:0:0:
72,24,63198,1,0,3:2:0:0:
306,357,63361,6,0,L|523:385,1,200,10|0,0:0|3:2,0:0:0:0:
99,104,63689,5,14,0:0:0:0:
434,333,64017,5,8,0:0:0:0:
444,317,64099,1,0,0:0:0:0:
449,298,64181,1,2,0:0:0:0:
444,272,64263,1,0,0:0:0:0:
426,251,64345,1,8,0:0:0:0:
394,231,64427,1,0,0:0:0:0:
376,196,64509,1,0,0:0:0:0:
386,161,64591,1,0,0:0:0:0:
420,136,64673,1,10,0:0:0:0:
462,144,64755,1,0,0:0:0:0:
486,179,64837,1,0,0:0:0:0:
482,221,64919,1,0,0:0:0:0:
450,254,65001,1,10,0:0:0:0:
408,264,65083,1,0,0:0:0:0:
364,247,65165,1,8,0:0:0:0:
327,212,65247,1,0,0:0:0:0:
282,175,65329,1,8,0:0:0:0:
217,163,65411,1,0,0:0:0:0:
151,187,65493,1,8,0:0:0:0:
106,252,65575,1,0,0:0:0:0:
107,329,65657,6,0,P|46:301|34:232,1,119.999996337891,10|10,0:0|0:0,0:0:0:0:
250,11,65984,2,0,L|261:110,1,100,14|0,0:0|0:0,0:0:0:0:
397,363,66312,6,0,B|393:252|474:276|461:151,1,225.000008583069,6|0,3:2|0:0,0:0:0:0:
461,154,66640,1,8,0:0:0:0:
316,323,66804,2,0,P|180:335|116:267,1,225.000008583069,2|0,0:0|0:0,0:0:0:0:
122,279,67132,1,0,3:0:0:0:
286,197,67296,2,0,P|263:264|227:166,1,255.000004863739,10|0,0:0|0:0,0:0:0:0:
222,167,67624,5,2,3:2:0:0:
438,179,67788,1,0,0:0:0:0:
186,83,67952,1,8,0:0:0:0:
438,44,68116,1,0,0:0:0:0:
329,303,68279,2,0,P|245:341|170:322,1,150.000005722046,2|0,0:0|3:2,0:0:0:0:
33,33,68607,2,0,L|56:279,1,225.000008583069,10|0,0:0|0:0,0:0:0:0:
66,342,68935,6,0,B|178:311|85:195|217:165,1,225.000008583069,2|0,3:2|0:0,0:0:0:0:
191,172,69263,1,8,0:0:0:0:
379,367,69427,2,0,P|322:273|177:262,1,225.000008583069,2|0,0:0|0:0,0:0:0:0:
215,249,69755,1,0,3:0:0:0:
440,303,69919,2,0,P|483:206|378:229,1,255.000004863739,10|0,0:0|0:0,0:0:0:0:
380,220,70247,5,2,3:2:0:0:
324,19,70411,1,0,0:0:0:0:
209,271,70575,1,8,0:0:0:0:
241,102,70738,1,0,0:0:0:0:
38,188,70902,2,0,P|140:201|185:176,1,150.000005722046,2|0,0:0|3:2,0:0:0:0:
302,11,71230,2,0,L|76:31,1,225.000008583069,10|0,0:0|0:0,0:0:0:0:
4,45,71558,6,0,B|36:157|152:67|183:187,1,225.000008583069,2|0,3:2|0:0,0:0:0:0:
176,166,71886,1,8,0:0:0:0:
33,384,72050,2,0,P|34:281|120:182,1,225.000008583069,2|0,0:0|0:0,0:0:0:0:
107,188,72378,1,0,3:0:0:0:
327,325,72542,2,0,P|395:277|288:264,1,255.000004863739,10|0,0:0|0:0,0:0:0:0:
289,259,72870,5,2,3:2:0:0:
473,316,73034,1,0,0:0:0:0:
223,199,73198,1,8,0:0:0:0:
486,138,73361,1,0,0:0:0:0:
204,120,73525,2,0,P|145:180|159:249,1,150.000005722046,2|0,0:0|3:2,0:0:0:0:
417,378,73853,2,0,L|191:358,1,225.000008583069,10|0,0:0|0:0,0:0:0:0:
120,347,74181,6,0,B|152:235|268:325|299:205,1,225.000008583069,2|0,3:2|0:0,0:0:0:0:
292,225,74509,1,8,0:0:0:0:
24,138,74673,2,0,P|126:132|223:199,1,225.000008583069,2|0,0:0|0:0,0:0:0:0:
223,199,75001,1,0,3:0:0:0:
290,15,75165,2,0,P|239:102|337:78,1,255.000004863739,10|0,0:0|0:0,0:0:0:0:
337,78,75493,5,2,3:2:0:0:
153,40,75657,1,0,0:0:0:0:
324,233,75820,1,8,0:0:0:0:
373,0,75984,1,0,0:0:0:0:
216,218,76148,5,2,0:0:0:0:
61,182,76312,1,0,3:2:0:0:
216,218,76476,6,0,L|149:205,1,62.5,10|0,0:0|0:0,0:0:0:0:
61,182,76640,2,0,L|-6:169,1,62.5,2|0,0:0|0:0,0:0:0:0:
235,302,76804,6,0,B|347:271|254:155|386:125,1,225.000008583069,6|0,3:2|0:0,0:0:0:0:
360,132,77132,1,8,0:0:0:0:
98,54,77296,2,0,P|191:110|215:217,1,225.000008583069,2|0,0:0|0:0,0:0:0:0:
216,216,77624,1,0,3:0:0:0:
468,193,77788,2,0,P|436:290|382:203,1,255.000004863739,10|0,0:0|0:0,0:0:0:0:
382,203,78116,5,2,3:2:0:0:
327,363,78279,1,0,0:0:0:0:
170,166,78443,1,8,0:0:0:0:
421,124,78607,1,0,0:0:0:0:
175,354,78771,2,0,L|5:336,1,150.000005722046,2|0,0:0|3:2,0:0:0:0:
93,143,79099,2,0,P|129:240|232:224,1,225.000008583069,10|0,0:0|0:0,0:0:0:0:
247,149,79427,6,0,B|359:180|266:296|398:326,1,225.000008583069,2|0,3:2|0:0,0:0:0:0:
372,319,79755,1,8,0:0:0:0:
406,27,79919,2,0,P|381:136|400:262,1,225.000008583069,2|0,0:0|0:0,0:0:0:0:
395,247,80247,1,0,3:0:0:0:
180,372,80411,2,0,P|258:330|150:320,1,255.000004863739,10|0,0:0|0:0,0:0:0:0:
155,298,80738,5,2,3:2:0:0:
346,322,80902,1,0,0:0:0:0:
96,195,81066,1,8,0:0:0:0:
380,138,81230,1,0,0:0:0:0:
174,0,81394,2,0,L|157:149,1,150.000005722046,2|0,0:0|3:2,0:0:0:0:
402,58,81722,2,0,P|466:139|401:219,1,225.000008583069,10|0,0:0|0:0,0:0:0:0:
307,173,82050,6,0,B|377:262|236:305|324:404,1,225.000008583069,2|0,3:2|0:0,0:0:0:0:
308,384,82378,1,8,0:0:0:0:
63,147,82542,2,0,P|142:224|252:224,1,225.000008583069,2|0,0:0|0:0,0:0:0:0:
252,224,82870,1,0,3:0:0:0:
167,44,83034,2,0,P|172:146|246:76,1,255.000004863739,10|0,0:0|0:0,0:0:0:0:
245,75,83361,5,2,3:2:0:0:
143,243,83525,1,0,0:0:0:0:
331,150,83689,1,8,0:0:0:0:
63,59,83853,1,0,0:0:0:0:
272,246,84017,2,0,L|437:264,1,150.000005722046,2|0,0:0|3:2,0:0:0:0:
169,328,84345,2,0,P|76:297|93:176,1,225.000008583069,10|0,0:0|0:0,0:0:0:0:
158,162,84673,6,0,B|260:156|225:36|341:36,1,225.000008583069,2|0,3:2|0:0,0:0:0:0:
330,36,85001,1,8,0:0:0:0:
398,320,85165,2,0,P|393:220|310:107,1,225.000008583069,2|0,0:0|0:0,0:0:0:0:
325,118,85493,1,0,3:0:0:0:
178,348,85657,2,0,P|181:249|250:340,1,255.000004863739,10|0,0:0|0:0,0:0:0:0:
264,315,85984,5,2,3:2:0:0:
145,133,86148,1,0,0:0:0:0:
68,334,86312,1,8,0:0:0:0:
307,201,86476,1,0,0:0:0:0:
10,122,86640,5,2,0:0:0:0:
184,368,86804,1,0,3:2:0:0:
223,130,86968,2,0,P|168:57|82:87,1,194.999991073609,10|0,0:0|0:0,0:0:0:0:
189,200,87296,6,0,P|239:208|271:192,2,75.0000028610231,6|0|8,3:2|0:0|0:0,0:0:0:0:
305,133,87788,1,0,0:0:0:0:
145,133,87952,1,0,0:0:0:0:
375,133,88116,1,0,3:2:0:0:
75,133,88279,1,8,0:0:0:0:
372,59,88443,6,0,P|418:71|445:105,1,75.0000028610231,0|2,0:0|3:2,0:0:0:0:
272,64,88771,1,0,0:0:0:0:
445,164,88935,1,8,0:0:0:0:
209,28,89099,1,2,0:0:0:0:
378,210,89263,6,0,P|365:244|337:268,1,75.0000028610231,0|0,0:0|3:2,0:0:0:0:
208,352,89591,1,10,0:0:0:0:
408,352,89755,1,0,0:0:0:0:
174,287,89919,6,0,P|224:279|256:295,2,75.0000028610231,2|0|8,3:2|0:0|0:0,0:0:0:0:
286,221,90411,1,0,0:0:0:0:
126,221,90575,1,0,0:0:0:0:
356,221,90739,1,0,3:2:0:0:
56,221,90902,1,8,0:0:0:0:
243,156,91066,6,0,P|231:120|201:97,1,75.0000028610231,0|2,0:0|3:2,0:0:0:0:
337,111,91394,1,0,0:0:0:0:
172,162,91558,1,8,0:0:0:0:
405,90,91722,1,0,0:0:0:0:
368,291,91886,6,0,P|352:257|355:220,1,75.0000028610231,0|0,0:0|3:2,0:0:0:0:
288,336,92214,1,10,0:0:0:0:
488,336,92378,1,0,0:0:0:0:
221,366,92542,6,0,P|214:329|227:294,2,75.0000028610231,2|0|8,3:2|0:0|0:0,0:0:0:0:
168,240,93034,1,0,0:0:0:0:
288,240,93198,1,0,0:0:0:0:
88,240,93362,1,0,3:2:0:0:
368,240,93525,1,8,0:0:0:0:
30,191,93689,6,0,P|6:162|0:126,1,75.0000028610231,0|2,0:0|3:2,0:0:0:0:
210,85,94017,1,0,0:0:0:0:
73,133,94181,1,8,0:0:0:0:
281,59,94345,1,0,0:0:0:0:
200,227,94509,6,0,P|180:194|181:157,1,75.0000028610231,0|0,0:0|3:2,0:0:0:0:
306,312,94837,1,10,0:0:0:0:
128,312,95001,1,0,0:0:0:0:
361,252,95165,6,0,P|411:244|443:260,2,75.0000028610231,2|0|8,3:2|0:0|0:0,0:0:0:0:
253,158,95657,1,0,0:0:0:0:
419,158,95821,1,2,0:0:0:0:
181,158,95985,1,0,3:2:0:0:
491,158,96148,1,8,0:0:0:0:
145,93,96312,6,0,P|157:47|191:20,1,75.0000028610231,0|0,0:0|3:2,0:0:0:0:
216,221,96640,1,0,0:0:0:0:
57,97,96804,1,8,0:0:0:0:
264,281,96968,1,0,0:0:0:0:
19,252,97132,6,0,P|31:217|59:193,1,75.0000028610231,0|0,0:0|3:2,0:0:0:0:
279,299,97460,1,8,0:0:0:0:
99,27,97624,1,0,0:0:0:0:
136,358,97788,6,0,L|143:279,2,75.0000028610231,6|0|8,3:2|0:0|0:0,0:0:0:0:
208,152,98279,1,0,0:0:0:0:
208,352,98443,1,0,0:0:0:0:
208,80,98607,1,0,3:2:0:0:
208,280,98771,1,10,0:0:0:0:
351,119,98935,6,0,L|357:193,1,75.0000028610231,2|2,0:0|3:2,0:0:0:0:
384,48,99263,1,0,0:0:0:0:
240,160,99427,1,8,0:0:0:0:
444,3,99591,1,2,0:0:0:0:
458,200,99755,6,0,L|451:274,1,75.0000028610231,0|0,0:0|3:2,0:0:0:0:
392,120,100083,1,10,0:0:0:0:
392,352,100247,1,0,0:0:0:0:
306,82,100411,6,0,L|313:161,2,75.0000028610231,2|0|8,3:2|0:0|0:0,0:0:0:0:
230,264,100902,1,0,0:0:0:0:
315,67,101066,1,0,0:0:0:0:
200,331,101230,1,0,3:2:0:0:
345,0,101394,1,10,0:0:0:0:
163,85,101558,6,0,L|156:159,1,75.0000028610231,2|2,0:0|3:2,0:0:0:0:
59,60,101886,1,0,0:0:0:0:
199,232,102050,1,8,0:0:0:0:
12,0,102214,1,0,0:0:0:0:
54,307,102378,6,0,L|60:232,1,75.0000028610231,0|0,0:0|3:2,0:0:0:0:
124,379,102706,1,10,0:0:0:0:
9,141,102870,1,0,0:0:0:0:
238,46,103034,6,0,L|245:125,2,75.0000028610231,2|0|8,3:2|0:0|0:0,0:0:0:0:
168,264,103525,1,0,0:0:0:0:
168,96,103689,1,0,0:0:0:0:
168,336,103853,1,0,3:2:0:0:
168,168,104017,1,8,0:0:0:0:
359,314,104181,6,0,L|365:239,1,75.0000028610231,0|2,0:0|3:2,0:0:0:0:
295,351,104509,1,0,0:0:0:0:
477,265,104673,1,8,0:0:0:0:
230,382,104837,1,2,0:0:0:0:
423,190,105001,6,0,L|416:115,1,75.0000028610231,0|0,0:0|3:2,0:0:0:0:
431,342,105329,1,8,0:0:0:0:
342,74,105493,1,0,0:0:0:0:
195,286,105657,6,0,L|201:211,2,75.0000028610231,2|0|8,3:2|0:0|0:0,0:0:0:0:
102,86,106148,1,2,0:0:0:0:
10,298,106312,1,0,0:0:0:0:
129,17,106476,1,0,3:2:0:0:
98,246,106640,6,0,L|92:171,1,75.0000028610231,8|0,0:0|0:0,0:0:0:0:
258,340,106968,6,0,L|272:291,1,50,2|0,3:2|0:0,0:0:0:0:
385,108,107132,2,0,L|349:142,1,50,0|0,3:2|0:0,0:0:0:0:
323,384,107296,6,0,L|337:335,1,50,8|0,0:0|0:0,0:0:0:0:
447,147,107460,2,0,L|411:181,1,50,0|0,3:2|0:0,0:0:0:0:
427,352,107624,5,8,0:0:0:0:
403,293,107705,1,0,0:0:0:0:
362,248,107787,1,0,3:2:0:0:
304,225,107869,1,0,0:0:0:0:
243,226,107952,2,0,P|189:222|109:260,1,112.500004291535,8|0,0:0|0:0,0:0:0:0:
69,309,108279,6,0,P|136:237|152:125,1,200,4|8,3:2|0:0,0:0:0:0:
344,371,108771,2,0,P|252:350|240:256,1,200,2|0,0:0|3:2,0:0:0:0:
396,146,109263,2,0,P|425:201|422:275,1,129.999994049073,10|2,0:0|0:0,0:0:0:0:
276,52,109591,6,0,L|63:66,1,200,2|8,3:2|0:0,0:0:0:0:
400,150,110083,1,2,0:0:0:0:
400,150,110247,2,0,L|506:143,1,100,2|0,0:0|3:2,0:0:0:0:
291,234,110575,1,8,0:0:0:0:
444,55,110738,1,0,0:0:0:0:
447,355,110902,6,0,P|355:316|241:319,1,200,0|8,3:2|0:0,0:0:0:0:
198,115,111394,2,0,P|290:154|342:78,1,200,2|0,0:0|3:2,0:0:0:0:
40,54,111886,2,0,P|84:100|93:163,1,129.999994049073,10|2,0:0|0:0,0:0:0:0:
6,378,112214,6,0,L|205:363,1,200,2|8,3:2|0:0,0:0:0:0:
399,280,112706,1,0,0:0:0:0:
399,280,112870,2,0,L|299:287,1,100,2|0,0:0|3:2,0:0:0:0:
475,367,113198,1,10,0:0:0:0:
512,245,113361,1,0,0:0:0:0:
428,152,113525,6,0,P|329:132|261:176,1,150,2|0,3:2|0:0,0:0:0:0:
235,205,113853,2,0,P|251:132|225:88,1,100,10|0,0:0|0:0,0:0:0:0:
66,259,114181,2,0,P|15:203|16:152,1,100,2|0,0:0|3:2,0:0:0:0:
74,0,114509,6,0,L|136:189,1,200,10|0,0:0|3:2,0:0:0:0:
199,368,115001,1,0,0:0:0:0:
199,368,115165,2,0,L|167:273,1,100,10|0,0:0|0:0,0:0:0:0:
401,377,115493,1,2,0:0:0:0:
298,238,115657,1,0,3:2:0:0:
395,112,115820,2,0,P|478:97|540:137,1,129.999994049073,8|0,0:0|0:0,0:0:0:0:
286,353,116148,6,0,P|183:345|90:255,1,200,2|8,3:2|0:0,0:0:0:0:
359,49,116640,2,0,P|402:137|390:235,1,200,2|0,0:0|3:2,0:0:0:0:
60,138,117132,2,0,P|118:52|242:17,1,200,10|0,0:0|3:2,0:0:0:0:
286,353,117624,2,0,P|187:346|108:287,1,200,2|0,0:0|0:0,0:0:0:0:
431,136,118116,1,0,0:0:0:0:
395,292,118279,1,0,3:2:0:0:
364,94,118443,2,0,P|399:62|498:94,1,150,8|0,0:0|0:0,0:0:0:0:
431,136,118771,6,0,B|398:190|290:201|329:109|251:123|191:183,1,220.000006713867,4|8,3:2|0:0,0:0:0:0:
71,14,119263,2,0,P|138:98|150:206,1,220.000006713867,2|0,0:0|3:2,0:0:0:0:
266,344,119755,2,0,P|283:261|259:192,1,129.999994049073,10|2,0:0|0:0,0:0:0:0:
0,94,120083,6,0,L|239:69,1,220.000006713867,2|8,3:2|0:0,0:0:0:0:
449,158,120575,1,2,0:0:0:0:
449,158,120738,2,0,L|329:170,1,110.000003356934,0|0,0:0|3:2,0:0:0:0:
451,292,121066,1,8,0:0:0:0:
310,72,121230,1,0,0:0:0:0:
188,365,121394,6,0,B|150:337|142:259|209:274|218:191|171:144,1,220.000006713867,0|8,3:2|0:0,0:0:0:0:
442,256,121886,2,0,P|363:307|234:311,1,220.000006713867,2|0,0:0|3:2,0:0:0:0:
11,266,122378,2,0,P|72:247|120:204,1,129.999994049073,10|2,0:0|0:0,0:0:0:0:
275,0,122706,6,0,L|300:239,1,220.000006713867,2|8,3:2|0:0,0:0:0:0:
34,110,123198,1,0,0:0:0:0:
34,110,123361,2,0,L|46:-9,1,110.000003356934,2|0,0:0|3:2,0:0:0:0:
203,103,123689,1,10,0:0:0:0:
53,210,123853,1,0,0:0:0:0:
280,270,124017,6,0,L|403:246,1,110.000003356934,2|0,3:2|0:0,0:0:0:0:
478,132,124345,1,10,0:0:0:0:
227,205,124509,2,0,P|195:281|293:357,1,220.000006713867,0|0,0:0|3:2,0:0:0:0:
501,283,125001,1,10,0:0:0:0:
310,184,125165,1,0,0:0:0:0:
490,51,125329,6,0,L|436:176,1,119.999996337891,0|0,3:2|0:0,0:0:0:0:
253,35,125657,1,10,0:0:0:0:
388,68,125820,1,0,0:0:0:0:
172,153,125984,1,2,0:0:0:0:
305,106,126148,1,0,3:2:0:0:
87,79,126312,2,0,P|56:161|79:218,1,129.999994049073,8|0,0:0|0:0,0:0:0:0:
254,368,126640,5,14,0:0:0:0:
238,49,126804,1,0,3:2:0:0:
0,223,126968,1,0,3:2:0:0:
370,256,127132,5,12,0:0:0:0:
64,349,127296,1,0,3:2:0:0:
148,14,127460,1,0,3:2:0:0:
338,331,127624,5,12,0:0:0:0:
71,124,127788,1,0,0:0:0:0:
436,303,127952,5,8,0:0:0:0:
480,231,128034,1,0,0:0:0:0:
470,158,128116,1,0,0:0:0:0:
414,115,128198,1,0,0:0:0:0:
347,119,128279,1,10,0:0:0:0:
301,93,128361,1,0,3:2:0:0:
293,49,128443,1,0,3:2:0:0:
309,17,128525,1,0,3:2:0:0:
330,5,128607,5,2,3:2:0:0:
44,41,128771,1,0,3:2:0:0:
178,150,128935,2,0,L|194:311,1,150,10|0,0:0|0:0,0:0:0:0:
251,348,129263,6,0,P|308:296|412:291,1,129.999994049073,6|0,3:2|0:0,0:0:0:0:
413,107,129591,2,0,P|429:169|415:231,1,129.999994049073,10|0,0:0|0:0,0:0:0:0:
237,0,129919,2,0,P|294:52|398:57,1,129.999994049073,2|0,0:0|3:2,0:0:0:0:
258,235,130247,1,10,0:0:0:0:
413,29,130411,1,0,0:0:0:0:
178,230,130575,6,0,P|115:221|63:182,1,129.999994049073,2|0,3:2|0:0,0:0:0:0:
308,178,130902,2,0,P|332:118|324:54,1,129.999994049073,10|0,0:0|0:0,0:0:0:0:
23,111,131230,1,2,0:0:0:0:
225,159,131394,1,0,3:2:0:0:
81,381,131558,1,10,0:0:0:0:
62,181,131722,1,0,0:0:0:0:
319,338,131886,6,0,P|257:320|194:335,1,129.999994049073,0|0,3:2|0:0,0:0:0:0:
410,153,132214,1,10,0:0:0:0:
440,383,132378,1,0,0:0:0:0:
282,99,132542,1,2,0:0:0:0:
194,334,132706,1,0,3:2:0:0:
371,69,132870,2,0,L|521:55,1,129.999994049073,10|0,0:0|0:0,0:0:0:0:
278,189,133198,5,2,3:2:0:0:
168,43,133361,1,0,0:0:0:0:
359,155,133525,1,8,0:0:0:0:
103,258,133689,1,0,0:0:0:0:
248,28,133853,2,0,P|237:90|185:126,1,129.999994049073,2|0,0:0|3:2,0:0:0:0:
0,7,134181,2,0,L|150:21,1,129.999994049073,10|0,0:0|0:0,0:0:0:0:
373,170,134509,5,2,3:2:0:0:
84,271,134673,2,0,P|146:300|215:295,1,139.999995727539,2|8,0:0|0:0,0:0:0:0:
171,98,135001,5,2,0:0:0:0:
427,327,135165,2,0,P|364:297|295:302,1,139.999995727539,2|0,0:0|3:2,0:0:0:0:
432,106,135493,5,8,0:0:0:0:
62,254,135657,2,0,P|36:190|26:121,1,139.999995727539,2|0,0:0|3:2,0:0:0:0:
490,171,135984,5,2,0:0:0:0:
151,12,136148,2,0,P|124:76|114:145,1,139.999995727539,10|0,0:0|0:0,0:0:0:0:
359,194,136476,2,0,P|316:138|261:95,1,139.999995727539,2|0,0:0|3:2,0:0:0:0:
97,283,136804,2,0,P|166:273|230:247,1,139.999995727539,10|0,0:0|0:0,0:0:0:0:
437,370,137132,2,0,P|330:343|319:242,1,209.999993591309,0|0,3:2|0:0,0:0:0:0:
359,194,137460,5,10,0:0:0:0:
113,127,137624,1,0,0:0:0:0:
397,288,137788,2,0,P|452:229|453:155,1,139.999995727539,2|0,0:0|3:2,0:0:0:0:
248,361,138116,2,0,P|169:379|104:342,1,139.999995727539,10|0,0:0|0:0,0:0:0:0:
343,54,138443,2,0,L|360:207,1,139.999995727539,0|0,3:2|0:0,0:0:0:0:
72,302,138771,5,10,0:0:0:0:
353,137,138935,1,0,0:0:0:0:
0,87,139099,1,2,0:0:0:0:
248,361,139263,1,0,3:2:0:0:
196,0,139427,1,10,0:0:0:0:
0,205,139591,1,10,0:0:0:0:
294,72,139755,6,0,B|361:55|361:55|499:117,1,209.999993591309,6|0,3:2|0:0,0:0:0:0:
443,172,140083,2,0,P|415:245|432:313,1,129.999994049073,10|0,0:0|0:0,0:0:0:0:
264,384,140411,1,2,0:0:0:0:
471,355,140575,1,0,3:2:0:0:
275,245,140738,2,0,P|189:227|135:285,1,129.999994049073,10|0,0:0|0:0,0:0:0:0:
18,384,141066,6,0,L|29:249,1,129.999994049073,2|0,3:2|0:0,0:0:0:0:
45,37,141394,1,10,0:0:0:0:
158,247,141558,1,0,0:0:0:0:
177,7,141722,1,2,0:0:0:0:
28,254,141886,1,0,3:2:0:0:
24,15,142050,2,2,L|35:150,1,129.999994049073,10|0,0:0|0:0,0:0:0:0:
139,323,142378,2,0,P|204:311|199:178,1,194.999991073609,0|0,3:2|0:0,0:0:0:0:
157,172,142706,5,10,0:0:0:0:
440,260,142870,1,0,0:0:0:0:
158,247,143034,5,2,0:0:0:0:
496,153,143198,1,0,3:2:0:0:
210,29,143361,2,0,P|138:56|119:114,1,129.999994049073,10|0,0:0|0:0,0:0:0:0:
457,248,143689,5,2,3:2:0:0:
416,63,143853,1,0,0:0:0:0:
370,315,144017,1,8,0:0:0:0:
464,149,144181,1,0,0:0:0:0:
276,325,144345,2,0,L|140:340,1,129.999994049073,2|0,0:0|3:2,0:0:0:0:
301,114,144673,2,0,L|315:243,1,129.999994049073,10|0,0:0|0:0,0:0:0:0:
0,117,145001,5,2,3:2:0:0:
272,43,145165,2,0,P|352:52|380:110,1,139.999995727539,2|8,0:0|0:0,0:0:0:0:
61,14,145493,5,2,0:0:0:0:
349,171,145657,2,0,P|429:162|457:104,1,139.999995727539,2|0,0:0|3:2,0:0:0:0:
182,376,145984,5,8,0:0:0:0:
125,140,146148,2,0,P|128:50|168:-11,1,139.999995727539,2|0,0:0|3:2,0:0:0:0:
17,236,146476,5,2,0:0:0:0:
325,333,146640,2,0,P|401:285|434:220,1,139.999995727539,10|0,0:0|0:0,0:0:0:0:
125,140,146968,2,0,P|128:230|168:291,1,139.999995727539,2|0,0:0|3:2,0:0:0:0:
392,63,147296,2,0,P|312:20|239:24,1,139.999995727539,10|0,0:0|0:0,0:0:0:0:
212,378,147624,6,0,L|267:229,1,139.999995727539,0|0,3:2|0:0,0:0:0:0:
3,107,147952,2,0,L|51:238,1,139.999995727539,10|0,0:0|0:0,0:0:0:0:
237,45,148279,1,2,0:0:0:0:
144,272,148443,1,0,3:2:0:0:
41,4,148607,1,10,0:0:0:0:
307,130,148771,1,0,0:0:0:0:
64,301,148935,2,0,P|77:219|138:189,1,139.999995727539,0|0,3:2|0:0,0:0:0:0:
396,339,149263,5,10,0:0:0:0:
192,191,149427,1,0,0:0:0:0:
465,254,149591,2,0,L|392:259,1,69.9999978637696,10|0,0:0|0:0,0:0:0:0:
144,272,149755,1,0,3:2:0:0:
410,83,149919,2,0,L|377:148,1,69.9999978637696,10|0,0:0|0:0,0:0:0:0:
260,384,150083,2,0,L|255:311,1,69.9999978637696,0|0,3:2|0:0,0:0:0:0:
242,12,150247,6,0,B|137:39|204:157|93:182,1,225.000008583069,6|0,3:2|0:0,0:0:0:0:
108,177,150575,1,8,0:0:0:0:
322,287,150738,2,0,P|262:211|254:78,1,225.000008583069
251,86,151066,1,0,3:0:0:0:
87,254,151230,2,0,B|86:309|141:347|141:347|175:296|156:240,1,225.000008583069,10|0,0:0|0:0,0:0:0:0:
155,239,151558,5,2,3:2:0:0:
91,105,151722,1,0,0:0:0:0:
19,288,151886,1,8,0:0:0:0:
19,53,152050,1,0,0:0:0:0:
229,286,152214,2,0,P|301:303|355:256,1,150.000005722046,2|0,0:0|0:0,0:0:0:0:
303,7,152542,2,0,L|284:231,1,225.000008583069,10|0,0:0|0:0,0:0:0:0:
229,286,152870,6,0,B|122:294|160:157|46:170,1,225.000008583069,2|0,3:2|0:0,0:0:0:0:
54,169,153198,1,8,0:0:0:0:
383,144,153361,2,0,P|271:130|217:221,1,225.000008583069,2|0,0:0|0:0,0:0:0:0:
217,214,153689,1,0,3:0:0:0:
81,103,153853,2,0,B|82:48|27:10|27:10|-7:61|12:117,1,225.000008583069,10|0,0:0|0:0,0:0:0:0:
12,117,154181,5,2,3:2:0:0:
230,25,154345,1,0,0:0:0:0:
35,241,154509,1,8,0:0:0:0:
142,0,154673,1,0,0:0:0:0:
189,313,154837,2,0,P|153:220|87:207,1,150.000005722046,2|0,0:0|0:0,0:0:0:0:
253,364,155165,2,0,L|498:385,1,225.000008583069,10|0,0:0|0:0,0:0:0:0:
460,309,155493,6,0,B|369:258|474:167|372:112,1,225.000008583069,2|0,3:2|0:0,0:0:0:0:
378,115,155820,1,8,0:0:0:0:
141,223,155984,2,0,P|216:175|365:197,1,225.000008583069,2|0,0:0|0:0,0:0:0:0:
347,186,156312,1,0,3:0:0:0:
148,12,156476,2,0,B|129:68|163:119|163:119|218:81|217:26,1,225.000008583069,10|0,0:0|0:0,0:0:0:0:
216,25,156804,5,2,3:2:0:0:
74,146,156968,1,0,0:0:0:0:
299,87,157132,1,8,0:0:0:0:
14,26,157296,1,0,0:0:0:0:
89,221,157460,2,0,P|8:186|3:121,1,150.000005722046,2|0,0:0|0:0,0:0:0:0:
246,142,157788,2,0,L|226:380,1,225.000008583069,10|0,0:0|0:0,0:0:0:0:
296,384,158116,6,0,B|403:392|365:255|479:268,1,225.000008583069,2|0,3:2|0:0,0:0:0:0:
471,267,158444,1,8,0:0:0:0:
216,116,158607,2,0,P|279:186|306:329,1,225.000008583069,2|0,0:0|0:0,0:0:0:0:
307,310,158935,1,0,3:0:0:0:
437,142,159099,2,0,B|456:86|422:35|422:35|367:73|368:128,1,225.000008583069,10|0,0:0|0:0,0:0:0:0:
368,128,159427,5,2,3:2:0:0:
192,24,159591,1,0,0:0:0:0:
137,245,159755,1,10,0:0:0:0:
295,28,159919,1,0,0:0:0:0:
264,314,160083,1,2,0:0:0:0:
67,118,160247,1,0,0:0:0:0:
395,62,160411,1,10,0:0:0:0:
166,356,160575,1,0,0:0:0:0:
106,39,160738,6,0,P|2:61|57:205,1,300.000011444092,6|8,3:2|0:0,0:0:0:0:
267,102,161230,1,2,0:0:0:0:
318,249,161394,2,0,P|255:185|118:184,1,225.000008583069
68,238,161722,2,0,B|49:294|83:345|83:345|138:307|137:252,1,225.000008583069,10|0,0:0|0:0,0:0:0:0:
136,251,162050,5,2,3:2:0:0:
0,174,162214,1,0,0:0:0:0:
274,135,162378,1,8,0:0:0:0:
7,47,162542,1,0,0:0:0:0:
297,253,162706,2,0,L|459:276,1,150.000005722046,2|0,0:0|0:0,0:0:0:0:
242,326,163034,2,0,P|208:223|302:162,1,225.000008583069,10|0,0:0|0:0,0:0:0:0:
363,185,163361,6,0,B|385:70|251:101|268:-3,1,225.000008583069,2|0,3:2|0:0,0:0:0:0:
267,0,163689,1,10,0:0:0:0:
162,139,163853,1,0,0:0:0:0:
340,15,164017,1,2,0:0:0:0:
84,0,164181,1,0,3:0:0:0:
363,185,164345,2,0,B|419:204|470:170|470:170|432:115|377:116,1,225.000008583069,10|0,0:0|0:0,0:0:0:0:
376,116,164673,5,2,3:2:0:0:
243,271,164837,1,0,0:0:0:0:
206,66,165001,1,8,0:0:0:0:
331,332,165165,1,0,0:0:0:0:
36,313,165329,2,0,L|10:159,1,150.000005722046,2|0,0:0|0:0,0:0:0:0:
299,333,165657,2,0,P|194:338|174:227,1,225.000008583069,10|0,0:0|0:0,0:0:0:0:
228,191,165984,6,0,B|343:201|292:68|425:84,1,225.000008583069,2|0,3:2|0:0,0:0:0:0:
407,82,166312,1,8,0:0:0:0:
63,27,166476,2,0,P|172:34|243:117,1,225.000008583069,2|0,0:0|0:0,0:0:0:0:
243,117,166804,1,0,3:0:0:0:
108,253,166968,2,0,B|52:272|1:238|1:238|39:183|94:184,1,225.000008583069,10|0,0:0|0:0,0:0:0:0:
95,184,167296,5,2,3:2:0:0:
290,253,167460,1,0,0:0:0:0:
76,330,167624,1,8,0:0:0:0:
335,164,167788,1,0,0:0:0:0:
207,384,167952,2,0,L|186:223,1,150.000005722046,2|0,0:0|0:0,0:0:0:0:
318,82,168279,2,0,P|411:130|373:236,1,225.000008583069,10|0,0:0|0:0,0:0:0:0:
314,259,168607,6,0,B|373:357|442:247|522:362,1,225.000008583069,2|0,3:2|0:0,0:0:0:0:
508,344,168935,1,8,0:0:0:0:
383,229,169099,2,0,P|434:157|418:17,1,225.000008583069,2|0,0:0|0:0,0:0:0:0:
423,25,169427,1,0,3:0:0:0:
261,199,169591,2,0,B|237:144|266:91|266:91|324:124|328:179,1,225.000008583069,10|0,0:0|0:0,0:0:0:0:
328,180,169919,5,2,3:2:0:0:
120,33,170083,1,0,0:0:0:0:
221,269,170247,1,8,0:0:0:0:
294,10,170411,1,0,0:0:0:0:
101,195,170575,1,2,0:0:0:0:
404,134,170738,1,0,0:0:0:0:
56,137,170902,2,0,P|28:207|147:253,1,225.000008583069,10|0,0:0|0:0,0:0:0:0:
202,185,171230,6,0,B|284:175|323:253|323:253|253:221|192:298,1,259.999988098145,6|0,0:0|0:0,0:0:0:0:
281,324,171722,2,0,B|350:359|448:293|376:191,1,200
353,158,172214,2,0,B|414:130|457:178|457:178|424:139|437:88,1,200,4|4,0:0|0:0,0:0:0:0:
510,117,172706,2,0,B|519:41|457:-1|397:18|373:57,1,200
316,87,173198,2,0,P|282:117|276:183,1,100
325,249,173525,5,0,3:2:0:0:
253,238,173607,1,0,3:2:0:0:
181,227,173689,1,0,3:2:0:0:
109,216,173771,1,0,3:2:0:0:
37,205,173853,6,0,B|33:137|70:76|70:76|67:114|93:142,1,200,2|0,3:2|0:0,0:0:0:0:
143,86,174345,2,0,P|124:27|3:47,1,200,2|0,0:0|0:0,0:0:0:0:
158,159,174837,2,0,B|231:151|208:73|261:26|334:63,1,200,2|0,0:0|0:0,0:0:0:0:
414,148,175329,2,0,B|345:165|293:124|293:124|337:133|366:99,1,200,2|0,0:0|0:0,0:0:0:0:
485,116,175820,2,0,P|489:170|459:211,1,100,2|0,3:2|0:0,0:0:0:0:
421,70,176148,2,0,P|465:39|516:45,1,100,2|0,0:0|0:0,0:0:0:0:
402,252,176476,6,0,L|188:223,1,200,6|0,0:0|0:0,0:0:0:0:
143,352,176968,2,0,B|144:312|172:294|172:294|131:280|116:220|142:182,1,200,2|0,0:0|0:0,0:0:0:0:
203,225,177460,2,0,P|216:167|97:122,1,200,2|0,0:0|0:0,0:0:0:0:
213,352,177952,2,0,B|244:332|245:290|245:290|271:266|291:226|291:173,1,200,2|0,0:0|0:0,0:0:0:0:
312,320,178443,2,0,B|325:343|359:359|384:324|347:291|316:317,1,100,2|0,0:0|0:0,0:0:0:0:
173,297,178771,2,0,B|160:274|126:258|101:293|138:326|169:300,1,100,2|0,0:0|0:0,0:0:0:0:
411,384,179099,6,0,P|432:324|343:235,1,200,2|0,0:0|0:0,0:0:0:0:
437,189,179591,2,0,L|497:178,1,50,0|0,3:2|0:0,0:0:0:0:
270,263,179755,6,0,P|212:254|166:216,1,119.999996337891,6|0,0:0|0:0,0:0:0:0:
197,18,180083,1,10,0:0:0:0:
197,18,180247,2,0,P|150:54|130:110,1,119.999996337891,2|0,3:2|0:0,0:0:0:0:
293,187,180575,1,0,0:0:0:0:
368,170,180738,2,0,P|374:111|349:57,1,119.999996337891
201,279,181066,2,0,P|146:255|112:206,1,119.999996337891,12|0,0:0|0:0,0:0:0:0:
361,322,181394,1,2,0:0:0:0:
385,343,181722,6,0,B|438:247|438:247|415:125|415:125|473:12,1,359.999989013672,4|2,3:2|0:0,0:0:0:0:
334,95,182378,2,0,B|279:114|279:114|221:94,1,119.999996337891,8|0,0:0|0:0,0:0:0:0:
68,27,182706,2,0,B|87:82|87:82|67:140,1,119.999996337891,2|0,0:0|0:0,0:0:0:0:
8,292,183034,5,2,3:2:0:0:
223,176,183198,2,0,B|291:185|291:185|350:230|350:230|420:238,1,209.999993591309,2|0,0:0|0:0,0:0:0:0:
416,238,183525,1,2,3:2:0:0:
150,226,183689,2,0,B|140:163|140:163|172:105,1,129.999994049073,8|0,0:0|0:0,0:0:0:0:
494,194,184017,2,0,B|503:256|503:256|471:314,1,129.999994049073
403,63,184345,6,0,B|485:40|485:40|373:129|373:129|238:78,1,359.999989013672,4|2,3:2|0:0,0:0:0:0:
75,11,185001,2,0,B|94:66|94:66|74:124,1,119.999996337891,8|0,0:0|0:0,0:0:0:0:
7,278,185329,2,0,B|62:259|62:259|120:279,1,119.999996337891,2|0,0:0|0:0,0:0:0:0:
272,338,185657,5,2,3:2:0:0:
7,278,185820,2,0,B|62:259|62:259|203:309,1,179.999994506836,2|0,0:0|0:0,0:0:0:0:
176,299,186148,1,2,3:2:0:0:
6,200,186312,2,0,B|28:140|28:140|85:106,1,129.999994049073,8|8,0:0|0:0,0:0:0:0:
309,127,186640,1,2,0:0:0:0:
95,189,186804,1,0,0:0:0:0:
387,138,186968,6,0,B|510:51|510:51|355:25|355:25|283:72,1,359.999989013672,4|2,3:2|0:0,0:0:0:0:
417,324,187624,2,0,B|436:269|436:269|416:211,1,119.999996337891,8|0,0:0|0:0,0:0:0:0:
199,272,187952,2,0,B|254:291|254:291|312:271,1,119.999996337891,2|0,0:0|0:0,0:0:0:0:
95,208,188279,5,2,3:2:0:0:
17,384,188443,2,0,B|47:342|47:342|20:175,1,179.999994506836,2|0,0:0|0:0,0:0:0:0:
26,215,188771,1,2,3:2:0:0:
276,87,188935,2,0,B|285:149|285:149|253:207,1,129.999994049073,8|0,0:0|0:0,0:0:0:0:
81,54,189263,2,0,B|130:13|130:13|196:12,1,129.999994049073
436,109,189591,6,0,B|467:52|467:52|345:36|345:36|376:206,1,359.999989013672,4|2,3:2|0:0,0:0:0:0:
463,358,190247,2,0,B|489:306|489:306|477:245,1,119.999996337891,8|0,0:0|0:0,0:0:0:0:
297,364,190575,1,2,0:0:0:0:
411,296,190738,1,0,0:0:0:0:
206,234,190902,6,0,B|118:210|118:210|53:251,1,129.999994049073,2|2,3:2|0:0,0:0:0:0:
343,191,191230,1,0,0:0:0:0:
37,116,191394,1,2,3:2:0:0:
446,72,191558,1,8,0:0:0:0:
129,290,191722,1,8,0:0:0:0:
227,101,191886,6,0,B|296:190|289:34|451:93|446:201|407:242,1,269.999991760254,2|0,3:2|3:2,0:0:0:0:
412,274,192214,6,0,B|331:298|331:298|138:170|138:170|40:200,1,389.999982147218,4|2,3:2|0:0,0:0:0:0:
342,191,192870,2,0,L|470:153,1,129.999994049073,8|0,0:0|0:0,0:0:0:0:
125,266,193198,2,0,L|-3:304,1,129.999994049073,2|0,0:0|0:0,0:0:0:0:
352,108,193525,5,2,3:2:0:0:
238,346,193689,2,0,B|223:281|223:281|269:195|269:195|252:121,1,225.000008583069,2|0,0:0|0:0,0:0:0:0:
255,135,194017,1,2,3:2:0:0:
307,294,194181,2,0,L|473:320,1,139.999995727539,8|0,0:0|0:0,0:0:0:0:
185,183,194509,2,0,L|19:209,1,139.999995727539
425,133,194837,6,0,B|504:74|504:74|319:16|319:16|319:15|351:107,1,389.999982147218,4|2,3:2|0:0,0:0:0:0:
404,293,195493,2,0,L|519:217,1,129.999994049073,8|0,0:0|0:0,0:0:0:0:
233,129,195820,2,0,L|186:-2,1,129.999994049073,2|0,0:0|0:0,0:0:0:0:
256,368,196148,5,2,3:2:0:0:
365,132,196312,2,0,B|255:150|255:150|198:249,1,225.000008583069,2|0,0:0|0:0,0:0:0:0:
198,249,196640,1,2,3:2:0:0:
54,145,196804,2,0,L|124:5,1,139.999995727539,8|8,0:0|0:0,0:0:0:0:
309,224,197132,1,2,0:0:0:0:
251,15,197296,1,0,3:2:0:0:
380,153,197460,6,0,B|396:306|396:306|325:366|325:366|308:223,1,389.999982147218,4|2,3:2|0:0,0:0:0:0:
454,27,198116,2,0,L|471:182,1,129.999994049073,8|0,0:0|0:0,0:0:0:0:
235,384,198443,2,0,L|218:229,1,129.999994049073,2|0,0:0|0:0,0:0:0:0:
371,71,198771,5,2,3:2:0:0:
87,212,198935,2,0,B|159:202|159:202|223:154|223:154|298:145,1,225.000008583069,2|0,0:0|0:0,0:0:0:0:
294,145,199262,1,2,3:2:0:0:
139,303,199427,2,0,L|-13:318,1,139.999995727539,8|0,0:0|0:0,0:0:0:0:
146,85,199755,2,0,L|298:70,1,139.999995727539,8|0,0:0|3:2,0:0:0:0:
448,336,200083,6,0,B|355:358|355:358|459:195|459:195|345:219,1,389.999982147218,4|2,3:2|0:0,0:0:0:0:
371,61,200738,2,0,L|517:29,1,129.999994049073,8|0,0:0|0:0,0:0:0:0:
319,280,201066,2,0,B|254:289|254:289|192:252,1,129.999994049073,2|0,0:0|0:0,0:0:0:0:
157,98,201394,6,0,P|40:125|125:34,1,300,2|0,3:2|0:0,0:0:0:0:
93,90,201722,6,0,L|70:108,11,16.6666666666667,2|0|0|2|0|0|2|0|0|2|0|0,0:0|0:0|0:0|0:0|0:0|0:0|0:0|0:0|0:0|0:0|0:0|0:0,0:0:0:0:
100,26,202050,5,2,0:0:0:0:
251,91,202214,1,2,0:0:0:0:
279,249,202378,2,0,B|245:273|189:250|193:132|320:149|340:199,1,225.000008583069,2|0,0:0|0:0,0:0:0:0:
467,359,202706,6,0,B|404:363|376:298|376:298|434:257|486:296|486:296|503:249|471:209|471:209|430:200|400:208,1,400
401,207,203361,6,0,L|407:166,5,33.3333333333333
497,146,203689,6,0,L|492:121,7,25
400,72,204017,6,0,L|392:95,12,25.0000009536744
400,72,204673,6,0,B|359:44|359:44|236:60,1,150
198,92,205001,2,0,L|305:80,1,100,2|0,0:0|0:0,0:0:0:0:
158,273,205329,6,0,B|57:273|18:198|18:198|78:137|219:157|231:275|341:283|341:283|301:208|353:134|353:134|201:186|210:227|289:326|151:356,1,989.999969787599,2|0,0:0|0:0,0:0:0:0:
484,237,207296,2,0,P|442:175|408:242,1,179.999994506836,2|2,0:0|0:0,0:0:0:0:
451,37,207952,6,0,B|502:25|502:25|414:104|414:104|377:31|278:0|203:20|156:118|62:118|32:74|32:74|4:31|53:-24|122:-7|168:20|176:57|184:131|270:156|327:146|355:116,1,989.999969787599,2|0,0:0|0:0,0:0:0:0:
324,210,209919,2,0,P|238:202|160:151,1,179.999994506836,2|2,0:0|0:0,0:0:0:0:
121,354,210575,6,0,B|58:392|1:359|-25:282|20:153|174:175|181:281|226:355|298:411|378:380|461:336|494:277|503:154|452:47|297:56|241:122|241:122|224:123|206:81|171:63|121:90|121:90|120:37|69:16|69:16|205:-18|260:47,1,1349.99995880127,2|0,0:0|0:0,0:0:0:0:
324,210,213198,6,0,B|384:176|414:268|358:314|260:296|211:240|217:142|295:79|380:127|416:75|416:12|416:12|416:75|434:138|544:172|472:319|446:343|406:382|317:394|212:370|176:275|172:240|185:158,1,1169.99996429443,2|0,0:0|0:0,0:0:0:0:
342,18,215493,2,0,P|298:15|257:34,1,89.9999972534181,2|0,0:0|0:0,0:0:0:0:
56,338,215820,6,0,P|105:272|73:137,1,220.000006713867,4|8,3:2|0:0,0:0:0:0:
231,373,216312,2,0,P|229:303|354:316,1,220.000006713867,2|0,0:0|3:2,0:0:0:0:
483,156,216804,2,0,P|412:184|361:172,1,129.999994049073,10|2,0:0|0:0,0:0:0:0:
151,9,217132,6,0,P|183:74|219:232,1,220.000006713867,2|8,3:2|0:0,0:0:0:0:
284,51,217624,1,2,0:0:0:0:
284,51,217788,2,0,P|359:25|422:42,1,110.000003356934,0|0,0:0|3:2,0:0:0:0:
134,200,218116,1,8,0:0:0:0:
228,0,218279,1,0,0:0:0:0:
214,303,218443,6,0,P|141:238|17:233,1,220.000006713867,0|8,3:2|0:0,0:0:0:0:
265,136,218935,2,0,P|270:212|387:185,1,220.000006713867,2|0,0:0|3:2,0:0:0:0:
445,382,219427,2,0,P|429:298|466:235,1,129.999994049073,10|2,0:0|0:0,0:0:0:0:
294,366,219755,6,0,P|184:372|82:333,1,220.000006713867,2|8,3:2|0:0,0:0:0:0:
347,302,220247,1,0,0:0:0:0:
347,302,220411,2,0,P|418:281|456:243,1,110.000003356934,2|0,0:0|3:2,0:0:0:0:
229,136,220738,1,10,0:0:0:0:
491,198,220902,1,0,0:0:0:0:
150,262,221066,6,0,L|126:119,1,110.000003356934,2|0,3:2|0:0,0:0:0:0:
294,366,221394,1,10,0:0:0:0:
51,156,221558,2,0,P|99:80|210:141,1,220.000006713867,0|0,0:0|3:2,0:0:0:0:
19,331,222050,1,10,0:0:0:0:
131,153,222214,1,0,0:0:0:0:
356,316,222378,6,0,L|474:299,1,119.999996337891,0|0,3:2|0:0,0:0:0:0:
212,296,222706,1,10,0:0:0:0:
398,203,222870,1,0,0:0:0:0:
213,121,223034,1,2,0:0:0:0:
265,365,223198,1,0,3:2:0:0:
493,96,223361,2,0,L|362:72,1,129.999994049073,8|0,0:0|0:0,0:0:0:0:
78,260,223689,5,14,0:0:0:0:
372,52,223853,1,0,3:2:0:0:
3,0,224017,1,0,3:2:0:0:
257,355,224181,5,12,0:0:0:0:
181,15,224345,1,0,3:2:0:0:
0,368,224509,1,0,3:2:0:0:
392,186,224673,5,12,0:0:0:0:
0,111,224837,1,0,3:2:0:0:
0,111,225001,1,0,3:2:0:0:
176,384,225165,5,12,0:0:0:0:
301,30,225329,1,0,3:2:0:0:
301,30,225493,1,0,3:2:0:0:
363,298,225657,5,12,3:2:0:0:
107,186,225820,1,10,0:0:0:0:
435,70,225984,1,10,0:0:0:0:
440,92,226312,5,0,3:2:0:0:
424,193,226476,1,0,0:0:0:0:
266,85,226640,1,8,0:0:0:0:
295,234,226804,1,0,0:0:0:0:
447,68,226968,5,0,3:2:0:0:
420,221,227132,1,8,0:0:0:0:
259,59,227296,1,0,0:0:0:0:
300,261,227460,1,0,0:0:0:0:
454,41,227624,5,0,3:2:0:0:
411,287,227788,1,0,3:2:0:0:
146,158,227952,5,2,3:2:0:0:
493,133,228116,1,0,3:2:0:0:
191,358,228279,1,10,0:0:0:0:
238,18,228442,1,0,3:2:0:0:
499,241,228606,1,10,0:0:0:0:
489,262,228935,6,0,P|399:304|346:303,1,129.999994049073,6|0,3:2|0:0,0:0:0:0:
485,50,229263,2,0,P|461:110|463:174,1,129.999994049073,10|0,0:0|0:0,0:0:0:0:
224,98,229591,1,2,0:0:0:0:
418,18,229755,1,0,3:2:0:0:
195,173,229919,2,0,P|276:229|302:276,1,129.999994049073,10|0,0:0|0:0,0:0:0:0:
116,372,230247,6,0,P|105:308|72:252,1,129.999994049073,2|0,3:2|0:0,0:0:0:0:
152,71,230575,2,0,P|101:111|70:168,1,129.999994049073,10|0,0:0|0:0,0:0:0:0:
298,317,230902,1,2,0:0:0:0:
430,245,231066,1,0,3:2:0:0:
195,173,231230,1,10,0:0:0:0:
242,381,231394,1,0,0:0:0:0:
392,174,231558,2,0,L|410:36,1,129.999994049073,0|0,3:2|0:0,0:0:0:0:
446,316,231886,5,10,0:0:0:0:
289,134,232050,1,0,0:0:0:0:
368,374,232214,1,2,0:0:0:0:
477,113,232378,1,0,3:2:0:0:
278,339,232542,2,0,P|203:340|156:305,1,129.999994049073,10|0,0:0|0:0,0:0:0:0:
48,68,232870,5,2,3:2:0:0:
203,234,233034,1,0,0:0:0:0:
157,21,233198,1,8,0:0:0:0:
73,318,233361,1,0,0:0:0:0:
236,70,233525,2,0,L|376:84,1,129.999994049073,2|0,0:0|3:2,0:0:0:0:
200,316,233853,2,0,P|127:262|153:171,1,194.999991073609,10|0,0:0|0:0,0:0:0:0:
151,172,234181,5,2,3:2:0:0:
498,119,234345,2,0,P|435:127|362:182,1,139.999995727539,2|8,0:0|0:0,0:0:0:0:
110,64,234673,5,2,0:0:0:0:
397,285,234837,2,0,P|334:277|261:222,1,139.999995727539,2|0,0:0|3:2,0:0:0:0:
96,366,235165,5,8,0:0:0:0:
256,20,235329,2,0,P|293:83|288:148,1,139.999995727539,2|0,0:0|3:2,0:0:0:0:
399,366,235657,5,2,0:0:0:0:
81,152,235820,2,0,P|45:210|49:279,1,139.999995727539,10|0,0:0|0:0,0:0:0:0:
316,209,236148,2,0,P|283:149|222:118,1,139.999995727539,2|0,0:0|3:2,0:0:0:0:
148,383,236476,2,0,P|217:385|275:346,1,139.999995727539,10|0,0:0|0:0,0:0:0:0:
468,200,236804,2,0,P|420:260|315:203,1,209.999993591309,0|0,3:2|0:0,0:0:0:0:
346,139,237132,5,10,0:0:0:0:
189,287,237296,1,0,0:0:0:0:
279,72,237460,1,2,0:0:0:0:
373,371,237624,1,0,3:2:0:0:
424,136,237788,2,0,L|456:-14,1,139.999995727539,10|0,0:0|0:0,0:0:0:0:
110,238,238116,2,0,P|171:198|242:213,1,139.999995727539,0|0,3:2|0:0,0:0:0:0:
1,119,238443,5,10,0:0:0:0:
346,307,238607,1,0,0:0:0:0:
121,8,238771,1,2,0:0:0:0:
52,376,238935,1,0,3:2:0:0:
397,122,239099,1,10,0:0:0:0:
18,22,239263,1,10,0:0:0:0:
376,383,239427,6,0,B|424:341|424:341|405:173,1,209.999993591309,6|0,3:2|0:0,0:0:0:0:
397,122,239755,2,0,P|310:109|275:54,1,129.999994049073,10|0,0:0|0:0,0:0:0:0:
476,159,240083,1,2,0:0:0:0:
365,31,240247,1,0,3:2:0:0:
282,219,240411,2,0,L|302:349,1,129.999994049073,10|0,0:0|0:0,0:0:0:0:
58,113,240738,6,0,P|122:101|183:121,1,129.999994049073,2|0,3:2|0:0,0:0:0:0:
381,317,241066,1,10,0:0:0:0:
115,206,241230,1,0,0:0:0:0:
407,195,241394,1,2,0:0:0:0:
85,317,241558,1,0,3:2:0:0:
399,336,241722,2,0,P|335:347|274:327,1,129.999994049073,10|0,0:0|0:0,0:0:0:0:
372,56,242050,2,0,L|393:265,1,194.999991073609,0|0,3:2|0:0,0:0:0:0:
399,336,242378,5,10,0:0:0:0:
261,38,242542,1,0,0:0:0:0:
474,368,242706,5,2,0:0:0:0:
512,0,242870,1,0,3:2:0:0:
280,372,243034,2,0,P|217:377|167:339,1,129.999994049073,10|0,0:0|0:0,0:0:0:0:
208,111,243361,5,2,3:2:0:0:
242,298,243525,1,0,0:0:0:0:
106,70,243689,1,8,0:0:0:0:
316,185,243853,1,0,0:0:0:0:
129,281,244017,2,0,L|-2:297,1,129.999994049073,2|0,0:0|3:2,0:0:0:0:
164,25,244345,2,0,P|245:23|306:125,1,194.999991073609,10|0,0:0|0:0,0:0:0:0:
316,185,244673,5,2,3:2:0:0:
0,67,244837,2,0,P|90:101|156:80,1,139.999995727539,2|8,0:0|0:0,0:0:0:0:
386,129,245165,5,2,0:0:0:0:
31,308,245329,2,0,P|46:213|97:166,1,139.999995727539,2|0,0:0|3:2,0:0:0:0:
364,384,245657,5,8,0:0:0:0:
240,0,245820,2,0,P|225:80|239:161,1,139.999995727539,2|0,0:0|3:2,0:0:0:0:
75,384,246148,5,2,0:0:0:0:
458,126,246312,2,0,P|401:85|334:64,1,139.999995727539,10|0,0:0|0:0,0:0:0:0:
370,376,246640,2,0,P|433:346|485:300,1,139.999995727539,2|0,0:0|3:2,0:0:0:0:
197,175,246968,2,0,P|190:244|205:312,1,139.999995727539,10|0,0:0|0:0,0:0:0:0:
181,48,247296,6,0,L|39:24,1,139.999995727539,0|0,3:2|0:0,0:0:0:0:
298,330,247624,2,0,L|389:219,1,139.999995727539,10|0,0:0|0:0,0:0:0:0:
94,138,247952,1,2,0:0:0:0:
217,344,248116,1,0,3:2:0:0:
278,47,248279,1,10,0:0:0:0:
123,278,248443,1,0,0:0:0:0:
398,149,248607,2,0,P|443:90|438:6,1,139.999995727539,0|0,3:2|0:0,0:0:0:0:
404,337,248935,5,10,0:0:0:0:
198,110,249099,1,0,0:0:0:0:
314,378,249263,2,0,L|311:302,1,69.9999978637696,10|0,0:0|0:0,0:0:0:0:
303,22,249427,1,0,3:2:0:0:
197,384,249591,2,0,L|232:316,1,69.9999978637696,10|0,0:0|0:0,0:0:0:0:
445,26,249755,2,0,L|385:63,1,69.9999978637696,0|0,3:2|0:0,0:0:0:0:
49,286,249919,6,0,B|146:266|73:139|180:116,1,225.000008583069,6|0,3:2|0:0,0:0:0:0:
173,117,250247,1,8,0:0:0:0:
391,268,250411,2,0,B|263:183|263:183|188:190,1,225.000008583069
191,189,250738,1,0,3:0:0:0:
463,111,250902,2,0,B|429:163|460:213|460:213|497:270|463:326,1,225.000008583069,10|0,0:0|0:0,0:0:0:0:
464,322,251230,5,2,3:2:0:0:
369,160,251394,1,0,0:0:0:0:
255,371,251558,1,8,0:0:0:0:
116,68,251722,2,0,P|280:68|378:187,1,300.000011444092
62,285,252214,2,0,P|57:167|80:116,1,150.000005722046,10|0,0:0|0:0,0:0:0:0:
389,339,252542,6,0,B|278:356|327:214|213:227,1,225.000008583069,2|0,3:2|0:0,0:0:0:0:
216,226,252870,1,8,0:0:0:0:
469,83,253034,2,0,B|413:112|413:112|373:284,1,225.000008583069,2|0,0:0|0:0,0:0:0:0:
376,269,253361,1,0,3:0:0:0:
58,160,253525,2,0,B|110:194|160:163|160:163|217:126|273:160,1,225.000008583069,10|0,0:0|0:0,0:0:0:0:
269,159,253853,5,2,3:2:0:0:
111,100,254017,1,0,0:0:0:0:
219,228,254181,1,8,0:0:0:0:
318,16,254345,1,0,0:0:0:0:
148,279,254509,2,0,L|-11:306,1,150.000005722046,2|0,0:0|0:0,0:0:0:0:
300,308,254837,1,10,0:0:0:0:
51,182,255001,1,0,0:0:0:0:
318,380,255165,6,0,B|415:360|342:233|449:210,1,225.000008583069,2|0,3:2|0:0,0:0:0:0:
442,211,255493,1,8,0:0:0:0:
251,101,255657,2,0,B|318:228|318:228|298:314,1,225.000008583069,2|0,0:0|0:0,0:0:0:0:
299,307,255984,1,0,3:0:0:0:
30,355,256148,2,0,B|82:321|132:352|132:352|189:389|245:355,1,225.000008583069,10|0,0:0|0:0,0:0:0:0:
241,356,256476,5,2,3:2:0:0:
52,267,256640,1,0,0:0:0:0:
317,225,256804,1,8,0:0:0:0:
27,155,256968,1,0,0:0:0:0:
246,20,257132,2,0,L|228:180,1,150.000005722046,2|0,0:0|0:0,0:0:0:0:
408,284,257460,1,10,0:0:0:0:
259,107,257624,1,0,0:0:0:0:
492,36,257788,6,0,B|381:19|430:161|316:148,1,225.000008583069,2|0,3:2|0:0,0:0:0:0:
319,148,258116,1,8,0:0:0:0:
471,321,258279,2,0,B|502:251|502:251|473:84,1,225.000008583069,2|0,0:0|0:0,0:0:0:0:
476,104,258607,1,0,3:0:0:0:
178,48,258771,2,0,B|233:76|231:134|231:134|228:202|285:234,1,225.000008583069,10|0,0:0|0:0,0:0:0:0:
282,231,259099,5,2,3:2:0:0:
111,213,259263,1,0,0:0:0:0:
312,51,259427,1,10,0:0:0:0:
373,316,259591,1,0,0:0:0:0:
283,159,259755,5,2,0:0:0:0:
212,327,259919,1,0,0:0:0:0:
283,159,260083,6,0,L|252:232,1,62.5,10|0,0:0|0:0,0:0:0:0:
212,327,260247,2,0,L|181:400,1,62.5
437,369,260411,6,0,B|507:287|369:241|447:153,1,225.000008583069,6|0,3:2|0:0,0:0:0:0:
440,160,260738,1,8,0:0:0:0:
189,216,260902,2,0,B|299:240|299:240|383:319,1,225.000008583069,2|0,0:0|0:0,0:0:0:0:
381,316,261230,1,0,3:0:0:0:
472,84,261394,2,0,B|412:69|369:120|369:120|326:171|265:144,1,225.000008583069,10|0,0:0|0:0,0:0:0:0:
271,146,261722,5,2,3:2:0:0:
162,306,261886,1,0,0:0:0:0:
75,69,262050,1,8,0:0:0:0:
328,328,262214,2,0,P|438:321|435:156,1,300.000011444092
184,325,262706,2,0,P|288:343|330:298,1,150.000005722046,10|0,0:0|0:0,0:0:0:0:
47,176,263034,6,0,B|-23:258|115:304|37:392,1,225.000008583069,2|0,3:2|0:0,0:0:0:0:
43,384,263361,1,10,0:0:0:0:
309,188,263525,2,0,B|196:170|196:170|82:236,1,225.000008583069
100,225,263853,1,0,3:0:0:0:
472,236,264017,2,0,B|410:229|387:166|387:166|364:104|298:108,1,225.000008583069,10|0,0:0|0:0,0:0:0:0:
304,108,264345,5,2,3:2:0:0:
420,317,264509,1,0,0:0:0:0:
451,58,264673,1,8,0:0:0:0:
311,344,264837,2,0,P|200:374|58:267,1,300.000011444092
280,30,265329,1,10,0:0:0:0:
204,260,265493,1,0,0:0:0:0:
17,33,265657,6,0,B|123:13|93:155|209:132,1,225.000008583069,2|0,3:2|0:0,0:0:0:0:
199,133,265984,1,8,0:0:0:0:
48,322,266148,2,0,B|70:209|70:209|27:98,1,225.000008583069,2|0,0:0|0:0,0:0:0:0:
30,106,266476,1,0,3:0:0:0:
210,230,266640,2,0,B|271:223|294:160|294:160|317:98|383:102,1,225.000008583069,10|0,0:0|0:0,0:0:0:0:
378,102,266968,5,2,3:2:0:0:
145,199,267132,1,0,0:0:0:0:
479,192,267296,1,8,0:0:0:0:
172,41,267460,1,0,0:0:0:0:
357,330,267624,2,0,L|373:168,1,150.000005722046,2|0,0:0|0:0,0:0:0:0:
232,367,267952,1,10,0:0:0:0:
479,302,268116,1,0,0:0:0:0:
144,278,268279,6,0,B|251:278|198:143|315:146,1,225.000008583069,2|0,3:2|0:0,0:0:0:0:
305,147,268606,1,8,0:0:0:0:
35,25,268771,2,0,B|58:139|58:139|163:221,1,225.000008583069,2|0,0:0|0:0,0:0:0:0:
143,205,269099,1,0,3:0:0:0:
15,338,269263,1,10,0:0:0:0:
122,92,269427,1,0,0:0:0:0:
288,338,269591,5,2,3:2:0:0:
319,176,269755,1,0,0:0:0:0:
188,142,269919,5,10,0:0:0:0:
216,363,270083,1,8,0:0:0:0:
343,384,270247,5,10,0:0:0:0:
437,58,270411,1,0,3:2:0:0:
50,11,270575,5,10,0:0:0:0:
136,384,270738,1,0,3:2:0:0:
332,95,270902,6,0,P|357:56|407:201,1,359.999989013672,12|0,0:0|0:0,0:0:0:0:
119,132,271394,2,0,B|208:163|247:68|247:68|235:175|340:192,1,320,12|0,0:0|0:0,0:0:0:0:
495,315,271886,2,0,B|412:290|417:202|417:202|330:247|344:349,1,300.000011444092,12|2,0:0|0:0,0:0:0:0:
172,262,272378,2,0,B|237:285|265:367|265:367|253:272|302:194,1,300.000011444092,8|2,0:0|0:0,0:0:0:0:
432,363,272870,2,0,B|417:313|417:313|460:198,1,150.000005722046,14|0,0:0|0:0,0:0:0:0:
305,8,273198,2,0,B|288:62|288:62|335:186,1,160,10|0,0:0|0:0,0:0:0:0:
112,348,273525,6,0,B|33:396|-18:299|43:235|77:274|137:273|158:182|74:125|20:189,1,359.999989013672,12|0,0:0|0:0,0:0:0:0:
279,152,274017,2,0,B|259:216|188:221|188:221|192:156|132:88|66:90,1,320,12|0,0:0|0:0,0:0:0:0:
329,349,274509,2,0,B|293:290|333:212|333:212|285:285|205:292,1,300.000011444092,12|2,0:0|0:0,0:0:0:0:
487,330,275001,2,0,P|401:325|506:291,1,300.000011444092,8|2,0:0|0:0,0:0:0:0:
494,132,275493,2,0,B|444:147|444:147|329:104,1,150.000005722046,14|0,0:0|0:0,0:0:0:0:
77,41,275821,2,0,B|131:24|131:24|255:71,1,160,8|0,0:0|0:0,0:0:0:0:
325,301,276148,6,0,B|408:319|448:238|357:155|304:198|272:315|156:277,1,359.999989013672,14|0,0:0|0:0,0:0:0:0:
3,85,276640,2,0,B|-9:208|93:284|93:284|93:229|143:211,1,320,14|0,0:0|0:0,0:0:0:0:
400,159,277132,2,0,B|315:121|237:202|209:208|209:208|206:157|153:142,1,300.000011444092,14|0,0:0|0:0,0:0:0:0:
25,8,277624,2,0,B|96:33|81:110|81:110|106:65|152:66|152:66|205:66|256:122,1,300.000011444092,8|0,0:0|0:0,0:0:0:0:
352,228,278116,2,0,B|402:243|402:243|517:200,1,150.000005722046,12|0,0:0|0:0,0:0:0:0:
152,141,278444,2,0,B|135:195|135:195|182:319,1,160,14|2,0:0|0:0,0:0:0:0:
463,44,278771,6,0,P|435:153|378:14,1,359.999989013672,14|0,0:0|0:0,0:0:0:0:
355,372,279263,2,0,B|405:300|350:227|350:227|262:191|250:96,1,320,14|0,0:0|0:0,0:0:0:0:
62,58,279755,2,0,B|133:70|181:17|181:17|159:106|210:207,1,300.000011444092,14|0,0:0|0:0,0:0:0:0:
299,291,280247,2,0,B|297:344|245:365|245:365|197:318|223:251|223:251|174:266|133:220,1,300.000011444092,8|0,0:0|0:0,0:0:0:0:
34,373,280738,2,0,B|48:323|48:323|6:210,1,160,12|0,0:0|0:0,0:0:0:0:
271,33,281066,2,0,B|253:90|253:90|303:220,1,179.999994506836,14|0,0:0|0:0,0:0:0:0:
445,340,281394,5,12,0:0:0:0:
198,181,281558,1,0,3:0:0:0:
512,110,281722,1,0,3:0:0:0:
179,329,281886,5,12,0:0:0:0:
512,235,282050,1,0,3:0:0:0:
146,63,282214,1,0,3:0:0:0:
315,370,282378,5,12,0:0:0:0:
419,43,282542,1,0,0:0:0:0:
132,210,282706,5,10,0:0:0:0:
371,283,282870,1,0,3:0:0:0:
371,283,283034,1,0,3:0:0:0:
93,291,283198,5,14,0:0:0:0:
405,168,283361,1,0,3:2:0:0:
405,168,283525,1,0,3:2:0:0:
257,211,283689,6,0,L|133:184,1,119.999996337891,10|0,0:0|3:2,0:0:0:0:
15,26,284017,5,12,0:0:0:0:
338,212,284181,1,0,3:2:0:0:
50,355,284345,1,0,3:2:0:0:
229,8,284509,5,12,0:0:0:0:
0,201,284673,1,0,3:2:0:0:
333,357,284837,1,0,3:2:0:0:
123,59,285001,5,12,0:0:0:0:
189,384,285165,2,0,L|206:231,1,150.000005722046,0|0,3:2|3:2,0:0:0:0:
446,17,285493,5,12,0:0:0:0:
333,357,285657,2,0,L|316:204,1,150.000005722046,0|2,0:0|3:2,0:0:0:0:
99,279,285984,5,12,0:0:0:0:
406,87,286148,1,0,3:2:0:0:
201,384,286312,5,10,0:0:0:0:
287,9,286476,1,0,3:2:0:0:
412,364,286640,5,14,0:0:0:0:
30,197,286804,1,0,3:2:0:0:
473,16,286968,1,2,3:2:0:0:
82,364,287132,5,12,0:0:0:0:
464,203,287296,1,0,3:2:0:0:
20,21,287460,1,0,3:2:0:0:
319,384,287624,5,14,0:0:0:0:
397,0,287788,1,0,3:2:0:0:
38,287,287952,5,12,0:0:0:0:
507,111,288116,1,0,3:2:0:0:
507,111,288279,1,0,3:2:0:0:
0,147,288443,5,12,0:0:0:0:
487,308,288607,1,0,3:2:0:0:
487,308,288771,1,0,3:2:0:0:
166,86,288935,6,0,L|185:270,1,179.999994506836,10|0,0:0|3:2,0:0:0:0:
0,3,289263,5,14,0:0:0:0:
404,47,289591,5,8,0:0:0:0:
425,58,289673,1,0,0:0:0:0:
442,78,289755,1,0,0:0:0:0:
453,105,289837,1,0,0:0:0:0:
453,138,289919,1,8,0:0:0:0:
439,171,290001,1,0,0:0:0:0:
408,194,290083,1,0,0:0:0:0:
366,198,290165,1,0,0:0:0:0:
325,178,290247,1,10,0:0:0:0:
300,136,290329,1,0,0:0:0:0:
252,118,290411,1,0,0:0:0:0:
199,131,290493,1,0,0:0:0:0:
171,180,290575,1,10,0:0:0:0:
180,239,290657,1,0,0:0:0:0:
230,275,290738,1,8,0:0:0:0:
295,265,290820,1,0,0:0:0:0:
332,206,290902,1,0,0:0:0:0:
318,135,290984,1,0,0:0:0:0:
355,70,291066,1,8,0:0:0:0:
432,57,291148,1,8,0:0:0:0:
493,114,291230,5,10,0:0:0:0:
383,1,291394,1,10,0:0:0:0:
192,80,291558,2,0,L|284:43,1,100,14|0,0:0|0:0,0:0:0:0:
21,128,291886,6,0,B|-26:56|41:-2|125:9|157:84|133:187|53:243|-25:198|-25:198|17:269|44:201|100:290|64:357|64:357|68:290|118:258|140:285|192:194|192:194|127:303|246:392|309:342|353:270|318:186|244:140|244:140|313:112|313:112|369:86|372:18|491:40|491:40|395:38|331:127|331:127|357:157|425:171|492:113|492:113|414:110|379:164|348:231|381:300|458:312|442:254|507:243|551:323|547:401|463:449|378:406|345:328|412:203|517:198,1,2551.50006229248,12|0,0:0|0:0,0:0:0:0:
