osu file format v14

[General]
AudioFilename: audio.mp3
AudioLeadIn: 0
PreviewTime: 128289
Countdown: 1
SampleSet: Soft
StackLeniency: 0.6
Mode: 0
LetterboxInBreaks: 0
WidescreenStoryboard: 1

[Editor]
Bookmarks: 749,21732,45339,66322,87306,89109,108289,129273,150257,171240,174956,205339,228945,249929,270912
DistanceSpacing: 2.4
BeatDivisor: 4
GridSize: 32
TimelineZoom: 2.6

[Metadata]
Title:Lost in the Abyss
TitleUnicode:Lost in the Abyss
Artist:FELT
ArtistUnicode:FELT
Creator:Nowaie
Version:Insane
Source:東方地霊殿 ~ Subterranean Animism.
Tags:dtm9 nowa Minorsonek ShiiTsuin Shii Vivienne Renko W.nova Maurits ZUN Cornelis 禅 東方project Touhou project Video game english rock Parsee Mizuhashi Theme Green-eyed Jealousy 水橋 パルスィ 緑眼のジェラシー
BeatmapID:2199664
BeatmapSetID:985041

[Difficulty]
HPDrainRate:4.5
CircleSize:3.8
OverallDifficulty:8
ApproachRate:9
SliderMultiplier:1.5
SliderTickRate:1

[Events]
//Background and Video events
0,0,"Person.jpg",0,0
//Break Periods
//Storyboard Layer 0 (Background)
//Storyboard Layer 1 (Fail)
//Storyboard Layer 2 (Pass)
//Storyboard Layer 3 (Foreground)
//Storyboard Layer 4 (Overlay)
//Storyboard Sound Samples

[TimingPoints]
739,327.868852459016,4,2,1,65,1,0
739,-142.857142857143,4,2,1,65,0,0
20411,-192.307692307692,4,2,1,65,0,0
21722,-100,4,2,1,65,0,0
22214,-133.333333333333,4,2,1,65,0,0
22706,-500,4,2,1,65,0,0
24345,-100,4,2,1,65,0,0
24837,-133.333333333333,4,2,1,65,0,0
25329,-500,4,2,1,65,0,0
26312,-153.846153846153,4,2,1,65,0,0
29591,-133.333333333333,4,2,1,65,0,0
30575,-200,4,2,1,65,0,0
31886,-100,4,2,1,65,0,0
32706,-133.333333333333,4,2,1,65,0,0
33198,-250,4,2,1,65,0,0
34509,-100,4,2,1,65,0,0
35329,-133.333333333333,4,2,1,65,0,0
35820,-500,4,2,1,65,0,0
36804,-133.333333333333,4,2,1,65,0,0
44673,-74.074074074074,4,2,1,65,0,0
45329,-83.3333333333333,4,2,1,65,0,0
51558,-111.111111111111,4,2,1,65,0,0
52542,-83.3333333333333,4,2,1,65,0,0
54181,-111.111111111111,4,2,1,65,0,0
55165,-83.3333333333333,4,2,1,65,0,0
55820,-83.3333333333333,4,2,1,65,0,0
65657,-100,4,2,1,65,0,0
66312,-90.9090909090909,4,2,1,65,0,0
87296,-100,4,2,1,65,0,0
107952,-142.857142857143,4,2,1,65,0,0
108279,-100,4,2,1,65,0,0
109591,-125,4,2,1,65,0,0
110902,-100,4,2,1,65,0,0
112214,-125,4,2,1,65,0,0
112870,-100,4,2,1,65,0,0
120083,-125,4,2,1,65,0,0
121394,-100,4,2,1,65,0,0
122706,-125,4,2,1,65,0,0
124017,-100,4,2,1,65,0,0
128607,-71.4285714285714,4,2,1,65,0,0
128935,-166.666666666667,4,2,1,65,0,0
129263,-83.3333333333333,4,2,1,85,0,1
150247,-90.9090909090909,4,2,1,85,0,0
171230,-133.333333333333,4,2,1,85,0,0
181722,-100,4,2,1,85,0,0
203689,-200,4,2,1,85,0,0
204017,-100,4,2,1,85,0,0
205329,-100,4,2,1,65,0,0
205820,-133.333333333333,4,2,1,65,0,0
206312,-416.666666666667,4,2,1,65,0,0
207951,-100,4,2,1,65,0,0
208443,-133.333333333333,4,2,1,65,0,0
208935,-500,4,2,1,65,0,0
209918,-153.846153846153,4,2,1,65,0,0
213197,-133.333333333333,4,2,1,65,0,0
214181,-200,4,2,1,65,0,0
215820,-100,4,2,1,65,0,0
217132,-125,4,2,1,65,0,0
218443,-100,4,2,1,65,0,0
219755,-125,4,2,1,65,0,0
221066,-100,4,2,1,65,0,0
225656,-133.333333333333,4,2,1,65,0,0
226312,-166.666666666667,4,2,1,65,0,0
227952,-100,4,2,1,65,0,0
228279,-71.4285714285714,4,2,1,65,0,0
228607,-133.333333333333,4,2,1,65,0,0
228935,-83.3333333333333,4,2,1,85,0,1
249919,-83.3333333333333,4,2,1,85,0,0
271886,-111.111111111111,4,2,1,65,0,0
272870,-83.3333333333333,4,2,1,65,0,0
274509,-111.111111111111,4,2,1,65,0,0
275493,-83.3333333333333,4,2,1,65,0,0
277131,-111.111111111111,4,2,1,65,0,0
278115,-83.3333333333333,4,2,1,65,0,0
279754,-111.111111111111,4,2,1,65,0,0
280738,-83.3333333333333,4,2,1,65,0,0
281393,-83.3333333333333,4,2,1,65,0,0
291230,-66.6666666666667,4,2,1,65,0,0

[Colours]
Combo1 : 40,208,129
Combo2 : 227,91,224
Combo3 : 140,248,114
Combo4 : 206,45,114

[HitObjects]
77,172,739,6,0,B|28:143|28:143|184:167,1,209.999993591309,2|0,0:0|0:0,0:0:0:0:
309,255,1722,2,0,L|367:246,1,52.4999983978272,2|0,0:0|0:0,0:0:0:0:
442,204,2050,2,0,L|422:361,2,157.499995193482,2|2|2,0:0|0:0|0:0,0:0:0:0:
369,64,3361,2,0,P|288:48|211:137,1,209.999993591309,2|0,0:0|0:0,0:0:0:0:
211,136,4673,6,0,P|188:70|144:155,1,209.999993591309,2|0,0:0|0:0,0:0:0:0:
239,262,5657,2,0,P|209:246|172:248,1,52.4999983978272,2|0,0:0|0:0,0:0:0:0:
111,278,5984,2,0,P|168:360|270:341,1,209.999993591309,2|0,0:0|0:0,0:0:0:0:
266,346,7296,6,0,P|294:244|287:138,1,209.999993591309,2|0,0:0|0:0,0:0:0:0:
181,7,8279,2,0,P|175:35|175:64,1,52.4999983978272,2|0,0:0|0:0,0:0:0:0:
270,121,8607,2,0,P|335:56|456:69,3,209.999993591309,2|2|0|0,0:0|0:0|0:0|0:0,0:0:0:0:
446,62,11230,6,0,P|463:161|378:148,1,209.999993591309,2|0,0:0|0:0,0:0:0:0:
266,31,12214,2,0,P|260:57|260:86,1,52.4999983978272,2|0,0:0|0:0,0:0:0:0:
211,160,12542,2,0,P|179:120|65:108,2,157.499995193482,2|2|2,0:0|0:0|0:0,0:0:0:0:
378,213,13853,2,0,P|301:216|245:270,1,157.499995193482,2|0,0:0|0:0,0:0:0:0:
246,270,14837,1,2,0:0:0:0:
210,128,15165,6,0,P|190:103|106:87,1,104.999996795654,2|0,0:0|0:0,0:0:0:0:
62,144,15657,2,0,P|86:179|198:212,1,157.499995193482,2|2,0:0|0:0,0:0:0:0:
340,290,16476,2,0,P|365:241|513:234,1,209.999993591309,2|0,0:0|0:0,0:0:0:0:
505,227,17788,6,0,P|509:269|476:331,1,104.999996795654,2|0,0:0|0:0,0:0:0:0:
389,312,18279,2,0,P|384:269|417:207,1,104.999996795654,2|0,0:0|0:0,0:0:0:0:
505,227,18771,1,0,0:0:0:0:
389,312,19099,6,0,P|339:305|272:210,2,157.499995193482,2|2|2,0:0|0:0|0:0,0:0:0:0:
503,227,20411,2,0,P|453:234|386:329,1,155.999999047852,2|0,0:0|0:0,0:0:0:0:
245,368,21394,2,0,L|238:294,1,58.4999996429443,2|0,0:0|0:0,0:0:0:0:
194,236,21722,6,0,P|160:257|73:187,1,150,6|0,0:0|0:0,0:0:0:0:
170,134,22214,6,0,P|195:147|182:226,1,112.500004291535,2|0,0:0|0:0,0:0:0:0:
86,179,22706,6,0,P|99:157|165:153,1,90,2|0,0:0|0:0,0:0:0:0:
154,230,24017,1,2,0:0:0:0:
279,104,24345,6,0,P|321:140|425:115,1,150,2|0,0:0|0:0,0:0:0:0:
486,69,24837,6,0,P|448:82|426:155,1,112.500004291535,2|0,0:0|0:0,0:0:0:0:
409,224,25329,6,0,P|416:184|398:146,1,75,2|0,0:0|0:0,0:0:0:0:
331,191,26312,1,2,0:0:0:0:
331,191,26640,6,0,L|122:178,1,194.999991073609,2|2,0:0|0:0,0:0:0:0:
58,243,27624,1,2,0:0:0:0:
39,97,27952,2,0,L|59:253,1,146.249993305207,2|0,0:0|0:0,0:0:0:0:
68,329,28607,1,2,0:0:0:0:
237,272,28935,1,2,0:0:0:0:
44,323,29263,1,2,0:0:0:0:
242,250,29591,6,0,P|289:249|349:303,1,112.500004291535,2|0,0:0|0:0,0:0:0:0:
345,384,30083,2,0,P|320:343|337:264,1,112.500004291535,2|0,0:0|0:0,0:0:0:0:
474,248,30575,6,0,P|440:310|391:322,2,112.5,2|2|0,0:0|0:0|0:0,0:0:0:0:
415,106,31886,6,0,P|427:140|431:188,1,75,2|0,0:0|0:0,0:0:0:0:
281,243,32214,6,0,P|260:211|148:224,1,150,2|0,0:0|0:0,0:0:0:0:
79,300,32706,6,0,P|108:298|143:217,1,112.500004291535,2|0,0:0|0:0,0:0:0:0:
31,141,33198,6,0,L|58:298,1,150,2|0,0:0|0:0,0:0:0:0:
56,288,34509,6,0,L|75:195,1,75,2|0,0:0|0:0,0:0:0:0:
181,102,34837,6,0,P|234:95|289:174,1,150,2|0,0:0|0:0,0:0:0:0:
182,224,35329,6,0,P|155:189|188:117,1,112.500004291535,2|0,0:0|0:0,0:0:0:0:
271,179,35820,6,0,P|246:213|199:220,1,90,2|0,0:0|0:0,0:0:0:0:
201,220,37132,6,0,P|234:225|269:241,1,56.2500021457673,2|0,0:0|0:0,0:0:0:0:
358,296,37460,6,0,P|424:297|477:261,1,112.500004291535,2|0,0:0|0:0,0:0:0:0:
446,175,37952,2,0,P|380:174|327:210,1,112.500004291535,2|2,0:0|0:0,0:0:0:0:
234,234,38443,2,0,P|180:163|256:149,1,196.875007510186,2|2,0:0|0:0,0:0:0:0:
309,325,39427,5,2,0:0:0:0:
134,279,39755,1,2,0:0:0:0:
334,203,40083,1,6,0:0:0:0:
256,192,40247,12,0,44017,0:0:0:0:
127,85,44673,6,0,P|176:74|102:200,1,354.375001351833,0|0,0:0|0:0,0:0:0:0:
113,201,45329,6,0,P|161:214|239:315,1,179.999994506836,12|0,0:0|0:0,0:0:0:0:
327,194,45820,2,0,P|363:278|369:378,1,179.999994506836,12|0,0:0|0:0,0:0:0:0:
238,312,46312,1,12,0:0:0:0:
458,282,46640,5,2,0:0:0:0:
370,365,46804,2,0,P|346:318|339:265,1,89.9999972534181,8|0,0:0|0:0,0:0:0:0:
381,159,47132,1,2,0:0:0:0:
238,312,47296,2,0,P|244:248|274:189,1,89.9999972534181,14|0,0:0|0:0,0:0:0:0:
106,129,47624,2,0,P|112:193|142:252,1,89.9999972534181,10|0,0:0|0:0,0:0:0:0:
253,316,47952,6,0,P|259:252|315:138,1,179.999994506836,12|0,0:0|0:0,0:0:0:0:
188,104,48443,2,0,P|239:44|356:14,1,179.999994506836,12|0,0:0|0:0,0:0:0:0:
307,147,48935,1,12,0:0:0:0:
127,40,49263,5,2,0:0:0:0:
127,40,49427,2,0,P|165:67|194:142,1,89.9999972534181,8|0,0:0|0:0,0:0:0:0:
96,120,49755,1,2,0:0:0:0:
255,54,49919,2,0,P|274:132|269:181,1,89.9999972534181,14|0,0:0|0:0,0:0:0:0:
108,218,50247,2,0,P|93:175|88:130,1,89.9999972534181,8|0,0:0|0:0,0:0:0:0:
228,304,50575,6,0,P|289:307|413:243,1,179.999994506836,14|0,0:0|0:0,0:0:0:0:
425,361,51066,2,0,P|470:319|512:187,1,179.999994506836,14|0,0:0|0:0,0:0:0:0:
404,28,51558,2,0,P|418:82|489:135,1,134.999995880127,14|0,0:0|0:0,0:0:0:0:
384,169,52050,2,0,P|435:204|521:215,1,134.999995880127,8|0,0:0|0:0,0:0:0:0:
313,118,52542,6,0,P|266:125|229:155,1,89.9999972534181,12|0,0:0|0:0,0:0:0:0:
134,251,52870,2,0,P|87:244|50:214,1,89.9999972534181,14|2,0:0|0:0,0:0:0:0:
219,158,53198,6,0,P|226:196|243:358,1,179.999994506836,14|0,0:0|0:0,0:0:0:0:
355,384,53689,2,0,P|362:346|379:184,1,179.999994506836,14|0,0:0|0:0,0:0:0:0:
408,4,54181,6,0,P|413:32|426:154,1,134.999995880127,14|0,0:0|0:0,0:0:0:0:
497,210,54672,2,0,P|507:143|507:70,1,134.999995880127,8|0,0:0|0:0,0:0:0:0:
395,0,55165,6,0,P|345:7|303:36,1,89.9999972534181,12|0,0:0|0:0,0:0:0:0:
225,159,55493,2,0,P|275:152|317:123,1,89.9999972534181,14|0,0:0|0:0,0:0:0:0:
121,24,55820,5,12,0:0:0:0:
217,173,55984,1,0,3:0:0:0:
228,46,56148,1,0,3:0:0:0:
105,197,56312,5,12,0:0:0:0:
246,57,56476,1,0,3:0:0:0:
48,121,56640,1,0,3:0:0:0:
229,156,56804,2,0,P|286:166|347:159,1,89.9999972534181,12|0,0:0|0:0,0:0:0:0:
446,116,57132,6,0,L|458:26,2,89.9999972534181,10|0|0,0:0|3:0|3:0,0:0:0:0:
346,233,57624,2,0,L|358:322,2,89.9999972534181,14|0|0,0:0|3:2|3:2,0:0:0:0:
241,66,58116,2,0,L|228:155,1,89.9999972534181,10|0,0:0|3:2,0:0:0:0:
189,323,58443,5,12,0:0:0:0:
269,241,58607,1,0,3:2:0:0:
105,314,58771,1,0,3:2:0:0:
276,350,58935,5,12,0:0:0:0:
148,195,59099,1,0,3:2:0:0:
185,333,59263,1,0,3:2:0:0:
281,154,59427,2,0,P|292:110|311:69,2,89.9999972534181,12|0|0,0:0|3:2|3:2,0:0:0:0:
141,204,59919,6,0,P|129:160|110:119,1,89.9999972534181,12|0,0:0|0:0,0:0:0:0:
36,196,60247,1,2,3:2:0:0:
201,294,60411,2,0,P|219:253|231:209,1,89.9999972534181,12|0,0:0|3:2,0:0:0:0:
282,33,60738,2,0,P|300:73|312:117,1,89.9999972534181,10|0,0:0|3:2,0:0:0:0:
345,281,61066,5,14,0:0:0:0:
241,189,61230,1,0,3:2:0:0:
418,241,61394,1,2,3:2:0:0:
274,326,61558,5,12,0:0:0:0:
238,175,61722,1,0,3:2:0:0:
355,294,61886,1,0,3:2:0:0:
158,201,62050,2,0,P|109:192|54:195,1,89.9999972534181,14|0,0:0|3:2,0:0:0:0:
267,308,62378,6,0,P|312:308|357:291,2,89.9999972534181,12|0|0,0:0|3:2|3:2,0:0:0:0:
116,277,62870,2,0,P|71:277|25:293,2,89.9999972534181,12|0|0,0:0|3:2|3:2,0:0:0:0:
300,384,63361,2,0,P|255:383|212:369,1,89.9999972534181,10|0,0:0|3:2,0:0:0:0:
141,189,63689,5,14,0:0:0:0:
245,294,64017,6,0,L|251:248,3,44.999998626709,8|0|2|0,0:0|0:0|0:0|0:0,0:0:0:0:
331,264,64345,2,0,L|337:218,3,44.999998626709,8|0|0|0,0:0|0:0|0:0|0:0,0:0:0:0:
417,235,64673,2,0,L|423:189,3,44.999998626709,10|0|8|0,0:0|0:0|0:0|0:0,0:0:0:0:
497,110,65001,5,10,0:0:0:0:
498,124,65082,1,8,0:0:0:0:
500,139,65164,1,8,0:0:0:0:
501,154,65246,1,8,0:0:0:0:
503,170,65328,1,8,0:0:0:0:
505,185,65410,1,8,0:0:0:0:
506,200,65492,1,8,0:0:0:0:
508,215,65574,1,8,0:0:0:0:
510,230,65657,2,0,L|514:285,1,37.5,10|0,0:0|0:0,0:0:0:0:
393,366,65820,2,0,L|397:311,1,37.5,10|8,0:0|0:0,0:0:0:0:
395,180,65984,5,14,0:0:0:0:
395,180,66312,6,0,P|352:184|309:209,1,82.5000025177003,6|0,3:2|0:0,0:0:0:0:
274,314,66640,1,8,0:0:0:0:
226,150,66804,2,0,P|200:88|120:1,1,165.000005035401,2|0,0:0|3:0,0:0:0:0:
49,157,67296,2,0,P|90:144|135:109,1,82.5000025177003,10|0,0:0|0:0,0:0:0:0:
269,39,67624,6,0,P|312:43|355:68,1,82.5000025177003,2|0,3:2|0:0,0:0:0:0:
403,190,67952,2,0,P|408:109|452:39,1,165.000005035401,8|2,0:0|0:0,0:0:0:0:
268,192,68443,1,0,3:2:0:0:
200,92,68608,2,0,P|187:50|188:-2,1,82.5000025177003,10|0,0:0|0:0,0:0:0:0:
278,201,68935,6,0,P|276:242|263:281,1,82.5000025177003,2|0,3:2|0:0,0:0:0:0:
146,212,69263,1,8,0:0:0:0:
339,119,69427,2,0,P|363:193|352:284,1,165.000005035401,2|0,0:0|3:0,0:0:0:0:
190,316,69919,2,0,P|224:293|263:280,1,82.5000025177003,10|0,0:0|0:0,0:0:0:0:
429,325,70247,6,0,P|389:312|355:289,1,82.5000025177003,2|0,3:2|0:0,0:0:0:0:
209,171,70575,2,0,P|226:230|262:280,1,123.75000377655,8|0,0:0|0:0,0:0:0:0:
356,289,70902,6,0,P|353:247|298:216,1,82.5000025177003,2|0,0:0|3:2,0:0:0:0:
120,220,71230,6,0,P|181:220|208:163,1,123.75000377655,10|0,0:0|0:0,0:0:0:0:
204,138,71558,6,0,L|185:58,1,82.5000025177003,2|0,3:2|0:0,0:0:0:0:
246,284,71886,1,8,0:0:0:0:
307,141,72050,2,0,L|264:316,1,165.000005035401,2|0,0:0|3:0,0:0:0:0:
122,377,72542,2,0,L|102:296,1,82.5000025177003,10|0,0:0|0:0,0:0:0:0:
0,178,72870,6,0,P|43:182|86:207,1,82.5000025177003,2|0,3:2|0:0,0:0:0:0:
188,308,73198,2,0,L|145:132,1,165.000005035401,8|2,0:0|0:0,0:0:0:0:
109,20,73689,1,0,3:2:0:0:
245,174,73853,2,0,L|264:93,1,82.5000025177003,10|0,0:0|0:0,0:0:0:0:
389,29,74181,6,0,P|404:66|404:109,1,82.5000025177003,2|0,3:2|0:0,0:0:0:0:
343,238,74509,1,8,0:0:0:0:
264,93,74673,2,0,P|201:46|107:38,1,165.000005035401,2|0,0:0|3:0,0:0:0:0:
0,150,75165,2,0,P|34:127|73:114,1,82.5000025177003,10|0,0:0|0:0,0:0:0:0:
140,231,75493,6,0,P|106:254|67:267,1,82.5000025177003,2|0,3:2|0:0,0:0:0:0:
181,135,75821,2,0,P|227:156|255:226,1,123.75000377655,8|0,0:0|0:0,0:0:0:0:
315,264,76148,6,0,P|348:227|384:220,1,82.5000025177003,2|0,0:0|3:2,0:0:0:0:
506,316,76476,6,0,P|486:278|500:190,1,123.75000377655,10|0,0:0|0:0,0:0:0:0:
502,175,76804,6,0,P|515:134|512:92,1,82.5000025177003,6|0,3:2|0:0,0:0:0:0:
393,230,77132,1,8,0:0:0:0:
290,83,77296,2,0,P|344:144|378:219,1,165.000005035401,2|0,0:0|3:0,0:0:0:0:
206,288,77788,2,0,P|212:248|237:207,1,82.5000025177003,10|0,0:0|0:0,0:0:0:0:
344,301,78116,6,0,P|338:341|313:382,1,82.5000025177003,2|0,3:2|0:0,0:0:0:0:
127,305,78444,2,0,P|138:222|183:146,1,165.000005035401,8|2,0:0|0:0,0:0:0:0:
279,72,78935,1,0,3:2:0:0:
114,105,79100,2,0,P|145:82|187:66,1,82.5000025177003,10|0,0:0|0:0,0:0:0:0:
317,172,79427,6,0,P|348:195|390:211,1,82.5000025177003,2|0,3:2|0:0,0:0:0:0:
511,143,79755,1,8,0:0:0:0:
429,46,79919,2,0,P|394:120|396:201,1,165.000005035401,2|0,0:0|3:0,0:0:0:0:
287,292,80411,2,0,P|262:242|251:184,1,82.5000025177003,10|0,0:0|0:0,0:0:0:0:
431,328,80738,6,0,L|327:352,1,82.5000025177003,2|0,3:2|0:0,0:0:0:0:
166,264,81066,2,0,L|298:294,1,123.75000377655,8|0,0:0|0:0,0:0:0:0:
350,346,81394,6,0,P|371:311|356:251,1,82.5000025177003,2|0,0:0|3:2,0:0:0:0:
248,143,81723,6,0,P|268:193|354:189,1,123.75000377655,10|0,0:0|0:0,0:0:0:0:
354,189,82050,6,0,P|374:153|381:112,1,82.5000025177003,2|0,3:2|0:0,0:0:0:0:
357,0,82378,1,8,0:0:0:0:
476,104,82542,2,0,P|499:183|503:273,1,165.000005035401,2|0,0:0|3:0,0:0:0:0:
308,290,83034,2,0,P|310:249|333:214,1,82.5000025177003,10|0,0:0|0:0,0:0:0:0:
483,278,83361,6,0,P|480:318|457:353,1,82.5000025177003,2|0,3:2|0:0,0:0:0:0:
303,375,83690,2,0,P|281:317|167:264,1,165.000005035401,8|2,0:0|0:0,0:0:0:0:
59,298,84181,1,0,3:2:0:0:
129,143,84346,2,0,P|127:184|114:223,1,82.5000025177003,10|0,0:0|0:0,0:0:0:0:
168,370,84673,6,0,P|170:329|183:290,1,82.5000025177003,2|0,3:2|0:0,0:0:0:0:
268,198,85001,1,8,0:0:0:0:
330,352,85165,2,0,P|407:355|502:301,1,165.000005035401,2|0,0:0|3:0,0:0:0:0:
512,162,85657,2,0,P|503:202|479:235,1,82.5000025177003,10|0,0:0|0:0,0:0:0:0:
359,179,85984,6,0,P|367:138|391:105,1,82.5000025177003,2|0,3:2|0:0,0:0:0:0:
292,278,86313,2,0,P|255:228|247:166,1,123.75000377655,8|0,0:0|0:0,0:0:0:0:
216,28,86640,6,0,P|213:70|158:101,1,82.5000025177003,2|0,0:0|3:2,0:0:0:0:
96,63,86886,1,0,3:2:0:0:
95,63,86968,6,0,P|154:63|171:120,1,123.75000377655,10|0,0:0|0:0,0:0:0:0:
163,140,87296,6,0,L|148:318,2,150,6|8|0,3:2|0:0|0:0,0:0:0:0:
265,76,88116,1,0,3:2:0:0:
265,76,88279,2,0,L|272:165,1,75,8|0,0:0|0:0,0:0:0:0:
339,230,88607,6,0,P|368:177|479:167,1,150,2|8,3:2|0:0,0:0:0:0:
358,320,89099,2,0,P|286:306|246:245,1,150,2|0,0:0|3:2,0:0:0:0:
187,118,89591,2,0,P|178:156|179:210,1,75,10|0,0:0|0:0,0:0:0:0:
58,257,89919,6,0,P|55:182|37:109,2,150,2|8|0,3:2|0:0|0:0,0:0:0:0:
28,377,90738,1,0,3:2:0:0:
147,216,90902,2,0,P|145:253|136:289,1,75,8|0,0:0|0:0,0:0:0:0:
28,377,91230,6,0,L|195:358,2,150,2|8|0,3:2|0:0|0:0,0:0:0:0:
135,272,92050,1,0,3:2:0:0:
257,350,92214,2,0,L|340:340,1,75,10|0,0:0|0:0,0:0:0:0:
443,369,92542,6,0,P|429:292|484:218,2,150,2|8|0,3:2|0:0|0:0,0:0:0:0:
511,311,93361,1,0,3:2:0:0:
366,382,93525,2,0,P|353:333|352:293,1,75,8|0,0:0|0:0,0:0:0:0:
266,177,93853,6,0,P|235:273|238:355,2,150,2|8|0,3:2|0:0|0:0,0:0:0:0:
363,127,94673,1,0,3:2:0:0:
189,163,94837,2,0,P|209:131|239:100,1,75,10|0,0:0|0:0,0:0:0:0:
371,115,95165,6,0,P|400:171|492:187,2,150,2|8|2,3:2|0:0|0:0,0:0:0:0:
380,14,95984,1,0,3:2:0:0:
299,146,96148,2,0,P|300:183|308:219,1,75,8|0,0:0|0:0,0:0:0:0:
244,38,96476,6,0,P|211:20|176:9,1,75,0|0,3:2|0:0,0:0:0:0:
49,111,96804,2,0,P|44:148|17:190,2,75,8|0|0,0:0|0:0|0:0,0:0:0:0:
16,0,97296,1,0,3:2:0:0:
131,83,97460,2,0,P|149:115|154:152,1,75,8|0,0:0|0:0,0:0:0:0:
58,344,97788,6,0,P|103:285|173:261,2,150,6|8|0,3:2|0:0|0:0,0:0:0:0:
9,204,98607,1,0,3:2:0:0:
70,358,98771,2,0,P|86:329|134:296,1,75,10|2,0:0|0:0,0:0:0:0:
271,315,99099,6,0,P|230:281|249:169,1,150,2|8,3:2|0:0,0:0:0:0:
358,105,99591,2,0,P|316:122|333:47,1,150,2|0,0:0|3:2,0:0:0:0:
230,190,100083,2,0,P|203:161|186:103,1,75,10|0,0:0|0:0,0:0:0:0:
21,24,100411,6,0,P|53:52|100:181,1,150,2|8,3:2|0:0,0:0:0:0:
11,263,100902,2,0,P|13:232|39:188,1,75,0|0,0:0|0:0,0:0:0:0:
147,259,101230,1,0,3:2:0:0:
23,181,101394,1,10,0:0:0:0:
178,109,101558,1,2,0:0:0:0:
288,210,101722,6,0,P|355:184|452:186,1,150,2|8,3:2|0:0,0:0:0:0:
484,276,102214,2,0,P|439:293|389:274,1,75,0|0,0:0|0:0,0:0:0:0:
432,182,102542,1,0,3:2:0:0:
343,361,102706,2,0,P|311:317|300:270,1,75,10|0,0:0|0:0,0:0:0:0:
195,93,103034,6,0,L|174:266,2,150,2|8|0,3:2|0:0|0:0,0:0:0:0:
59,7,103853,1,0,3:2:0:0:
205,81,104017,2,0,L|296:71,1,75,8|0,0:0|0:0,0:0:0:0:
466,8,104345,6,0,P|406:27|371:130,1,150,2|8,3:2|0:0,0:0:0:0:
453,203,104837,2,0,P|422:136|354:110,1,150,2|0,0:0|3:2,0:0:0:0:
227,33,105329,2,0,P|190:60|133:64,1,75,8|0,0:0|0:0,0:0:0:0:
41,107,105657,6,0,P|104:124|171:216,1,150,2|8,3:2|0:0,0:0:0:0:
169,303,106148,2,0,P|106:286|39:194,1,150,2|0,0:0|3:2,0:0:0:0:
229,154,106640,2,0,P|239:187|241:213,3,37.5,8|0|0|0,0:0|0:0|0:0|0:0,0:0:0:0:
302,259,106968,6,0,P|282:290|275:329,1,75,2|0,3:2|3:2,0:0:0:0:
385,175,107296,2,0,P|382:149|375:133,3,37.5,8|0|0|0,0:0|0:0|3:2|0:0,0:0:0:0:
257,98,107624,1,8,0:0:0:0:
230,92,107705,1,0,0:0:0:0:
203,87,107787,1,0,3:2:0:0:
177,82,107869,1,0,0:0:0:0:
150,77,107952,2,0,P|118:94|70:98,1,78.7499975967408,8|0,0:0|0:0,0:0:0:0:
8,155,108279,6,0,P|49:166|79:189,1,75,4|0,3:2|0:0,0:0:0:0:
128,320,108607,1,8,0:0:0:0:
178,157,108771,2,0,P|217:219|227:313,1,150,2|0,0:0|3:2,0:0:0:0:
416,346,109263,2,0,P|424:316|429:265,1,75,10|2,0:0|0:0,0:0:0:0:
434,138,109591,6,0,L|451:267,1,120,2|8,3:2|0:0,0:0:0:0:
329,184,110083,2,0,L|313:65,1,120,2|0,0:0|3:2,0:0:0:0:
150,120,110575,2,0,P|185:139|249:124,1,90,8|0,0:0|0:0,0:0:0:0:
243,120,110902,6,0,P|205:154|186:202,1,75,0|0,3:2|0:0,0:0:0:0:
201,297,111230,1,8,0:0:0:0:
67,171,111394,2,0,P|58:228|88:335,1,150,2|0,0:0|3:2,0:0:0:0:
187,364,111886,2,0,P|206:338|182:277,1,75,10|2,0:0|0:0,0:0:0:0:
65,166,112214,6,0,P|95:175|145:160,1,60,2|0,3:2|0:0,0:0:0:0:
202,35,112542,2,0,L|187:141,1,90,8|0,0:0|0:0,0:0:0:0:
200,137,112870,6,0,P|232:127|287:132,1,75,2|0,0:0|3:2,0:0:0:0:
396,234,113198,2,0,P|364:244|309:239,1,75,10|0,0:0|0:0,0:0:0:0:
240,207,113443,1,0,0:0:0:0:
240,207,113525,6,0,L|258:378,1,150,2|10,3:2|0:0,0:0:0:0:
127,44,114181,2,0,L|116:125,1,75,2|0,0:0|3:2,0:0:0:0:
240,207,114509,2,0,L|258:378,1,150,10|0,0:0|3:2,0:0:0:0:
336,270,115001,1,0,0:0:0:0:
168,309,115165,2,0,L|67:329,1,75,10|0,0:0|0:0,0:0:0:0:
257,188,115493,6,0,L|183:173,1,75,2|0,0:0|3:2,0:0:0:0:
13,150,115820,1,8,0:0:0:0:
133,236,115983,1,0,0:0:0:0:
133,236,116065,1,0,0:0:0:0:
133,235,116148,6,0,P|154:172|155:68,1,150,2|8,3:2|0:0,0:0:0:0:
283,0,116640,2,0,P|307:53|385:8,1,150,2|0,0:0|3:2,0:0:0:0:
409,161,117132,2,0,P|448:131|470:84,1,75,10|0,0:0|0:0,0:0:0:0:
483,17,117378,1,0,0:0:0:0:
483,17,117460,6,0,P|472:59|449:99,1,75,0|2,3:2|0:0,0:0:0:0:
315,156,117788,2,0,L|136:133,1,150,8|0,0:0|0:0,0:0:0:0:
0,124,118279,1,0,3:2:0:0:
58,276,118443,2,0,P|82:240|96:182,1,75,8|0,0:0|0:0,0:0:0:0:
150,123,118689,1,0,0:0:0:0:
150,123,118771,6,0,P|165:183|246:238,1,150,4|8,3:2|0:0,0:0:0:0:
358,240,119263,2,0,L|179:263,1,150,2|0,0:0|3:2,0:0:0:0:
46,309,119755,2,0,P|86:320|130:359,1,75,10|2,0:0|0:0,0:0:0:0:
142,170,120083,6,0,P|178:216|194:291,1,120,2|8,3:2|0:0,0:0:0:0:
321,222,120575,2,0,P|315:166|277:95,1,120,2|0,0:0|3:2,0:0:0:0:
142,170,121066,2,0,P|141:203|191:238,1,90,8|0,0:0|0:0,0:0:0:0:
198,235,121394,6,0,P|98:217|49:255,1,150,0|8,3:2|0:0,0:0:0:0:
25,366,121886,2,0,P|36:291|37:189,1,150,2|0,0:0|3:2,0:0:0:0:
57,65,122378,2,0,P|68:110|74:157,1,75,10|2,0:0|0:0,0:0:0:0:
194,207,122706,6,0,P|216:171|311:169,1,120,2|8,3:2|0:0,0:0:0:0:
365,286,123198,2,0,P|306:281|270:235,1,120,0|0,0:0|3:2,0:0:0:0:
388,150,123689,2,0,P|377:191|371:221,1,60,10|0,0:0|0:0,0:0:0:0:
321,362,124017,6,0,P|308:291|264:214,1,150,2|10,3:2|0:0,0:0:0:0:
98,217,124509,2,0,P|132:277|199:255,1,150,0|0,0:0|3:2,0:0:0:0:
185,105,125001,1,10,0:0:0:0:
279,231,125165,1,0,0:0:0:0:
279,231,125247,1,0,0:0:0:0:
279,231,125329,6,0,P|316:206|371:199,1,75,0|0,3:2|0:0,0:0:0:0:
498,309,125657,2,0,P|461:284|406:277,1,75,10|0,0:0|0:0,0:0:0:0:
263,209,125984,2,0,P|300:184|355:177,1,75,2|0,0:0|3:2,0:0:0:0:
250,374,126312,2,0,L|232:279,1,75,8|0,0:0|0:0,0:0:0:0:
65,162,126640,5,14,0:0:0:0:
173,250,126804,1,0,3:2:0:0:
129,109,126968,1,0,3:2:0:0:
89,241,127132,5,12,0:0:0:0:
242,161,127296,1,0,3:2:0:0:
50,83,127460,1,0,3:2:0:0:
253,175,127624,2,0,P|291:174|350:159,1,75,12|0,0:0|0:0,0:0:0:0:
498,100,127952,1,8,0:0:0:0:
470,96,128034,1,0,0:0:0:0:
444,85,128116,1,0,0:0:0:0:
422,67,128198,1,0,0:0:0:0:
406,44,128279,6,0,P|409:71|442:117,1,75,10|0,0:0|3:2,0:0:0:0:
512,245,128607,2,0,P|475:235|412:178,1,104.999996795654,2|0,3:2|0:0,0:0:0:0:
316,0,128935,6,0,P|308:26|306:76,1,67.4999979400635,10|0,3:2|0:0,0:0:0:0:
316,82,129263,6,0,P|254:55|198:63,1,89.9999972534181,6|0,3:2|0:0,0:0:0:0:
88,199,129591,2,0,P|132:193|171:171,1,89.9999972534181,10|0,0:0|0:0,0:0:0:0:
97,94,129919,1,2,0:0:0:0:
159,264,130083,1,0,3:2:0:0:
242,119,130247,2,0,P|280:96|325:91,1,89.9999972534181,10|0,0:0|0:0,0:0:0:0:
420,222,130575,6,0,P|382:245|337:250,1,89.9999972534181,2|0,3:2|0:0,0:0:0:0:
450,55,130902,2,0,L|442:147,1,89.9999972534181,10|0,0:0|0:0,0:0:0:0:
319,259,131230,2,0,L|311:167,1,89.9999972534181,2|0,0:0|3:2,0:0:0:0:
199,37,131558,2,0,P|133:40|68:105,1,134.999995880127,10|0,0:0|0:0,0:0:0:0:
75,102,131886,6,0,P|102:143|104:198,1,89.9999972534181,0|0,3:2|0:0,0:0:0:0:
8,315,132214,2,0,P|30:271|76:241,1,89.9999972534181,10|0,0:0|0:0,0:0:0:0:
223,273,132542,1,2,0:0:0:0:
91,327,132706,1,0,3:2:0:0:
232,258,132870,6,0,P|326:266|435:307,1,179.999994506836,10|2,0:0|3:2,0:0:0:0:
484,374,133361,1,0,0:0:0:0:
512,206,133525,2,0,P|496:244|486:310,1,89.9999972534181,8|0,0:0|0:0,0:0:0:0:
343,361,133853,2,0,P|327:323|317:257,1,89.9999972534181,2|0,0:0|3:2,0:0:0:0:
348,122,134181,1,10,0:0:0:0:
348,122,134509,6,0,P|323:133|298:135,1,44.999998626709,2|0,3:2|0:0,0:0:0:0:
216,192,134673,2,0,P|173:176|119:175,1,89.9999972534181,2|8,0:0|0:0,0:0:0:0:
8,264,135001,6,0,P|30:260|50:250,1,44.999998626709,2|0,0:0|0:0,0:0:0:0:
131,162,135165,2,0,P|175:164|217:180,1,89.9999972534181,2|0,0:0|3:2,0:0:0:0:
321,256,135493,1,8,0:0:0:0:
137,321,135657,6,0,P|170:291|211:272,1,89.9999972534181,2|0,0:0|3:2,0:0:0:0:
334,270,135984,1,2,0:0:0:0:
217,180,136148,2,0,P|188:145|172:103,1,89.9999972534181,10|0,0:0|0:0,0:0:0:0:
315,14,136476,2,0,P|299:56|270:91,1,89.9999972534181,2|0,0:0|3:2,0:0:0:0:
159,108,136804,2,0,P|117:56|26:59,1,134.999995880127,10|0,0:0|0:0,0:0:0:0:
0,100,137132,5,0,3:2:0:0:
0,100,137460,2,0,P|12:138|23:189,1,89.9999972534181,10|0,0:0|0:0,0:0:0:0:
122,325,137788,2,0,P|126:278|138:233,1,89.9999972534181,2|0,0:0|3:2,0:0:0:0:
243,96,138116,2,0,P|255:134|266:185,1,89.9999972534181,10|0,0:0|0:0,0:0:0:0:
163,325,138443,6,0,P|150:286|146:232,1,89.9999972534181,0|0,3:2|0:0,0:0:0:0:
332,254,138771,2,0,L|222:274,1,89.9999972534181,10|0,0:0|0:0,0:0:0:0:
77,128,139099,2,0,L|165:144,1,89.9999972534181,2|0,0:0|3:2,0:0:0:0:
341,264,139427,2,0,P|414:245|466:165,1,134.999995880127,10|0,0:0|0:0,0:0:0:0:
458,117,139755,6,0,P|454:162|471:215,1,89.9999972534181,6|0,3:2|0:0,0:0:0:0:
512,368,140083,2,0,P|516:323|499:270,1,89.9999972534181,10|0,0:0|0:0,0:0:0:0:
351,159,140411,2,0,L|157:141,1,179.999994506836,2|10,0:0|0:0,0:0:0:0:
67,224,140902,1,0,0:0:0:0:
53,40,141066,6,0,P|63:84|70:138,1,89.9999972534181,2|0,3:2|0:0,0:0:0:0:
166,253,141394,2,0,P|172:208|182:164,1,89.9999972534181,10|0,0:0|0:0,0:0:0:0:
270,28,141722,1,2,0:0:0:0:
193,158,141886,1,0,3:2:0:0:
59,31,142050,2,0,P|105:55|138:84,1,89.9999972534181,10|0,0:0|0:0,0:0:0:0:
45,242,142378,6,0,P|40:192|51:147,1,89.9999972534181,0|0,3:2|0:0,0:0:0:0:
181,302,142706,1,10,0:0:0:0:
224,147,142870,1,0,0:0:0:0:
102,317,143034,1,2,0:0:0:0:
233,224,143198,1,0,3:2:0:0:
48,153,143361,2,0,P|107:163|169:197,1,89.9999972534181,10|0,0:0|0:0,0:0:0:0:
241,235,143689,6,0,P|280:234|407:157,1,179.999994506836,2|8,3:2|0:0,0:0:0:0:
430,57,144181,1,0,0:0:0:0:
475,224,144345,2,0,P|490:186|490:134,1,89.9999972534181,2|0,0:0|3:2,0:0:0:0:
358,0,144673,2,0,P|343:38|343:90,1,89.9999972534181,10|0,0:0|0:0,0:0:0:0:
460,227,145001,5,2,3:2:0:0:
340,102,145165,2,0,P|298:72|240:52,2,89.9999972534181,2|8|2,0:0|0:0|0:0,0:0:0:0:
458,129,145657,2,0,P|449:78|422:22,1,89.9999972534181,2|0,0:0|3:2,0:0:0:0:
258,167,145984,1,8,0:0:0:0:
363,112,146148,1,2,0:0:0:0:
177,84,146312,6,0,L|54:68,1,89.9999972534181,0|2,3:2|0:0,0:0:0:0:
346,135,146640,2,0,L|469:119,1,89.9999972534181,10|0,0:0|0:0,0:0:0:0:
142,242,146968,6,0,P|92:249|54:258,1,89.9999972534181,2|0,0:0|3:2,0:0:0:0:
335,300,147296,2,0,P|378:301|424:311,1,89.9999972534181,10|0,0:0|0:0,0:0:0:0:
232,353,147624,6,0,P|228:284|244:211,1,134.999995880127,0|0,3:2|0:0,0:0:0:0:
252,198,147952,2,0,P|289:177|355:185,1,89.9999972534181,10|0,0:0|0:0,0:0:0:0:
423,311,148279,2,0,P|386:289|360:228,1,89.9999972534181,2|0,0:0|3:2,0:0:0:0:
436,107,148607,2,0,P|435:149|395:202,1,89.9999972534181,10|0,0:0|0:0,0:0:0:0:
243,200,148935,6,0,L|129:178,1,89.9999972534181,0|0,3:2|0:0,0:0:0:0:
306,295,149263,1,10,0:0:0:0:
356,129,149427,1,0,0:0:0:0:
299,302,149591,1,10,0:0:0:0:
226,106,149755,1,0,3:2:0:0:
294,311,149919,1,10,0:0:0:0:
300,76,150083,1,0,3:2:0:0:
418,274,150247,6,0,L|431:359,1,82.5000025177003,6|0,3:2|0:0,0:0:0:0:
306,194,150575,2,0,P|225:201|164:255,1,165.000005035401,8|0,0:0|0:0,0:0:0:0:
232,326,151066,1,0,3:2:0:0:
396,202,151230,2,0,P|386:162|362:128,1,82.5000025177003,10|0,0:0|0:0,0:0:0:0:
190,70,151558,6,0,P|224:92|265:98,1,82.5000025177003,2|0,3:2|0:0,0:0:0:0:
467,107,151887,2,0,P|407:52|291:39,1,165.000005035401,8|2,0:0|0:0,0:0:0:0:
225,172,152378,1,0,0:0:0:0:
195,0,152542,2,0,P|182:49|178:98,1,82.5000025177003,10|0,0:0|0:0,0:0:0:0:
81,214,152870,6,0,P|75:173|64:133,1,82.5000025177003,2|0,3:2|0:0,0:0:0:0:
98,362,153198,1,8,0:0:0:0:
216,274,153362,2,0,P|288:240|390:247,1,165.000005035401,2|0,0:0|3:0,0:0:0:0:
483,365,153853,2,0,P|482:324|463:289,1,82.5000025177003,10|0,0:0|0:0,0:0:0:0:
350,164,154181,6,0,P|351:204|371:240,1,82.5000025177003,2|0,3:2|0:0,0:0:0:0:
511,112,154510,2,0,P|447:138|423:203,1,123.75000377655,8|0,0:0|0:0,0:0:0:0:
426,191,154837,6,0,P|392:170|341:164,1,82.5000025177003,2|0,0:0|0:0,0:0:0:0:
252,234,155165,6,0,P|192:235|163:184,1,123.75000377655,10|0,0:0|0:0,0:0:0:0:
162,166,155493,6,0,P|192:141|241:132,1,82.5000025177003,2|0,3:2|0:0,0:0:0:0:
343,157,155821,1,8,0:0:0:0:
291,19,155985,2,0,P|344:81|350:162,1,165.000005035401,2|0,0:0|3:0,0:0:0:0:
240,274,156476,2,0,P|200:265|168:239,1,82.5000025177003,10|0,0:0|0:0,0:0:0:0:
78,140,156804,6,0,P|38:148|6:174,1,82.5000025177003,2|0,3:2|0:0,0:0:0:0:
152,235,157132,2,0,P|194:170|168:62,1,165.000005035401,8|2,0:0|0:0,0:0:0:0:
72,0,157624,1,0,0:0:0:0:
195,74,157788,2,0,P|236:81|287:74,1,82.5000025177003,10|0,0:0|0:0,0:0:0:0:
408,21,158116,6,0,P|447:21|494:34,1,82.5000025177003,2|0,3:2|0:0,0:0:0:0:
354,127,158444,1,8,0:0:0:0:
512,143,158608,2,0,P|438:108|358:117,1,165.000005035401,2|0,0:0|3:0,0:0:0:0:
247,243,159099,2,0,P|292:226|318:176,1,82.5000025177003,10|0,0:0|0:0,0:0:0:0:
248,97,159427,6,0,P|203:114|177:164,1,82.5000025177003,2|0,3:2|0:0,0:0:0:0:
63,259,159756,2,0,L|34:118,1,123.75000377655,10|0,0:0|0:0,0:0:0:0:
43,123,160083,6,0,P|76:160|112:167,1,82.5000025177003,2|0,0:0|0:0,0:0:0:0:
242,207,160411,6,0,P|297:172|370:181,1,123.75000377655,10|0,0:0|0:0,0:0:0:0:
370,186,160739,6,0,L|386:272,1,82.5000025177003,6|0,3:2|0:0,0:0:0:0:
441,382,161067,1,8,0:0:0:0:
492,207,161230,2,0,L|455:404,1,165.000005035401,2|0,0:0|3:0,0:0:0:0:
292,299,161722,2,0,L|273:200,1,82.5000025177003,10|0,0:0|0:0,0:0:0:0:
407,102,162050,6,0,L|388:200,1,82.5000025177003,2|0,3:2|0:0,0:0:0:0:
284,309,162378,2,0,P|220:249|139:247,1,165.000005035401,8|2,0:0|0:0,0:0:0:0:
55,321,162870,1,0,0:0:0:0:
119,156,163035,2,0,P|83:179|58:215,1,82.5000025177003,10|0,0:0|0:0,0:0:0:0:
211,361,163361,6,0,P|246:337|271:301,1,82.5000025177003,2|0,3:2|0:0,0:0:0:0:
275,196,163689,1,10,0:0:0:0:
386,313,163854,2,0,P|394:231|357:126,1,165.000005035401,0|0,0:0|3:0,0:0:0:0:
412,36,164346,2,0,P|450:61|485:108,1,82.5000025177003,10|0,0:0|0:0,0:0:0:0:
358,156,164673,6,0,P|320:131|285:84,1,82.5000025177003,2|0,3:2|0:0,0:0:0:0:
181,18,165001,2,0,P|120:31|69:99,1,123.75000377655,8|0,0:0|0:0,0:0:0:0:
74,97,165329,6,0,P|119:104|154:145,1,82.5000025177003,2|0,0:0|0:0,0:0:0:0:
85,284,165658,6,0,P|46:239|63:182,1,123.75000377655,10|0,0:0|0:0,0:0:0:0:
82,176,165984,6,0,P|113:202|153:206,1,82.5000025177003,2|0,3:2|0:0,0:0:0:0:
264,133,166313,1,8,0:0:0:0:
219,285,166477,2,0,P|290:234|394:222,1,165.000005035401,2|0,0:0|3:0,0:0:0:0:
485,358,166969,2,0,P|476:318|475:276,1,82.5000025177003,10|0,0:0|0:0,0:0:0:0:
511,121,167296,6,0,P|494:161|483:202,1,82.5000025177003,2|0,3:2|0:0,0:0:0:0:
392,304,167625,2,0,P|373:216|344:148,1,165.000005035401,8|2,0:0|0:0,0:0:0:0:
237,53,168116,1,0,0:0:0:0:
215,202,168279,2,0,P|242:165|254:120,1,82.5000025177003,8|0,0:0|0:0,0:0:0:0:
304,0,168607,6,0,P|316:38|341:71,1,82.5000025177003,2|0,3:2|0:0,0:0:0:0:
512,102,168936,1,8,0:0:0:0:
497,0,169100,2,0,P|421:80|428:157,1,165.000005035401,2|0,0:0|3:0,0:0:0:0:
506,285,169591,2,0,P|499:244|473:213,1,82.5000025177003,10|0,0:0|0:0,0:0:0:0:
302,185,169919,6,0,L|197:173,1,82.5000025177003,2|0,3:2|0:0,0:0:0:0:
428,139,170247,2,0,L|533:127,1,82.5000025177003,8|0,0:0|0:0,0:0:0:0:
291,92,170575,2,0,P|269:46|279:1,1,82.5000025177003,2|0,0:0|0:0,0:0:0:0:
358,0,170820,1,2,0:0:0:0:
358,0,170902,2,0,P|380:46|370:91,1,82.5000025177003,10|0,0:0|0:0,0:0:0:0:
236,170,171230,6,0,B|195:123|122:122|47:151|70:212|117:200|136:158,1,225.000008583069,6|0,0:0|0:0,0:0:0:0:
26,112,172214,6,0,P|5:159|15:218,2,112.500004291535,4|4|4,0:0|0:0|0:0,0:0:0:0:
103,170,173198,1,0,0:0:0:0:
241,65,173525,5,0,3:2:0:0:
236,78,173607,1,0,3:2:0:0:
223,75,173689,1,0,3:2:0:0:
221,63,173771,1,0,3:2:0:0:
233,57,173853,1,0,3:2:0:0:
338,81,174509,6,0,P|316:132|288:159,1,75.000002861023,0|0,3:2|3:2,0:0:0:0:
265,233,174946,2,0,P|212:253|174:252,1,75.000002861023,0|0,3:2|3:2,0:0:0:0:
28,208,175820,6,0,P|72:242|90:276,2,75.000002861023,0|0|0,3:2|3:2|3:2,0:0:0:0:
138,116,176476,6,0,P|173:167|173:284,3,168.750006437302,6|2|2|2,0:0|0:0|0:0|0:0,0:0:0:0:
53,363,178443,2,0,P|78:344|123:331,1,56.2500021457673,2|0,0:0|0:0,0:0:0:0:
162,278,178771,2,0,P|193:282|234:304,1,56.2500021457673,2|0,0:0|0:0,0:0:0:0:
339,325,179099,6,0,P|321:267|336:156,1,168.750006437302,2|0,0:0|3:2,0:0:0:0:
409,34,179755,6,0,P|380:59|361:89,1,56.2500021457673,6|0,0:0|0:0,0:0:0:0:
347,163,180083,1,10,0:0:0:0:
266,0,180247,2,0,P|258:42|274:111,1,112.500004291535,2|0,3:2|0:0,0:0:0:0:
357,174,180738,1,0,0:0:0:0:
166,79,181066,1,12,0:0:0:0:
245,202,181394,1,2,0:0:0:0:
20,107,181722,6,0,P|52:151|69:220,1,112.5,4|0,3:2|0:0,0:0:0:0:
77,223,182050,2,0,P|80:170|109:127,2,75,2|2|8,0:0|0:0|0:0,0:0:0:0:
256,303,182706,6,0,P|268:268|267:230,1,75,2|0,0:0|0:0,0:0:0:0:
215,120,183034,1,2,3:2:0:0:
263,222,183198,1,2,0:0:0:0:
491,73,183525,5,2,3:2:0:0:
491,73,183689,2,0,B|417:80|364:136|364:136|378:103|361:42,1,225,8|0,0:0|0:0,0:0:0:0:
245,27,184345,6,0,P|228:74|243:151,1,112.5,4|0,3:2|0:0,0:0:0:0:
248,148,184673,2,0,P|196:127|158:129,2,75,2|2|8,0:0|0:0|0:0,0:0:0:0:
208,298,185329,6,0,P|170:293|137:276,1,75,2|0,0:0|0:0,0:0:0:0:
69,162,185657,1,2,3:2:0:0:
132,261,185820,1,2,0:0:0:0:
182,36,186148,5,2,3:2:0:0:
182,36,186312,2,0,P|213:55|274:60,1,75,8|8,0:0|0:0,0:0:0:0:
258,148,186640,2,0,P|294:140|326:121,1,75,2|0,0:0|0:0,0:0:0:0:
457,19,186968,6,0,P|459:81|499:134,1,112.5,4|0,3:2|0:0,0:0:0:0:
500,131,187296,2,0,P|455:153|438:192,2,75,2|2|8,0:0|0:0|0:0,0:0:0:0:
512,339,187952,6,0,P|467:317|450:278,1,75,2|0,0:0|0:0,0:0:0:0:
430,162,188279,1,2,3:2:0:0:
464,286,188443,1,2,0:0:0:0:
260,352,188771,5,2,3:2:0:0:
260,352,188935,2,0,B|220:284|139:291|139:291|141:336|102:363,1,225,8|0,0:0|0:0,0:0:0:0:
2,325,189591,6,0,P|5:284|66:213,1,112.5,4|0,3:2|0:0,0:0:0:0:
59,214,189919,2,0,P|96:217|156:187,2,75,2|2|8,0:0|0:0|0:0,0:0:0:0:
42,67,190575,6,0,P|77:55|114:58,1,75,2|0,0:0|0:0,0:0:0:0:
223,130,190902,1,2,3:2:0:0:
123,67,191066,1,2,0:0:0:0:
394,51,191394,5,2,3:2:0:0:
394,51,191558,2,0,P|413:98|416:149,1,75,8|8,0:0|0:0,0:0:0:0:
212,143,191886,1,2,3:2:0:0:
327,108,192050,1,0,3:2:0:0:
251,321,192214,6,0,P|259:265|302:219,1,112.5,4|0,3:2|0:0,0:0:0:0:
314,216,192542,2,0,P|333:251|330:307,2,75,2|2|8,0:0|0:0|0:0,0:0:0:0:
123,263,193198,6,0,P|126:300|144:332,1,75,2|0,0:0|0:0,0:0:0:0:
256,361,193525,1,2,3:2:0:0:
135,340,193689,1,2,0:0:0:0:
399,274,194017,5,2,3:2:0:0:
398,274,194181,2,0,B|407:243|408:189|399:161|365:132|365:132|324:135|294:179,1,225,8|0,0:0|0:0,0:0:0:0:
229,92,194837,6,0,P|276:49|320:31,1,112.5,4|0,3:2|0:0,0:0:0:0:
333,14,195165,2,0,P|365:41|426:51,2,75,2|2|8,0:0|0:0|0:0,0:0:0:0:
176,163,195820,6,0,P|148:138|112:125,1,75,2|0,0:0|0:0,0:0:0:0:
0,178,196148,1,2,3:2:0:0:
110,135,196312,1,2,0:0:0:0:
40,342,196640,5,2,3:2:0:0:
40,342,196804,2,0,P|75:319|115:309,1,75,8|8,0:0|0:0,0:0:0:0:
183,249,197132,2,0,P|218:259|249:281,1,75,2|0,0:0|3:2,0:0:0:0:
415,352,197460,6,0,P|392:307|429:232,1,112.5,4|0,3:2|0:0,0:0:0:0:
424,234,197788,2,0,L|504:252,2,75,2|2|8,0:0|0:0|0:0,0:0:0:0:
313,107,198443,6,0,L|393:89,1,75,2|0,0:0|0:0,0:0:0:0:
511,63,198771,1,2,3:2:0:0:
390,100,198935,1,2,0:0:0:0:
128,23,199263,5,2,3:2:0:0:
128,23,199427,2,0,B|181:58|162:146|162:146|95:159|92:227,1,225,8|0,0:0|3:2,0:0:0:0:
159,298,200083,6,0,P|206:282|245:219,1,112.5,4|0,3:2|0:0,0:0:0:0:
245,212,200411,2,0,P|260:246|273:291,2,75,2|2|8,0:0|0:0|0:0,0:0:0:0:
39,295,201066,6,0,P|49:330|65:365,1,75,2|0,0:0|0:0,0:0:0:0:
197,363,201394,2,0,P|241:320|311:328,1,112.5,2|0,3:2|0:0,0:0:0:0:
359,365,201722,6,0,L|362:392,6,18.75,2|2|2|2|2|2|2,0:0|0:0|0:0|0:0|0:0|0:0|0:0,0:0:0:0:
349,246,202050,1,2,0:0:0:0:
349,246,202214,1,2,0:0:0:0:
349,246,202378,2,0,L|423:237,1,75,2|0,0:0|0:0,0:0:0:0:
285,317,202706,6,0,B|304:312|304:312|191:293|191:293|217:288,1,150,0|0,0:0|0:0,0:0:0:0:
206,290,203361,6,0,L|196:370,1,75,0|0,0:0|0:0,0:0:0:0:
116,295,203689,6,0,L|112:335,1,37.5,0|0,0:0|0:0,0:0:0:0:
35,299,204017,6,0,L|33:319,8,18.75,0|0|0|0|0|0|0|0|0,0:0|0:0|0:0|0:0|0:0|0:0|0:0|0:0|0:0,0:0:0:0:
126,325,204673,6,0,L|127:306,6,18.75,0|0|0|0|0|0|0,0:0|0:0|0:0|0:0|0:0|0:0|0:0,0:0:0:0:
184,238,205001,6,0,P|224:230|280:278,1,112.5,2|0,0:0|0:0,0:0:0:0:
305,347,205328,6,0,P|284:313|354:226,1,150,2|0,0:0|0:0,0:0:0:0:
407,323,205820,6,0,P|394:348|315:335,1,112.500004291535,2|0,0:0|0:0,0:0:0:0:
362,239,206312,6,0,P|383:251|386:314,1,90.0000021972657,2|0,0:0|0:0,0:0:0:0:
305,315,207296,1,2,0:0:0:0:
305,315,207624,1,2,0:0:0:0:
242,224,207952,6,0,P|200:188|96:213,1,150,2|0,0:0|0:0,0:0:0:0:
158,308,208444,6,0,P|144:255|95:231,1,112.500004291535,2|0,0:0|0:0,0:0:0:0:
70,320,208936,6,0,P|77:280|59:242,1,75,2|0,0:0|0:0,0:0:0:0:
0,291,209919,1,2,0:0:0:0:
0,291,210247,6,0,P|96:278|203:294,1,194.999991073609,2|2,0:0|0:0,0:0:0:0:
276,353,211231,1,2,0:0:0:0:
306,247,211559,2,0,P|372:283|450:290,1,146.249993305207,2|0,0:0|0:0,0:0:0:0:
512,239,212214,1,2,0:0:0:0:
429,203,212542,1,2,0:0:0:0:
441,290,212870,1,2,0:0:0:0:
500,153,213198,6,0,P|456:118|401:116,1,112.500004291535,2|0,0:0|0:0,0:0:0:0:
317,66,213689,2,0,P|273:100|218:102,1,112.500004291535,2|0,0:0|0:0,0:0:0:0:
126,45,214182,6,0,P|175:68|196:119,2,112.5,2|2|0,0:0|0:0|0:0,0:0:0:0:
3,80,215493,2,0,L|46:71,1,37.5,2|0,0:0|0:0,0:0:0:0:
210,111,215820,6,0,P|126:144|97:204,1,150,4|8,3:2|0:0,0:0:0:0:
193,309,216312,2,0,P|277:276|306:216,1,150,2|0,0:0|3:2,0:0:0:0:
295,72,216804,2,0,P|304:113|333:147,1,75,10|2,0:0|0:0,0:0:0:0:
492,143,217132,6,0,P|434:165|391:220,1,120,2|8,3:2|0:0,0:0:0:0:
323,139,217624,2,0,P|297:195|306:264,1,120,2|0,0:0|3:2,0:0:0:0:
226,357,218116,2,0,P|222:313|186:289,1,90,8|0,0:0|0:0,0:0:0:0:
175,300,218443,6,0,P|250:292|304:244,1,150,0|8,3:2|0:0,0:0:0:0:
408,69,218935,2,0,P|418:151|396:219,1,150,2|0,0:0|3:2,0:0:0:0:
357,379,219427,2,0,P|353:339|370:299,1,75,10|2,0:0|0:0,0:0:0:0:
494,164,219755,6,0,P|457:209|399:214,1,120,2|8,3:2|0:0,0:0:0:0:
305,164,220247,2,0,P|363:168|399:214,1,120,0|0,0:0|3:2,0:0:0:0:
263,295,220738,2,0,L|247:224,1,60,10|0,0:0|0:0,0:0:0:0:
167,120,221066,6,0,L|135:283,1,150,2|10,3:2|0:0,0:0:0:0:
10,336,221558,2,0,P|38:289|137:282,1,150,0|0,0:0|3:2,0:0:0:0:
203,369,222050,1,10,0:0:0:0:
249,211,222214,1,0,0:0:0:0:
249,211,222296,1,0,0:0:0:0:
249,211,222378,6,0,L|262:293,1,75,0|0,3:2|0:0,0:0:0:0:
364,384,222706,2,0,L|375:309,1,75,10|0,0:0|0:0,0:0:0:0:
404,151,223034,2,0,L|392:225,1,75,2|0,0:0|3:2,0:0:0:0:
252,369,223361,2,0,L|240:294,1,75,8|0,0:0|0:0,0:0:0:0:
108,162,223689,5,14,0:0:0:0:
130,287,223853,1,0,3:2:0:0:
205,184,224017,1,0,3:2:0:0:
52,244,224181,5,12,0:0:0:0:
222,293,224345,1,0,3:2:0:0:
169,113,224509,1,0,3:2:0:0:
144,303,224673,5,12,0:0:0:0:
287,154,224837,2,0,P|312:111|320:66,1,75,0|0,3:2|3:2,0:0:0:0:
75,181,225165,5,12,0:0:0:0:
308,245,225329,2,0,P|350:245|390:231,1,75,0|0,3:2|3:2,0:0:0:0:
187,71,225657,6,0,P|89:101|59:161,1,168.750006437302,12|0,0:0|0:0,0:0:0:0:
87,227,226312,6,0,P|101:243|108:275,1,44.999998626709,0|0,3:2|0:0,0:0:0:0:
73,333,226640,2,0,P|58:349|51:371,2,44.999998626709,8|0|0,0:0|0:0|3:2,0:0:0:0:
149,329,227132,2,0,P|171:334|193:330,2,44.999998626709,8|0|0,0:0|0:0|0:0,0:0:0:0:
108,265,227624,2,0,P|101:243|66:208,1,67.4999979400635,0|0,3:2|0:0,0:0:0:0:
55,199,227952,6,0,P|95:204|134:182,1,75,2|0,0:0|0:0,0:0:0:0:
215,0,228279,2,0,P|183:41|183:99,1,104.999996795654,2|0,0:0|0:0,0:0:0:0:
326,193,228607,6,0,P|337:168|391:152,1,84.3750032186509,10|0,0:0|0:0,0:0:0:0:
412,172,228935,6,0,L|401:261,1,89.9999972534181,6|0,3:2|0:0,0:0:0:0:
290,383,229263,2,0,L|279:294,1,89.9999972534181,10|0,0:0|0:0,0:0:0:0:
231,161,229591,1,2,0:0:0:0:
194,326,229755,1,0,3:2:0:0:
142,166,229919,2,0,P|104:143|59:138,1,89.9999972534181,10|0,0:0|0:0,0:0:0:0:
267,282,230247,6,0,P|311:277|349:253,1,89.9999972534181,2|0,3:2|0:0,0:0:0:0:
450,112,230574,2,0,L|442:204,1,89.9999972534181,10|0,0:0|0:0,0:0:0:0:
371,350,230902,2,0,L|363:258,1,89.9999972534181,2|0,0:0|3:2,0:0:0:0:
254,141,231230,2,0,P|188:144|123:209,1,134.999995880127,10|0,0:0|0:0,0:0:0:0:
129,199,231558,6,0,P|174:221|231:208,1,89.9999972534181,0|0,3:2|0:0,0:0:0:0:
236,54,231886,2,0,P|191:32|134:45,1,89.9999972534181,10|0,0:0|0:0,0:0:0:0:
277,152,232214,1,2,0:0:0:0:
343,19,232378,1,0,3:2:0:0:
429,198,232542,6,0,P|353:149|255:145,1,179.999994506836,10|2,0:0|3:2,0:0:0:0:
155,222,233033,1,0,0:0:0:0:
139,47,233197,2,0,P|155:85|165:151,1,89.9999972534181,8|0,0:0|0:0,0:0:0:0:
41,269,233525,2,0,P|57:231|67:165,1,89.9999972534181,2|0,0:0|3:2,0:0:0:0:
144,353,233853,1,10,0:0:0:0:
296,96,234181,6,0,P|321:85|346:83,1,44.999998626709,2|0,3:2|0:0,0:0:0:0:
385,165,234345,2,0,P|335:187|285:191,1,89.9999972534181,2|8,0:0|0:0,0:0:0:0:
134,128,234673,6,0,P|161:130|183:141,1,44.999998626709,2|0,0:0|0:0,0:0:0:0:
177,232,234837,2,0,P|122:226|77:204,1,89.9999972534181,2|0,0:0|3:2,0:0:0:0:
12,116,235165,1,8,0:0:0:0:
78,218,235329,6,0,P|89:269|91:317,1,89.9999972534181,2|0,0:0|3:2,0:0:0:0:
221,368,235656,1,2,0:0:0:0:
221,368,235820,2,0,P|224:323|234:279,1,89.9999972534181,10|0,0:0|0:0,0:0:0:0:
331,126,236148,2,0,L|426:107,1,89.9999972534181,2|0,0:0|3:2,0:0:0:0:
512,170,236476,2,0,L|379:196,1,134.999995880127,10|0,0:0|0:0,0:0:0:0:
299,214,236804,5,0,3:2:0:0:
185,20,237132,2,0,P|173:58|162:109,1,89.9999972534181,10|0,0:0|0:0,0:0:0:0:
62,205,237460,2,0,P|50:167|39:116,1,89.9999972534181,2|0,0:0|3:2,0:0:0:0:
193,193,237788,2,0,P|181:231|170:282,1,89.9999972534181,10|0,0:0|0:0,0:0:0:0:
70,378,238116,6,0,P|58:340|47:289,1,89.9999972534181,0|0,3:2|0:0,0:0:0:0:
191,174,238443,2,0,P|235:196|292:192,1,89.9999972534181,10|0,0:0|0:0,0:0:0:0:
436,101,238771,2,0,P|412:138|374:162,1,89.9999972534181,2|0,0:0|3:2,0:0:0:0:
191,174,239099,2,0,P|268:173|311:215,1,134.999995880127,10|0,0:0|0:0,0:0:0:0:
314,236,239427,6,0,L|298:334,1,89.9999972534181,6|0,3:2|0:0,0:0:0:0:
202,180,239755,2,0,L|186:82,1,89.9999972534181,10|0,0:0|0:0,0:0:0:0:
52,244,240083,2,0,P|138:186|222:194,1,179.999994506836,2|10,0:0|0:0,0:0:0:0:
292,253,240574,1,0,0:0:0:0:
387,110,240738,6,0,P|361:157|355:209,1,89.9999972534181,2|0,3:2|0:0,0:0:0:0:
480,269,241066,2,0,P|506:222|512:170,1,89.9999972534181,10|0,0:0|0:0,0:0:0:0:
390,307,241394,1,2,0:0:0:0:
342,179,241558,1,0,3:2:0:0:
291,365,241722,2,0,P|256:336|216:316,1,89.9999972534181,10|0,0:0|0:0,0:0:0:0:
20,338,242050,6,0,L|133:313,1,89.9999972534181,0|0,3:2|0:0,0:0:0:0:
256,217,242378,1,10,0:0:0:0:
101,191,242542,1,0,0:0:0:0:
238,301,242706,1,2,0:0:0:0:
99,336,242870,1,0,3:2:0:0:
261,201,243033,2,0,P|321:203|369:232,1,89.9999972534181,10|0,0:0|0:0,0:0:0:0:
400,318,243361,6,0,L|374:121,1,179.999994506836,2|8,3:2|0:0,0:0:0:0:
359,23,243853,1,0,0:0:0:0:
227,92,244017,2,0,L|129:68,1,89.9999972534181,2|0,0:0|3:2,0:0:0:0:
391,132,244345,2,0,L|489:108,1,89.9999972534181,10|0,0:0|0:0,0:0:0:0:
249,226,244673,5,2,3:2:0:0:
227,92,244837,2,0,L|212:1,2,89.9999972534181,2|8|2,0:0|0:0|0:0,0:0:0:0:
355,208,245329,2,0,L|369:119,1,89.9999972534181,2|0,0:0|3:2,0:0:0:0:
259,241,245656,1,8,0:0:0:0:
233,109,245820,1,2,0:0:0:0:
330,290,245984,6,0,P|373:293|427:263,1,89.9999972534181,0|2,3:2|0:0,0:0:0:0:
186,191,246312,2,0,P|143:188|89:218,1,89.9999972534181,10|0,0:0|0:0,0:0:0:0:
310,372,246640,6,0,L|325:268,1,89.9999972534181,2|0,0:0|3:2,0:0:0:0:
388,99,246968,2,0,L|403:203,1,89.9999972534181,10|0,0:0|0:0,0:0:0:0:
247,294,247296,2,0,L|267:152,1,134.999995880127,0|0,3:2|0:0,0:0:0:0:
285,78,247624,6,0,P|240:77|201:99,1,89.9999972534181,10|0,0:0|0:0,0:0:0:0:
414,209,247952,2,0,P|436:170|437:126,1,89.9999972534181,2|0,0:0|3:2,0:0:0:0:
233,274,248279,2,0,P|254:312|292:335,1,89.9999972534181,10|0,0:0|0:0,0:0:0:0:
476,316,248607,6,0,L|363:332,1,89.9999972534181,0|0,3:2|0:0,0:0:0:0:
206,362,248935,1,10,0:0:0:0:
145,200,249099,1,0,0:0:0:0:
215,376,249263,1,10,0:0:0:0:
249,157,249427,1,0,3:2:0:0:
120,313,249591,1,10,0:0:0:0:
321,248,249755,1,0,3:2:0:0:
101,329,249919,6,0,P|75:282|76:232,1,89.9999972534181,6|0,3:2|0:0,0:0:0:0:
126,95,250247,1,8,0:0:0:0:
2,182,250411,2,0,P|38:114|133:76,1,179.999994506836,0|0,0:0|3:0,0:0:0:0:
262,3,250902,2,0,P|298:29|342:31,1,89.9999972534181,10|0,0:0|0:0,0:0:0:0:
512,69,251230,6,0,P|467:70|431:96,1,89.9999972534181,2|0,3:2|0:0,0:0:0:0:
326,194,251559,2,0,L|361:17,1,179.999994506836,8|0,0:0|0:0,0:0:0:0:
257,91,252050,1,0,0:0:0:0:
423,115,252214,2,0,L|529:130,1,89.9999972534181,10|0,0:0|0:0,0:0:0:0:
244,107,252542,6,0,L|138:122,1,89.9999972534181,2|0,3:2|0:0,0:0:0:0:
3,225,252870,1,8,0:0:0:0:
37,82,253034,2,0,P|71:154|106:263,1,179.999994506836,2|0,0:0|3:0,0:0:0:0:
248,260,253525,2,0,P|240:303|220:356,1,89.9999972534181,10|0,0:0|0:0,0:0:0:0:
102,249,253853,6,0,P|109:205|129:152,1,89.9999972534181,2|0,3:2|0:0,0:0:0:0:
221,339,254181,1,8,0:0:0:0:
351,256,254345,2,0,P|385:228|434:210,2,89.9999972534181,0|2|0,0:0|0:0|0:0,0:0:0:0:
221,339,254837,2,0,P|249:261|299:202,1,134.999995880127,10|0,0:0|0:0,0:0:0:0:
296,207,255165,6,0,P|329:235|349:296,1,89.9999972534181,2|0,3:2|0:0,0:0:0:0:
169,200,255493,2,0,P|190:127|297:80,1,179.999994506836,8|0,0:0|0:0,0:0:0:0:
382,134,255984,1,0,3:0:0:0:
276,79,256148,2,0,P|247:55|221:8,1,89.9999972534181,10|0,0:0|0:0,0:0:0:0:
83,139,256476,6,0,P|112:163|138:210,1,89.9999972534181,2|0,3:2|0:0,0:0:0:0:
35,314,256804,2,0,P|15:228|59:152,1,179.999994506836,8|2,0:0|0:0,0:0:0:0:
143,220,257296,1,0,0:0:0:0:
178,61,257460,2,0,P|201:101|205:148,1,89.9999972534181,10|0,0:0|0:0,0:0:0:0:
321,235,257788,6,0,P|343:196|348:152,1,89.9999972534181,2|0,3:2|0:0,0:0:0:0:
194,153,258116,1,8,0:0:0:0:
275,293,258280,2,0,P|341:236|366:137,1,179.999994506836,2|0,0:0|3:0,0:0:0:0:
485,86,258771,2,0,P|451:31|445:-9,1,89.9999972534181,10|0,0:0|0:0,0:0:0:0:
309,71,259099,6,0,P|343:126|349:166,1,89.9999972534181,2|0,3:2|0:0,0:0:0:0:
204,234,259427,2,0,P|158:160|150:106,1,134.999995880127,10|0,0:0|0:0,0:0:0:0:
147,95,259755,6,0,L|138:203,1,89.9999972534181,2|0,0:0|0:0,0:0:0:0:
22,278,260083,2,0,L|33:136,1,134.999995880127,10|0,0:0|0:0,0:0:0:0:
40,118,260411,6,0,P|51:175|56:222,1,89.9999972534181,6|0,3:2|0:0,0:0:0:0:
76,350,260739,1,8,0:0:0:0:
140,205,260902,2,0,P|198:138|284:115,1,179.999994506836,2|0,0:0|3:0,0:0:0:0:
431,131,261394,2,0,P|420:177|387:211,1,89.9999972534181,10|0,0:0|0:0,0:0:0:0:
291,126,261722,6,0,P|302:80|335:46,1,89.9999972534181,2|0,3:2|0:0,0:0:0:0:
267,261,262050,2,0,P|203:201|196:90,1,179.999994506836,8|0,0:0|0:0,0:0:0:0:
229,7,262542,1,0,0:0:0:0:
91,128,262707,2,0,P|98:82|124:38,1,89.9999972534181,10|0,0:0|0:0,0:0:0:0:
304,113,263033,6,0,L|316:216,1,89.9999972534181,2|0,3:2|0:0,0:0:0:0:
334,366,263361,1,10,0:0:0:0:
414,282,263526,2,0,P|324:282|237:306,1,179.999994506836,0|0,0:0|3:0,0:0:0:0:
76,373,264018,2,0,P|118:336|130:291,1,89.9999972534181,10|0,0:0|0:0,0:0:0:0:
0,203,264345,6,0,P|11:257|44:290,1,89.9999972534181,2|0,3:2|0:0,0:0:0:0:
171,227,264673,2,0,L|194:36,1,179.999994506836,8|2,0:0|0:0,0:0:0:0:
302,169,265165,1,0,0:0:0:0:
268,1,265329,2,0,L|286:88,1,89.9999972534181,10|0,0:0|0:0,0:0:0:0:
372,222,265657,6,0,L|390:134,1,89.9999972534181,2|0,3:2|0:0,0:0:0:0:
283,303,265985,1,8,0:0:0:0:
216,164,266149,2,0,P|145:113|41:101,1,179.999994506836,2|0,0:0|3:0,0:0:0:0:
28,228,266640,2,0,P|72:210|115:179,1,89.9999972534181,10|0,0:0|0:0,0:0:0:0:
154,37,266968,6,0,P|198:55|241:86,1,89.9999972534181,2|0,3:2|0:0,0:0:0:0:
305,220,267297,2,0,P|321:139|412:119,1,179.999994506836,8|2,0:0|0:0,0:0:0:0:
427,234,267788,1,0,0:0:0:0:
480,62,267952,2,0,P|499:99|492:153,1,89.9999972534181,10|0,0:0|0:0,0:0:0:0:
320,227,268279,6,0,P|315:182|335:142,1,89.9999972534181,2|0,3:2|0:0,0:0:0:0:
484,295,268608,1,8,0:0:0:0:
363,318,268772,2,0,L|154:292,1,179.999994506836,2|0,0:0|3:0,0:0:0:0:
11,245,269263,2,0,L|23:334,1,89.9999972534181,10|0,0:0|0:0,0:0:0:0:
147,230,269591,6,0,L|160:140,1,89.9999972534181,2|0,3:2|0:0,0:0:0:0:
339,30,269919,2,0,P|384:49|412:112,1,89.9999972534181,8|0,0:0|0:0,0:0:0:0:
360,217,270247,1,10,0:0:0:0:
242,99,270411,1,0,3:2:0:0:
242,99,270492,1,0,3:2:0:0:
242,99,270575,2,0,P|285:92|326:109,1,89.9999972534181,10|0,0:0|0:0,0:0:0:0:
512,220,270902,6,0,P|430:255|386:331,1,179.999994506836,12|0,0:0|0:0,0:0:0:0:
286,195,271394,2,0,P|241:268|226:377,1,179.999994506836,12|0,0:0|0:0,0:0:0:0:
348,300,271886,6,0,P|335:231|265:190,1,134.999995880127,12|2,0:0|0:0,0:0:0:0:
162,254,272378,2,0,P|174:322|244:363,1,134.999995880127,8|2,0:0|0:0,0:0:0:0:
363,310,272870,6,0,P|374:267|403:225,1,89.9999972534181,14|0,0:0|0:0,0:0:0:0:
442,98,273198,2,0,P|400:114|366:143,1,89.9999972534181,10|0,0:0|0:0,0:0:0:0:
250,275,273525,6,0,P|244:211|176:100,1,179.999994506836,12|0,0:0|0:0,0:0:0:0:
47,57,274017,2,0,P|105:83|235:80,1,179.999994506836,12|0,0:0|0:0,0:0:0:0:
366,100,274509,6,0,P|402:64|484:64,1,134.999995880127,12|2,0:0|0:0,0:0:0:0:
512,163,275001,2,0,P|476:199|394:199,1,134.999995880127,8|2,0:0|0:0,0:0:0:0:
259,244,275493,6,0,P|233:199|186:162,1,89.9999972534181,14|0,0:0|0:0,0:0:0:0:
97,250,275820,2,0,P|118:289|150:320,1,89.9999972534181,8|0,0:0|0:0,0:0:0:0:
331,345,276148,6,0,P|366:295|380:156,1,179.999994506836,14|0,0:0|0:0,0:0:0:0:
512,250,276639,2,0,P|507:177|447:58,1,179.999994506836,14|0,0:0|0:0,0:0:0:0:
306,82,277131,6,0,P|320:136|391:189,1,134.999995880127,14|0,0:0|0:0,0:0:0:0:
310,274,277624,2,0,P|371:299|436:285,1,134.999995880127,8|0,0:0|0:0,0:0:0:0:
309,162,278115,6,0,P|262:169|225:199,1,89.9999972534181,12|0,0:0|0:0,0:0:0:0:
146,284,278443,2,0,P|99:277|62:247,1,89.9999972534181,14|2,0:0|0:0,0:0:0:0:
91,105,278771,6,0,P|178:122|228:194,1,179.999994506836,14|0,0:0|0:0,0:0:0:0:
310,85,279263,2,0,P|359:157|344:244,1,179.999994506836,14|0,0:0|0:0,0:0:0:0:
229,322,279754,6,0,P|166:305|124:238,1,134.999995880127,14|0,0:0|0:0,0:0:0:0:
242,172,280247,2,0,P|305:189|347:256,1,134.999995880127,8|0,0:0|0:0,0:0:0:0:
228,340,280738,6,0,P|178:333|136:304,1,89.9999972534181,12|0,0:0|0:0,0:0:0:0:
242,154,281066,2,0,P|292:161|334:190,1,89.9999972534181,14|0,0:0|0:0,0:0:0:0:
424,322,281393,5,12,0:0:0:0:
320,196,281557,1,0,3:0:0:0:
496,256,281721,1,0,3:0:0:0:
335,297,281885,5,12,0:0:0:0:
433,153,282049,1,0,3:0:0:0:
429,326,282213,1,0,3:0:0:0:
319,195,282378,2,0,P|280:173|236:168,1,89.9999972534181,12|0,0:0|0:0,0:0:0:0:
102,254,282705,6,0,P|85:295|90:344,2,89.9999972534181,10|0|0,0:0|3:0|3:0,0:0:0:0:
234,176,283198,2,0,P|279:181|318:203,2,89.9999972534181,14|0|0,0:0|3:2|3:2,0:0:0:0:
102,254,283689,2,0,P|55:250|14:229,1,89.9999972534181,10|0,0:0|3:2,0:0:0:0:
159,117,284016,5,12,0:0:0:0:
205,284,284180,1,0,3:2:0:0:
84,166,284344,1,0,3:2:0:0:
243,172,284508,5,12,0:0:0:0:
93,264,284672,1,0,3:2:0:0:
170,102,284836,1,0,3:2:0:0:
220,292,285000,2,0,P|226:336|229:382,2,89.9999972534181,12|0|0,0:0|3:2|3:2,0:0:0:0:
101,187,285493,6,0,P|86:144|69:102,2,89.9999972534181,12|0|2,0:0|0:0|3:2,0:0:0:0:
205,283,285984,2,0,P|223:242|235:198,1,89.9999972534181,12|0,0:0|3:2,0:0:0:0:
285,57,286312,2,0,P|303:98|315:142,1,89.9999972534181,10|0,0:0|3:2,0:0:0:0:
377,297,286639,5,14,0:0:0:0:
246,187,286803,1,0,3:2:0:0:
426,228,286967,1,2,3:2:0:0:
280,312,287131,5,12,0:0:0:0:
334,143,287295,1,0,3:2:0:0:
397,312,287459,1,0,3:2:0:0:
246,187,287623,2,0,P|204:169|145:168,1,89.9999972534181,14|0,0:0|3:2,0:0:0:0:
27,278,287952,6,0,P|71:274|112:256,2,89.9999972534181,12|0|0,0:0|3:2|3:2,0:0:0:0:
221,135,288443,2,0,P|176:138|135:156,2,89.9999972534181,12|0|0,0:0|3:2|3:2,0:0:0:0:
35,291,288935,2,0,P|79:287|120:269,1,89.9999972534181,10|0,0:0|3:2,0:0:0:0:
228,60,289263,6,0,L|237:160,1,89.9999972534181,14|0,0:0|0:0,0:0:0:0:
332,359,289590,6,0,L|338:313,3,44.999998626709,8|0|0|0,0:0|0:0|0:0|0:0,0:0:0:0:
426,293,289919,2,0,P|423:270|416:247,3,44.999998626709,8|0|0|0,0:0|0:0|0:0|0:0,0:0:0:0:
482,202,290247,2,0,P|469:182|453:164,3,44.999998626709,10|0|0|0,0:0|0:0|0:0|0:0,0:0:0:0:
407,83,290575,5,10,0:0:0:0:
378,71,290656,1,0,0:0:0:0:
347,67,290738,1,8,0:0:0:0:
317,71,290820,1,0,0:0:0:0:
289,84,290902,1,0,0:0:0:0:
265,104,290984,1,0,0:0:0:0:
248,130,291066,1,8,0:0:0:0:
239,159,291148,1,8,0:0:0:0:
238,190,291230,6,0,L|252:249,1,56.2500021457673,10|0,0:0|0:0,0:0:0:0:
410,332,291394,2,0,L|424:273,1,56.2500021457673,10|0,0:0|0:0,0:0:0:0:
477,78,291557,5,14,0:0:0:0:
0,238,291886,5,12,0:0:0:0:
256,192,292050,12,0,297050,0:0:0:0:
