osu file format v14

[General]
AudioFilename: audio.mp3
AudioLeadIn: 0
PreviewTime: 136686
Countdown: 0
SampleSet: Normal
StackLeniency: 0.7
Mode: 1
LetterboxInBreaks: 0
WidescreenStoryboard: 0

[Editor]
Bookmarks: 24686,40686,56686,72686,88686,104686,120686,136686,168686,184686,200686,216686,248686,256686,272686,288686,296686,304686,328686,352686
DistanceSpacing: 0.6
BeatDivisor: 4
GridSize: 8
TimelineZoom: 2.999999

[Metadata]
Title:Lost My Way
TitleUnicode:Lost My Way
Artist:FELT
ArtistUnicode:FELT
Creator:Yales
Version:Inner Oni
Source:東方Project
Tags:Stage 4 Theme Vivienne Renko Maurits"禅"Cornelis Cold Snap desire drive seiga kaku zen MZC felt-015 コミックマーケット87 comiket87 c87 shinreibyou ten desire touhou W.nova デザイアドライブ 東方神霊廟
BeatmapID:1736129
BeatmapSetID:828650

[Difficulty]
HPDrainRate:6
CircleSize:2
OverallDifficulty:6
ApproachRate:5
SliderMultiplier:1.4
SliderTickRate:1

[Events]
//Background and Video events
0,0,"bg.jpg",0,50
//Break Periods
//Storyboard Layer 0 (Background)
//Storyboard Layer 1 (Fail)
//Storyboard Layer 2 (Pass)
//Storyboard Layer 3 (Foreground)
//Storyboard Sound Samples

[TimingPoints]
686,250,4,1,0,80,1,0
686,-111.111111111111,4,1,0,80,0,0
24686,-100,4,1,0,80,0,0
56811,-111.111111111111,4,1,0,80,0,0
88686,-100,4,1,0,80,0,0
120686,-111.111111111111,4,1,0,80,0,0
136686,-100,4,1,0,80,0,1
151686,-100,4,1,0,80,0,0
152686,-100,4,1,0,80,0,1
168686,-100,4,1,0,80,0,0
168936,-111.111111111111,4,1,0,80,0,0
183686,-111.111111111111,4,1,0,45,0,0
183936,-111.111111111111,4,1,0,60,0,0
184186,-111.111111111111,4,1,0,75,0,0
184686,-100,4,1,0,80,0,0
200686,-111.111111111111,4,1,0,80,0,0
216686,-100,4,1,0,80,0,1
231686,-100,4,1,0,80,0,0
232686,-100,4,1,0,80,0,1
248686,-100,4,1,0,80,0,0
256936,-111.111111111111,4,1,0,80,0,0
272311,-105.263157894737,4,1,0,80,0,0
272686,-100,4,1,0,80,0,0
288811,-111.111111111111,4,1,0,80,0,0
304686,-100,4,1,0,80,0,0
308686,-100,4,1,0,80,0,1
320686,-100,4,1,0,80,0,0
328686,-100,4,1,0,80,0,1
335686,-100,4,1,0,80,0,0
336686,-100,4,1,0,80,0,1
352686,-100,4,1,0,80,0,0

[HitObjects]
256,192,936,5,0,0:0:0:0:
256,192,1186,1,0,0:0:0:0:
256,192,1311,1,0,0:0:0:0:
256,192,1936,1,0,0:0:0:0:
256,192,2061,1,8,0:0:0:0:
256,192,2936,1,0,0:0:0:0:
256,192,3186,1,0,0:0:0:0:
256,192,3311,1,0,0:0:0:0:
256,192,3936,1,8,0:0:0:0:
256,192,4061,1,0,0:0:0:0:
256,192,4936,1,0,0:0:0:0:
256,192,5186,1,0,0:0:0:0:
256,192,5311,1,0,0:0:0:0:
256,192,5936,1,0,0:0:0:0:
256,192,6061,1,8,0:0:0:0:
256,192,6936,1,0,0:0:0:0:
256,192,7186,1,0,0:0:0:0:
256,192,7311,1,0,0:0:0:0:
256,192,7936,1,8,0:0:0:0:
256,192,8061,1,0,0:0:0:0:
256,192,8311,5,0,0:0:0:0:
256,192,8373,1,0,0:0:0:0:
256,192,8436,1,0,0:0:0:0:
256,192,8561,1,8,0:0:0:0:
256,192,8686,1,4,0:0:0:0:
256,192,8936,5,0,0:0:0:0:
256,192,9061,1,8,0:0:0:0:
256,192,9311,1,4,0:0:0:0:
256,192,9436,1,8,0:0:0:0:
256,192,9561,1,8,0:0:0:0:
256,192,9686,1,0,0:0:0:0:
256,192,9811,1,8,0:0:0:0:
256,192,10061,1,8,0:0:0:0:
256,192,10186,1,8,0:0:0:0:
256,192,10311,1,8,0:0:0:0:
256,192,10436,1,4,0:0:0:0:
256,192,10686,1,0,0:0:0:0:
256,192,10811,1,0,0:0:0:0:
256,192,10936,1,8,0:0:0:0:
256,192,11061,1,8,0:0:0:0:
256,192,11186,1,0,0:0:0:0:
256,192,11248,1,0,0:0:0:0:
256,192,11311,1,0,0:0:0:0:
256,192,11436,1,0,0:0:0:0:
256,192,11561,1,8,0:0:0:0:
256,192,11811,1,8,0:0:0:0:
256,192,11936,1,4,0:0:0:0:
256,192,12186,1,0,0:0:0:0:
256,192,12311,1,8,0:0:0:0:
256,192,12436,1,4,0:0:0:0:
256,192,12686,1,8,0:0:0:0:
256,192,12811,1,0,0:0:0:0:
256,192,12936,1,0,0:0:0:0:
256,192,13061,1,8,0:0:0:0:
256,192,13186,1,8,0:0:0:0:
256,192,13311,1,4,0:0:0:0:
256,192,13519,1,8,0:0:0:0:
256,192,13686,1,0,0:0:0:0:
256,192,13811,1,8,0:0:0:0:
256,192,13936,1,0,0:0:0:0:
256,192,14061,1,8,0:0:0:0:
256,192,14186,1,8,0:0:0:0:
256,192,14311,1,4,0:0:0:0:
256,192,14561,1,0,0:0:0:0:
256,192,14686,1,8,0:0:0:0:
256,192,14936,1,0,0:0:0:0:
256,192,14998,1,0,0:0:0:0:
256,192,15061,1,0,0:0:0:0:
256,192,15186,1,8,0:0:0:0:
256,192,15311,1,0,0:0:0:0:
256,192,15436,1,8,0:0:0:0:
256,192,15561,1,4,0:0:0:0:
256,192,15811,1,8,0:0:0:0:
256,192,15936,1,4,0:0:0:0:
256,192,16061,1,0,0:0:0:0:
256,192,16123,1,0,0:0:0:0:
256,192,16186,1,0,0:0:0:0:
256,192,16311,1,8,0:0:0:0:
256,192,16436,1,0,0:0:0:0:
256,192,16561,1,0,0:0:0:0:
256,192,16686,1,12,0:0:0:0:
256,192,16936,1,8,0:0:0:0:
256,192,17061,1,0,0:0:0:0:
256,192,17311,1,0,0:0:0:0:
256,192,17436,1,8,0:0:0:0:
256,192,17561,1,8,0:0:0:0:
256,192,17811,1,12,0:0:0:0:
256,192,18186,1,8,0:0:0:0:
256,192,18311,1,0,0:0:0:0:
256,192,18561,1,0,0:0:0:0:
256,192,18686,1,8,0:0:0:0:
256,192,18769,1,0,0:0:0:0:
256,192,18852,1,0,0:0:0:0:
256,192,18936,1,8,0:0:0:0:
256,192,19019,1,8,0:0:0:0:
256,192,19102,1,8,0:0:0:0:
256,192,19186,1,0,0:0:0:0:
256,192,19436,1,0,0:0:0:0:
256,192,19561,1,8,0:0:0:0:
256,192,19811,1,8,0:0:0:0:
256,192,19936,1,4,0:0:0:0:
256,192,20186,1,0,0:0:0:0:
256,192,20311,1,0,0:0:0:0:
256,192,20436,1,12,0:0:0:0:
256,192,20561,1,0,0:0:0:0:
256,192,20811,5,0,0:0:0:0:
256,192,20873,1,0,0:0:0:0:
256,192,20936,1,0,0:0:0:0:
256,192,21061,1,0,0:0:0:0:
256,192,21186,1,8,0:0:0:0:
256,192,21311,1,0,0:0:0:0:
256,192,21373,1,0,0:0:0:0:
256,192,21436,1,8,0:0:0:0:
256,192,21561,1,8,0:0:0:0:
256,192,21811,1,0,0:0:0:0:
256,192,22061,1,8,0:0:0:0:
256,192,22186,1,8,0:0:0:0:
256,192,22311,1,0,0:0:0:0:
256,192,22561,1,0,0:0:0:0:
256,192,22686,5,8,0:0:0:0:
256,192,22769,1,0,0:0:0:0:
256,192,22852,1,0,0:0:0:0:
256,192,22936,1,8,0:0:0:0:
256,192,23019,1,0,0:0:0:0:
256,192,23102,1,0,0:0:0:0:
256,192,23186,1,8,0:0:0:0:
256,192,23269,1,0,0:0:0:0:
256,192,23352,1,0,0:0:0:0:
256,192,23436,1,8,0:0:0:0:
256,192,23498,1,0,0:0:0:0:
256,192,23561,1,0,0:0:0:0:
256,192,23623,5,0,0:0:0:0:
256,192,23686,1,8,0:0:0:0:
256,192,24686,5,12,0:0:0:0:
256,192,24811,1,0,0:0:0:0:
256,192,25061,1,0,0:0:0:0:
256,192,25186,1,8,0:0:0:0:
256,192,25311,1,8,0:0:0:0:
256,192,25436,1,0,0:0:0:0:
256,192,25498,1,0,0:0:0:0:
256,192,25561,1,0,0:0:0:0:
256,192,25623,1,0,0:0:0:0:
256,192,25686,1,8,0:0:0:0:
256,192,25811,1,0,0:0:0:0:
256,192,25936,1,8,0:0:0:0:
256,192,26061,1,0,0:0:0:0:
256,192,26186,1,8,0:0:0:0:
256,192,26248,1,8,0:0:0:0:
256,192,26311,1,0,0:0:0:0:
256,192,26436,1,8,0:0:0:0:
256,192,26561,1,0,0:0:0:0:
256,192,26686,1,8,0:0:0:0:
256,192,26936,1,8,0:0:0:0:
256,192,27061,1,0,0:0:0:0:
256,192,27186,1,0,0:0:0:0:
256,192,27311,1,8,0:0:0:0:
256,192,27436,1,0,0:0:0:0:
256,192,27498,1,0,0:0:0:0:
256,192,27561,1,8,0:0:0:0:
256,192,27686,1,8,0:0:0:0:
256,192,27811,1,0,0:0:0:0:
256,192,27936,1,8,0:0:0:0:
256,192,28061,1,0,0:0:0:0:
256,192,28123,1,0,0:0:0:0:
256,192,28186,1,8,0:0:0:0:
256,192,28311,1,0,0:0:0:0:
256,192,28436,1,8,0:0:0:0:
256,192,28561,1,0,0:0:0:0:
256,192,28686,1,8,0:0:0:0:
256,192,28936,1,8,0:0:0:0:
256,192,29061,1,0,0:0:0:0:
256,192,29186,1,0,0:0:0:0:
256,192,29311,1,8,0:0:0:0:
256,192,29436,1,8,0:0:0:0:
256,192,29561,1,0,0:0:0:0:
256,192,29623,1,0,0:0:0:0:
256,192,29686,1,8,0:0:0:0:
256,192,29811,1,0,0:0:0:0:
256,192,29936,1,8,0:0:0:0:
256,192,29998,1,8,0:0:0:0:
256,192,30061,1,0,0:0:0:0:
256,192,30186,1,8,0:0:0:0:
256,192,30311,1,0,0:0:0:0:
256,192,30436,1,8,0:0:0:0:
256,192,30498,1,8,0:0:0:0:
256,192,30561,1,8,0:0:0:0:
256,192,30623,1,8,0:0:0:0:
256,192,30686,1,0,0:0:0:0:
256,192,30811,5,8,0:0:0:0:
256,192,31061,1,8,0:0:0:0:
256,192,31186,1,0,0:0:0:0:
256,192,31248,1,0,0:0:0:0:
256,192,31311,1,0,0:0:0:0:
256,192,31373,1,0,0:0:0:0:
256,192,31436,1,8,0:0:0:0:
256,192,31561,1,0,0:0:0:0:
256,192,31686,1,8,0:0:0:0:
256,192,31811,1,0,0:0:0:0:
256,192,31936,1,0,0:0:0:0:
256,192,32061,1,8,0:0:0:0:
256,192,32186,1,8,0:0:0:0:
256,192,32311,1,0,0:0:0:0:
256,192,32373,1,0,0:0:0:0:
256,192,32436,1,8,0:0:0:0:
256,192,32561,1,0,0:0:0:0:
256,192,32686,1,12,0:0:0:0:
256,192,32936,1,0,0:0:0:0:
256,192,33061,1,0,0:0:0:0:
256,192,33186,1,8,0:0:0:0:
256,192,33311,1,0,0:0:0:0:
256,192,33436,5,8,0:0:0:0:
256,192,33498,1,8,0:0:0:0:
256,192,33561,1,0,0:0:0:0:
256,192,33686,1,8,0:0:0:0:
256,192,33811,1,0,0:0:0:0:
256,192,33936,1,8,0:0:0:0:
256,192,34061,1,0,0:0:0:0:
256,192,34123,1,0,0:0:0:0:
256,192,34186,1,8,0:0:0:0:
256,192,34311,1,8,0:0:0:0:
256,192,34436,1,0,0:0:0:0:
256,192,34561,1,0,0:0:0:0:
256,192,34686,1,8,0:0:0:0:
256,192,34936,1,8,0:0:0:0:
256,192,35061,1,0,0:0:0:0:
256,192,35186,1,8,0:0:0:0:
256,192,35248,5,8,0:0:0:0:
256,192,35311,1,0,0:0:0:0:
256,192,35436,1,8,0:0:0:0:
256,192,35561,1,0,0:0:0:0:
256,192,35686,1,8,0:0:0:0:
256,192,35748,1,8,0:0:0:0:
256,192,35811,1,0,0:0:0:0:
256,192,35936,1,8,0:0:0:0:
256,192,36061,1,0,0:0:0:0:
256,192,36186,1,8,0:0:0:0:
256,192,36311,1,8,0:0:0:0:
256,192,36436,1,0,0:0:0:0:
256,192,36561,1,0,0:0:0:0:
256,192,36686,1,8,0:0:0:0:
256,192,36936,1,0,0:0:0:0:
256,192,37061,1,8,0:0:0:0:
256,192,37186,1,8,0:0:0:0:
256,192,37311,1,0,0:0:0:0:
256,192,37373,1,0,0:0:0:0:
256,192,37436,1,8,0:0:0:0:
256,192,37561,1,0,0:0:0:0:
256,192,37686,1,8,0:0:0:0:
256,192,37811,1,8,0:0:0:0:
256,192,37936,1,8,0:0:0:0:
256,192,38061,1,0,0:0:0:0:
256,192,38186,1,8,0:0:0:0:
256,192,38311,1,0,0:0:0:0:
256,192,38436,1,8,0:0:0:0:
256,192,38498,1,8,0:0:0:0:
256,192,38561,1,0,0:0:0:0:
256,192,38686,1,8,0:0:0:0:
256,192,38936,1,0,0:0:0:0:
256,192,39061,1,0,0:0:0:0:
256,192,39186,1,8,0:0:0:0:
256,192,39311,1,0,0:0:0:0:
256,192,39436,1,12,0:0:0:0:
256,192,39561,1,0,0:0:0:0:
256,192,39686,1,0,0:0:0:0:
256,192,39811,1,8,0:0:0:0:
256,192,39873,1,8,0:0:0:0:
256,192,39936,1,0,0:0:0:0:
256,192,39998,1,0,0:0:0:0:
256,192,40061,1,0,0:0:0:0:
256,192,40123,1,0,0:0:0:0:
256,192,40186,1,8,0:0:0:0:
256,192,40248,1,8,0:0:0:0:
256,192,40311,1,8,0:0:0:0:
256,192,40373,1,8,0:0:0:0:
256,192,40436,1,0,0:0:0:0:
256,192,40498,1,0,0:0:0:0:
256,192,40561,1,0,0:0:0:0:
256,192,40623,1,0,0:0:0:0:
256,192,40686,1,8,0:0:0:0:
256,192,40811,1,0,0:0:0:0:
256,192,40936,1,8,0:0:0:0:
256,192,41061,1,0,0:0:0:0:
256,192,41186,1,8,0:0:0:0:
256,192,41311,1,8,0:0:0:0:
256,192,41436,1,0,0:0:0:0:
256,192,41498,1,0,0:0:0:0:
256,192,41561,1,0,0:0:0:0:
256,192,41623,1,0,0:0:0:0:
256,192,41686,1,8,0:0:0:0:
256,192,41811,1,0,0:0:0:0:
256,192,41936,1,8,0:0:0:0:
256,192,42061,1,0,0:0:0:0:
256,192,42123,1,0,0:0:0:0:
256,192,42186,1,8,0:0:0:0:
256,192,42311,1,0,0:0:0:0:
256,192,42436,1,8,0:0:0:0:
256,192,42561,1,0,0:0:0:0:
256,192,42686,1,8,0:0:0:0:
256,192,42936,1,8,0:0:0:0:
256,192,43061,1,0,0:0:0:0:
256,192,43123,1,0,0:0:0:0:
256,192,43186,1,8,0:0:0:0:
256,192,43311,1,0,0:0:0:0:
256,192,43436,1,0,0:0:0:0:
256,192,43498,1,0,0:0:0:0:
256,192,43561,1,8,0:0:0:0:
256,192,43623,1,8,0:0:0:0:
256,192,43686,1,8,0:0:0:0:
256,192,43811,1,0,0:0:0:0:
256,192,43936,1,8,0:0:0:0:
256,192,44061,1,0,0:0:0:0:
256,192,44123,1,0,0:0:0:0:
256,192,44186,1,8,0:0:0:0:
256,192,44311,1,0,0:0:0:0:
256,192,44436,1,8,0:0:0:0:
256,192,44498,1,0,0:0:0:0:
256,192,44561,1,8,0:0:0:0:
256,192,44686,1,12,0:0:0:0:
256,192,44936,1,8,0:0:0:0:
256,192,45061,1,0,0:0:0:0:
256,192,45186,1,0,0:0:0:0:
256,192,45311,1,8,0:0:0:0:
256,192,45436,1,0,0:0:0:0:
256,192,45498,1,0,0:0:0:0:
256,192,45561,1,0,0:0:0:0:
256,192,45623,1,0,0:0:0:0:
256,192,45686,1,8,0:0:0:0:
256,192,45811,1,0,0:0:0:0:
256,192,45936,1,8,0:0:0:0:
256,192,45998,1,8,0:0:0:0:
256,192,46061,1,0,0:0:0:0:
256,192,46186,1,8,0:0:0:0:
256,192,46311,1,0,0:0:0:0:
256,192,46373,1,0,0:0:0:0:
256,192,46436,1,8,0:0:0:0:
256,192,46561,1,0,0:0:0:0:
256,192,46686,1,8,0:0:0:0:
256,192,46748,1,8,0:0:0:0:
256,192,46811,1,8,0:0:0:0:
256,192,46873,1,8,0:0:0:0:
256,192,46936,1,0,0:0:0:0:
256,192,47061,1,0,0:0:0:0:
256,192,47186,1,8,0:0:0:0:
256,192,47311,1,0,0:0:0:0:
256,192,47436,1,8,0:0:0:0:
256,192,47686,1,8,0:0:0:0:
256,192,47811,1,0,0:0:0:0:
256,192,47936,1,0,0:0:0:0:
256,192,48061,1,8,0:0:0:0:
256,192,48186,1,8,0:0:0:0:
256,192,48311,1,0,0:0:0:0:
256,192,48373,1,0,0:0:0:0:
256,192,48436,1,8,0:0:0:0:
256,192,48561,1,0,0:0:0:0:
256,192,48686,1,12,0:0:0:0:
256,192,48936,1,8,0:0:0:0:
256,192,49061,1,0,0:0:0:0:
256,192,49186,1,0,0:0:0:0:
256,192,49311,1,8,0:0:0:0:
256,192,49436,5,0,0:0:0:0:
256,192,49498,1,0,0:0:0:0:
256,192,49561,1,0,0:0:0:0:
256,192,49623,1,0,0:0:0:0:
256,192,49686,1,8,0:0:0:0:
256,192,49811,1,0,0:0:0:0:
256,192,49936,1,8,0:0:0:0:
256,192,49998,1,8,0:0:0:0:
256,192,50061,1,0,0:0:0:0:
256,192,50186,1,8,0:0:0:0:
256,192,50248,1,0,0:0:0:0:
256,192,50311,1,8,0:0:0:0:
256,192,50436,1,0,0:0:0:0:
256,192,50561,1,0,0:0:0:0:
256,192,50686,1,8,0:0:0:0:
256,192,50811,1,0,0:0:0:0:
256,192,51061,1,0,0:0:0:0:
256,192,51186,1,8,0:0:0:0:
256,192,51248,1,8,0:0:0:0:
256,192,51311,1,0,0:0:0:0:
256,192,51436,1,8,0:0:0:0:
256,192,51561,1,0,0:0:0:0:
256,192,51686,1,8,0:0:0:0:
256,192,51748,1,8,0:0:0:0:
256,192,51811,1,0,0:0:0:0:
256,192,51936,1,8,0:0:0:0:
256,192,52061,1,0,0:0:0:0:
256,192,52123,1,0,0:0:0:0:
256,192,52186,1,8,0:0:0:0:
256,192,52311,1,0,0:0:0:0:
256,192,52436,1,8,0:0:0:0:
256,192,52561,1,0,0:0:0:0:
256,192,52686,1,8,0:0:0:0:
256,192,52936,1,4,0:0:0:0:
256,192,53061,1,8,0:0:0:0:
256,192,53186,1,0,0:0:0:0:
256,192,53311,1,8,0:0:0:0:
256,192,53436,1,0,0:0:0:0:
256,192,53498,1,0,0:0:0:0:
256,192,53561,1,0,0:0:0:0:
256,192,53623,1,0,0:0:0:0:
256,192,53686,1,8,0:0:0:0:
256,192,53811,5,0,0:0:0:0:
256,192,53936,1,8,0:0:0:0:
256,192,53998,1,8,0:0:0:0:
256,192,54061,1,0,0:0:0:0:
256,192,54186,1,8,0:0:0:0:
256,192,54311,1,0,0:0:0:0:
256,192,54436,1,8,0:0:0:0:
256,192,54498,1,8,0:0:0:0:
256,192,54561,1,0,0:0:0:0:
256,192,54686,1,8,0:0:0:0:
256,192,54936,5,0,0:0:0:0:
256,192,55061,1,0,0:0:0:0:
256,192,55186,1,8,0:0:0:0:
256,192,55311,1,0,0:0:0:0:
256,192,55436,1,12,0:0:0:0:
256,192,55561,1,0,0:0:0:0:
256,192,55686,1,0,0:0:0:0:
256,192,55811,1,8,0:0:0:0:
256,192,55873,1,8,0:0:0:0:
256,192,55936,1,0,0:0:0:0:
256,192,55998,1,0,0:0:0:0:
256,192,56061,1,8,0:0:0:0:
256,192,56123,1,0,0:0:0:0:
256,192,56186,1,8,0:0:0:0:
256,192,56248,5,8,0:0:0:0:
256,192,56311,1,8,0:0:0:0:
256,192,56373,1,8,0:0:0:0:
256,192,56436,1,0,0:0:0:0:
256,192,56498,1,0,0:0:0:0:
256,192,56561,1,0,0:0:0:0:
256,192,56623,1,0,0:0:0:0:
256,192,56686,5,12,0:0:0:0:
256,192,57061,1,0,0:0:0:0:
256,192,57311,1,0,0:0:0:0:
256,192,57436,1,8,0:0:0:0:
256,192,57561,1,0,0:0:0:0:
256,192,57936,1,0,0:0:0:0:
256,192,58186,1,8,0:0:0:0:
256,192,58436,1,0,0:0:0:0:
256,192,58686,1,0,0:0:0:0:
256,192,58852,1,8,0:0:0:0:
256,192,59019,1,8,0:0:0:0:
256,192,59186,1,8,0:0:0:0:
256,192,59561,1,0,0:0:0:0:
256,192,59686,1,8,0:0:0:0:
256,192,59936,1,0,0:0:0:0:
256,192,60186,1,0,0:0:0:0:
256,192,60436,1,8,0:0:0:0:
256,192,60561,1,8,0:0:0:0:
256,192,60686,1,0,0:0:0:0:
256,192,61061,1,0,0:0:0:0:
256,192,61186,1,0,0:0:0:0:
256,192,61311,1,8,0:0:0:0:
256,192,61561,1,0,0:0:0:0:
256,192,61686,1,8,0:0:0:0:
256,192,61811,1,8,0:0:0:0:
256,192,61936,1,0,0:0:0:0:
256,192,62061,1,8,0:0:0:0:
256,192,62436,1,8,0:0:0:0:
256,192,62561,1,8,0:0:0:0:
256,192,62686,1,0,0:0:0:0:
256,192,62811,1,8,0:0:0:0:
256,192,62936,1,8,0:0:0:0:
256,192,63186,1,0,0:0:0:0:
256,192,63311,1,8,0:0:0:0:
256,192,63561,1,0,0:0:0:0:
256,192,63811,1,8,0:0:0:0:
256,192,63936,1,0,0:0:0:0:
256,192,64186,1,8,0:0:0:0:
256,192,64373,1,0,0:0:0:0:
256,192,64561,1,0,0:0:0:0:
256,192,64686,5,12,0:0:0:0:
256,192,65186,1,8,0:0:0:0:
256,192,65352,1,8,0:0:0:0:
256,192,65561,1,8,0:0:0:0:
256,192,65769,1,8,0:0:0:0:
256,192,66186,1,0,0:0:0:0:
256,192,66686,1,8,0:0:0:0:
256,192,66936,1,0,0:0:0:0:
256,192,67248,1,0,0:0:0:0:
256,192,67373,5,8,0:0:0:0:
256,192,67498,1,0,0:0:0:0:
256,192,67623,5,8,0:0:0:0:
256,192,68061,1,8,0:0:0:0:
256,192,68436,1,8,0:0:0:0:
256,192,68686,1,0,0:0:0:0:
256,192,69061,1,0,0:0:0:0:
256,192,69436,1,8,0:0:0:0:
256,192,69936,1,0,0:0:0:0:
256,192,70186,1,8,0:0:0:0:
256,192,70811,1,0,0:0:0:0:
256,192,70936,1,8,0:0:0:0:
256,192,71186,1,0,0:0:0:0:
256,192,71436,1,12,0:0:0:0:
256,192,71561,1,0,0:0:0:0:
256,192,71686,1,8,0:0:0:0:
256,192,71936,1,0,0:0:0:0:
256,192,72019,1,0,0:0:0:0:
256,192,72102,1,0,0:0:0:0:
256,192,72186,1,8,0:0:0:0:
256,192,72311,1,0,0:0:0:0:
256,192,72436,2,0,L|256:160,2,31.4999990386963
256,192,72686,5,4,0:0:0:0:
256,192,73061,1,0,0:0:0:0:
256,192,73311,1,0,0:0:0:0:
256,192,73436,1,8,0:0:0:0:
256,192,73811,1,0,0:0:0:0:
256,192,73936,1,8,0:0:0:0:
256,192,74061,1,8,0:0:0:0:
256,192,74311,1,8,0:0:0:0:
256,192,74436,1,0,0:0:0:0:
256,192,74561,1,0,0:0:0:0:
256,192,74686,1,8,0:0:0:0:
256,192,75061,1,8,0:0:0:0:
256,192,75311,1,0,0:0:0:0:
256,192,75436,1,8,0:0:0:0:
256,192,75686,1,0,0:0:0:0:
256,192,75811,1,8,0:0:0:0:
256,192,76061,1,0,0:0:0:0:
256,192,76311,1,8,0:0:0:0:
256,192,76436,1,0,0:0:0:0:
256,192,76561,1,0,0:0:0:0:
256,192,76686,1,8,0:0:0:0:
256,192,77061,1,8,0:0:0:0:
256,192,77311,1,0,0:0:0:0:
256,192,77436,1,8,0:0:0:0:
256,192,77811,1,0,0:0:0:0:
256,192,78061,1,0,0:0:0:0:
256,192,78311,1,8,0:0:0:0:
256,192,78436,1,0,0:0:0:0:
256,192,78561,1,0,0:0:0:0:
256,192,78686,1,8,0:0:0:0:
256,192,79061,1,8,0:0:0:0:
256,192,79311,1,0,0:0:0:0:
256,192,79436,1,8,0:0:0:0:
256,192,79686,1,8,0:0:0:0:
256,192,79811,1,0,0:0:0:0:
256,192,80061,1,8,0:0:0:0:
256,192,80311,1,8,0:0:0:0:
256,192,80436,1,0,0:0:0:0:
256,192,80561,1,0,0:0:0:0:
256,192,80686,1,12,0:0:0:0:
256,192,81061,1,8,0:0:0:0:
256,192,81311,1,0,0:0:0:0:
256,192,81436,1,8,0:0:0:0:
256,192,81811,1,0,0:0:0:0:
256,192,82061,1,0,0:0:0:0:
256,192,82186,1,8,0:0:0:0:
256,192,82311,1,8,0:0:0:0:
256,192,82436,1,0,0:0:0:0:
256,192,82561,1,0,0:0:0:0:
256,192,82686,1,8,0:0:0:0:
256,192,83061,1,8,0:0:0:0:
256,192,83311,1,0,0:0:0:0:
256,192,83436,1,8,0:0:0:0:
256,192,83686,1,0,0:0:0:0:
256,192,83811,1,8,0:0:0:0:
256,192,84061,1,0,0:0:0:0:
256,192,84311,1,8,0:0:0:0:
256,192,84436,1,8,0:0:0:0:
256,192,84561,1,0,0:0:0:0:
256,192,84686,1,8,0:0:0:0:
256,192,85061,1,8,0:0:0:0:
256,192,85311,1,0,0:0:0:0:
256,192,85436,1,8,0:0:0:0:
256,192,85811,1,0,0:0:0:0:
256,192,86061,1,8,0:0:0:0:
256,192,86186,1,0,0:0:0:0:
256,192,86311,1,8,0:0:0:0:
256,192,86436,1,0,0:0:0:0:
256,192,86561,1,0,0:0:0:0:
256,192,86686,1,8,0:0:0:0:
256,192,87061,1,8,0:0:0:0:
256,192,87311,1,0,0:0:0:0:
256,192,87436,1,8,0:0:0:0:
256,192,87561,1,0,0:0:0:0:
256,192,87686,1,8,0:0:0:0:
256,192,87811,1,8,0:0:0:0:
256,192,87936,1,0,0:0:0:0:
256,192,88061,1,8,0:0:0:0:
256,192,88186,2,0,L|256:152,6,31.4999990386963
256,192,88686,1,12,0:0:0:0:
256,192,88811,1,0,0:0:0:0:
256,192,89061,1,0,0:0:0:0:
256,192,89186,1,8,0:0:0:0:
256,192,89311,1,8,0:0:0:0:
256,192,89436,1,0,0:0:0:0:
256,192,89498,1,0,0:0:0:0:
256,192,89561,1,0,0:0:0:0:
256,192,89623,1,0,0:0:0:0:
256,192,89686,1,8,0:0:0:0:
256,192,89811,1,0,0:0:0:0:
256,192,89936,1,8,0:0:0:0:
256,192,90061,1,0,0:0:0:0:
256,192,90186,1,8,0:0:0:0:
256,192,90248,1,8,0:0:0:0:
256,192,90311,1,0,0:0:0:0:
256,192,90436,1,8,0:0:0:0:
256,192,90561,1,0,0:0:0:0:
256,192,90686,1,8,0:0:0:0:
256,192,90936,1,8,0:0:0:0:
256,192,91061,1,0,0:0:0:0:
256,192,91186,1,0,0:0:0:0:
256,192,91311,1,8,0:0:0:0:
256,192,91436,1,0,0:0:0:0:
256,192,91498,1,0,0:0:0:0:
256,192,91561,1,8,0:0:0:0:
256,192,91686,1,8,0:0:0:0:
256,192,91811,1,0,0:0:0:0:
256,192,91936,1,8,0:0:0:0:
256,192,92061,1,0,0:0:0:0:
256,192,92123,1,0,0:0:0:0:
256,192,92186,1,8,0:0:0:0:
256,192,92311,1,0,0:0:0:0:
256,192,92436,1,8,0:0:0:0:
256,192,92561,1,0,0:0:0:0:
256,192,92686,1,8,0:0:0:0:
256,192,92936,1,8,0:0:0:0:
256,192,93061,1,0,0:0:0:0:
256,192,93186,1,0,0:0:0:0:
256,192,93311,1,8,0:0:0:0:
256,192,93436,1,8,0:0:0:0:
256,192,93561,1,0,0:0:0:0:
256,192,93623,1,0,0:0:0:0:
256,192,93686,1,8,0:0:0:0:
256,192,93811,1,0,0:0:0:0:
256,192,93936,1,8,0:0:0:0:
256,192,93998,1,8,0:0:0:0:
256,192,94061,1,0,0:0:0:0:
256,192,94186,1,8,0:0:0:0:
256,192,94311,1,0,0:0:0:0:
256,192,94436,1,8,0:0:0:0:
256,192,94498,1,8,0:0:0:0:
256,192,94561,1,8,0:0:0:0:
256,192,94623,1,8,0:0:0:0:
256,192,94686,1,0,0:0:0:0:
256,192,94811,1,8,0:0:0:0:
256,192,95061,1,8,0:0:0:0:
256,192,95186,1,0,0:0:0:0:
256,192,95248,1,0,0:0:0:0:
256,192,95311,1,0,0:0:0:0:
256,192,95373,1,0,0:0:0:0:
256,192,95436,1,8,0:0:0:0:
256,192,95561,1,0,0:0:0:0:
256,192,95686,1,8,0:0:0:0:
256,192,95811,1,0,0:0:0:0:
256,192,95936,1,0,0:0:0:0:
256,192,96061,1,8,0:0:0:0:
256,192,96186,1,8,0:0:0:0:
256,192,96311,1,0,0:0:0:0:
256,192,96373,1,0,0:0:0:0:
256,192,96436,1,8,0:0:0:0:
256,192,96561,1,0,0:0:0:0:
256,192,96686,1,12,0:0:0:0:
256,192,96936,1,0,0:0:0:0:
256,192,97061,1,0,0:0:0:0:
256,192,97186,1,8,0:0:0:0:
256,192,97311,1,0,0:0:0:0:
256,192,97436,5,8,0:0:0:0:
256,192,97498,1,8,0:0:0:0:
256,192,97561,1,0,0:0:0:0:
256,192,97686,1,8,0:0:0:0:
256,192,97811,1,0,0:0:0:0:
256,192,97936,1,8,0:0:0:0:
256,192,98061,1,0,0:0:0:0:
256,192,98123,1,0,0:0:0:0:
256,192,98186,1,8,0:0:0:0:
256,192,98311,1,8,0:0:0:0:
256,192,98436,1,0,0:0:0:0:
256,192,98561,1,0,0:0:0:0:
256,192,98686,1,8,0:0:0:0:
256,192,98936,1,8,0:0:0:0:
256,192,99061,1,0,0:0:0:0:
256,192,99186,1,8,0:0:0:0:
256,192,99248,5,8,0:0:0:0:
256,192,99311,1,0,0:0:0:0:
256,192,99436,1,8,0:0:0:0:
256,192,99561,1,0,0:0:0:0:
256,192,99686,1,8,0:0:0:0:
256,192,99748,1,8,0:0:0:0:
256,192,99811,1,0,0:0:0:0:
256,192,99936,1,8,0:0:0:0:
256,192,100061,1,0,0:0:0:0:
256,192,100186,1,8,0:0:0:0:
256,192,100311,1,8,0:0:0:0:
256,192,100436,1,0,0:0:0:0:
256,192,100561,1,0,0:0:0:0:
256,192,100686,1,8,0:0:0:0:
256,192,100936,1,0,0:0:0:0:
256,192,101061,1,8,0:0:0:0:
256,192,101186,1,8,0:0:0:0:
256,192,101311,1,0,0:0:0:0:
256,192,101373,1,0,0:0:0:0:
256,192,101436,1,8,0:0:0:0:
256,192,101561,1,0,0:0:0:0:
256,192,101686,1,8,0:0:0:0:
256,192,101811,5,8,0:0:0:0:
256,192,101936,1,8,0:0:0:0:
256,192,102061,1,0,0:0:0:0:
256,192,102186,1,8,0:0:0:0:
256,192,102311,1,0,0:0:0:0:
256,192,102436,1,8,0:0:0:0:
256,192,102498,1,8,0:0:0:0:
256,192,102561,1,0,0:0:0:0:
256,192,102686,1,8,0:0:0:0:
256,192,102936,1,0,0:0:0:0:
256,192,103061,1,0,0:0:0:0:
256,192,103186,1,8,0:0:0:0:
256,192,103311,1,0,0:0:0:0:
256,192,103436,1,12,0:0:0:0:
256,192,103561,1,0,0:0:0:0:
256,192,103686,1,0,0:0:0:0:
256,192,103811,1,8,0:0:0:0:
256,192,103873,1,8,0:0:0:0:
256,192,103936,1,0,0:0:0:0:
256,192,103998,1,0,0:0:0:0:
256,192,104061,1,0,0:0:0:0:
256,192,104123,1,0,0:0:0:0:
256,192,104186,1,8,0:0:0:0:
256,192,104248,5,8,0:0:0:0:
256,192,104311,1,8,0:0:0:0:
256,192,104373,1,8,0:0:0:0:
256,192,104436,1,0,0:0:0:0:
256,192,104498,1,0,0:0:0:0:
256,192,104561,1,0,0:0:0:0:
256,192,104623,1,0,0:0:0:0:
256,192,104686,1,12,0:0:0:0:
256,192,104936,1,0,0:0:0:0:
256,192,105061,1,8,0:0:0:0:
256,192,105186,1,8,0:0:0:0:
256,192,105311,1,8,0:0:0:0:
256,192,105436,1,0,0:0:0:0:
256,192,105561,1,0,0:0:0:0:
256,192,105686,1,8,0:0:0:0:
256,192,105811,1,8,0:0:0:0:
256,192,105936,1,0,0:0:0:0:
256,192,106061,1,8,0:0:0:0:
256,192,106186,1,8,0:0:0:0:
256,192,106311,1,0,0:0:0:0:
256,192,106436,1,8,0:0:0:0:
256,192,106561,1,0,0:0:0:0:
256,192,106686,1,8,0:0:0:0:
256,192,106811,1,8,0:0:0:0:
256,192,106936,1,0,0:0:0:0:
256,192,107061,1,8,0:0:0:0:
256,192,107311,1,0,0:0:0:0:
256,192,107436,1,8,0:0:0:0:
256,192,107686,1,8,0:0:0:0:
256,192,107811,1,8,0:0:0:0:
256,192,107936,1,0,0:0:0:0:
256,192,108061,1,8,0:0:0:0:
256,192,108186,1,0,0:0:0:0:
256,192,108311,1,8,0:0:0:0:
256,192,108436,1,8,0:0:0:0:
256,192,108561,1,0,0:0:0:0:
256,192,108686,1,8,0:0:0:0:
256,192,108936,1,0,0:0:0:0:
256,192,109061,1,8,0:0:0:0:
256,192,109311,1,8,0:0:0:0:
256,192,109436,1,0,0:0:0:0:
256,192,109561,1,0,0:0:0:0:
256,192,109686,1,8,0:0:0:0:
256,192,109811,1,8,0:0:0:0:
256,192,109936,1,0,0:0:0:0:
256,192,110061,1,8,0:0:0:0:
256,192,110186,1,8,0:0:0:0:
256,192,110311,1,0,0:0:0:0:
256,192,110436,1,8,0:0:0:0:
256,192,110561,1,0,0:0:0:0:
256,192,110686,1,8,0:0:0:0:
256,192,110936,1,0,0:0:0:0:
256,192,111061,1,8,0:0:0:0:
256,192,111311,1,8,0:0:0:0:
256,192,111436,1,8,0:0:0:0:
256,192,111561,1,0,0:0:0:0:
256,192,111686,1,8,0:0:0:0:
256,192,111811,1,0,0:0:0:0:
256,192,111936,1,0,0:0:0:0:
256,192,112061,1,8,0:0:0:0:
256,192,112311,1,8,0:0:0:0:
256,192,112436,1,8,0:0:0:0:
256,192,112561,1,0,0:0:0:0:
256,192,112686,1,12,0:0:0:0:
256,192,112936,1,0,0:0:0:0:
256,192,113061,1,8,0:0:0:0:
256,192,113311,1,8,0:0:0:0:
256,192,113436,1,0,0:0:0:0:
256,192,113561,1,0,0:0:0:0:
256,192,113686,1,8,0:0:0:0:
256,192,113811,1,8,0:0:0:0:
256,192,113936,1,0,0:0:0:0:
256,192,114061,1,8,0:0:0:0:
256,192,114186,1,8,0:0:0:0:
256,192,114311,1,0,0:0:0:0:
256,192,114436,1,8,0:0:0:0:
256,192,114561,1,0,0:0:0:0:
256,192,114686,1,8,0:0:0:0:
256,192,114936,1,0,0:0:0:0:
256,192,115061,1,8,0:0:0:0:
256,192,115311,1,8,0:0:0:0:
256,192,115436,1,8,0:0:0:0:
256,192,115561,1,0,0:0:0:0:
256,192,115686,1,8,0:0:0:0:
256,192,115811,1,0,0:0:0:0:
256,192,115936,1,0,0:0:0:0:
256,192,116061,1,8,0:0:0:0:
256,192,116186,1,0,0:0:0:0:
256,192,116311,1,8,0:0:0:0:
256,192,116436,1,8,0:0:0:0:
256,192,116561,1,0,0:0:0:0:
256,192,116686,1,8,0:0:0:0:
256,192,116936,1,0,0:0:0:0:
256,192,117061,1,8,0:0:0:0:
256,192,117311,1,8,0:0:0:0:
256,192,117436,1,8,0:0:0:0:
256,192,117561,1,0,0:0:0:0:
256,192,117686,1,8,0:0:0:0:
256,192,117936,1,0,0:0:0:0:
256,192,118061,1,8,0:0:0:0:
256,192,118186,1,0,0:0:0:0:
256,192,118311,1,0,0:0:0:0:
256,192,118436,1,8,0:0:0:0:
256,192,118561,1,0,0:0:0:0:
256,192,118686,1,8,0:0:0:0:
256,192,118936,1,0,0:0:0:0:
256,192,119061,1,8,0:0:0:0:
256,192,119311,1,8,0:0:0:0:
256,192,119436,1,8,0:0:0:0:
256,192,119561,1,0,0:0:0:0:
256,192,119686,1,12,0:0:0:0:
256,192,119936,1,8,0:0:0:0:
256,192,120019,1,8,0:0:0:0:
256,192,120102,1,8,0:0:0:0:
256,192,120186,1,0,0:0:0:0:
256,192,120269,1,0,0:0:0:0:
256,192,120352,1,0,0:0:0:0:
256,192,120436,1,8,0:0:0:0:
256,192,120686,1,12,0:0:0:0:
256,192,120936,1,0,0:0:0:0:
256,192,121061,1,8,0:0:0:0:
256,192,121311,1,8,0:0:0:0:
256,192,121436,1,0,0:0:0:0:
256,192,121561,1,8,0:0:0:0:
256,192,121811,1,8,0:0:0:0:
256,192,122061,1,8,0:0:0:0:
256,192,122311,1,0,0:0:0:0:
256,192,122561,1,0,0:0:0:0:
256,192,122686,1,8,0:0:0:0:
256,192,122936,1,0,0:0:0:0:
256,192,123061,1,8,0:0:0:0:
256,192,123311,1,8,0:0:0:0:
256,192,123436,1,0,0:0:0:0:
256,192,123561,1,8,0:0:0:0:
256,192,123811,1,8,0:0:0:0:
256,192,124061,1,8,0:0:0:0:
256,192,124311,1,0,0:0:0:0:
256,192,124561,1,8,0:0:0:0:
256,192,124686,1,0,0:0:0:0:
256,192,124936,1,0,0:0:0:0:
256,192,125061,1,8,0:0:0:0:
256,192,125311,1,8,0:0:0:0:
256,192,125436,1,0,0:0:0:0:
256,192,125561,1,8,0:0:0:0:
256,192,125811,1,8,0:0:0:0:
256,192,126061,1,8,0:0:0:0:
256,192,126311,1,0,0:0:0:0:
256,192,126561,1,0,0:0:0:0:
256,192,126686,1,8,0:0:0:0:
256,192,126936,1,0,0:0:0:0:
256,192,127061,1,8,0:0:0:0:
256,192,127311,1,8,0:0:0:0:
256,192,127436,1,0,0:0:0:0:
256,192,127561,1,0,0:0:0:0:
256,192,127686,1,8,0:0:0:0:
256,192,127811,1,0,0:0:0:0:
256,192,127936,1,8,0:0:0:0:
256,192,128061,1,8,0:0:0:0:
256,192,128186,1,8,0:0:0:0:
256,192,128311,1,0,0:0:0:0:
256,192,128561,1,0,0:0:0:0:
256,192,128686,1,12,0:0:0:0:
256,192,128936,1,0,0:0:0:0:
256,192,129061,1,8,0:0:0:0:
256,192,129311,1,8,0:0:0:0:
256,192,129436,1,0,0:0:0:0:
256,192,129561,1,8,0:0:0:0:
256,192,129811,1,8,0:0:0:0:
256,192,130061,1,8,0:0:0:0:
256,192,130311,1,0,0:0:0:0:
256,192,130561,1,0,0:0:0:0:
256,192,130686,1,8,0:0:0:0:
256,192,130936,1,8,0:0:0:0:
256,192,131061,1,0,0:0:0:0:
256,192,131311,1,8,0:0:0:0:
256,192,131436,1,0,0:0:0:0:
256,192,131561,1,8,0:0:0:0:
256,192,131811,1,8,0:0:0:0:
256,192,132061,5,8,0:0:0:0:
256,192,132186,1,0,0:0:0:0:
256,192,132311,5,8,0:0:0:0:
256,192,132561,1,0,0:0:0:0:
256,192,132686,5,12,0:0:0:0:
256,192,133061,1,0,0:0:0:0:
256,192,133186,1,0,0:0:0:0:
256,192,133311,1,0,0:0:0:0:
256,192,133436,1,0,0:0:0:0:
256,192,133561,1,0,0:0:0:0:
256,192,133686,1,0,0:0:0:0:
256,192,133811,1,0,0:0:0:0:
256,192,133936,1,0,0:0:0:0:
256,192,134061,1,0,0:0:0:0:
256,192,134186,1,0,0:0:0:0:
256,192,134311,1,8,0:0:0:0:
256,192,134373,1,8,0:0:0:0:
256,192,134436,1,8,0:0:0:0:
256,192,134498,1,8,0:0:0:0:
256,192,134561,1,0,0:0:0:0:
256,192,134686,5,12,0:0:0:0:
256,192,135686,6,0,L|256:160,14,31.4999990386963
256,192,136686,5,12,0:0:0:0:
256,192,136811,1,8,0:0:0:0:
256,192,136873,1,8,0:0:0:0:
256,192,136936,1,0,0:0:0:0:
256,192,137061,1,0,0:0:0:0:
256,192,137186,1,8,0:0:0:0:
256,192,137311,1,0,0:0:0:0:
256,192,137373,1,0,0:0:0:0:
256,192,137436,1,8,0:0:0:0:
256,192,137561,1,0,0:0:0:0:
256,192,137686,1,8,0:0:0:0:
256,192,137748,1,0,0:0:0:0:
256,192,137811,1,8,0:0:0:0:
256,192,137873,1,8,0:0:0:0:
256,192,137936,1,0,0:0:0:0:
256,192,138061,1,0,0:0:0:0:
256,192,138186,1,8,0:0:0:0:
256,192,138248,1,8,0:0:0:0:
256,192,138311,1,0,0:0:0:0:
256,192,138436,1,8,0:0:0:0:
256,192,138561,1,0,0:0:0:0:
256,192,138686,1,12,0:0:0:0:
256,192,138936,1,8,0:0:0:0:
256,192,139061,1,0,0:0:0:0:
256,192,139186,1,8,0:0:0:0:
256,192,139248,1,8,0:0:0:0:
256,192,139311,1,0,0:0:0:0:
256,192,139436,1,8,0:0:0:0:
256,192,139561,1,0,0:0:0:0:
256,192,139623,1,0,0:0:0:0:
256,192,139686,1,8,0:0:0:0:
256,192,139811,1,0,0:0:0:0:
256,192,139936,1,8,0:0:0:0:
256,192,139998,1,0,0:0:0:0:
256,192,140061,1,8,0:0:0:0:
256,192,140186,1,8,0:0:0:0:
256,192,140311,1,0,0:0:0:0:
256,192,140436,1,8,0:0:0:0:
256,192,140498,1,8,0:0:0:0:
256,192,140561,1,0,0:0:0:0:
256,192,140623,1,0,0:0:0:0:
256,192,140686,1,8,0:0:0:0:
256,192,140811,1,0,0:0:0:0:
256,192,140936,1,8,0:0:0:0:
256,192,140998,1,8,0:0:0:0:
256,192,141061,1,0,0:0:0:0:
256,192,141186,1,8,0:0:0:0:
256,192,141311,1,0,0:0:0:0:
256,192,141436,1,8,0:0:0:0:
256,192,141498,1,0,0:0:0:0:
256,192,141561,1,0,0:0:0:0:
256,192,141623,1,0,0:0:0:0:
256,192,141686,1,8,0:0:0:0:
256,192,141811,1,0,0:0:0:0:
256,192,141936,1,8,0:0:0:0:
256,192,141998,1,8,0:0:0:0:
256,192,142061,1,0,0:0:0:0:
256,192,142186,1,8,0:0:0:0:
256,192,142311,1,0,0:0:0:0:
256,192,142436,1,8,0:0:0:0:
256,192,142498,1,0,0:0:0:0:
256,192,142561,1,0,0:0:0:0:
256,192,142686,1,8,0:0:0:0:
256,192,142748,1,0,0:0:0:0:
256,192,142811,1,0,0:0:0:0:
256,192,142936,1,8,0:0:0:0:
256,192,143061,1,0,0:0:0:0:
256,192,143123,1,0,0:0:0:0:
256,192,143186,1,8,0:0:0:0:
256,192,143311,1,0,0:0:0:0:
256,192,143436,1,8,0:0:0:0:
256,192,143561,1,0,0:0:0:0:
256,192,143623,1,0,0:0:0:0:
256,192,143686,1,8,0:0:0:0:
256,192,143748,1,8,0:0:0:0:
256,192,143811,1,8,0:0:0:0:
256,192,143873,1,8,0:0:0:0:
256,192,143936,1,0,0:0:0:0:
256,192,143998,1,0,0:0:0:0:
256,192,144061,1,8,0:0:0:0:
256,192,144123,1,8,0:0:0:0:
256,192,144186,1,0,0:0:0:0:
256,192,144248,1,0,0:0:0:0:
256,192,144311,1,0,0:0:0:0:
256,192,144373,1,0,0:0:0:0:
256,192,144436,1,8,0:0:0:0:
256,192,144686,1,12,0:0:0:0:
256,192,144811,1,0,0:0:0:0:
256,192,144873,1,0,0:0:0:0:
256,192,144936,1,8,0:0:0:0:
256,192,145061,1,0,0:0:0:0:
256,192,145186,1,8,0:0:0:0:
256,192,145248,1,0,0:0:0:0:
256,192,145373,1,0,0:0:0:0:
256,192,145436,1,8,0:0:0:0:
256,192,145561,1,0,0:0:0:0:
256,192,145623,1,0,0:0:0:0:
256,192,145686,1,8,0:0:0:0:
256,192,145811,1,0,0:0:0:0:
256,192,145936,1,8,0:0:0:0:
256,192,145998,1,0,0:0:0:0:
256,192,146061,1,8,0:0:0:0:
256,192,146123,1,8,0:0:0:0:
256,192,146186,1,0,0:0:0:0:
256,192,146311,1,0,0:0:0:0:
256,192,146436,1,8,0:0:0:0:
256,192,146498,1,0,0:0:0:0:
256,192,146561,1,0,0:0:0:0:
256,192,146686,1,12,0:0:0:0:
256,192,146936,1,8,0:0:0:0:
256,192,147061,1,0,0:0:0:0:
256,192,147186,1,8,0:0:0:0:
256,192,147248,1,8,0:0:0:0:
256,192,147311,1,0,0:0:0:0:
256,192,147436,1,8,0:0:0:0:
256,192,147561,1,0,0:0:0:0:
256,192,147623,1,0,0:0:0:0:
256,192,147686,1,8,0:0:0:0:
256,192,147811,1,0,0:0:0:0:
256,192,147936,1,8,0:0:0:0:
256,192,147998,1,0,0:0:0:0:
256,192,148061,1,8,0:0:0:0:
256,192,148186,1,8,0:0:0:0:
256,192,148311,1,0,0:0:0:0:
256,192,148436,1,8,0:0:0:0:
256,192,148498,1,8,0:0:0:0:
256,192,148561,1,0,0:0:0:0:
256,192,148623,1,0,0:0:0:0:
256,192,148686,1,8,0:0:0:0:
256,192,148811,1,0,0:0:0:0:
256,192,148936,1,8,0:0:0:0:
256,192,148998,1,8,0:0:0:0:
256,192,149061,1,0,0:0:0:0:
256,192,149186,1,8,0:0:0:0:
256,192,149311,1,0,0:0:0:0:
256,192,149436,1,8,0:0:0:0:
256,192,149498,1,0,0:0:0:0:
256,192,149561,1,0,0:0:0:0:
256,192,149623,1,0,0:0:0:0:
256,192,149686,1,8,0:0:0:0:
256,192,149811,1,0,0:0:0:0:
256,192,149936,1,8,0:0:0:0:
256,192,149998,1,8,0:0:0:0:
256,192,150061,1,0,0:0:0:0:
256,192,150186,1,8,0:0:0:0:
256,192,150311,1,0,0:0:0:0:
256,192,150436,1,8,0:0:0:0:
256,192,150498,1,0,0:0:0:0:
256,192,150561,1,0,0:0:0:0:
256,192,150686,1,8,0:0:0:0:
256,192,150748,1,0,0:0:0:0:
256,192,150811,1,0,0:0:0:0:
256,192,150936,1,8,0:0:0:0:
256,192,151061,1,0,0:0:0:0:
256,192,151123,1,0,0:0:0:0:
256,192,151186,1,8,0:0:0:0:
256,192,151311,1,0,0:0:0:0:
256,192,151436,5,8,0:0:0:0:
256,192,151561,1,0,0:0:0:0:
256,192,151623,1,0,0:0:0:0:
256,192,151686,5,8,0:0:0:0:
256,192,151748,1,8,0:0:0:0:
256,192,151811,1,0,0:0:0:0:
256,192,151873,1,0,0:0:0:0:
256,192,151936,1,8,0:0:0:0:
256,192,152019,1,0,0:0:0:0:
256,192,152102,1,0,0:0:0:0:
256,192,152186,1,8,0:0:0:0:
256,192,152269,1,0,0:0:0:0:
256,192,152352,1,0,0:0:0:0:
256,192,152436,1,8,0:0:0:0:
256,192,152686,1,12,0:0:0:0:
256,192,152811,1,0,0:0:0:0:
256,192,152873,1,0,0:0:0:0:
256,192,152936,1,8,0:0:0:0:
256,192,153061,1,0,0:0:0:0:
256,192,153186,1,8,0:0:0:0:
256,192,153248,1,8,0:0:0:0:
256,192,153311,1,0,0:0:0:0:
256,192,153436,1,8,0:0:0:0:
256,192,153561,1,0,0:0:0:0:
256,192,153686,1,8,0:0:0:0:
256,192,153748,1,8,0:0:0:0:
256,192,153811,1,8,0:0:0:0:
256,192,153873,1,8,0:0:0:0:
256,192,153936,1,0,0:0:0:0:
256,192,153998,1,0,0:0:0:0:
256,192,154061,1,8,0:0:0:0:
256,192,154123,1,0,0:0:0:0:
256,192,154186,1,8,0:0:0:0:
256,192,154311,1,0,0:0:0:0:
256,192,154436,1,8,0:0:0:0:
256,192,154561,1,0,0:0:0:0:
256,192,154686,1,8,0:0:0:0:
256,192,154748,1,8,0:0:0:0:
256,192,154811,1,0,0:0:0:0:
256,192,154873,1,0,0:0:0:0:
256,192,154936,1,8,0:0:0:0:
256,192,155061,1,0,0:0:0:0:
256,192,155186,1,8,0:0:0:0:
256,192,155248,1,8,0:0:0:0:
256,192,155311,1,0,0:0:0:0:
256,192,155436,1,8,0:0:0:0:
256,192,155561,1,0,0:0:0:0:
256,192,155686,1,8,0:0:0:0:
256,192,155748,1,8,0:0:0:0:
256,192,155811,1,8,0:0:0:0:
256,192,155873,1,8,0:0:0:0:
256,192,155936,1,0,0:0:0:0:
256,192,155998,1,0,0:0:0:0:
256,192,156061,1,8,0:0:0:0:
256,192,156123,1,8,0:0:0:0:
256,192,156186,1,8,0:0:0:0:
256,192,156248,1,8,0:0:0:0:
256,192,156311,1,0,0:0:0:0:
256,192,156436,1,8,0:0:0:0:
256,192,156561,1,0,0:0:0:0:
256,192,156686,5,8,0:0:0:0:
256,192,156748,1,8,0:0:0:0:
256,192,156811,1,8,0:0:0:0:
256,192,156873,1,8,0:0:0:0:
256,192,156936,1,0,0:0:0:0:
256,192,156998,1,0,0:0:0:0:
256,192,157061,1,8,0:0:0:0:
256,192,157123,1,8,0:0:0:0:
256,192,157186,1,0,0:0:0:0:
256,192,157248,1,0,0:0:0:0:
256,192,157311,1,0,0:0:0:0:
256,192,157373,1,0,0:0:0:0:
256,192,157436,1,8,0:0:0:0:
256,192,157561,1,0,0:0:0:0:
256,192,157686,1,8,0:0:0:0:
256,192,157748,1,8,0:0:0:0:
256,192,157811,1,0,0:0:0:0:
256,192,157936,1,8,0:0:0:0:
256,192,158061,1,0,0:0:0:0:
256,192,158186,5,8,0:0:0:0:
256,192,158248,1,8,0:0:0:0:
256,192,158311,1,0,0:0:0:0:
256,192,158436,1,8,0:0:0:0:
256,192,158561,1,0,0:0:0:0:
256,192,158686,1,8,0:0:0:0:
256,192,158748,1,8,0:0:0:0:
256,192,158811,1,8,0:0:0:0:
256,192,158873,1,8,0:0:0:0:
256,192,158936,1,0,0:0:0:0:
256,192,158998,1,0,0:0:0:0:
256,192,159061,1,8,0:0:0:0:
256,192,159123,1,0,0:0:0:0:
256,192,159186,1,8,0:0:0:0:
256,192,159311,1,0,0:0:0:0:
256,192,159436,1,8,0:0:0:0:
256,192,159498,1,0,0:0:0:0:
256,192,159561,1,0,0:0:0:0:
256,192,159623,1,0,0:0:0:0:
256,192,159686,1,8,0:0:0:0:
256,192,159811,1,0,0:0:0:0:
256,192,159936,1,8,0:0:0:0:
256,192,159998,1,8,0:0:0:0:
256,192,160061,1,0,0:0:0:0:
256,192,160123,1,8,0:0:0:0:
256,192,160186,1,0,0:0:0:0:
256,192,160248,1,0,0:0:0:0:
256,192,160311,1,8,0:0:0:0:
256,192,160373,1,0,0:0:0:0:
256,192,160436,1,8,0:0:0:0:
256,192,160561,1,0,0:0:0:0:
256,192,160686,1,12,0:0:0:0:
256,192,160811,1,0,0:0:0:0:
256,192,160936,1,8,0:0:0:0:
256,192,160998,1,8,0:0:0:0:
256,192,161061,1,0,0:0:0:0:
256,192,161186,1,8,0:0:0:0:
256,192,161248,1,8,0:0:0:0:
256,192,161311,1,0,0:0:0:0:
256,192,161436,1,8,0:0:0:0:
256,192,161561,1,0,0:0:0:0:
256,192,161686,1,8,0:0:0:0:
256,192,161748,1,8,0:0:0:0:
256,192,161811,1,8,0:0:0:0:
256,192,161873,1,8,0:0:0:0:
256,192,161936,1,0,0:0:0:0:
256,192,161998,1,0,0:0:0:0:
256,192,162061,1,8,0:0:0:0:
256,192,162123,1,0,0:0:0:0:
256,192,162186,1,8,0:0:0:0:
256,192,162311,1,0,0:0:0:0:
256,192,162436,1,8,0:0:0:0:
256,192,162498,1,8,0:0:0:0:
256,192,162561,1,0,0:0:0:0:
256,192,162686,1,8,0:0:0:0:
256,192,162748,1,8,0:0:0:0:
256,192,162811,1,0,0:0:0:0:
256,192,162936,1,8,0:0:0:0:
256,192,163061,1,0,0:0:0:0:
256,192,163123,1,0,0:0:0:0:
256,192,163186,1,8,0:0:0:0:
256,192,163248,1,8,0:0:0:0:
256,192,163311,1,0,0:0:0:0:
256,192,163436,1,8,0:0:0:0:
256,192,163561,1,0,0:0:0:0:
256,192,163686,5,8,0:0:0:0:
256,192,163748,1,8,0:0:0:0:
256,192,163811,1,8,0:0:0:0:
256,192,163873,1,8,0:0:0:0:
256,192,163936,1,0,0:0:0:0:
256,192,163998,1,8,0:0:0:0:
256,192,164061,1,0,0:0:0:0:
256,192,164123,1,0,0:0:0:0:
256,192,164186,1,8,0:0:0:0:
256,192,164248,1,8,0:0:0:0:
256,192,164311,1,0,0:0:0:0:
256,192,164436,1,8,0:0:0:0:
256,192,164561,1,0,0:0:0:0:
256,192,164686,1,8,0:0:0:0:
256,192,164748,1,8,0:0:0:0:
256,192,164811,1,8,0:0:0:0:
256,192,164873,1,8,0:0:0:0:
256,192,164936,1,0,0:0:0:0:
256,192,164998,1,0,0:0:0:0:
256,192,165061,1,0,0:0:0:0:
256,192,165123,1,0,0:0:0:0:
256,192,165186,1,8,0:0:0:0:
256,192,165248,1,8,0:0:0:0:
256,192,165311,1,0,0:0:0:0:
256,192,165373,1,0,0:0:0:0:
256,192,165436,1,8,0:0:0:0:
256,192,165498,1,8,0:0:0:0:
256,192,165561,1,0,0:0:0:0:
256,192,165686,1,8,0:0:0:0:
256,192,165748,1,8,0:0:0:0:
256,192,165811,1,8,0:0:0:0:
256,192,165873,1,8,0:0:0:0:
256,192,165936,1,0,0:0:0:0:
256,192,165998,1,0,0:0:0:0:
256,192,166061,1,8,0:0:0:0:
256,192,166123,1,0,0:0:0:0:
256,192,166186,1,8,0:0:0:0:
256,192,166248,1,8,0:0:0:0:
256,192,166311,1,0,0:0:0:0:
256,192,166373,1,0,0:0:0:0:
256,192,166436,1,8,0:0:0:0:
256,192,166498,1,8,0:0:0:0:
256,192,166561,1,0,0:0:0:0:
256,192,166686,1,8,0:0:0:0:
256,192,166727,1,8,0:0:0:0:
256,192,166769,1,8,0:0:0:0:
256,192,166811,1,0,0:0:0:0:
256,192,166873,1,0,0:0:0:0:
256,192,166936,1,8,0:0:0:0:
256,192,167061,1,0,0:0:0:0:
256,192,167123,1,0,0:0:0:0:
256,192,167186,1,8,0:0:0:0:
256,192,167311,1,0,0:0:0:0:
256,192,167373,1,0,0:0:0:0:
256,192,167436,1,8,0:0:0:0:
256,192,167561,1,0,0:0:0:0:
256,192,167686,1,12,0:0:0:0:
256,192,167811,1,0,0:0:0:0:
256,192,167873,1,0,0:0:0:0:
256,192,167936,1,8,0:0:0:0:
256,192,167998,1,8,0:0:0:0:
256,192,168061,1,8,0:0:0:0:
256,192,168123,1,8,0:0:0:0:
256,192,168186,1,0,0:0:0:0:
256,192,168248,1,0,0:0:0:0:
256,192,168311,1,8,0:0:0:0:
256,192,168373,1,0,0:0:0:0:
256,192,168436,1,8,0:0:0:0:
256,192,168498,1,8,0:0:0:0:
256,192,168561,1,0,0:0:0:0:
256,192,168623,1,0,0:0:0:0:
256,192,168686,1,8,0:0:0:0:
256,192,169061,1,8,0:0:0:0:
256,192,169436,1,0,0:0:0:0:
256,192,169686,1,8,0:0:0:0:
256,192,169811,1,0,0:0:0:0:
256,192,169936,1,0,0:0:0:0:
256,192,170061,1,8,0:0:0:0:
256,192,170311,1,0,0:0:0:0:
256,192,170436,1,0,0:0:0:0:
256,192,170561,1,8,0:0:0:0:
256,192,170686,1,8,0:0:0:0:
256,192,170811,1,0,0:0:0:0:
256,192,171061,1,8,0:0:0:0:
256,192,171186,1,8,0:0:0:0:
256,192,171311,1,0,0:0:0:0:
256,192,171436,1,0,0:0:0:0:
256,192,171561,1,8,0:0:0:0:
256,192,171811,1,8,0:0:0:0:
256,192,172061,1,8,0:0:0:0:
256,192,172311,1,8,0:0:0:0:
256,192,172561,1,0,0:0:0:0:
256,192,172686,1,8,0:0:0:0:
256,192,172936,1,8,0:0:0:0:
256,192,173061,1,8,0:0:0:0:
256,192,173186,1,0,0:0:0:0:
256,192,173311,1,8,0:0:0:0:
256,192,173561,1,0,0:0:0:0:
256,192,173811,1,8,0:0:0:0:
256,192,174061,1,8,0:0:0:0:
256,192,174311,1,0,0:0:0:0:
256,192,174436,1,0,0:0:0:0:
256,192,174561,1,0,0:0:0:0:
256,192,174686,1,8,0:0:0:0:
256,192,174811,1,8,0:0:0:0:
256,192,174936,1,0,0:0:0:0:
256,192,175061,1,8,0:0:0:0:
256,192,175186,1,8,0:0:0:0:
256,192,175311,1,0,0:0:0:0:
256,192,175436,1,0,0:0:0:0:
256,192,175561,1,8,0:0:0:0:
256,192,175811,1,8,0:0:0:0:
256,192,176061,1,8,0:0:0:0:
256,192,176186,1,0,0:0:0:0:
256,192,176311,1,8,0:0:0:0:
256,192,176436,1,0,0:0:0:0:
256,192,176561,1,0,0:0:0:0:
256,192,176686,1,12,0:0:0:0:
256,192,177061,1,0,0:0:0:0:
256,192,177311,1,0,0:0:0:0:
256,192,177436,1,8,0:0:0:0:
256,192,177811,1,8,0:0:0:0:
256,192,178061,1,8,0:0:0:0:
256,192,178311,1,8,0:0:0:0:
256,192,178561,1,0,0:0:0:0:
256,192,178686,1,8,0:0:0:0:
256,192,178811,1,0,0:0:0:0:
256,192,178936,1,0,0:0:0:0:
256,192,179061,1,8,0:0:0:0:
256,192,179186,1,0,0:0:0:0:
256,192,179311,1,8,0:0:0:0:
256,192,179436,1,8,0:0:0:0:
256,192,179561,1,0,0:0:0:0:
256,192,179686,1,0,0:0:0:0:
256,192,179811,1,8,0:0:0:0:
256,192,180061,1,8,0:0:0:0:
256,192,180311,1,8,0:0:0:0:
256,192,180561,1,0,0:0:0:0:
256,192,180686,1,8,0:0:0:0:
256,192,180811,1,0,0:0:0:0:
256,192,180936,1,0,0:0:0:0:
256,192,181061,1,8,0:0:0:0:
256,192,181186,1,0,0:0:0:0:
256,192,181311,1,8,0:0:0:0:
256,192,181436,1,8,0:0:0:0:
256,192,181686,1,0,0:0:0:0:
256,192,181811,1,8,0:0:0:0:
256,192,182061,1,8,0:0:0:0:
256,192,182186,1,0,0:0:0:0:
256,192,182311,1,8,0:0:0:0:
256,192,182561,1,0,0:0:0:0:
256,192,182686,1,8,0:0:0:0:
256,192,182936,1,0,0:0:0:0:
256,192,183061,1,8,0:0:0:0:
256,192,183186,1,0,0:0:0:0:
256,192,183311,1,0,0:0:0:0:
256,192,183436,1,8,0:0:0:0:
256,192,183686,2,0,L|256:160,8,31.4999990386963
256,192,184311,1,8,0:0:0:0:
256,192,184436,1,0,0:0:0:0:
256,192,184686,5,12,0:0:0:0:
256,192,184936,1,0,0:0:0:0:
256,192,185061,1,8,0:0:0:0:
256,192,185186,1,8,0:0:0:0:
256,192,185311,1,8,0:0:0:0:
256,192,185436,1,0,0:0:0:0:
256,192,185561,1,0,0:0:0:0:
256,192,185686,1,8,0:0:0:0:
256,192,185811,1,8,0:0:0:0:
256,192,185936,1,0,0:0:0:0:
256,192,186061,1,8,0:0:0:0:
256,192,186186,1,8,0:0:0:0:
256,192,186311,1,0,0:0:0:0:
256,192,186436,1,8,0:0:0:0:
256,192,186561,1,0,0:0:0:0:
256,192,186686,1,8,0:0:0:0:
256,192,186811,1,8,0:0:0:0:
256,192,186936,1,0,0:0:0:0:
256,192,187061,1,8,0:0:0:0:
256,192,187311,1,0,0:0:0:0:
256,192,187436,1,8,0:0:0:0:
256,192,187686,1,8,0:0:0:0:
256,192,187811,1,8,0:0:0:0:
256,192,187936,1,0,0:0:0:0:
256,192,188061,1,8,0:0:0:0:
256,192,188186,1,0,0:0:0:0:
256,192,188311,1,8,0:0:0:0:
256,192,188436,1,8,0:0:0:0:
256,192,188561,1,0,0:0:0:0:
256,192,188686,1,8,0:0:0:0:
256,192,188936,1,0,0:0:0:0:
256,192,189061,1,8,0:0:0:0:
256,192,189311,1,8,0:0:0:0:
256,192,189436,1,0,0:0:0:0:
256,192,189561,1,0,0:0:0:0:
256,192,189686,1,8,0:0:0:0:
256,192,189811,1,8,0:0:0:0:
256,192,189936,1,0,0:0:0:0:
256,192,190061,1,8,0:0:0:0:
256,192,190186,1,8,0:0:0:0:
256,192,190311,1,0,0:0:0:0:
256,192,190436,1,8,0:0:0:0:
256,192,190561,1,0,0:0:0:0:
256,192,190686,1,8,0:0:0:0:
256,192,190936,1,0,0:0:0:0:
256,192,191061,1,8,0:0:0:0:
256,192,191311,1,8,0:0:0:0:
256,192,191436,1,8,0:0:0:0:
256,192,191561,1,0,0:0:0:0:
256,192,191686,1,8,0:0:0:0:
256,192,191811,1,0,0:0:0:0:
256,192,191936,1,0,0:0:0:0:
256,192,192061,1,8,0:0:0:0:
256,192,192311,1,8,0:0:0:0:
256,192,192436,1,8,0:0:0:0:
256,192,192561,1,0,0:0:0:0:
256,192,192686,1,12,0:0:0:0:
256,192,192936,1,0,0:0:0:0:
256,192,193061,1,8,0:0:0:0:
256,192,193311,1,8,0:0:0:0:
256,192,193436,1,0,0:0:0:0:
256,192,193561,1,0,0:0:0:0:
256,192,193686,1,8,0:0:0:0:
256,192,193811,1,8,0:0:0:0:
256,192,193936,1,0,0:0:0:0:
256,192,194061,1,8,0:0:0:0:
256,192,194186,1,8,0:0:0:0:
256,192,194311,1,0,0:0:0:0:
256,192,194436,1,8,0:0:0:0:
256,192,194561,1,0,0:0:0:0:
256,192,194686,1,8,0:0:0:0:
256,192,194936,1,0,0:0:0:0:
256,192,195061,1,8,0:0:0:0:
256,192,195311,1,8,0:0:0:0:
256,192,195436,1,8,0:0:0:0:
256,192,195561,1,0,0:0:0:0:
256,192,195686,1,8,0:0:0:0:
256,192,195811,1,0,0:0:0:0:
256,192,195936,1,0,0:0:0:0:
256,192,196061,1,8,0:0:0:0:
256,192,196186,1,0,0:0:0:0:
256,192,196311,1,8,0:0:0:0:
256,192,196436,1,8,0:0:0:0:
256,192,196561,1,0,0:0:0:0:
256,192,196686,1,8,0:0:0:0:
256,192,196936,1,0,0:0:0:0:
256,192,197061,1,8,0:0:0:0:
256,192,197311,1,8,0:0:0:0:
256,192,197436,1,8,0:0:0:0:
256,192,197561,1,0,0:0:0:0:
256,192,197686,1,8,0:0:0:0:
256,192,197936,1,0,0:0:0:0:
256,192,198061,1,8,0:0:0:0:
256,192,198186,1,0,0:0:0:0:
256,192,198311,1,0,0:0:0:0:
256,192,198436,1,8,0:0:0:0:
256,192,198561,1,0,0:0:0:0:
256,192,198686,1,8,0:0:0:0:
256,192,198936,1,0,0:0:0:0:
256,192,199061,1,8,0:0:0:0:
256,192,199311,5,8,0:0:0:0:
256,192,199436,1,8,0:0:0:0:
256,192,199561,1,0,0:0:0:0:
256,192,199686,1,12,0:0:0:0:
256,192,199936,5,8,0:0:0:0:
256,192,200019,1,0,0:0:0:0:
256,192,200102,1,0,0:0:0:0:
256,192,200186,1,8,0:0:0:0:
256,192,200269,1,0,0:0:0:0:
256,192,200352,1,0,0:0:0:0:
256,192,200436,1,8,0:0:0:0:
256,192,200686,1,12,0:0:0:0:
256,192,200936,1,0,0:0:0:0:
256,192,201061,1,8,0:0:0:0:
256,192,201311,1,8,0:0:0:0:
256,192,201436,1,0,0:0:0:0:
256,192,201561,1,8,0:0:0:0:
256,192,201811,1,8,0:0:0:0:
256,192,202061,1,8,0:0:0:0:
256,192,202311,1,0,0:0:0:0:
256,192,202561,1,0,0:0:0:0:
256,192,202686,1,8,0:0:0:0:
256,192,202936,1,0,0:0:0:0:
256,192,203061,1,8,0:0:0:0:
256,192,203311,1,8,0:0:0:0:
256,192,203436,1,0,0:0:0:0:
256,192,203561,1,8,0:0:0:0:
256,192,203811,1,8,0:0:0:0:
256,192,204061,1,8,0:0:0:0:
256,192,204311,1,0,0:0:0:0:
256,192,204561,1,8,0:0:0:0:
256,192,204686,1,0,0:0:0:0:
256,192,204936,1,0,0:0:0:0:
256,192,205061,1,8,0:0:0:0:
256,192,205311,1,8,0:0:0:0:
256,192,205436,1,0,0:0:0:0:
256,192,205561,1,8,0:0:0:0:
256,192,205811,1,8,0:0:0:0:
256,192,206061,1,8,0:0:0:0:
256,192,206311,1,0,0:0:0:0:
256,192,206561,1,0,0:0:0:0:
256,192,206686,1,8,0:0:0:0:
256,192,206936,1,0,0:0:0:0:
256,192,207061,1,8,0:0:0:0:
256,192,207311,1,8,0:0:0:0:
256,192,207436,1,0,0:0:0:0:
256,192,207561,1,0,0:0:0:0:
256,192,207686,1,8,0:0:0:0:
256,192,207811,1,0,0:0:0:0:
256,192,207936,1,8,0:0:0:0:
256,192,208061,1,8,0:0:0:0:
256,192,208186,1,8,0:0:0:0:
256,192,208311,1,0,0:0:0:0:
256,192,208561,1,0,0:0:0:0:
256,192,208686,1,12,0:0:0:0:
256,192,208936,1,0,0:0:0:0:
256,192,209061,1,8,0:0:0:0:
256,192,209311,1,8,0:0:0:0:
256,192,209436,1,0,0:0:0:0:
256,192,209561,1,8,0:0:0:0:
256,192,209811,1,8,0:0:0:0:
256,192,210061,1,8,0:0:0:0:
256,192,210311,1,0,0:0:0:0:
256,192,210561,1,0,0:0:0:0:
256,192,210686,1,8,0:0:0:0:
256,192,210936,1,8,0:0:0:0:
256,192,211061,1,0,0:0:0:0:
256,192,211311,1,8,0:0:0:0:
256,192,211436,1,0,0:0:0:0:
256,192,211561,1,8,0:0:0:0:
256,192,211811,1,8,0:0:0:0:
256,192,212061,5,8,0:0:0:0:
256,192,212186,1,0,0:0:0:0:
256,192,212311,5,8,0:0:0:0:
256,192,212561,1,0,0:0:0:0:
256,192,212686,5,12,0:0:0:0:
256,192,213061,5,0,0:0:0:0:
256,192,213186,1,0,0:0:0:0:
256,192,213311,1,0,0:0:0:0:
256,192,213436,1,0,0:0:0:0:
256,192,213561,1,0,0:0:0:0:
256,192,213686,1,0,0:0:0:0:
256,192,213811,1,0,0:0:0:0:
256,192,213936,1,8,0:0:0:0:
256,192,214061,1,0,0:0:0:0:
256,192,214186,1,8,0:0:0:0:
256,192,214311,1,0,0:0:0:0:
256,192,214373,1,0,0:0:0:0:
256,192,214436,1,0,0:0:0:0:
256,192,214498,1,0,0:0:0:0:
256,192,214561,1,0,0:0:0:0:
256,192,214623,1,0,0:0:0:0:
256,192,214686,1,8,0:0:0:0:
256,192,214852,1,8,0:0:0:0:
256,192,215019,1,8,0:0:0:0:
256,192,215186,1,8,0:0:0:0:
256,192,215352,1,8,0:0:0:0:
256,192,215519,1,8,0:0:0:0:
256,192,215686,1,8,0:0:0:0:
256,192,215769,1,8,0:0:0:0:
256,192,215852,1,8,0:0:0:0:
256,192,215998,1,12,0:0:0:0:
256,192,216186,2,0,L|256:160,6,31.4999990386963
256,192,216686,5,12,0:0:0:0:
256,192,216811,1,8,0:0:0:0:
256,192,216873,1,8,0:0:0:0:
256,192,216936,1,0,0:0:0:0:
256,192,217061,1,0,0:0:0:0:
256,192,217186,1,8,0:0:0:0:
256,192,217311,1,0,0:0:0:0:
256,192,217373,1,0,0:0:0:0:
256,192,217436,1,8,0:0:0:0:
256,192,217561,1,0,0:0:0:0:
256,192,217686,1,8,0:0:0:0:
256,192,217748,1,0,0:0:0:0:
256,192,217811,1,8,0:0:0:0:
256,192,217873,1,8,0:0:0:0:
256,192,217936,1,0,0:0:0:0:
256,192,218061,1,0,0:0:0:0:
256,192,218186,1,8,0:0:0:0:
256,192,218248,1,8,0:0:0:0:
256,192,218311,1,0,0:0:0:0:
256,192,218436,1,8,0:0:0:0:
256,192,218561,1,0,0:0:0:0:
256,192,218686,1,12,0:0:0:0:
256,192,218936,1,8,0:0:0:0:
256,192,219061,1,0,0:0:0:0:
256,192,219186,1,8,0:0:0:0:
256,192,219248,1,8,0:0:0:0:
256,192,219311,1,0,0:0:0:0:
256,192,219436,1,8,0:0:0:0:
256,192,219561,1,0,0:0:0:0:
256,192,219623,1,0,0:0:0:0:
256,192,219686,1,8,0:0:0:0:
256,192,219811,1,0,0:0:0:0:
256,192,219936,1,8,0:0:0:0:
256,192,219998,1,0,0:0:0:0:
256,192,220061,1,8,0:0:0:0:
256,192,220186,1,8,0:0:0:0:
256,192,220311,1,0,0:0:0:0:
256,192,220436,1,8,0:0:0:0:
256,192,220498,1,8,0:0:0:0:
256,192,220561,1,0,0:0:0:0:
256,192,220623,1,0,0:0:0:0:
256,192,220686,1,8,0:0:0:0:
256,192,220811,1,0,0:0:0:0:
256,192,220936,1,8,0:0:0:0:
256,192,220998,1,8,0:0:0:0:
256,192,221061,1,0,0:0:0:0:
256,192,221186,1,8,0:0:0:0:
256,192,221311,1,0,0:0:0:0:
256,192,221436,1,8,0:0:0:0:
256,192,221498,1,0,0:0:0:0:
256,192,221561,1,0,0:0:0:0:
256,192,221623,1,0,0:0:0:0:
256,192,221686,1,8,0:0:0:0:
256,192,221811,1,0,0:0:0:0:
256,192,221936,1,8,0:0:0:0:
256,192,221998,1,8,0:0:0:0:
256,192,222061,1,0,0:0:0:0:
256,192,222186,1,8,0:0:0:0:
256,192,222311,1,0,0:0:0:0:
256,192,222436,1,8,0:0:0:0:
256,192,222498,1,0,0:0:0:0:
256,192,222561,1,0,0:0:0:0:
256,192,222686,1,8,0:0:0:0:
256,192,222748,1,8,0:0:0:0:
256,192,222811,1,0,0:0:0:0:
256,192,222936,1,8,0:0:0:0:
256,192,223061,1,0,0:0:0:0:
256,192,223123,1,0,0:0:0:0:
256,192,223186,1,8,0:0:0:0:
256,192,223311,1,0,0:0:0:0:
256,192,223436,1,8,0:0:0:0:
256,192,223561,1,0,0:0:0:0:
256,192,223623,1,0,0:0:0:0:
256,192,223686,1,8,0:0:0:0:
256,192,223748,1,8,0:0:0:0:
256,192,223811,1,0,0:0:0:0:
256,192,223873,1,0,0:0:0:0:
256,192,223936,1,8,0:0:0:0:
256,192,223998,1,0,0:0:0:0:
256,192,224061,1,8,0:0:0:0:
256,192,224123,1,8,0:0:0:0:
256,192,224186,1,0,0:0:0:0:
256,192,224248,1,0,0:0:0:0:
256,192,224311,1,0,0:0:0:0:
256,192,224373,1,0,0:0:0:0:
256,192,224436,1,8,0:0:0:0:
256,192,224686,1,12,0:0:0:0:
256,192,224811,1,0,0:0:0:0:
256,192,224873,1,0,0:0:0:0:
256,192,224936,1,8,0:0:0:0:
256,192,225061,1,0,0:0:0:0:
256,192,225186,1,8,0:0:0:0:
256,192,225248,1,0,0:0:0:0:
256,192,225311,1,0,0:0:0:0:
256,192,225436,1,8,0:0:0:0:
256,192,225561,1,0,0:0:0:0:
256,192,225623,1,0,0:0:0:0:
256,192,225686,1,8,0:0:0:0:
256,192,225811,1,0,0:0:0:0:
256,192,225936,1,8,0:0:0:0:
256,192,225998,1,0,0:0:0:0:
256,192,226061,1,8,0:0:0:0:
256,192,226123,1,8,0:0:0:0:
256,192,226186,1,0,0:0:0:0:
256,192,226311,1,0,0:0:0:0:
256,192,226436,1,8,0:0:0:0:
256,192,226498,1,0,0:0:0:0:
256,192,226561,1,0,0:0:0:0:
256,192,226686,1,12,0:0:0:0:
256,192,226936,1,8,0:0:0:0:
256,192,227061,1,0,0:0:0:0:
256,192,227186,1,8,0:0:0:0:
256,192,227248,1,8,0:0:0:0:
256,192,227311,1,0,0:0:0:0:
256,192,227436,1,8,0:0:0:0:
256,192,227561,1,0,0:0:0:0:
256,192,227623,1,0,0:0:0:0:
256,192,227686,1,8,0:0:0:0:
256,192,227811,1,0,0:0:0:0:
256,192,227936,1,8,0:0:0:0:
256,192,227998,1,0,0:0:0:0:
256,192,228061,1,8,0:0:0:0:
256,192,228186,1,8,0:0:0:0:
256,192,228311,1,0,0:0:0:0:
256,192,228436,1,8,0:0:0:0:
256,192,228498,1,8,0:0:0:0:
256,192,228561,1,0,0:0:0:0:
256,192,228623,1,0,0:0:0:0:
256,192,228686,1,8,0:0:0:0:
256,192,228811,1,0,0:0:0:0:
256,192,228936,1,8,0:0:0:0:
256,192,228998,1,8,0:0:0:0:
256,192,229061,1,0,0:0:0:0:
256,192,229186,1,8,0:0:0:0:
256,192,229311,1,0,0:0:0:0:
256,192,229436,1,8,0:0:0:0:
256,192,229498,1,0,0:0:0:0:
256,192,229561,1,0,0:0:0:0:
256,192,229623,1,0,0:0:0:0:
256,192,229686,1,8,0:0:0:0:
256,192,229811,1,0,0:0:0:0:
256,192,229936,1,8,0:0:0:0:
256,192,229998,1,8,0:0:0:0:
256,192,230061,1,0,0:0:0:0:
256,192,230186,1,8,0:0:0:0:
256,192,230311,1,0,0:0:0:0:
256,192,230436,1,8,0:0:0:0:
256,192,230498,1,0,0:0:0:0:
256,192,230561,1,0,0:0:0:0:
256,192,230686,1,8,0:0:0:0:
256,192,230748,1,0,0:0:0:0:
256,192,230811,1,0,0:0:0:0:
256,192,230936,1,8,0:0:0:0:
256,192,231061,1,0,0:0:0:0:
256,192,231123,1,0,0:0:0:0:
256,192,231186,1,8,0:0:0:0:
256,192,231311,1,0,0:0:0:0:
256,192,231436,5,8,0:0:0:0:
256,192,231561,1,0,0:0:0:0:
256,192,231623,1,0,0:0:0:0:
256,192,231686,5,8,0:0:0:0:
256,192,231748,1,8,0:0:0:0:
256,192,231811,1,0,0:0:0:0:
256,192,231873,1,0,0:0:0:0:
256,192,231936,1,8,0:0:0:0:
256,192,232019,1,0,0:0:0:0:
256,192,232102,1,0,0:0:0:0:
256,192,232186,1,8,0:0:0:0:
256,192,232269,1,0,0:0:0:0:
256,192,232352,1,0,0:0:0:0:
256,192,232436,1,8,0:0:0:0:
256,192,232686,1,12,0:0:0:0:
256,192,232811,1,0,0:0:0:0:
256,192,232873,1,0,0:0:0:0:
256,192,232936,1,8,0:0:0:0:
256,192,233061,1,0,0:0:0:0:
256,192,233186,1,8,0:0:0:0:
256,192,233248,1,8,0:0:0:0:
256,192,233311,1,0,0:0:0:0:
256,192,233436,1,8,0:0:0:0:
256,192,233561,1,0,0:0:0:0:
256,192,233686,1,8,0:0:0:0:
256,192,233748,1,8,0:0:0:0:
256,192,233811,1,8,0:0:0:0:
256,192,233873,1,8,0:0:0:0:
256,192,233936,1,0,0:0:0:0:
256,192,233998,1,0,0:0:0:0:
256,192,234061,1,8,0:0:0:0:
256,192,234123,1,0,0:0:0:0:
256,192,234186,1,8,0:0:0:0:
256,192,234311,1,0,0:0:0:0:
256,192,234436,1,8,0:0:0:0:
256,192,234561,1,0,0:0:0:0:
256,192,234686,1,8,0:0:0:0:
256,192,234748,1,8,0:0:0:0:
256,192,234811,1,0,0:0:0:0:
256,192,234873,1,0,0:0:0:0:
256,192,234936,1,8,0:0:0:0:
256,192,235061,1,0,0:0:0:0:
256,192,235186,1,8,0:0:0:0:
256,192,235248,1,8,0:0:0:0:
256,192,235311,1,0,0:0:0:0:
256,192,235436,1,8,0:0:0:0:
256,192,235561,1,0,0:0:0:0:
256,192,235686,1,8,0:0:0:0:
256,192,235748,1,8,0:0:0:0:
256,192,235811,1,8,0:0:0:0:
256,192,235873,1,8,0:0:0:0:
256,192,235936,1,0,0:0:0:0:
256,192,235998,1,0,0:0:0:0:
256,192,236061,1,8,0:0:0:0:
256,192,236123,1,8,0:0:0:0:
256,192,236186,1,8,0:0:0:0:
256,192,236248,1,8,0:0:0:0:
256,192,236311,1,0,0:0:0:0:
256,192,236436,1,8,0:0:0:0:
256,192,236561,1,0,0:0:0:0:
256,192,236686,5,8,0:0:0:0:
256,192,236748,1,8,0:0:0:0:
256,192,236811,1,8,0:0:0:0:
256,192,236873,1,8,0:0:0:0:
256,192,236936,1,0,0:0:0:0:
256,192,236998,1,0,0:0:0:0:
256,192,237061,1,8,0:0:0:0:
256,192,237123,1,8,0:0:0:0:
256,192,237186,1,0,0:0:0:0:
256,192,237248,1,0,0:0:0:0:
256,192,237311,1,0,0:0:0:0:
256,192,237373,1,0,0:0:0:0:
256,192,237436,1,8,0:0:0:0:
256,192,237561,1,0,0:0:0:0:
256,192,237686,1,8,0:0:0:0:
256,192,237748,1,8,0:0:0:0:
256,192,237811,1,0,0:0:0:0:
256,192,237936,1,8,0:0:0:0:
256,192,238061,1,0,0:0:0:0:
256,192,238186,5,8,0:0:0:0:
256,192,238248,1,8,0:0:0:0:
256,192,238311,1,0,0:0:0:0:
256,192,238436,1,8,0:0:0:0:
256,192,238561,1,0,0:0:0:0:
256,192,238686,1,8,0:0:0:0:
256,192,238748,1,8,0:0:0:0:
256,192,238811,1,8,0:0:0:0:
256,192,238873,1,8,0:0:0:0:
256,192,238936,1,0,0:0:0:0:
256,192,238998,1,0,0:0:0:0:
256,192,239061,1,8,0:0:0:0:
256,192,239123,1,0,0:0:0:0:
256,192,239186,1,8,0:0:0:0:
256,192,239311,1,0,0:0:0:0:
256,192,239436,1,8,0:0:0:0:
256,192,239498,1,0,0:0:0:0:
256,192,239561,1,0,0:0:0:0:
256,192,239623,1,0,0:0:0:0:
256,192,239686,1,8,0:0:0:0:
256,192,239811,1,0,0:0:0:0:
256,192,239936,1,8,0:0:0:0:
256,192,239998,1,8,0:0:0:0:
256,192,240061,1,0,0:0:0:0:
256,192,240123,1,8,0:0:0:0:
256,192,240186,1,0,0:0:0:0:
256,192,240248,1,0,0:0:0:0:
256,192,240311,1,8,0:0:0:0:
256,192,240373,1,0,0:0:0:0:
256,192,240436,1,8,0:0:0:0:
256,192,240561,1,0,0:0:0:0:
256,192,240686,1,12,0:0:0:0:
256,192,240811,1,0,0:0:0:0:
256,192,240936,1,8,0:0:0:0:
256,192,240998,1,8,0:0:0:0:
256,192,241061,1,0,0:0:0:0:
256,192,241186,1,8,0:0:0:0:
256,192,241248,1,8,0:0:0:0:
256,192,241311,1,0,0:0:0:0:
256,192,241436,1,8,0:0:0:0:
256,192,241561,1,0,0:0:0:0:
256,192,241686,1,8,0:0:0:0:
256,192,241748,1,8,0:0:0:0:
256,192,241811,1,8,0:0:0:0:
256,192,241873,1,8,0:0:0:0:
256,192,241936,1,0,0:0:0:0:
256,192,241998,1,0,0:0:0:0:
256,192,242061,1,8,0:0:0:0:
256,192,242123,1,0,0:0:0:0:
256,192,242186,1,8,0:0:0:0:
256,192,242311,1,0,0:0:0:0:
256,192,242436,1,8,0:0:0:0:
256,192,242498,1,8,0:0:0:0:
256,192,242561,1,0,0:0:0:0:
256,192,242686,1,8,0:0:0:0:
256,192,242748,1,8,0:0:0:0:
256,192,242811,1,0,0:0:0:0:
256,192,242936,1,8,0:0:0:0:
256,192,243061,1,0,0:0:0:0:
256,192,243123,1,0,0:0:0:0:
256,192,243186,1,8,0:0:0:0:
256,192,243248,1,8,0:0:0:0:
256,192,243311,1,0,0:0:0:0:
256,192,243436,1,8,0:0:0:0:
256,192,243561,1,0,0:0:0:0:
256,192,243686,5,8,0:0:0:0:
256,192,243748,1,8,0:0:0:0:
256,192,243811,1,8,0:0:0:0:
256,192,243873,1,8,0:0:0:0:
256,192,243936,1,0,0:0:0:0:
256,192,243998,1,8,0:0:0:0:
256,192,244061,1,0,0:0:0:0:
256,192,244123,1,0,0:0:0:0:
256,192,244186,1,8,0:0:0:0:
256,192,244248,1,8,0:0:0:0:
256,192,244311,1,0,0:0:0:0:
256,192,244436,1,8,0:0:0:0:
256,192,244561,1,0,0:0:0:0:
256,192,244686,1,8,0:0:0:0:
256,192,244748,1,8,0:0:0:0:
256,192,244811,1,8,0:0:0:0:
256,192,244873,1,8,0:0:0:0:
256,192,244936,1,0,0:0:0:0:
256,192,244998,1,0,0:0:0:0:
256,192,245061,1,0,0:0:0:0:
256,192,245123,1,0,0:0:0:0:
256,192,245186,1,8,0:0:0:0:
256,192,245248,1,8,0:0:0:0:
256,192,245311,1,0,0:0:0:0:
256,192,245373,1,0,0:0:0:0:
256,192,245436,1,8,0:0:0:0:
256,192,245498,1,8,0:0:0:0:
256,192,245561,1,0,0:0:0:0:
256,192,245686,1,8,0:0:0:0:
256,192,245748,1,8,0:0:0:0:
256,192,245811,1,8,0:0:0:0:
256,192,245873,1,8,0:0:0:0:
256,192,245936,1,0,0:0:0:0:
256,192,245998,1,0,0:0:0:0:
256,192,246061,1,8,0:0:0:0:
256,192,246123,1,0,0:0:0:0:
256,192,246186,1,8,0:0:0:0:
256,192,246248,1,8,0:0:0:0:
256,192,246311,1,0,0:0:0:0:
256,192,246373,1,0,0:0:0:0:
256,192,246436,1,8,0:0:0:0:
256,192,246498,1,8,0:0:0:0:
256,192,246561,1,0,0:0:0:0:
256,192,246686,1,8,0:0:0:0:
256,192,246727,1,8,0:0:0:0:
256,192,246769,1,8,0:0:0:0:
256,192,246811,1,0,0:0:0:0:
256,192,246873,1,0,0:0:0:0:
256,192,246936,1,8,0:0:0:0:
256,192,247061,1,0,0:0:0:0:
256,192,247123,1,0,0:0:0:0:
256,192,247186,1,8,0:0:0:0:
256,192,247311,1,0,0:0:0:0:
256,192,247373,1,0,0:0:0:0:
256,192,247436,1,8,0:0:0:0:
256,192,247561,1,0,0:0:0:0:
256,192,247686,1,12,0:0:0:0:
256,192,247811,1,0,0:0:0:0:
256,192,247873,1,0,0:0:0:0:
256,192,247936,1,8,0:0:0:0:
256,192,247998,1,8,0:0:0:0:
256,192,248061,1,8,0:0:0:0:
256,192,248123,1,8,0:0:0:0:
256,192,248186,1,0,0:0:0:0:
256,192,248248,1,0,0:0:0:0:
256,192,248311,1,8,0:0:0:0:
256,192,248373,1,0,0:0:0:0:
256,192,248436,1,8,0:0:0:0:
256,192,248498,1,8,0:0:0:0:
256,192,248561,1,0,0:0:0:0:
256,192,248623,1,0,0:0:0:0:
256,192,248686,1,8,0:0:0:0:
256,192,249061,1,0,0:0:0:0:
256,192,249436,1,0,0:0:0:0:
256,192,250686,1,8,0:0:0:0:
256,192,251061,1,0,0:0:0:0:
256,192,251186,1,8,0:0:0:0:
256,192,251686,1,8,0:0:0:0:
256,192,251811,1,0,0:0:0:0:
256,192,252061,1,0,0:0:0:0:
256,192,252186,1,8,0:0:0:0:
256,192,252311,1,8,0:0:0:0:
256,192,252686,1,0,0:0:0:0:
256,192,253061,1,0,0:0:0:0:
256,192,253186,1,8,0:0:0:0:
256,192,253436,1,0,0:0:0:0:
256,192,253686,1,8,0:0:0:0:
256,192,253811,1,0,0:0:0:0:
256,192,254186,1,0,0:0:0:0:
256,192,254561,1,8,0:0:0:0:
256,192,254936,1,0,0:0:0:0:
256,192,255311,1,0,0:0:0:0:
256,192,255686,1,8,0:0:0:0:
256,192,256061,1,0,0:0:0:0:
256,192,256561,1,0,0:0:0:0:
256,192,256686,1,12,0:0:0:0:
256,192,257186,1,8,0:0:0:0:
256,192,257436,1,0,0:0:0:0:
256,192,257498,1,0,0:0:0:0:
256,192,257561,1,0,0:0:0:0:
256,192,257686,1,8,0:0:0:0:
256,192,257811,1,8,0:0:0:0:
256,192,257873,1,8,0:0:0:0:
256,192,257936,1,0,0:0:0:0:
256,192,258186,1,8,0:0:0:0:
256,192,258311,1,8,0:0:0:0:
256,192,258436,1,0,0:0:0:0:
256,192,258561,1,0,0:0:0:0:
256,192,258623,1,0,0:0:0:0:
256,192,258686,1,8,0:0:0:0:
256,192,258811,1,0,0:0:0:0:
256,192,259061,1,0,0:0:0:0:
256,192,259186,1,8,0:0:0:0:
256,192,259311,1,0,0:0:0:0:
256,192,259436,1,8,0:0:0:0:
256,192,259561,1,0,0:0:0:0:
256,192,259686,1,8,0:0:0:0:
256,192,259811,1,8,0:0:0:0:
256,192,259936,1,0,0:0:0:0:
256,192,260061,1,8,0:0:0:0:
256,192,260186,1,8,0:0:0:0:
256,192,260311,1,8,0:0:0:0:
256,192,260686,1,0,0:0:0:0:
256,192,260748,1,0,0:0:0:0:
256,192,260811,1,0,0:0:0:0:
256,192,261186,1,8,0:0:0:0:
256,192,261436,1,0,0:0:0:0:
256,192,261498,1,0,0:0:0:0:
256,192,261561,1,8,0:0:0:0:
256,192,261686,1,0,0:0:0:0:
256,192,261811,1,0,0:0:0:0:
256,192,261873,1,0,0:0:0:0:
256,192,261936,1,8,0:0:0:0:
256,192,262186,1,8,0:0:0:0:
256,192,262311,1,8,0:0:0:0:
256,192,262436,1,0,0:0:0:0:
256,192,262561,1,0,0:0:0:0:
256,192,262623,1,0,0:0:0:0:
256,192,262686,1,8,0:0:0:0:
256,192,262811,1,0,0:0:0:0:
256,192,262936,1,8,0:0:0:0:
256,192,263061,1,0,0:0:0:0:
256,192,263186,1,8,0:0:0:0:
256,192,263311,1,8,0:0:0:0:
256,192,263436,1,8,0:0:0:0:
256,192,263561,1,0,0:0:0:0:
256,192,263686,1,8,0:0:0:0:
256,192,263811,1,8,0:0:0:0:
256,192,263936,1,0,0:0:0:0:
256,192,264061,1,0,0:0:0:0:
256,192,264186,1,8,0:0:0:0:
256,192,264311,1,8,0:0:0:0:
256,192,264373,1,8,0:0:0:0:
256,192,264436,1,8,0:0:0:0:
256,192,264498,1,8,0:0:0:0:
256,192,264561,1,0,0:0:0:0:
256,192,264686,1,4,0:0:0:0:
256,192,264936,1,8,0:0:0:0:
256,192,265186,1,0,0:0:0:0:
256,192,265311,1,0,0:0:0:0:
256,192,265436,1,8,0:0:0:0:
256,192,265498,1,8,0:0:0:0:
256,192,265561,1,0,0:0:0:0:
256,192,265686,1,8,0:0:0:0:
256,192,265811,1,8,0:0:0:0:
256,192,265873,1,8,0:0:0:0:
256,192,265936,1,0,0:0:0:0:
256,192,266186,1,8,0:0:0:0:
256,192,266311,1,0,0:0:0:0:
256,192,266436,1,8,0:0:0:0:
256,192,266686,1,0,0:0:0:0:
256,192,266936,1,8,0:0:0:0:
256,192,267061,1,8,0:0:0:0:
256,192,267186,1,0,0:0:0:0:
256,192,267311,1,0,0:0:0:0:
256,192,267436,1,8,0:0:0:0:
256,192,267686,1,0,0:0:0:0:
256,192,267936,1,8,0:0:0:0:
256,192,268061,1,0,0:0:0:0:
256,192,268186,1,0,0:0:0:0:
256,192,268311,1,0,0:0:0:0:
256,192,268436,1,8,0:0:0:0:
256,192,268686,1,4,0:0:0:0:
256,192,268936,1,8,0:0:0:0:
256,192,269186,1,0,0:0:0:0:
256,192,269311,1,0,0:0:0:0:
256,192,269436,1,0,0:0:0:0:
256,192,269498,1,0,0:0:0:0:
256,192,269561,1,8,0:0:0:0:
256,192,269686,1,0,0:0:0:0:
256,192,269811,1,0,0:0:0:0:
256,192,269873,1,0,0:0:0:0:
256,192,269936,1,8,0:0:0:0:
256,192,270186,1,0,0:0:0:0:
256,192,270311,1,0,0:0:0:0:
256,192,270436,1,8,0:0:0:0:
256,192,270498,1,8,0:0:0:0:
256,192,270561,1,0,0:0:0:0:
256,192,270686,1,8,0:0:0:0:
256,192,270811,1,0,0:0:0:0:
256,192,270936,1,8,0:0:0:0:
256,192,271061,1,0,0:0:0:0:
256,192,271186,1,8,0:0:0:0:
256,192,271311,1,0,0:0:0:0:
256,192,271436,1,8,0:0:0:0:
256,192,271498,1,8,0:0:0:0:
256,192,271561,1,0,0:0:0:0:
256,192,271686,1,8,0:0:0:0:
256,192,271811,1,0,0:0:0:0:
256,192,271936,1,8,0:0:0:0:
256,192,271998,1,8,0:0:0:0:
256,192,272061,1,8,0:0:0:0:
256,192,272123,1,8,0:0:0:0:
256,192,272186,1,0,0:0:0:0:
256,192,272311,2,0,L|256:144,4,33.2499991121292
256,192,272686,1,12,0:0:0:0:
256,192,272811,1,0,0:0:0:0:
256,192,272936,1,0,0:0:0:0:
256,192,273061,1,0,0:0:0:0:
256,192,273186,1,8,0:0:0:0:
256,192,273311,1,0,0:0:0:0:
256,192,273373,1,0,0:0:0:0:
256,192,273436,1,8,0:0:0:0:
256,192,273561,1,0,0:0:0:0:
256,192,273686,1,8,0:0:0:0:
256,192,273811,1,0,0:0:0:0:
256,192,273873,1,0,0:0:0:0:
256,192,273936,1,8,0:0:0:0:
256,192,273998,1,8,0:0:0:0:
256,192,274061,1,0,0:0:0:0:
256,192,274186,1,8,0:0:0:0:
256,192,274311,1,0,0:0:0:0:
256,192,274436,1,0,0:0:0:0:
256,192,274498,1,0,0:0:0:0:
256,192,274561,1,8,0:0:0:0:
256,192,274686,1,8,0:0:0:0:
256,192,274811,1,0,0:0:0:0:
256,192,274873,1,8,0:0:0:0:
256,192,274936,1,8,0:0:0:0:
256,192,274998,1,0,0:0:0:0:
256,192,275061,1,8,0:0:0:0:
256,192,275186,1,0,0:0:0:0:
256,192,275311,1,8,0:0:0:0:
256,192,275436,1,8,0:0:0:0:
256,192,275561,1,0,0:0:0:0:
256,192,275686,1,8,0:0:0:0:
256,192,275748,1,8,0:0:0:0:
256,192,275811,1,8,0:0:0:0:
256,192,275873,1,8,0:0:0:0:
256,192,275936,1,0,0:0:0:0:
256,192,276061,1,0,0:0:0:0:
256,192,276186,1,8,0:0:0:0:
256,192,276311,1,0,0:0:0:0:
256,192,276373,1,0,0:0:0:0:
256,192,276436,1,8,0:0:0:0:
256,192,276561,1,0,0:0:0:0:
256,192,276686,1,8,0:0:0:0:
256,192,276936,1,8,0:0:0:0:
256,192,277061,1,0,0:0:0:0:
256,192,277123,1,0,0:0:0:0:
256,192,277186,1,0,0:0:0:0:
256,192,277248,1,0,0:0:0:0:
256,192,277311,1,8,0:0:0:0:
256,192,277436,1,8,0:0:0:0:
256,192,277561,1,8,0:0:0:0:
256,192,277686,1,4,0:0:0:0:
256,192,277936,1,0,0:0:0:0:
256,192,278061,1,8,0:0:0:0:
256,192,278186,1,0,0:0:0:0:
256,192,278311,1,8,0:0:0:0:
256,192,278373,1,8,0:0:0:0:
256,192,278436,1,8,0:0:0:0:
256,192,278498,1,8,0:0:0:0:
256,192,278561,1,0,0:0:0:0:
256,192,278686,1,8,0:0:0:0:
256,192,278936,1,0,0:0:0:0:
256,192,279061,1,8,0:0:0:0:
256,192,279123,1,8,0:0:0:0:
256,192,279186,1,0,0:0:0:0:
256,192,279311,1,0,0:0:0:0:
256,192,279373,1,0,0:0:0:0:
256,192,279436,1,8,0:0:0:0:
256,192,279561,1,0,0:0:0:0:
256,192,279686,1,12,0:0:0:0:
256,192,279936,1,0,0:0:0:0:
256,192,280019,1,0,0:0:0:0:
256,192,280102,1,0,0:0:0:0:
256,192,280186,1,8,0:0:0:0:
256,192,280311,1,0,0:0:0:0:
256,192,280436,1,12,0:0:0:0:
256,192,280561,1,0,0:0:0:0:
256,192,280686,1,4,0:0:0:0:
256,192,280936,1,8,0:0:0:0:
256,192,281186,1,0,0:0:0:0:
256,192,281311,1,0,0:0:0:0:
256,192,281436,1,8,0:0:0:0:
256,192,281498,1,8,0:0:0:0:
256,192,281561,1,0,0:0:0:0:
256,192,281686,5,8,0:0:0:0:
256,192,281811,1,0,0:0:0:0:
256,192,281873,1,0,0:0:0:0:
256,192,281936,1,8,0:0:0:0:
256,192,282061,1,0,0:0:0:0:
256,192,282186,1,8,0:0:0:0:
256,192,282248,1,8,0:0:0:0:
256,192,282311,1,0,0:0:0:0:
256,192,282436,1,8,0:0:0:0:
256,192,282561,1,0,0:0:0:0:
256,192,282623,1,0,0:0:0:0:
256,192,282686,1,8,0:0:0:0:
256,192,282811,1,0,0:0:0:0:
256,192,282936,1,8,0:0:0:0:
256,192,282998,1,0,0:0:0:0:
256,192,283061,1,0,0:0:0:0:
256,192,283186,1,8,0:0:0:0:
256,192,283311,1,0,0:0:0:0:
256,192,283373,1,8,0:0:0:0:
256,192,283436,1,8,0:0:0:0:
256,192,283561,1,0,0:0:0:0:
256,192,283686,1,8,0:0:0:0:
256,192,283748,1,0,0:0:0:0:
256,192,283811,1,0,0:0:0:0:
256,192,283936,1,8,0:0:0:0:
256,192,284061,1,0,0:0:0:0:
256,192,284186,1,8,0:0:0:0:
256,192,284311,1,0,0:0:0:0:
256,192,284373,1,0,0:0:0:0:
256,192,284436,1,8,0:0:0:0:
256,192,284561,1,0,0:0:0:0:
256,192,284623,1,0,0:0:0:0:
256,192,284686,1,8,0:0:0:0:
256,192,284936,1,8,0:0:0:0:
256,192,285061,1,0,0:0:0:0:
256,192,285186,1,8,0:0:0:0:
256,192,285248,1,8,0:0:0:0:
256,192,285311,1,0,0:0:0:0:
256,192,285436,1,8,0:0:0:0:
256,192,285498,1,0,0:0:0:0:
256,192,285561,1,0,0:0:0:0:
256,192,285623,1,0,0:0:0:0:
256,192,285686,1,8,0:0:0:0:
256,192,285811,1,0,0:0:0:0:
256,192,285936,1,8,0:0:0:0:
256,192,285998,1,8,0:0:0:0:
256,192,286061,1,0,0:0:0:0:
256,192,286123,1,0,0:0:0:0:
256,192,286186,1,8,0:0:0:0:
256,192,286248,1,0,0:0:0:0:
256,192,286311,1,8,0:0:0:0:
256,192,286436,1,0,0:0:0:0:
256,192,286498,1,0,0:0:0:0:
256,192,286561,1,0,0:0:0:0:
256,192,286623,1,0,0:0:0:0:
256,192,286686,1,8,0:0:0:0:
256,192,286811,1,0,0:0:0:0:
256,192,286873,1,0,0:0:0:0:
256,192,286936,1,8,0:0:0:0:
256,192,286998,1,8,0:0:0:0:
256,192,287061,1,8,0:0:0:0:
256,192,287186,1,8,0:0:0:0:
256,192,287311,1,8,0:0:0:0:
256,192,287373,1,8,0:0:0:0:
256,192,287436,1,0,0:0:0:0:
256,192,287498,1,0,0:0:0:0:
256,192,287561,1,8,0:0:0:0:
256,192,287623,1,0,0:0:0:0:
256,192,287686,1,8,0:0:0:0:
256,192,287748,1,8,0:0:0:0:
256,192,287811,1,0,0:0:0:0:
256,192,287873,1,0,0:0:0:0:
256,192,287936,1,8,0:0:0:0:
256,192,287998,1,0,0:0:0:0:
256,192,288061,1,8,0:0:0:0:
256,192,288123,1,8,0:0:0:0:
256,192,288186,1,0,0:0:0:0:
256,192,288248,1,0,0:0:0:0:
256,192,288311,1,0,0:0:0:0:
256,192,288373,1,0,0:0:0:0:
256,192,288436,1,8,0:0:0:0:
256,192,288498,1,8,0:0:0:0:
256,192,288561,1,8,0:0:0:0:
256,192,288686,5,4,0:0:0:0:
256,192,289311,1,0,0:0:0:0:
256,192,289811,1,0,0:0:0:0:
256,192,290686,1,8,0:0:0:0:
256,192,290936,1,0,0:0:0:0:
256,192,291061,1,8,0:0:0:0:
256,192,291311,1,0,0:0:0:0:
256,192,291561,1,8,0:0:0:0:
256,192,291811,1,0,0:0:0:0:
256,192,292061,1,0,0:0:0:0:
256,192,292186,1,8,0:0:0:0:
256,192,292686,1,8,0:0:0:0:
256,192,292936,1,0,0:0:0:0:
256,192,293061,1,8,0:0:0:0:
256,192,293311,1,0,0:0:0:0:
256,192,293561,1,8,0:0:0:0:
256,192,293686,1,8,0:0:0:0:
256,192,293811,1,0,0:0:0:0:
256,192,294061,1,0,0:0:0:0:
256,192,294186,1,8,0:0:0:0:
256,192,294686,1,8,0:0:0:0:
256,192,294936,1,0,0:0:0:0:
256,192,295061,1,8,0:0:0:0:
256,192,295311,1,0,0:0:0:0:
256,192,295561,1,8,0:0:0:0:
256,192,295686,1,0,0:0:0:0:
256,192,295936,1,0,0:0:0:0:
256,192,296186,1,0,0:0:0:0:
256,192,296311,1,8,0:0:0:0:
256,192,296686,5,12,0:0:0:0:
256,192,296811,1,0,0:0:0:0:
256,192,296936,1,8,0:0:0:0:
256,192,297061,1,0,0:0:0:0:
256,192,297186,1,8,0:0:0:0:
256,192,297436,1,8,0:0:0:0:
256,192,297561,1,0,0:0:0:0:
256,192,297686,1,8,0:0:0:0:
256,192,297936,1,8,0:0:0:0:
256,192,298186,1,8,0:0:0:0:
256,192,298436,1,8,0:0:0:0:
256,192,298686,1,8,0:0:0:0:
256,192,298811,1,0,0:0:0:0:
256,192,298936,1,8,0:0:0:0:
256,192,299186,1,8,0:0:0:0:
256,192,299311,1,0,0:0:0:0:
256,192,299436,1,8,0:0:0:0:
256,192,299561,1,0,0:0:0:0:
256,192,299686,1,8,0:0:0:0:
256,192,299936,1,8,0:0:0:0:
256,192,300186,5,8,0:0:0:0:
256,192,300436,1,8,0:0:0:0:
256,192,300686,1,12,0:0:0:0:
256,192,301061,1,0,0:0:0:0:
256,192,301186,1,0,0:0:0:0:
256,192,301311,1,0,0:0:0:0:
256,192,301436,1,0,0:0:0:0:
256,192,301561,1,0,0:0:0:0:
256,192,301686,1,0,0:0:0:0:
256,192,301811,1,0,0:0:0:0:
256,192,301936,1,0,0:0:0:0:
256,192,302061,1,0,0:0:0:0:
256,192,302186,1,8,0:0:0:0:
256,192,302311,1,0,0:0:0:0:
256,192,302373,1,0,0:0:0:0:
256,192,302436,1,0,0:0:0:0:
256,192,302498,1,0,0:0:0:0:
256,192,302561,1,0,0:0:0:0:
256,192,302623,1,0,0:0:0:0:
256,192,302686,1,8,0:0:0:0:
256,192,303686,2,0,L|256:160,14,31.4999990386963
256,192,304686,5,12,0:0:0:0:
256,192,305686,1,4,0:0:0:0:
256,192,306061,1,4,0:0:0:0:
256,192,306436,1,4,0:0:0:0:
256,192,306686,1,12,0:0:0:0:
256,192,307186,1,8,0:0:0:0:
256,192,307686,1,8,0:0:0:0:
256,192,307936,1,0,0:0:0:0:
256,192,307998,1,0,0:0:0:0:
256,192,308061,1,0,0:0:0:0:
256,192,308123,1,0,0:0:0:0:
256,192,308186,1,8,0:0:0:0:
256,192,308311,1,0,0:0:0:0:
256,192,308436,1,8,0:0:0:0:
256,192,308498,1,8,0:0:0:0:
256,192,308561,1,0,0:0:0:0:
256,192,308686,1,12,0:0:0:0:
256,192,308811,1,0,0:0:0:0:
256,192,308936,1,8,0:0:0:0:
256,192,308998,1,8,0:0:0:0:
256,192,309061,1,0,0:0:0:0:
256,192,309186,1,8,0:0:0:0:
256,192,309311,1,0,0:0:0:0:
256,192,309436,1,8,0:0:0:0:
256,192,309498,1,0,0:0:0:0:
256,192,309561,1,0,0:0:0:0:
256,192,309623,1,0,0:0:0:0:
256,192,309686,1,8,0:0:0:0:
256,192,309811,1,0,0:0:0:0:
256,192,309936,1,8,0:0:0:0:
256,192,309998,1,8,0:0:0:0:
256,192,310061,1,0,0:0:0:0:
256,192,310186,1,8,0:0:0:0:
256,192,310311,1,0,0:0:0:0:
256,192,310436,1,8,0:0:0:0:
256,192,310498,1,0,0:0:0:0:
256,192,310561,1,0,0:0:0:0:
256,192,310686,1,8,0:0:0:0:
256,192,310748,1,0,0:0:0:0:
256,192,310811,1,0,0:0:0:0:
256,192,310936,1,8,0:0:0:0:
256,192,311061,1,0,0:0:0:0:
256,192,311123,1,0,0:0:0:0:
256,192,311186,1,8,0:0:0:0:
256,192,311311,1,0,0:0:0:0:
256,192,311436,1,8,0:0:0:0:
256,192,311561,1,0,0:0:0:0:
256,192,311623,1,0,0:0:0:0:
256,192,311686,1,8,0:0:0:0:
256,192,311748,1,8,0:0:0:0:
256,192,311811,1,8,0:0:0:0:
256,192,311873,1,8,0:0:0:0:
256,192,311936,1,0,0:0:0:0:
256,192,311998,1,0,0:0:0:0:
256,192,312061,1,8,0:0:0:0:
256,192,312123,1,8,0:0:0:0:
256,192,312186,1,0,0:0:0:0:
256,192,312248,1,0,0:0:0:0:
256,192,312311,1,0,0:0:0:0:
256,192,312373,1,0,0:0:0:0:
256,192,312436,1,8,0:0:0:0:
256,192,312686,1,12,0:0:0:0:
256,192,312811,1,0,0:0:0:0:
256,192,312873,1,0,0:0:0:0:
256,192,312936,1,8,0:0:0:0:
256,192,313061,1,0,0:0:0:0:
256,192,313186,1,8,0:0:0:0:
256,192,313248,1,0,0:0:0:0:
256,192,313373,1,0,0:0:0:0:
256,192,313436,1,8,0:0:0:0:
256,192,313561,1,0,0:0:0:0:
256,192,313623,1,0,0:0:0:0:
256,192,313686,1,8,0:0:0:0:
256,192,313811,1,0,0:0:0:0:
256,192,313936,1,8,0:0:0:0:
256,192,313998,1,0,0:0:0:0:
256,192,314061,1,8,0:0:0:0:
256,192,314123,1,8,0:0:0:0:
256,192,314186,1,0,0:0:0:0:
256,192,314311,1,0,0:0:0:0:
256,192,314436,1,8,0:0:0:0:
256,192,314498,1,0,0:0:0:0:
256,192,314561,1,0,0:0:0:0:
256,192,314686,1,12,0:0:0:0:
256,192,314936,1,8,0:0:0:0:
256,192,315061,1,0,0:0:0:0:
256,192,315186,1,8,0:0:0:0:
256,192,315248,1,8,0:0:0:0:
256,192,315311,1,0,0:0:0:0:
256,192,315436,1,8,0:0:0:0:
256,192,315561,1,0,0:0:0:0:
256,192,315623,1,0,0:0:0:0:
256,192,315686,1,8,0:0:0:0:
256,192,315811,1,0,0:0:0:0:
256,192,315936,1,8,0:0:0:0:
256,192,315998,1,0,0:0:0:0:
256,192,316061,1,8,0:0:0:0:
256,192,316186,1,8,0:0:0:0:
256,192,316311,1,0,0:0:0:0:
256,192,316436,1,8,0:0:0:0:
256,192,316498,1,8,0:0:0:0:
256,192,316561,1,0,0:0:0:0:
256,192,316623,1,0,0:0:0:0:
256,192,316686,1,8,0:0:0:0:
256,192,316811,1,0,0:0:0:0:
256,192,316936,1,8,0:0:0:0:
256,192,316998,1,8,0:0:0:0:
256,192,317061,1,0,0:0:0:0:
256,192,317186,1,8,0:0:0:0:
256,192,317311,1,0,0:0:0:0:
256,192,317436,1,8,0:0:0:0:
256,192,317498,1,0,0:0:0:0:
256,192,317561,1,0,0:0:0:0:
256,192,317623,1,0,0:0:0:0:
256,192,317686,1,8,0:0:0:0:
256,192,317811,1,0,0:0:0:0:
256,192,317936,1,8,0:0:0:0:
256,192,317998,1,8,0:0:0:0:
256,192,318061,1,0,0:0:0:0:
256,192,318186,1,8,0:0:0:0:
256,192,318311,1,0,0:0:0:0:
256,192,318373,1,0,0:0:0:0:
256,192,318436,1,8,0:0:0:0:
256,192,318561,1,0,0:0:0:0:
256,192,318686,1,8,0:0:0:0:
256,192,318748,1,0,0:0:0:0:
256,192,318811,1,0,0:0:0:0:
256,192,318936,1,8,0:0:0:0:
256,192,318998,1,0,0:0:0:0:
256,192,319061,1,0,0:0:0:0:
256,192,319186,1,8,0:0:0:0:
256,192,319248,1,0,0:0:0:0:
256,192,319311,1,0,0:0:0:0:
256,192,319436,5,8,0:0:0:0:
256,192,319561,1,0,0:0:0:0:
256,192,319623,1,0,0:0:0:0:
256,192,319686,5,8,0:0:0:0:
256,192,319748,1,8,0:0:0:0:
256,192,319811,1,0,0:0:0:0:
256,192,319873,1,0,0:0:0:0:
256,192,319936,1,8,0:0:0:0:
256,192,320019,1,0,0:0:0:0:
256,192,320102,1,0,0:0:0:0:
256,192,320186,1,8,0:0:0:0:
256,192,320269,1,0,0:0:0:0:
256,192,320352,1,0,0:0:0:0:
256,192,320436,1,8,0:0:0:0:
256,192,320686,1,12,0:0:0:0:
256,192,320936,1,0,0:0:0:0:
256,192,321061,1,0,0:0:0:0:
256,192,321186,1,12,0:0:0:0:
256,192,321436,1,12,0:0:0:0:
256,192,321936,1,0,0:0:0:0:
256,192,321998,1,0,0:0:0:0:
256,192,322061,1,0,0:0:0:0:
256,192,322123,1,0,0:0:0:0:
256,192,322186,1,8,0:0:0:0:
256,192,322311,1,0,0:0:0:0:
256,192,322436,1,0,0:0:0:0:
256,192,322498,1,0,0:0:0:0:
256,192,322561,1,0,0:0:0:0:
256,192,322623,1,0,0:0:0:0:
256,192,322686,1,8,0:0:0:0:
256,192,322936,1,0,0:0:0:0:
256,192,323061,1,12,0:0:0:0:
256,192,323436,1,12,0:0:0:0:
256,192,323686,1,12,0:0:0:0:
256,192,323811,1,0,0:0:0:0:
256,192,323873,1,0,0:0:0:0:
256,192,323936,1,0,0:0:0:0:
256,192,323998,1,0,0:0:0:0:
256,192,324061,1,0,0:0:0:0:
256,192,324123,1,0,0:0:0:0:
256,192,324186,1,8,0:0:0:0:
256,192,324311,1,0,0:0:0:0:
256,192,324436,1,8,0:0:0:0:
256,192,324498,1,8,0:0:0:0:
256,192,324561,1,8,0:0:0:0:
256,192,324623,1,8,0:0:0:0:
256,192,324686,1,0,0:0:0:0:
256,192,324936,1,0,0:0:0:0:
256,192,325061,1,4,0:0:0:0:
256,192,325311,1,0,0:0:0:0:
256,192,325436,1,4,0:0:0:0:
256,192,325686,1,12,0:0:0:0:
256,192,325936,1,0,0:0:0:0:
256,192,325998,1,0,0:0:0:0:
256,192,326061,1,0,0:0:0:0:
256,192,326123,1,0,0:0:0:0:
256,192,326186,1,8,0:0:0:0:
256,192,326311,1,0,0:0:0:0:
256,192,326436,1,8,0:0:0:0:
256,192,326498,1,8,0:0:0:0:
256,192,326561,1,8,0:0:0:0:
256,192,326623,1,8,0:0:0:0:
256,192,326686,1,0,0:0:0:0:
256,192,327061,1,4,0:0:0:0:
256,192,327436,1,12,0:0:0:0:
256,192,327686,1,8,0:0:0:0:
256,192,327811,1,8,0:0:0:0:
256,192,327936,1,0,0:0:0:0:
256,192,328061,1,8,0:0:0:0:
256,192,328123,1,8,0:0:0:0:
256,192,328186,1,8,0:0:0:0:
256,192,328248,1,8,0:0:0:0:
256,192,328311,1,0,0:0:0:0:
256,192,328436,1,8,0:0:0:0:
256,192,328686,5,12,0:0:0:0:
256,192,328811,1,0,0:0:0:0:
256,192,328873,1,0,0:0:0:0:
256,192,328936,1,8,0:0:0:0:
256,192,329061,1,0,0:0:0:0:
256,192,329186,1,8,0:0:0:0:
256,192,329248,1,0,0:0:0:0:
256,192,329311,1,0,0:0:0:0:
256,192,329436,1,8,0:0:0:0:
256,192,329561,1,0,0:0:0:0:
256,192,329623,1,0,0:0:0:0:
256,192,329686,1,8,0:0:0:0:
256,192,329811,1,0,0:0:0:0:
256,192,329936,1,8,0:0:0:0:
256,192,329998,1,0,0:0:0:0:
256,192,330061,1,8,0:0:0:0:
256,192,330123,1,8,0:0:0:0:
256,192,330186,1,0,0:0:0:0:
256,192,330311,1,0,0:0:0:0:
256,192,330436,1,8,0:0:0:0:
256,192,330498,1,0,0:0:0:0:
256,192,330561,1,0,0:0:0:0:
256,192,330686,1,12,0:0:0:0:
256,192,330936,1,8,0:0:0:0:
256,192,331061,1,0,0:0:0:0:
256,192,331186,1,8,0:0:0:0:
256,192,331248,1,8,0:0:0:0:
256,192,331311,1,0,0:0:0:0:
256,192,331436,1,8,0:0:0:0:
256,192,331561,1,0,0:0:0:0:
256,192,331623,1,0,0:0:0:0:
256,192,331686,1,8,0:0:0:0:
256,192,331811,1,0,0:0:0:0:
256,192,331936,1,8,0:0:0:0:
256,192,331998,1,0,0:0:0:0:
256,192,332061,1,8,0:0:0:0:
256,192,332186,1,8,0:0:0:0:
256,192,332311,1,0,0:0:0:0:
256,192,332436,1,8,0:0:0:0:
256,192,332498,1,8,0:0:0:0:
256,192,332561,1,0,0:0:0:0:
256,192,332623,1,0,0:0:0:0:
256,192,332686,1,8,0:0:0:0:
256,192,332811,1,0,0:0:0:0:
256,192,332936,1,8,0:0:0:0:
256,192,332998,1,8,0:0:0:0:
256,192,333061,1,0,0:0:0:0:
256,192,333186,1,8,0:0:0:0:
256,192,333311,1,0,0:0:0:0:
256,192,333436,1,8,0:0:0:0:
256,192,333498,1,0,0:0:0:0:
256,192,333561,1,0,0:0:0:0:
256,192,333623,1,0,0:0:0:0:
256,192,333686,1,8,0:0:0:0:
256,192,333811,1,0,0:0:0:0:
256,192,333936,1,8,0:0:0:0:
256,192,333998,1,8,0:0:0:0:
256,192,334061,1,0,0:0:0:0:
256,192,334186,1,8,0:0:0:0:
256,192,334311,1,0,0:0:0:0:
256,192,334436,1,8,0:0:0:0:
256,192,334498,1,0,0:0:0:0:
256,192,334561,1,0,0:0:0:0:
256,192,334686,1,8,0:0:0:0:
256,192,334748,1,0,0:0:0:0:
256,192,334811,1,0,0:0:0:0:
256,192,334936,1,8,0:0:0:0:
256,192,335061,1,0,0:0:0:0:
256,192,335123,1,0,0:0:0:0:
256,192,335186,1,8,0:0:0:0:
256,192,335311,1,0,0:0:0:0:
256,192,335436,5,8,0:0:0:0:
256,192,335561,1,0,0:0:0:0:
256,192,335623,1,0,0:0:0:0:
256,192,335686,5,8,0:0:0:0:
256,192,335748,1,8,0:0:0:0:
256,192,335811,1,0,0:0:0:0:
256,192,335873,1,0,0:0:0:0:
256,192,335936,1,8,0:0:0:0:
256,192,336019,1,0,0:0:0:0:
256,192,336102,1,0,0:0:0:0:
256,192,336186,1,8,0:0:0:0:
256,192,336269,1,0,0:0:0:0:
256,192,336352,1,0,0:0:0:0:
256,192,336436,1,8,0:0:0:0:
256,192,336686,1,12,0:0:0:0:
256,192,336811,1,0,0:0:0:0:
256,192,336873,1,0,0:0:0:0:
256,192,336936,1,8,0:0:0:0:
256,192,337061,1,0,0:0:0:0:
256,192,337186,1,8,0:0:0:0:
256,192,337248,1,8,0:0:0:0:
256,192,337311,1,0,0:0:0:0:
256,192,337436,1,8,0:0:0:0:
256,192,337561,1,0,0:0:0:0:
256,192,337686,1,8,0:0:0:0:
256,192,337748,1,8,0:0:0:0:
256,192,337811,1,8,0:0:0:0:
256,192,337873,1,8,0:0:0:0:
256,192,337936,1,0,0:0:0:0:
256,192,337998,1,0,0:0:0:0:
256,192,338061,1,8,0:0:0:0:
256,192,338123,1,0,0:0:0:0:
256,192,338186,1,8,0:0:0:0:
256,192,338311,1,0,0:0:0:0:
256,192,338436,1,8,0:0:0:0:
256,192,338561,1,0,0:0:0:0:
256,192,338686,1,8,0:0:0:0:
256,192,338748,1,8,0:0:0:0:
256,192,338811,1,0,0:0:0:0:
256,192,338873,1,0,0:0:0:0:
256,192,338936,1,8,0:0:0:0:
256,192,339061,1,0,0:0:0:0:
256,192,339186,1,8,0:0:0:0:
256,192,339248,1,8,0:0:0:0:
256,192,339311,1,0,0:0:0:0:
256,192,339436,1,8,0:0:0:0:
256,192,339561,1,0,0:0:0:0:
256,192,339686,1,8,0:0:0:0:
256,192,339748,1,8,0:0:0:0:
256,192,339811,1,8,0:0:0:0:
256,192,339873,1,8,0:0:0:0:
256,192,339936,1,0,0:0:0:0:
256,192,339998,1,0,0:0:0:0:
256,192,340061,1,8,0:0:0:0:
256,192,340123,1,8,0:0:0:0:
256,192,340186,1,8,0:0:0:0:
256,192,340248,1,8,0:0:0:0:
256,192,340311,1,0,0:0:0:0:
256,192,340436,1,8,0:0:0:0:
256,192,340561,1,0,0:0:0:0:
256,192,340686,5,8,0:0:0:0:
256,192,340748,1,8,0:0:0:0:
256,192,340811,1,8,0:0:0:0:
256,192,340873,1,8,0:0:0:0:
256,192,340936,1,0,0:0:0:0:
256,192,340998,1,0,0:0:0:0:
256,192,341061,1,8,0:0:0:0:
256,192,341123,1,8,0:0:0:0:
256,192,341186,1,0,0:0:0:0:
256,192,341248,1,0,0:0:0:0:
256,192,341311,1,0,0:0:0:0:
256,192,341373,1,0,0:0:0:0:
256,192,341436,1,8,0:0:0:0:
256,192,341561,1,0,0:0:0:0:
256,192,341686,1,8,0:0:0:0:
256,192,341748,1,8,0:0:0:0:
256,192,341811,1,0,0:0:0:0:
256,192,341936,1,8,0:0:0:0:
256,192,342061,1,0,0:0:0:0:
256,192,342186,5,8,0:0:0:0:
256,192,342248,1,8,0:0:0:0:
256,192,342311,1,0,0:0:0:0:
256,192,342436,1,8,0:0:0:0:
256,192,342561,1,0,0:0:0:0:
256,192,342686,1,8,0:0:0:0:
256,192,342748,1,8,0:0:0:0:
256,192,342811,1,8,0:0:0:0:
256,192,342873,1,8,0:0:0:0:
256,192,342936,1,0,0:0:0:0:
256,192,342998,1,0,0:0:0:0:
256,192,343061,1,8,0:0:0:0:
256,192,343123,1,0,0:0:0:0:
256,192,343186,1,8,0:0:0:0:
256,192,343311,1,0,0:0:0:0:
256,192,343436,1,8,0:0:0:0:
256,192,343498,1,0,0:0:0:0:
256,192,343561,1,0,0:0:0:0:
256,192,343623,1,0,0:0:0:0:
256,192,343686,1,8,0:0:0:0:
256,192,343811,1,0,0:0:0:0:
256,192,343936,1,8,0:0:0:0:
256,192,343998,1,8,0:0:0:0:
256,192,344061,1,0,0:0:0:0:
256,192,344123,1,8,0:0:0:0:
256,192,344186,1,0,0:0:0:0:
256,192,344248,1,0,0:0:0:0:
256,192,344311,1,8,0:0:0:0:
256,192,344373,1,0,0:0:0:0:
256,192,344436,1,8,0:0:0:0:
256,192,344561,1,0,0:0:0:0:
256,192,344686,1,12,0:0:0:0:
256,192,344811,1,0,0:0:0:0:
256,192,344936,1,8,0:0:0:0:
256,192,344998,1,8,0:0:0:0:
256,192,345061,1,0,0:0:0:0:
256,192,345186,1,8,0:0:0:0:
256,192,345248,1,8,0:0:0:0:
256,192,345311,1,0,0:0:0:0:
256,192,345436,1,8,0:0:0:0:
256,192,345561,1,0,0:0:0:0:
256,192,345686,1,8,0:0:0:0:
256,192,345748,1,8,0:0:0:0:
256,192,345811,1,8,0:0:0:0:
256,192,345873,1,8,0:0:0:0:
256,192,345936,1,0,0:0:0:0:
256,192,345998,1,0,0:0:0:0:
256,192,346061,1,8,0:0:0:0:
256,192,346123,1,0,0:0:0:0:
256,192,346186,1,8,0:0:0:0:
256,192,346311,1,0,0:0:0:0:
256,192,346436,1,8,0:0:0:0:
256,192,346498,1,8,0:0:0:0:
256,192,346561,1,0,0:0:0:0:
256,192,346686,1,8,0:0:0:0:
256,192,346748,1,8,0:0:0:0:
256,192,346811,1,0,0:0:0:0:
256,192,346936,1,8,0:0:0:0:
256,192,347061,1,0,0:0:0:0:
256,192,347123,1,0,0:0:0:0:
256,192,347186,1,8,0:0:0:0:
256,192,347248,1,8,0:0:0:0:
256,192,347311,1,0,0:0:0:0:
256,192,347436,1,8,0:0:0:0:
256,192,347561,1,0,0:0:0:0:
256,192,347686,5,8,0:0:0:0:
256,192,347748,1,8,0:0:0:0:
256,192,347811,1,8,0:0:0:0:
256,192,347873,1,8,0:0:0:0:
256,192,347936,1,0,0:0:0:0:
256,192,347998,1,8,0:0:0:0:
256,192,348061,1,0,0:0:0:0:
256,192,348123,1,0,0:0:0:0:
256,192,348186,1,8,0:0:0:0:
256,192,348248,1,8,0:0:0:0:
256,192,348311,1,0,0:0:0:0:
256,192,348436,1,8,0:0:0:0:
256,192,348561,1,0,0:0:0:0:
256,192,348686,1,8,0:0:0:0:
256,192,348748,1,8,0:0:0:0:
256,192,348811,1,8,0:0:0:0:
256,192,348873,1,8,0:0:0:0:
256,192,348936,1,0,0:0:0:0:
256,192,348998,1,0,0:0:0:0:
256,192,349061,1,0,0:0:0:0:
256,192,349123,1,0,0:0:0:0:
256,192,349186,1,8,0:0:0:0:
256,192,349248,1,8,0:0:0:0:
256,192,349311,1,0,0:0:0:0:
256,192,349373,1,0,0:0:0:0:
256,192,349436,1,8,0:0:0:0:
256,192,349498,1,8,0:0:0:0:
256,192,349561,1,0,0:0:0:0:
256,192,349686,1,8,0:0:0:0:
256,192,349748,1,8,0:0:0:0:
256,192,349811,1,8,0:0:0:0:
256,192,349873,1,8,0:0:0:0:
256,192,349936,1,0,0:0:0:0:
256,192,349998,1,0,0:0:0:0:
256,192,350061,1,8,0:0:0:0:
256,192,350123,1,0,0:0:0:0:
256,192,350186,1,8,0:0:0:0:
256,192,350248,1,8,0:0:0:0:
256,192,350311,1,0,0:0:0:0:
256,192,350373,1,0,0:0:0:0:
256,192,350436,1,8,0:0:0:0:
256,192,350498,1,8,0:0:0:0:
256,192,350561,1,0,0:0:0:0:
256,192,350686,1,8,0:0:0:0:
256,192,350727,1,8,0:0:0:0:
256,192,350769,1,8,0:0:0:0:
256,192,350811,1,0,0:0:0:0:
256,192,350873,1,0,0:0:0:0:
256,192,350936,1,8,0:0:0:0:
256,192,351061,1,0,0:0:0:0:
256,192,351123,1,0,0:0:0:0:
256,192,351186,1,8,0:0:0:0:
256,192,351311,1,0,0:0:0:0:
256,192,351373,1,0,0:0:0:0:
256,192,351436,1,8,0:0:0:0:
256,192,351561,1,0,0:0:0:0:
256,192,351686,1,12,0:0:0:0:
256,192,351811,1,0,0:0:0:0:
256,192,351873,1,0,0:0:0:0:
256,192,351936,1,8,0:0:0:0:
256,192,351998,1,8,0:0:0:0:
256,192,352061,1,8,0:0:0:0:
256,192,352123,1,8,0:0:0:0:
256,192,352186,1,0,0:0:0:0:
256,192,352248,1,0,0:0:0:0:
256,192,352311,1,8,0:0:0:0:
256,192,352373,1,0,0:0:0:0:
256,192,352436,1,8,0:0:0:0:
256,192,352498,1,8,0:0:0:0:
256,192,352561,1,0,0:0:0:0:
256,192,352623,1,0,0:0:0:0:
256,192,352686,1,12,0:0:0:0:
256,192,352811,1,0,0:0:0:0:
256,192,352936,1,8,0:0:0:0:
256,192,353061,1,0,0:0:0:0:
256,192,353186,1,8,0:0:0:0:
256,192,353311,1,8,0:0:0:0:
256,192,353436,1,0,0:0:0:0:
256,192,353498,1,0,0:0:0:0:
256,192,353561,1,0,0:0:0:0:
256,192,353623,1,0,0:0:0:0:
256,192,353686,1,8,0:0:0:0:
256,192,353811,1,0,0:0:0:0:
256,192,353936,1,8,0:0:0:0:
256,192,354061,1,0,0:0:0:0:
256,192,354123,1,0,0:0:0:0:
256,192,354186,1,8,0:0:0:0:
256,192,354311,1,0,0:0:0:0:
256,192,354436,1,8,0:0:0:0:
256,192,354561,1,0,0:0:0:0:
256,192,354686,1,8,0:0:0:0:
256,192,354811,1,0,0:0:0:0:
256,192,354873,1,0,0:0:0:0:
256,192,354936,1,8,0:0:0:0:
256,192,355061,1,0,0:0:0:0:
256,192,355123,1,0,0:0:0:0:
256,192,355186,1,8,0:0:0:0:
256,192,355311,1,0,0:0:0:0:
256,192,355436,1,0,0:0:0:0:
256,192,355498,1,0,0:0:0:0:
256,192,355561,1,8,0:0:0:0:
256,192,355623,1,8,0:0:0:0:
256,192,355686,1,8,0:0:0:0:
256,192,355811,1,0,0:0:0:0:
256,192,355936,1,8,0:0:0:0:
256,192,356061,1,0,0:0:0:0:
256,192,356123,1,0,0:0:0:0:
256,192,356186,1,8,0:0:0:0:
256,192,356311,1,0,0:0:0:0:
256,192,356436,1,8,0:0:0:0:
256,192,356498,1,0,0:0:0:0:
256,192,356561,1,8,0:0:0:0:
256,192,356686,1,12,0:0:0:0:
256,192,356936,1,8,0:0:0:0:
256,192,357061,1,0,0:0:0:0:
256,192,357186,1,0,0:0:0:0:
256,192,357311,1,8,0:0:0:0:
256,192,357436,1,0,0:0:0:0:
256,192,357498,1,0,0:0:0:0:
256,192,357561,1,0,0:0:0:0:
256,192,357623,1,0,0:0:0:0:
256,192,357686,1,8,0:0:0:0:
256,192,357811,1,0,0:0:0:0:
256,192,357936,1,8,0:0:0:0:
256,192,357998,1,8,0:0:0:0:
256,192,358061,1,0,0:0:0:0:
256,192,358186,1,8,0:0:0:0:
256,192,358311,1,0,0:0:0:0:
256,192,358373,1,0,0:0:0:0:
256,192,358436,1,8,0:0:0:0:
256,192,358561,1,0,0:0:0:0:
256,192,358686,1,8,0:0:0:0:
256,192,358748,1,8,0:0:0:0:
256,192,358811,1,8,0:0:0:0:
256,192,358873,1,8,0:0:0:0:
256,192,358936,1,0,0:0:0:0:
256,192,359061,1,0,0:0:0:0:
256,192,359186,1,8,0:0:0:0:
256,192,359311,1,0,0:0:0:0:
256,192,359436,1,8,0:0:0:0:
256,192,359686,1,8,0:0:0:0:
256,192,359811,1,0,0:0:0:0:
256,192,359936,1,0,0:0:0:0:
256,192,360061,1,8,0:0:0:0:
256,192,360186,1,8,0:0:0:0:
256,192,360311,1,0,0:0:0:0:
256,192,360373,1,0,0:0:0:0:
256,192,360436,1,8,0:0:0:0:
256,192,360561,1,0,0:0:0:0:
256,192,360686,1,12,0:0:0:0:
256,192,360936,1,8,0:0:0:0:
256,192,361061,1,0,0:0:0:0:
256,192,361186,1,0,0:0:0:0:
256,192,361311,1,8,0:0:0:0:
256,192,361436,5,0,0:0:0:0:
256,192,361498,1,0,0:0:0:0:
256,192,361561,1,0,0:0:0:0:
256,192,361623,1,0,0:0:0:0:
256,192,361686,1,8,0:0:0:0:
256,192,361811,1,0,0:0:0:0:
256,192,361936,1,8,0:0:0:0:
256,192,361998,1,8,0:0:0:0:
256,192,362061,1,0,0:0:0:0:
256,192,362186,1,8,0:0:0:0:
256,192,362248,1,0,0:0:0:0:
256,192,362311,1,8,0:0:0:0:
256,192,362436,1,0,0:0:0:0:
256,192,362561,1,0,0:0:0:0:
256,192,362686,1,8,0:0:0:0:
256,192,362811,1,0,0:0:0:0:
256,192,362936,1,8,0:0:0:0:
256,192,362998,1,8,0:0:0:0:
256,192,363061,1,0,0:0:0:0:
256,192,363186,1,8,0:0:0:0:
256,192,363311,1,0,0:0:0:0:
256,192,363436,1,8,0:0:0:0:
256,192,363498,1,8,0:0:0:0:
256,192,363561,1,0,0:0:0:0:
256,192,363686,1,8,0:0:0:0:
256,192,363811,1,0,0:0:0:0:
256,192,363936,1,8,0:0:0:0:
256,192,364061,1,0,0:0:0:0:
256,192,364123,1,0,0:0:0:0:
256,192,364186,1,8,0:0:0:0:
256,192,364311,1,0,0:0:0:0:
256,192,364436,1,8,0:0:0:0:
256,192,364561,1,0,0:0:0:0:
256,192,364686,1,8,0:0:0:0:
256,192,364936,1,0,0:0:0:0:
256,192,365061,1,8,0:0:0:0:
256,192,365186,1,0,0:0:0:0:
256,192,365311,1,8,0:0:0:0:
256,192,365436,1,0,0:0:0:0:
256,192,365498,1,0,0:0:0:0:
256,192,365561,1,0,0:0:0:0:
256,192,365623,1,0,0:0:0:0:
256,192,365686,1,8,0:0:0:0:
256,192,365811,5,0,0:0:0:0:
256,192,365936,1,8,0:0:0:0:
256,192,365998,1,8,0:0:0:0:
256,192,366061,1,0,0:0:0:0:
256,192,366186,1,8,0:0:0:0:
256,192,366311,1,0,0:0:0:0:
256,192,366436,1,8,0:0:0:0:
256,192,366498,1,8,0:0:0:0:
256,192,366561,1,0,0:0:0:0:
256,192,366686,1,8,0:0:0:0:
256,192,366936,5,0,0:0:0:0:
256,192,367061,1,0,0:0:0:0:
256,192,367186,1,8,0:0:0:0:
256,192,367311,1,0,0:0:0:0:
256,192,367436,1,12,0:0:0:0:
256,192,367561,1,0,0:0:0:0:
256,192,367686,1,0,0:0:0:0:
256,192,367811,1,8,0:0:0:0:
256,192,367873,1,8,0:0:0:0:
256,192,367936,1,0,0:0:0:0:
256,192,367998,1,0,0:0:0:0:
256,192,368061,1,8,0:0:0:0:
256,192,368123,1,0,0:0:0:0:
256,192,368186,1,8,0:0:0:0:
256,192,368248,1,8,0:0:0:0:
256,192,368311,1,8,0:0:0:0:
256,192,368373,1,8,0:0:0:0:
256,192,368436,1,0,0:0:0:0:
256,192,368498,1,0,0:0:0:0:
256,192,368561,1,8,0:0:0:0:
256,192,368623,1,0,0:0:0:0:
256,192,368686,1,8,0:0:0:0:
