osu file format v14

[General]
AudioFilename: Lost My Way.mp3
AudioLeadIn: 0
PreviewTime: 136712
Countdown: 0
SampleSet: Soft
StackLeniency: 0.6
Mode: 0
LetterboxInBreaks: 0
WidescreenStoryboard: 1

[Editor]
Bookmarks: 56712,72712,79462,83462,88712,91212,104462,111462,115462,120712,123712,128212,131712,136712,139462,142462,144712,147462,150462,153712,155462,159087,163462,168712,175462,179462,184462,191462,195462,200712,203712,208212,211712,216712,219462,222462,224712,227462,230462,233712,235462,239087,243462,248712,256712,288712,291712,296212,299712,304712,307462,310462,312712,315462,318462,320712,323462,326462,328712,331462,334462,337712,339462,343087,347462,352712,368712
DistanceSpacing: 0.8
BeatDivisor: 4
GridSize: 4
TimelineZoom: 2.100001

[Metadata]
Title:Lost My Way
TitleUnicode:Lost My Way
Artist:FELT
ArtistUnicode:FELT
Creator:PEPOTTI
Version:Lost
Source:東方Project
Tags:
BeatmapID:1129438
BeatmapSetID:533101

[Difficulty]
HPDrainRate:5
CircleSize:4
OverallDifficulty:9.4
ApproachRate:9.8
SliderMultiplier:1.8
SliderTickRate:1

[Events]
//Background and Video events
0,0,"seiga NyaNNyaN.jpg",0,0
//Break Periods
2,248912,256233
//Storyboard Layer 0 (Background)
//Storyboard Layer 1 (Fail)
//Storyboard Layer 2 (Pass)
//Storyboard Layer 3 (Foreground)
//Storyboard Sound Samples

[TimingPoints]
712,250,4,2,0,80,1,0
24712,-133.333333333333,4,2,0,80,0,0
87399,-100,4,2,0,80,0,0
87649,-133.333333333333,4,2,0,80,0,0
136712,-100,4,2,0,80,0,1
140399,-83.3333333333333,4,2,0,80,0,1
140649,-100,4,2,0,80,0,1
148399,-83.3333333333333,4,2,0,80,0,1
148649,-100,4,2,0,80,0,1
168712,-133.333333333333,4,2,0,80,0,0
184149,-200,4,2,0,80,0,0
184649,-133.333333333333,4,2,0,80,0,0
200712,-200,4,2,0,80,0,0
211962,-166.666666666667,4,2,0,80,0,0
212212,-142.857142857143,4,2,0,80,0,0
212462,-125,4,2,0,80,0,0
216712,-100,4,2,0,80,0,1
220399,-83.3333333333333,4,2,0,80,0,1
220649,-100,4,2,0,80,0,1
228399,-83.3333333333333,4,2,0,80,0,1
228649,-100,4,2,0,80,0,1
248712,-100,4,2,0,80,0,0

[Colours]
Combo1 : 131,245,171
Combo2 : 150,137,241
Combo3 : 132,202,240
Combo4 : 115,230,242

[HitObjects]
256,192,135712,12,0,136587,0:0:0:0:
68,100,136712,6,0,P|112:84|156:80,1,90
128,296,136962,2,0,P|84:312|40:316,1,90
224,136,137212,2,0,P|268:120|312:116,1,90
464,304,137462,2,0,P|420:320|376:324,1,90
112,204,137712,6,0,P|158:212|198:230,1,90
300,372,137962,1,0,0:0:0:0:
400,228,138087,2,0,L|408:136,1,90
240,32,138337,1,0,0:0:0:0:
240,32,138399,1,0,0:0:0:0:
240,32,138462,1,0,0:0:0:0:
288,200,138587,1,0,0:0:0:0:
60,156,138712,6,0,P|81:101|190:105,1,180
280,280,139087,1,0,0:0:0:0:
136,156,139212,2,0,P|144:200|148:248,1,90
36,356,139462,2,0,L|80:368,1,45
196,320,139587,1,0,0:0:0:0:
196,320,139649,1,0,0:0:0:0:
196,320,139712,2,0,P|240:308|288:304,1,90
476,356,139962,1,0,0:0:0:0:
340,156,140087,2,0,P|415:123|481:182,1,180
388,348,140462,6,0,P|368:296|364:244,1,107.999996704102
392,23,140712,5,0,0:0:0:0:
240,160,140837,1,0,0:0:0:0:
428,120,140962,1,0,0:0:0:0:
193,12,141087,2,0,P|176:56|176:100,1,90
244,292,141337,1,0,0:0:0:0:
348,96,141462,2,0,P|306:80|261:80,1,90
24,159,141712,5,0,0:0:0:0:
184,227,141837,1,0,0:0:0:0:
0,312,141962,1,0,0:0:0:0:
68,84,142087,2,0,P|160:80|208:144,1,180
180,364,142462,1,0,0:0:0:0:
180,364,142524,1,0,0:0:0:0:
180,364,142587,1,0,0:0:0:0:
116,160,142712,5,0,0:0:0:0:
289,208,142837,1,0,0:0:0:0:
243,35,142962,1,0,0:0:0:0:
224,272,143087,5,0,0:0:0:0:
372,140,143212,1,0,0:0:0:0:
164,80,143337,1,0,0:0:0:0:
265,352,143462,5,0,0:0:0:0:
240,124,143587,1,0,0:0:0:0:
480,236,143712,6,0,L|476:183,3,45
380,308,143962,2,0,L|372:355,3,45
368,184,144212,1,0,0:0:0:0:
336,165,144274,1,0,0:0:0:0:
299,158,144337,1,0,0:0:0:0:
262,165,144399,1,0,0:0:0:0:
230,183,144462,1,0,0:0:0:0:
199,201,144524,1,0,0:0:0:0:
161,209,144587,1,0,0:0:0:0:
123,205,144649,1,0,0:0:0:0:
89,188,144712,6,0,P|60:156|44:108,1,90
192,0,144962,2,0,P|221:33|235:76,1,90
92,292,145212,2,0,P|45:283|-1:261,1,90
300,252,145462,2,0,P|344:236|396:232,1,90
428,248,145649,1,0,0:0:0:0:
460,280,145712,6,0,L|468:380,1,90
396,140,145962,1,0,0:0:0:0:
264,336,146087,2,0,P|224:324|180:296,1,90
392,236,146337,1,0,0:0:0:0:
392,236,146399,1,0,0:0:0:0:
392,236,146462,1,0,0:0:0:0:
160,336,146587,1,0,0:0:0:0:
304,104,146712,6,0,P|256:176|168:164,1,180
104,48,147087,1,0,0:0:0:0:
268,208,147212,2,0,P|280:252|284:296,1,90
92,344,147462,1,0,0:0:0:0:
92,344,147524,1,0,0:0:0:0:
92,344,147587,1,0,0:0:0:0:
92,344,147649,1,0,0:0:0:0:
92,344,147712,6,0,P|96:299|108:255,1,90
220,104,147962,1,0,0:0:0:0:
432,168,148087,2,0,P|379:234|291:225,1,180
290,51,148462,6,0,B|319:94|319:94|331:115|341:147,1,107.999996704102
357,335,148712,5,0,0:0:0:0:
249,151,148837,1,0,0:0:0:0:
441,275,148962,1,0,0:0:0:0:
265,363,149087,2,0,P|265:319|285:271,1,90
432,168,149337,1,0,0:0:0:0:
265,363,149462,2,0,P|217:375|177:371,1,90
137,347,149649,1,0,0:0:0:0:
105,315,149712,6,0,P|81:259|85:139,1,180
297,75,150087,2,0,P|321:131|317:251,1,180
225,383,150462,1,0,0:0:0:0:
225,383,150524,1,0,0:0:0:0:
225,383,150587,1,0,0:0:0:0:
124,228,150712,6,0,P|100:236|80:240,3,45
208,156,150962,2,0,P|232:161|251:168,3,45
96,120,151212,1,0,0:0:0:0:
112,88,151274,1,0,0:0:0:0:
136,60,151337,1,0,0:0:0:0:
168,44,151399,1,0,0:0:0:0:
204,36,151462,1,0,0:0:0:0:
240,40,151524,1,0,0:0:0:0:
272,56,151587,1,0,0:0:0:0:
300,80,151649,1,0,0:0:0:0:
320,112,151712,6,0,L|324:160,5,45
400,44,152087,2,0,L|396:0,5,45
480,136,152462,2,0,L|476:236,1,90
280,276,152712,5,0,0:0:0:0:
415,381,152837,1,0,0:0:0:0:
292,244,152962,1,0,0:0:0:0:
441,360,153087,1,0,0:0:0:0:
311,216,153212,1,0,0:0:0:0:
460,332,153337,1,0,0:0:0:0:
337,194,153462,1,0,0:0:0:0:
472,300,153587,1,0,0:0:0:0:
204,368,153712,6,0,P|164:288|184:204,1,180
380,125,154087,2,0,P|419:164|337:194,1,180
200,32,154462,2,0,P|233:64|257:107,1,90
268,304,154712,5,0,0:0:0:0:
280,180,154837,1,0,0:0:0:0:
180,328,154962,1,0,0:0:0:0:
192,156,155087,1,0,0:0:0:0:
92,352,155212,1,0,0:0:0:0:
92,352,155337,1,0,0:0:0:0:
18,159,155462,2,0,P|58:143|106:131,1,90
312,168,155712,6,0,B|340:100|316:36|316:36|284:68,1,180
188,276,156087,2,0,P|264:328|352:328,1,180
504,164,156462,2,0,P|464:140|420:136,1,90
207,154,156712,5,0,0:0:0:0:
312,168,156837,1,0,0:0:0:0:
298,273,156962,1,0,0:0:0:0:
192,259,157087,1,0,0:0:0:0:
273,69,157212,5,0,0:0:0:0:
298,273,157337,1,0,0:0:0:0:
108,193,157462,1,0,0:0:0:0:
312,168,157587,1,0,0:0:0:0:
232,358,157712,5,0,0:0:0:0:
228,336,157774,1,0,0:0:0:0:
224,316,157837,1,0,0:0:0:0:
395,104,157962,2,0,P|403:148|411:200,1,90
299,72,158212,5,0,0:0:0:0:
488,133,158337,1,0,0:0:0:0:
312,168,158462,1,0,0:0:0:0:
471,28,158587,1,0,0:0:0:0:
220,8,158712,6,0,P|212:100|224:188,1,180
364,384,159087,2,0,P|380:340|388:296,1,90
340,120,159337,1,0,0:0:0:0:
206,314,159462,2,0,P|160:312|120:296,1,90
36,200,159712,5,0,0:0:0:0:
63,95,159837,1,0,0:0:0:0:
157,40,159962,1,0,0:0:0:0:
261,68,160087,1,0,0:0:0:0:
312,200,160212,5,0,0:0:0:0:
277,272,160337,1,0,0:0:0:0:
206,314,160462,2,0,P|160:312|120:296,1,90
63,95,160712,5,0,0:0:0:0:
101,221,160837,1,0,0:0:0:0:
114,65,160962,1,0,0:0:0:0:
130,211,161087,1,0,0:0:0:0:
176,65,161212,1,0,0:0:0:0:
160,211,161337,1,0,0:0:0:0:
227,95,161462,1,0,0:0:0:0:
189,221,161587,1,0,0:0:0:0:
460,228,161712,6,0,P|401:297|317:290,1,180
255,148,162087,2,0,P|313:78|397:85,1,180
244,344,162462,1,0,0:0:0:0:
244,344,162524,1,0,0:0:0:0:
244,344,162587,1,0,0:0:0:0:
244,344,162649,1,0,0:0:0:0:
244,344,162712,6,0,L|152:336,1,90
328,204,162962,2,0,L|420:196,1,90
152,32,163212,2,0,P|196:12|244:16,1,90
160,240,163462,2,0,P|116:260|68:256,1,90
320,48,163712,6,0,P|372:32|360:120,1,180
104,172,164087,2,0,P|156:148|272:172,1,180
400,360,164462,1,0,0:0:0:0:
364,352,164524,1,0,0:0:0:0:
328,344,164587,1,0,0:0:0:0:
292,336,164649,1,0,0:0:0:0:
256,328,164712,5,0,0:0:0:0:
380,196,164837,1,0,0:0:0:0:
332,368,164962,1,0,0:0:0:0:
272,172,165087,1,0,0:0:0:0:
424,308,165212,2,0,P|472:296|504:272,1,90
212,248,165462,2,0,P|164:260|132:284,1,90
191,72,165712,5,0,0:0:0:0:
308,252,165837,1,0,0:0:0:0:
318,37,165962,1,0,0:0:0:0:
184,205,166087,1,0,0:0:0:0:
390,146,166212,2,0,P|406:190|402:238,1,90
72,128,166462,2,0,P|56:84|60:36,1,90
116,356,166712,6,0,L|124:311,3,45
8,228,166962,2,0,L|0:273,3,45
140,144,167212,2,0,L|148:99,3,45
32,16,167462,2,0,L|24:61,3,45
8,148,167712,5,0,0:0:0:0:
15,184,167774,1,0,0:0:0:0:
30,216,167837,1,0,0:0:0:0:
53,242,167899,1,0,0:0:0:0:
82,263,167962,1,0,0:0:0:0:
116,275,168024,1,0,0:0:0:0:
151,277,168087,1,0,0:0:0:0:
186,271,168149,1,0,0:0:0:0:
220,248,168212,5,0,0:0:0:0:
251,203,168274,1,0,0:0:0:0:
299,180,168337,1,0,0:0:0:0:
351,184,168399,1,0,0:0:0:0:
394,214,168462,1,0,0:0:0:0:
417,262,168524,1,0,0:0:0:0:
414,315,168587,1,0,0:0:0:0:
383,359,168649,1,0,0:0:0:0:
336,381,168712,6,0,L|136:356,1,202.500007724762
136,355,169462,6,0,P|120:320|120:288,1,67.5000025749208
132,212,169712,1,0,0:0:0:0:
44,344,169837,1,0,0:0:0:0:
200,300,169962,1,0,0:0:0:0:
40,196,170087,2,0,P|73:205|106:208,1,67.5000025749208
244,180,170337,1,0,0:0:0:0:
204,320,170462,2,0,P|197:287|182:257,1,67.5000025749208
24,112,170712,6,0,P|57:121|90:124,1,67.5000025749208
168,104,170962,1,0,0:0:0:0:
340,212,171087,2,0,P|308:202|275:199,1,67.5000025749208
179,235,171337,1,0,0:0:0:0:
240,352,171462,2,0,P|250:320|253:287,1,67.5000025749208
168,104,171712,6,0,P|204:52|268:24,1,135.000005149842
408,140,172087,2,0,B|320:160|320:160|280:140,1,135.000005149842
444,288,172462,2,0,P|408:268|376:260,1,67.5000025749208
207,186,172712,6,0,P|215:279|308:288,1,202.500007724762
396,176,173212,1,0,0:0:0:0:
368,340,173337,2,0,P|336:328|300:324,1,67.5000025749208
220,356,173587,2,0,P|188:368|152:372,1,67.5000025749208
68,344,173837,2,0,P|40:292|48:216,1,135.000005149842
156,8,174337,5,0,0:0:0:0:
208,72,174462,1,0,0:0:0:0:
288,92,174587,1,0,0:0:0:0:
379,78,174712,5,0,0:0:0:0:
460,136,174837,1,0,0:0:0:0:
488,240,174962,1,0,0:0:0:0:
424,328,175087,1,0,0:0:0:0:
324,348,175212,1,0,0:0:0:0:
240,308,175337,5,0,0:0:0:0:
160,288,175462,1,0,0:0:0:0:
80,308,175587,1,0,0:0:0:0:
16,360,175712,6,0,B|8:292|8:292|43:233,1,135.000005149842
217,189,176087,2,0,P|150:191|88:168,1,135.000005149842
20,49,176462,2,0,P|22:82|28:116,1,67.5000025749208
108,293,176712,6,0,P|144:285|180:281,1,67.5000025749208
280,228,176962,1,0,0:0:0:0:
256,353,177087,1,0,0:0:0:0:
428,288,177212,2,0,P|392:296|356:300,1,67.5000025749208
248,216,177462,1,0,0:0:0:0:
288,365,177587,2,0,P|280:329|276:293,1,67.5000025749208
324,124,177837,2,0,P|288:112|224:108,1,101.250003862381
192,132,178087,2,0,P|160:140|124:136,1,67.5000025749208
0,58,178337,2,0,P|32:68|60:88,1,67.5000025749208
24,284,178712,5,0,0:0:0:0:
164,231,178837,1,0,0:0:0:0:
82,354,178962,1,0,0:0:0:0:
75,208,179087,1,0,0:0:0:0:
188,332,179212,2,0,P|223:346|259:350,1,67.5000025749208
481,310,179462,2,0,P|450:297|416:292,1,67.5000025749208
344,168,179712,6,0,P|296:212|276:280,1,135.000005149842
428,368,180087,2,0,P|448:305|431:237,1,135.000005149842
288,356,180462,2,0,P|252:350|219:333,1,67.5000025749208
168,136,180712,6,0,P|219:178|244:240,1,135.000005149842
88,354,181087,2,0,P|99:288|140:236,1,135.000005149842
39,122,181462,2,0,P|100:145|167:135,1,135.000005149842
288,28,181837,2,0,P|376:12|452:84,1,202.500007724762
348,124,182337,1,0,0:0:0:0:
436,352,182712,6,0,L|368:344,1,67.5000025749208
288,332,182962,1,0,0:0:0:0:
288,332,183087,1,0,0:0:0:0:
241,176,183212,2,0,P|275:179|309:184,1,67.5000025749208
389,196,183462,1,0,0:0:0:0:
389,196,183587,1,0,0:0:0:0:
212,304,183712,6,0,P|180:316|148:320,1,67.5000025749208
28,160,183962,2,0,P|62:165|92:178,1,67.5000025749208
66,308,184212,6,0,P|60:329|56:352,1,45
184,208,184462,2,0,P|180:184|172:156,1,45
336,56,184712,6,0,P|320:88|316:124,1,67.5000025749208
380,264,184962,1,0,0:0:0:0:
396,112,185087,1,0,0:0:0:0:
237,224,185212,2,0,P|267:239|300:244,1,67.5000025749208
464,180,185462,1,0,0:0:0:0:
464,180,185524,1,0,0:0:0:0:
464,180,185587,1,0,0:0:0:0:
432,336,185712,6,0,P|399:338|368:350,1,67.5000025749208
208,300,185962,2,0,P|194:330|189:363,1,67.5000025749208
301,244,186212,2,0,P|244:200|184:200,1,135.000005149842
28,280,186587,1,0,0:0:0:0:
200,164,186712,5,0,0:0:0:0:
44,200,186837,1,0,0:0:0:0:
168,88,186962,1,0,0:0:0:0:
160,236,187087,1,0,0:0:0:0:
30,41,187212,2,0,P|60:57|92:64,1,67.5000025749208
228,32,187462,1,0,0:0:0:0:
232,28,187524,1,0,0:0:0:0:
236,24,187587,1,0,0:0:0:0:
392,96,187712,6,0,P|336:84|260:108,1,135.000005149842
188,260,188087,2,0,P|124:281|58:269,1,135.000005149842
112,112,188462,2,0,L|120:180,1,67.5000025749208
264,352,188712,6,0,P|270:318|273:285,1,67.5000025749208
263,106,188962,1,0,0:0:0:0:
263,106,189087,1,0,0:0:0:0:
116,280,189212,2,0,P|150:286|183:289,1,67.5000025749208
362,278,189462,1,0,0:0:0:0:
362,278,189587,1,0,0:0:0:0:
188,132,189712,6,0,P|182:166|179:199,1,67.5000025749208
352,204,189962,2,0,P|317:198|285:195,1,67.5000025749208
260,380,190212,2,0,P|266:345|269:313,1,67.5000025749208
72,300,190462,2,0,P|106:306|139:309,1,67.5000025749208
264,124,190712,5,0,0:0:0:0:
104,176,190837,1,0,0:0:0:0:
216,252,190962,1,0,0:0:0:0:
196,76,191087,1,0,0:0:0:0:
36,128,191212,2,0,P|28:160|24:200,1,67.5000025749208
192,332,191462,1,0,0:0:0:0:
176,176,191587,1,0,0:0:0:0:
52,320,191712,6,0,P|112:356|176:344,1,135.000005149842
316,212,192087,2,0,P|256:176|192:188,1,135.000005149842
332,368,192462,1,0,0:0:0:0:
360,364,192524,1,0,0:0:0:0:
388,360,192587,1,0,0:0:0:0:
460,256,192712,6,0,L|456:188,1,67.5000025749208
324,64,192962,2,0,L|328:132,1,67.5000025749208
268,264,193212,1,0,0:0:0:0:
148,160,193337,1,0,0:0:0:0:
332,212,193462,1,0,0:0:0:0:
204,316,193587,1,0,0:0:0:0:
204,56,193712,6,0,P|206:90|217:122,1,67.5000025749208
332,212,193962,2,0,P|296:192|268:188,1,67.5000025749208
92,220,194212,2,0,P|128:240|156:244,1,67.5000025749208
288,340,194462,2,0,P|286:306|274:274,1,67.5000025749208
148,160,194712,5,0,0:0:0:0:
156,328,194837,1,0,0:0:0:0:
69,201,194962,1,0,0:0:0:0:
233,285,195087,1,0,0:0:0:0:
66,298,195212,1,0,0:0:0:0:
237,190,195337,1,0,0:0:0:0:
158,362,195462,2,0,L|154:290,1,67.5000025749208
230,127,195712,6,0,P|253:189|236:254,1,135.000005149842
69,264,196087,2,0,P|45:201|62:136,1,135.000005149842
184,56,196462,1,0,0:0:0:0:
208,44,196524,1,0,0:0:0:0:
236,40,196587,1,0,0:0:0:0:
264,44,196649,1,0,0:0:0:0:
288,56,196712,6,0,P|332:108|348:176,1,135.000005149842
169,265,197087,2,0,P|192:202|240:156,1,135.000005149842
411,264,197462,2,0,P|380:275|345:277,1,67.5000025749208
240,155,197712,5,0,0:0:0:0:
272,324,197837,1,0,0:0:0:0:
136,200,197962,1,0,0:0:0:0:
304,236,198087,1,0,0:0:0:0:
168,368,198212,2,0,P|158:335|158:301,1,67.5000025749208
316,144,198462,2,0,P|325:176|325:210,1,67.5000025749208
76,280,198712,6,0,P|128:224|192:224,1,135.000005149842
407,232,199087,2,0,P|355:288|291:288,1,135.000005149842
156,180,199462,2,0,P|160:144|168:112,1,67.5000025749208
348,56,199712,5,0,0:0:0:0:
235,161,199837,1,0,0:0:0:0:
85,126,199962,1,0,0:0:0:0:
264,76,200087,1,0,0:0:0:0:
156,180,200212,5,0,0:0:0:0:
200,10,200337,1,0,0:0:0:0:
308,246,200462,1,0,0:0:0:0:
264,76,200587,1,0,0:0:0:0:
76,220,200712,6,0,P|148:268|228:236,1,180
240,216,201712,2,0,B|252:260|252:260|248:300|248:300|260:352,2,135
232,196,202587,1,0,0:0:0:0:
224,176,202712,2,0,P|272:108|348:144,1,180
452,252,203712,6,0,L|360:240,1,90
324,348,204087,2,0,L|413:359,1,90
296,276,204462,2,0,P|264:276|240:280,1,45
80,360,204712,1,0,0:0:0:0:
56,368,205712,6,0,L|44:276,1,90
152,240,206087,2,0,L|163:329,1,90
80,212,206462,2,0,P|80:180|84:156,1,45
116,32,206712,6,0,P|164:8|244:16,1,135
344,160,207212,2,0,P|409:170|471:143,1,135
448,16,207712,2,0,P|382:5|320:32,1,135
272,196,208212,2,0,P|236:216|188:224,1,90
81,167,208712,1,0,0:0:0:0:
64,144,209712,6,0,P|108:92|168:104,2,135
112,8,210712,1,0,0:0:0:0:
272,52,211712,6,0,L|266:99,1,45
344,84,211962,6,0,L|338:139,1,53.9999983520508
416,116,212212,6,0,L|409:179,1,62.9999980773926
488,148,212462,6,0,L|480:219,1,72
504,344,212712,2,0,B|432:360|432:316|360:340,1,144
284,372,213087,1,0,0:0:0:0:
102,236,213212,5,0,0:0:0:0:
260,211,213337,1,0,0:0:0:0:
206,381,213462,5,0,0:0:0:0:
181,223,213587,1,0,0:0:0:0:
352,277,213712,5,0,0:0:0:0:
194,302,213837,1,0,0:0:0:0:
248,132,213962,5,0,0:0:0:0:
273,290,214087,1,0,0:0:0:0:
131,162,214212,5,0,0:0:0:0:
135,156,214274,1,0,0:0:0:0:
139,148,214337,1,0,0:0:0:0:
143,140,214399,1,0,0:0:0:0:
147,132,214462,1,0,0:0:0:0:
151,124,214524,1,0,0:0:0:0:
155,116,214587,1,0,0:0:0:0:
159,108,214649,1,0,0:0:0:0:
163,100,214712,5,0,0:0:0:0:
244,72,214899,1,0,0:0:0:0:
152,240,215712,5,0,0:0:0:0:
56,84,215837,1,0,0:0:0:0:
44,280,215962,1,0,0:0:0:0:
208,152,216087,1,0,0:0:0:0:
172,368,216212,2,0,L|148:364,15,16.8750006437302
172,344,216712,6,0,P|216:360|260:364,1,90
232,148,216962,2,0,P|188:132|144:128,1,90
328,308,217212,2,0,P|372:324|416:328,1,90
464,80,217462,2,0,P|420:64|376:60,1,90
82,218,217712,6,0,P|124:234|168:240,1,90
320,148,217962,1,0,0:0:0:0:
64,40,218087,2,0,B|48:84|48:84|52:140,1,90
136,364,218337,1,0,0:0:0:0:
136,364,218399,1,0,0:0:0:0:
136,364,218462,1,0,0:0:0:0:
232,148,218587,1,0,0:0:0:0:
416,320,218712,6,0,P|348:260|264:264,1,180
136,364,219087,1,0,0:0:0:0:
368,220,219212,2,0,P|384:172|388:132,1,90
148,32,219462,1,0,0:0:0:0:
148,32,219524,1,0,0:0:0:0:
148,32,219587,2,0,L|160:76,1,45
236,212,219712,6,0,P|192:216|148:200,1,90
68,48,219962,1,0,0:0:0:0:
24,280,220087,2,0,P|36:192|104:136,1,180
300,40,220462,6,0,B|304:91|304:91|304:115|297:148,1,107.999996704102
216,328,220712,5,0,0:0:0:0:
188,128,220837,1,0,0:0:0:0:
300,292,220962,1,0,0:0:0:0:
64,252,221087,2,0,P|108:280|152:292,1,90
368,188,221337,1,0,0:0:0:0:
164,212,221462,1,0,0:0:0:0:
164,212,221524,1,0,0:0:0:0:
164,212,221587,1,0,0:0:0:0:
380,325,221712,6,0,P|340:297|292:293,1,90
96,364,221962,1,0,0:0:0:0:
0,180,222087,2,0,P|84:144|168:168,1,180
316,376,222462,1,0,0:0:0:0:
316,376,222524,1,0,0:0:0:0:
316,376,222587,1,0,0:0:0:0:
236,116,222712,5,0,0:0:0:0:
216,328,222837,2,0,P|172:321|137:294,1,90
360,184,223087,1,0,0:0:0:0:
356,212,223149,1,0,0:0:0:0:
352,236,223212,1,0,0:0:0:0:
468,148,223337,5,0,0:0:0:0:
252,220,223462,1,0,0:0:0:0:
480,312,223587,1,0,0:0:0:0:
408,76,223712,1,0,0:0:0:0:
408,76,223774,1,0,0:0:0:0:
408,76,223837,5,0,0:0:0:0:
388,104,223899,1,0,0:0:0:0:
357,118,223962,1,0,0:0:0:0:
323,114,224024,1,0,0:0:0:0:
296,94,224087,1,0,0:0:0:0:
282,62,224149,1,0,0:0:0:0:
286,28,224212,6,0,L|236:20,1,45
160,100,224337,2,0,L|116:100,1,45
60,216,224462,2,0,P|40:228|20:244,3,45
64,260,224712,6,0,P|52:312|52:356,1,90
320,256,224962,2,0,P|332:204|332:160,1,90
172,344,225212,2,0,P|224:356|268:356,1,90
168,88,225462,2,0,P|117:76|72:76,1,90
320,256,225712,6,0,P|372:268|416:268,1,90
504,160,225962,1,0,0:0:0:0:
448,27,226087,2,0,B|404:12|404:12|360:16,1,90
148,176,226337,1,0,0:0:0:0:
148,176,226399,1,0,0:0:0:0:
148,176,226462,1,0,0:0:0:0:
312,368,226587,1,0,0:0:0:0:
496,248,226712,6,0,P|428:184|348:204,1,180
472,364,227087,1,0,0:0:0:0:
308,120,227212,2,0,P|264:124|220:112,1,90
52,228,227462,2,0,P|108:180|176:184,1,135
216,244,227712,6,0,P|172:260|128:252,1,90
44,112,227962,1,0,0:0:0:0:
24,328,228087,1,0,0:0:0:0:
24,328,228149,1,0,0:0:0:0:
24,328,228212,2,0,L|116:344,1,90
364,340,228462,6,0,B|340:344|308:336|308:336|296:312|292:284,1,107.999996704102
328,112,228712,5,0,0:0:0:0:
172,216,228837,1,0,0:0:0:0:
372,188,228962,1,0,0:0:0:0:
184,48,229087,2,0,P|168:92|160:136,1,90
212,376,229337,1,0,0:0:0:0:
372,188,229462,2,0,P|328:176|282:180,1,90
96,288,229712,6,0,P|140:300|186:296,1,90
360,104,229962,1,0,0:0:0:0:
440,308,230087,2,0,P|360:276|268:264,1,180
32,356,230462,1,0,0:0:0:0:
28,344,230524,1,0,0:0:0:0:
24,332,230587,1,0,0:0:0:0:
20,320,230649,1,0,0:0:0:0:
16,308,230712,6,0,P|16:284|20:264,3,45
89,188,230962,2,0,P|89:166|84:144,3,45
8,72,231212,1,0,0:0:0:0:
36,52,231274,1,0,0:0:0:0:
72,40,231337,1,0,0:0:0:0:
108,40,231399,1,0,0:0:0:0:
140,52,231462,1,0,0:0:0:0:
176,60,231524,1,0,0:0:0:0:
212,60,231587,1,0,0:0:0:0:
248,52,231649,1,0,0:0:0:0:
280,32,231712,6,0,P|272:56|272:80,5,45
392,44,232087,2,0,P|391:21|384:0,5,45
488,132,232462,2,0,L|476:228,1,90
320,348,232712,5,0,0:0:0:0:
220,175,232837,1,0,0:0:0:0:
340,318,232962,1,0,0:0:0:0:
256,173,233087,1,0,0:0:0:0:
371,300,233212,1,0,0:0:0:0:
287,155,233337,1,0,0:0:0:0:
405,295,233462,1,0,0:0:0:0:
308,129,233587,1,0,0:0:0:0:
256,376,233712,6,0,P|164:376|100:320,1,180
164,136,234087,2,0,P|256:136|320:192,1,180
388,16,234462,2,0,P|344:24|304:52,1,90
212,256,234712,5,0,0:0:0:0:
52,228,234837,1,0,0:0:0:0:
80,68,234962,1,0,0:0:0:0:
240,96,235087,1,0,0:0:0:0:
124,296,235212,2,0,L|108:376,2,45
12,128,235462,2,0,P|56:152|104:152,1,90
312,40,235712,6,0,P|240:96|200:176,1,180
256,336,236087,2,0,P|310:350|295:264,1,180
60,280,236462,2,0,P|104:304|144:308,1,90
312,152,236712,5,0,0:0:0:0:
400,168,236837,1,0,0:0:0:0:
368,84,236962,1,0,0:0:0:0:
344,236,237087,1,0,0:0:0:0:
456,100,237212,5,0,0:0:0:0:
312,152,237337,1,0,0:0:0:0:
432,252,237462,1,0,0:0:0:0:
424,16,237587,1,0,0:0:0:0:
224,160,237712,6,0,P|184:144|136:136,1,90
202,327,237962,2,0,P|242:311|290:303,1,90
488,184,238212,5,0,0:0:0:0:
312,152,238337,1,0,0:0:0:0:
376,320,238462,1,0,0:0:0:0:
456,100,238587,1,0,0:0:0:0:
226,140,238712,6,0,P|256:224|340:236,1,180
499,95,239087,2,0,P|499:139|487:187,1,90
376,320,239337,1,0,0:0:0:0:
312,152,239462,2,0,L|328:56,1,90
112,12,239712,5,0,0:0:0:0:
33,87,239837,1,0,0:0:0:0:
60,192,239962,1,0,0:0:0:0:
165,222,240087,1,0,0:0:0:0:
312,152,240212,5,0,0:0:0:0:
244,196,240337,1,0,0:0:0:0:
224,276,240462,2,0,P|232:316|260:360,1,90
472,356,240712,5,0,0:0:0:0:
328,316,240837,1,0,0:0:0:0:
502,305,240962,1,0,0:0:0:0:
318,287,241087,1,0,0:0:0:0:
502,243,241212,1,0,0:0:0:0:
318,257,241337,1,0,0:0:0:0:
472,192,241462,1,0,0:0:0:0:
328,228,241587,1,0,0:0:0:0:
196,160,241712,6,0,P|260:92|344:80,1,180
460,296,242087,2,0,P|396:364|312:376,1,180
96,140,242462,1,0,0:0:0:0:
96,140,242524,1,0,0:0:0:0:
96,140,242587,1,0,0:0:0:0:
96,140,242649,1,0,0:0:0:0:
96,140,242712,6,0,L|108:232,1,90
331,169,242962,2,0,L|343:79,1,90
40,308,243212,2,0,P|80:328|132:328,1,90
244,72,243462,2,0,P|204:52|152:52,1,90
216,296,243712,6,0,P|296:344|380:336,1,180
336,132,244087,2,0,P|260:120|256:204,1,180
472,356,244462,1,0,0:0:0:0:
468,320,244524,1,0,0:0:0:0:
464,284,244586,1,0,0:0:0:0:
460,248,244650,1,0,0:0:0:0:
456,212,244712,5,0,0:0:0:0:
335,61,244837,1,0,0:0:0:0:
344,255,244962,1,0,0:0:0:0:
449,93,245087,1,0,0:0:0:0:
244,168,245212,2,0,P|200:168|156:156,1,90
8,16,245462,2,0,P|52:4|97:3,1,90
256,84,245712,5,0,0:0:0:0:
108,252,245837,1,0,0:0:0:0:
184,20,245962,1,0,0:0:0:0:
232,272,246087,1,0,0:0:0:0:
40,88,246212,2,0,P|24:128|24:184,1,90
304,332,246462,2,0,P|320:292|320:236,1,90
252,24,246712,6,0,L|304:12,3,45
156,112,246962,2,0,L|112:122,3,45
312,152,247212,2,0,L|364:140,3,45
152,236,247462,2,0,L|108:246,3,45
16,280,247712,5,0,0:0:0:0:
36,312,247774,1,0,0:0:0:0:
64,332,247837,1,0,0:0:0:0:
100,344,247899,1,0,0:0:0:0:
136,340,247962,1,0,0:0:0:0:
168,324,248024,1,0,0:0:0:0:
200,304,248087,1,0,0:0:0:0:
236,296,248149,1,0,0:0:0:0:
272,304,248212,5,0,0:0:0:0:
316,336,248274,1,0,0:0:0:0:
369,327,248337,1,0,0:0:0:0:
401,283,248399,1,0,0:0:0:0:
392,230,248462,1,0,0:0:0:0:
348,192,248524,1,0,0:0:0:0:
320,144,248587,1,0,0:0:0:0:
320,92,248649,1,0,0:0:0:0:
348,44,248712,1,0,0:0:0:0:
256,192,256712,5,0,0:0:0:0:
