osu file format v14

[General]
AudioFilename: audio.mp3
AudioLeadIn: 0
PreviewTime: 136843
Countdown: 1
SampleSet: Soft
StackLeniency: 0.7
Mode: 0
LetterboxInBreaks: 0
WidescreenStoryboard: 1

[Editor]
Bookmarks: 307343
DistanceSpacing: 1
BeatDivisor: 4
GridSize: 4
TimelineZoom: 1.5

[Metadata]
Title:Lost My Way
TitleUnicode:Lost My Way
Artist:FELT
ArtistUnicode:FELT
Creator:Dubledo
Version:Mythique
Source:
Tags:
BeatmapID:1523125
BeatmapSetID:721310

[Difficulty]
HPDrainRate:7
CircleSize:4.2
OverallDifficulty:8.5
ApproachRate:9.7
SliderMultiplier:1.6
SliderTickRate:1

[Events]
//Background and Video events
0,0,"Bubble.jpg",0,0
//Break Periods
2,249045,252350
2,289045,294350
//Storyboard Layer 0 (Background)
//Storyboard Layer 1 (Fail)
//Storyboard Layer 2 (Pass)
//Storyboard Layer 3 (Foreground)
//Storyboard Sound Samples

[TimingPoints]
24845,250,4,2,0,100,1,0
24845,-100,4,2,0,80,0,0
39845,-100,4,2,0,90,0,0
40095,-83.3333333333333,4,2,0,100,0,0
40845,-90.9090909090909,4,2,0,80,0,0
55720,-90.9090909090909,4,2,0,80,0,0
56220,-76.9230769230769,4,2,0,60,0,0
56845,-100,4,2,0,50,0,0
71595,-111.111111111111,4,2,0,80,0,0
72845,-100,4,2,0,60,0,0
88345,-100,4,2,0,60,0,0
88845,-90.9090909090909,4,2,0,80,0,0
104845,-83.3333333333333,4,2,0,80,0,0
120845,-100,4,2,0,60,0,0
127345,-111.111111111111,4,2,0,70,0,0
127845,-125,4,2,0,70,0,0
128345,-142.857142857143,4,2,0,70,0,0
128845,-100,4,2,0,70,0,0
132845,-90.9090909090909,4,2,0,80,0,0
134345,-90.9090909090909,4,2,0,80,0,0
135845,-125,4,2,0,70,0,0
136845,-83.3333333333333,4,2,0,90,0,1
152595,-111.111111111111,4,2,0,100,0,1
152845,-76.9230769230769,4,2,0,80,0,1
168845,-90.9090909090909,4,2,0,60,0,0
176845,-83.3333333333333,4,2,0,60,0,0
184845,-83.3333333333333,4,2,0,70,0,0
200845,-100,4,2,0,50,0,0
207345,-111.111111111111,4,2,0,50,0,0
207845,-125,4,2,0,50,0,0
208345,-142.857142857143,4,2,0,50,0,0
208845,-100,4,2,0,60,0,0
212845,-90.9090909090909,4,2,0,70,0,0
214845,-83.3333333333333,4,2,0,60,0,0
215845,-83.3333333333333,4,2,0,80,0,0
216845,-83.3333333333333,4,2,0,90,0,1
232595,-111.111111111111,4,2,0,90,0,1
232845,-76.9230769230769,4,2,0,80,0,1
248845,-76.9230769230769,4,2,0,60,0,0
256845,-90.9090909090909,4,2,0,60,0,0
259470,-100,4,2,0,60,0,0
259720,-111.111111111111,4,2,0,60,0,0
259970,-125,4,2,0,60,0,0
260220,-142.857142857143,4,2,0,60,0,0
260845,-90.909090909091,4,2,0,60,0,0
263970,-111.111111111111,4,2,0,60,0,0
264845,-90.9090909090908,4,2,0,60,0,0
267220,-100,4,2,0,60,0,0
267470,-111.111111111111,4,2,0,60,0,0
267720,-125,4,2,0,60,0,0
267970,-142.857142857143,4,2,0,60,0,0
268845,-90.9090909090909,4,2,0,60,0,0
272845,-76.9230769230769,4,2,0,60,0,1
278470,-76.9230769230769,4,2,0,50,0,1
280595,-83.3333333333333,4,2,0,50,0,1
280845,-83.3333333333333,4,2,0,50,0,1
284595,-100,4,2,0,50,0,1
284845,-76.9230769230769,4,2,0,40,0,1
288845,-76.9230769230769,4,2,0,50,0,0
296845,-111.111111111111,4,2,0,50,0,0
300845,-90.9090909090908,4,2,0,50,0,0
304845,-100,4,2,0,50,0,0
306845,-111.111111111111,4,2,0,50,0,0
307845,-99.9999999999999,4,2,0,50,0,0
308345,-83.3333333333333,4,2,0,50,0,0
308845,-83.3333333333333,4,2,0,90,0,1
320845,-100,4,2,0,70,0,0
328845,-83.3333333333333,4,2,0,80,0,1
336595,-111.111111111111,4,2,0,80,0,1
336845,-76.9230769230769,4,2,0,80,0,1
352845,-90.9090909090909,4,2,0,60,0,0

[HitObjects]
60,116,24845,6,0,P|48:155|68:219,1,80,2|2,3:2|0:2,0:0:0:0:
202,128,25095,1,2,0:2:0:0:
202,128,25220,2,0,P|250:120|286:132,1,80,2|0,3:2|0:0,0:0:0:0:
337,270,25470,1,0,0:0:0:0:
249,342,25595,2,0,P|215:254|240:196,1,160,8|0,3:3|0:0,0:0:0:0:
416,224,25970,6,0,P|428:272|416:312,1,80,0|0,3:0|0:0,0:0:0:0:
238,197,26220,1,0,3:0:0:0:
148,286,26345,1,0,0:0:0:0:
66,174,26470,2,0,P|108:153|154:162,1,80,8|2,3:3|0:2,0:0:0:0:
238,197,26720,1,2,0:2:0:0:
16,251,26845,6,0,P|-20:169|27:92,1,160,0|0,3:0|0:0,0:0:0:0:
192,144,27226,2,0,B|66:178|66:178|87:146,1,160,0|0,3:0|0:0,0:0:0:0:
227,62,27595,2,0,B|297:39|358:85|358:85|376:45,1,160,8|0,3:0|0:0,0:0:0:0:
472,124,27970,6,0,P|481:162|468:204,1,80,0|0,3:0|0:0,0:0:0:0:
272,136,28220,1,0,3:0:0:0:
380,224,28345,1,0,0:0:0:0:
224,248,28470,2,0,L|130:263,1,80,8|2,3:0|0:2,0:0:0:0:
380,224,28720,5,0,0:0:0:0:
228,324,28845,2,0,P|216:283|231:235,1,80,2|0,3:2|0:0,0:0:0:0:
390,124,29095,1,0,0:0:0:0:
470,200,29220,2,0,P|488:244|477:295,1,80,2|0,3:2|0:0,0:0:0:0:
292,176,29470,1,0,0:0:0:0:
223,247,29595,2,0,B|82:249|82:249|98:236,1,160,8|0,3:0|0:0,0:0:0:0:
287,99,29970,6,0,P|300:145|287:183,1,80,0|0,3:0|0:0,0:0:0:0:
224,248,30220,1,0,3:0:0:0:
70,173,30345,1,0,0:0:0:0:
7,244,30470,2,0,P|-4:289|4:333,1,80,8|2,3:0|0:2,0:0:0:0:
224,248,30720,5,2,0:2:0:0:
70,173,30845,2,0,L|-32:128,1,80,0|0,3:0|0:0,0:0:0:0:
320,170,31095,5,0,0:0:0:0:
143,249,31220,2,0,L|69:281,1,80,0|0,3:0|0:0,0:0:0:0:
344,284,31470,1,0,0:0:0:0:
440,207,31595,2,0,P|451:155|423:109,1,80,8|0,3:0|0:0,0:0:0:0:
220,144,31845,5,2,0:2:0:0:
220,144,31970,2,0,L|129:126,1,80,2|0,3:2|0:0,0:0:0:0:
308,72,32220,2,0,L|400:48,1,80,0|0,3:0|0:0,0:0:0:0:
364,240,32470,1,8,3:0:0:0:
376,136,32595,1,0,3:0:0:0:
454,203,32720,1,0,3:0:0:0:
408,324,32845,6,0,P|355:335|310:317,1,80,2|2,3:2|0:2,0:0:0:0:
192,252,33095,1,0,0:0:0:0:
192,252,33220,2,0,P|135:238|88:256,1,80,0|0,3:0|0:0,0:0:0:0:
140,340,33470,1,0,0:0:0:0:
268,324,33595,2,0,P|299:247|248:163,1,160,8|0,3:0|0:0,0:0:0:0:
100,80,33970,6,0,P|88:116|96:160,1,80,0|0,3:0|0:0,0:0:0:0:
192,252,34220,1,0,3:0:0:0:
272,176,34345,1,2,0:2:0:0:
272,176,34470,2,0,L|372:160,1,80,2|0,3:2|0:0,0:0:0:0:
460,144,34720,1,0,0:0:0:0:
308,272,34845,6,0,B|240:302|193:252|193:252|200:308,1,160,2|0,3:2|0:0,0:0:0:0:
272,176,35220,2,0,P|355:165|421:238,1,160,0|0,3:0|0:0,0:0:0:0:
192,252,35595,2,0,B|56:224|56:224|88:196,1,160,8|0,3:0|0:0,0:0:0:0:
284,97,35970,6,0,L|268:197,1,80
192,252,36220,1,0,3:0:0:0:
400,188,36345,1,0,0:0:0:0:
284,96,36470,2,0,P|224:84|180:104,1,80,8|0,3:0|0:0,0:0:0:0:
88,160,36720,1,0,0:0:0:0:
264,300,36845,6,0,P|278:254|256:204,1,80,2|0,3:2|0:0,0:0:0:0:
88,160,37095,1,0,0:0:0:0:
32,300,37220,2,0,L|120:276,1,80,2|0,3:2|0:0,0:0:0:0:
272,224,37470,1,0,0:0:0:0:
396,332,37595,2,0,B|423:288|423:288|395:180,1,160,8|0,3:0|0:0,0:0:0:0:
288,72,37970,6,0,P|249:65|210:77,1,80,0|0,3:0|0:0,0:0:0:0:
99,156,38220,1,0,3:0:0:0:
272,224,38345,1,0,0:2:0:0:
380,160,38470,2,0,P|393:201|384:244,1,80,8|2,3:0|0:2,0:0:0:0:
312,328,38720,1,2,0:2:0:0:
184,284,38845,6,0,L|88:256,1,80,0|0,3:0|0:0,0:0:0:0:
0,232,39095,1,0,0:0:0:0:
166,117,39220,2,0,L|176:210,1,80,0|0,3:0|0:0,0:0:0:0:
196,367,39470,1,0,0:0:0:0:
360,232,39595,2,0,P|310:216|263:235,1,80,8|0,3:0|0:0,0:0:0:0:
184,284,39845,1,8,3:0:0:0:
280,112,39970,1,8,3:0:0:0:
432,164,40095,5,0,3:0:0:0:
451,198,40157,1,0,3:0:0:0:
459,237,40220,1,0,3:0:0:0:
452,276,40282,1,0,3:0:0:0:
433,311,40345,2,0,P|411:320|364:320,1,47.9999985351563,0|0,3:0|3:0,3:0:0:0:
260,196,40470,2,0,P|285:187|317:190,1,47.9999985351563,0|0,3:0|3:0,3:0:0:0:
275,319,40595,6,0,L|238:268,1,47.9999985351563
404,124,40720,2,0,L|431:163,1,47.9999985351563
260,196,40845,6,0,P|206:207|152:186,1,88.000002685547,2|2,3:2|0:2,0:0:0:0:
88,136,41095,1,8,3:0:0:0:
248,104,41220,1,2,0:2:0:0:
327,143,41345,2,0,P|342:192|331:235,1,88.000002685547,0|0,3:0|3:0,3:0:0:0:
187,271,41595,5,2,3:2:0:0:
350,314,41720,2,0,L|335:227,1,88.000002685547,8|0,3:0|0:0,0:0:0:0:
268,272,41970,5,0,3:0:0:0:
432,316,42095,2,0,L|417:229,1,88.000002685547,8|0,3:0|0:0,0:0:0:0:
400,108,42345,5,0,3:0:0:0:
400,108,42470,1,0,3:0:0:0:
228,200,42595,2,0,P|216:152|236:108,1,88.000002685547,2|2,3:2|3:2,0:0:0:0:
504,204,42845,6,0,B|460:172|460:172|400:208|339:168,1,176.000005371094,0|0,3:0|0:0,0:0:0:0:
160,44,43220,6,0,P|144:100|164:152,1,88.000002685547,8|0,3:0|0:0,0:0:0:0:
256,84,43470,1,0,0:0:0:0:
50,149,43595,6,0,P|64:205|107:240,1,88.000002685547,8|0,3:0|0:0,0:0:0:0:
212,184,43845,5,0,3:0:0:0:
160,44,43970,1,0,3:0:0:0:
83,226,44095,2,0,L|39:326,1,88.000002685547,8|0,3:0|0:0,0:0:0:0:
212,184,44345,1,0,3:0:0:0:
212,184,44470,1,0,3:0:0:0:
50,149,44595,5,8,3:0:0:0:
328,112,44720,1,8,3:0:0:0:
219,267,44845,6,0,P|203:226|211:183,1,88.000002685547,2|0,3:2|0:0,0:0:0:0:
404,168,45095,1,8,3:0:0:0:
291,221,45220,1,2,0:2:0:0:
480,304,45345,2,0,P|488:256|464:204,1,88.000002685547,0|0,0:2|0:0,0:0:0:0:
328,112,45595,5,2,3:2:0:0:
204,216,45720,2,0,L|332:224,1,88.000002685547,8|0,3:0|0:0,0:0:0:0:
220,132,45970,5,0,3:0:0:0:
69,271,46095,2,0,L|197:279,1,88.000002685547,8|0,3:0|0:0,0:0:0:0:
100,160,46345,5,0,3:0:0:0:
100,160,46470,1,0,3:0:0:0:
0,236,46595,2,0,P|-13:279|2:320,1,88.000002685547,8|8,3:0|3:0,0:0:0:0:
205,291,46845,6,0,B|129:235|69:271|69:271|97:323,1,176.000005371094,0|0,3:0|0:0,0:0:0:0:
320,344,47220,6,0,P|335:293|305:236,1,88.000002685547,8|0,3:0|0:0,0:0:0:0:
256,176,47470,1,0,3:0:0:0:
201,359,47595,6,0,P|216:308|186:251,1,88.000002685547,8|0,3:0|0:0,0:0:0:0:
137,191,47845,1,2,3:2:0:0:
58,332,47970,1,2,3:2:0:0:
12,232,48095,1,8,3:0:0:0:
12,232,48220,2,0,P|-4:180|19:127,1,88.000002685547,2|0,3:2|0:0,0:0:0:0:
72,64,48470,1,0,3:0:0:0:
137,191,48595,5,8,3:0:0:0:
360,92,48720,1,8,3:0:0:0:
424,244,48845,6,0,P|372:260|332:248,1,88.000002685547,2|2,3:2|0:2,0:0:0:0:
137,191,49095,1,8,3:0:0:0:
268,128,49220,1,0,0:0:0:0:
376,188,49345,2,0,P|388:240|372:280,1,88.000002685547,0|0,3:0|3:0,0:0:0:0:
192,288,49595,5,0,3:0:0:0:
376,188,49720,2,0,L|480:137,1,88.000002685547,8|0,3:0|0:0,0:0:0:0:
193,171,49970,5,0,3:0:0:0:
377,271,50095,2,0,L|481:322,1,88.000002685547,8|0,3:0|0:0,0:0:0:0:
192,288,50345,5,2,3:2:0:0:
192,288,50470,1,2,3:2:0:0:
376,188,50595,2,8,P|384:136|364:96,1,88.000002685547,8|8,3:0|3:0,3:0:0:0:
111,152,50845,6,0,B|209:111|200:192|301:143,1,176.000005371094,2|0,3:2|0:0,0:0:0:0:
161,299,51220,6,0,P|150:256|162:215,1,88.000002685547,8|0,3:0|0:0,0:0:0:0:
240,84,51470,1,0,3:0:0:0:
319,299,51595,6,0,P|329:256|317:215,1,88.000002685547,8|0,3:0|0:0,0:0:0:0:
240,84,51845,1,0,3:0:0:0:
160,212,51970,1,0,0:0:0:0:
320,300,52095,2,0,P|382:318|426:302,1,88.000002685547,8|0,3:0|0:0,0:0:0:0:
372,188,52345,1,0,3:0:0:0:
372,188,52470,1,0,3:0:0:0:
324,300,52595,5,8,3:0:0:0:
416,72,52720,1,8,3:0:0:0:
284,188,52845,6,0,L|388:188,1,88.000002685547,2|0,3:2|0:0,0:0:0:0:
302,95,53095,1,8,3:0:0:0:
212,251,53220,1,2,0:2:0:0:
96,140,53345,2,0,P|144:124|188:132,1,88.000002685547,0|0,3:0|0:0,0:0:0:0:
322,252,53595,5,2,3:2:0:0:
170,320,53720,2,0,P|114:328|78:316,1,88.000002685547,8|0,3:0|0:0,0:0:0:0:
364,319,53970,5,0,3:0:0:0:
212,251,54095,2,0,P|156:243|120:255,1,88.000002685547,8|0,3:0|0:0,0:0:0:0:
404,252,54345,5,0,3:0:0:0:
404,252,54470,1,0,3:0:0:0:
228,164,54595,2,8,L|207:273,1,88.000002685547,2|2,3:2|3:2,3:0:0:0:
23,205,54845,6,0,B|52:192|52:192|111:205,1,88.000002685547,0|0,3:0|0:0,0:0:0:0:
312,272,55095,1,8,3:0:0:0:
132,312,55220,1,0,3:0:0:0:
312,272,55345,1,8,3:0:0:0:
23,205,55470,2,0,P|4:256|20:316,1,88.000002685547,0|0,3:0|0:0,0:0:0:0:
201,195,55720,6,0,L|213:263,7,44.0000013427735,0|0|0|0|0|0|0|0,3:0|3:0|3:0|3:0|3:0|3:0|3:0|3:0,3:0:0:0:
312,272,56220,6,0,P|318:236|297:182,1,51.999997619629,0|0,3:0|3:0,3:0:0:0:
120,148,56345,2,0,P|114:171|120:208,1,51.999997619629,0|0,3:0|3:0,3:0:0:0:
221,322,56470,5,0,3:0:0:0:
242,341,56532,1,0,3:0:0:0:
268,354,56595,1,0,3:0:0:0:
297,361,56657,1,0,3:0:0:0:
326,360,56720,1,0,3:0:0:0:
354,352,56782,1,0,3:0:0:0:
378,337,56851,6,0,B|401:307|410:274|398:227|376:205|376:205|393:171,1,160,0|0,3:0|0:0,0:0:0:0:
420,104,57220,1,0,3:0:0:0:
299,51,57345,2,0,P|255:40|219:48,2,80,0|0|2,0:0|0:0|0:3,0:0:0:0:
248,140,57720,1,0,3:0:0:0:
248,140,57845,2,0,L|220:236,1,80
136,196,58095,1,0,3:0:0:0:
344,156,58220,1,0,0:0:0:0:
184,56,58345,1,2,0:3:0:0:
136,196,58595,5,0,0:0:0:0:
344,156,58720,1,0,0:0:0:0:
416,232,58845,2,0,P|428:280|408:328,1,80,0|0,0:0|0:2,0:0:0:0:
298,288,59095,5,2,0:2:0:0:
208,263,59220,1,2,0:2:0:0:
128,312,59345,1,2,0:2:0:0:
128,312,59595,5,2,3:3:0:0:
48,213,59720,2,0,P|39:173|56:129,2,80,0|0|0,3:0|0:0|0:0,0:0:0:0:
128,312,60095,6,0,P|200:328|228:316,1,80,0|0,3:0|0:0,0:0:0:0:
296,252,60345,2,0,P|224:236|196:248,1,80,2|0,0:3|0:0,0:0:0:0:
340,348,60595,1,2,0:2:0:0:
340,348,60720,1,2,0:2:0:0:
398,264,60845,6,0,B|418:215|382:165|342:152|342:152|370:136,1,160,0|0,3:0|0:0,0:0:0:0:
448,95,61220,1,0,3:0:0:0:
271,111,61345,2,0,P|258:142|276:201,2,80,0|4|2,0:0|0:2|0:3,0:0:0:0:
356,44,61720,1,0,3:0:0:0:
415,172,61845,2,0,L|319:152,1,80
258,213,62095,1,0,3:0:0:0:
424,95,62220,1,0,0:0:0:0:
472,248,62345,1,2,0:3:0:0:
472,248,62595,6,0,P|484:292|467:333,1,80,2|2,0:2|0:2,0:0:0:0:
304,300,62845,1,2,3:2:0:0:
368,244,62970,1,2,0:2:0:0:
388,332,63095,1,2,0:2:0:0:
388,332,63345,5,0,0:0:0:0:
281,210,63470,2,0,P|271:167|287:116,2,80,4|2|0,0:2|0:3|3:0,0:0:0:0:
304,300,63845,2,0,L|208:328,1,80
200,236,64095,2,0,L|112:256,1,80,0|0,3:0|0:0,0:0:0:0:
28,193,64345,2,0,P|7:254|36:320,2,120,2|2|2,0:2|0:2|0:2,0:0:0:0:
114,125,64845,6,0,B|156:99|206:101|242:129|242:129|238:97,1,160,4|0,3:2|0:0,0:0:0:0:
238,22,65220,1,0,3:0:0:0:
173,185,65345,6,0,P|155:239|187:312,2,120,2|2|0,0:2|0:2|0:2,0:0:0:0:
242,127,65845,5,0,0:0:0:0:
286,262,65970,2,0,P|294:300|285:339,1,80,2|0,0:2|3:0,0:0:0:0:
84,360,66220,1,0,0:0:0:0:
173,297,66345,1,2,0:3:0:0:
173,297,66595,5,0,0:0:0:0:
44,248,66720,1,0,0:0:0:0:
190,180,66845,2,0,B|265:161|265:161|351:187,1,160,0|0,3:0|0:0,0:0:0:0:
441,226,67220,1,0,3:0:0:0:
441,226,67470,5,2,0:2:0:0:
484,312,67595,1,2,0:2:0:0:
441,226,67720,1,2,0:2:0:0:
374,342,67845,2,0,P|302:302|214:326,1,160,2|0,0:2|0:0,0:0:0:0:
152,355,68220,2,0,P|69:372|-3:327,1,160,2|0,0:2|0:0,0:0:0:0:
88,288,68595,2,0,P|99:244|87:200,1,80,2|0,0:2|0:0,0:0:0:0:
16,159,68845,6,0,B|43:84|157:90|181:165|181:165|212:236|315:232|340:160,1,400,2|4,0:2|0:2,0:0:0:0:
297,114,69595,6,0,B|353:82|409:115|441:171|423:225|373:255|340:278|302:294|252:300|206:279,1,400,2|0,0:3|0:0,0:0:0:0:
157,347,70345,6,0,B|116:295|127:243|152:216|180:196|236:202|236:202|228:110|174:69|104:108|104:108,1,400,2|0,0:3|0:0,0:0:0:0:
74,42,71095,6,0,B|28:74|29:145|92:178|92:178|72:196|48:244|56:292,1,280,2|4,0:2|0:2,0:0:0:0:
8,348,71595,6,0,B|88:392|120:288|221:351,1,215.999993408203,6|0,3:2|3:0,0:0:0:0:
300,320,72095,5,0,3:0:0:0:
336,336,72188,5,0,3:0:0:0:
380,332,72251,5,0,3:0:0:0:
420,312,72345,5,2,3:2:0:0:
128,100,72845,6,0,P|104:168|136:248,1,160,2|0,3:3|0:0,0:0:0:0:
200,168,73220,2,0,P|272:144|369:186,1,160,2|0,3:3|0:0,0:0:0:0:
184,336,73595,6,0,P|134:346|89:324,1,80,8|0,0:3|0:0,0:0:0:0:
234,245,73845,2,0,P|279:233|333:259,2,80,0|0|0,0:0|3:0|0:0,0:0:0:0:
100,264,74220,2,0,P|69:180|110:106,1,160,0|8,3:0|0:3,0:0:0:0:
336,148,74595,5,2,3:3:0:0:
336,148,74720,1,2,3:3:0:0:
336,148,74845,2,0,B|200:140|200:140|236:180,1,160,2|0,3:3|0:0,0:0:0:0:
324,256,75220,2,0,B|460:264|460:264|424:224,1,160,2|0,3:3|0:0,0:0:0:0:
184,209,75595,6,0,P|168:261|184:305,1,80,8|0,0:3|0:0,0:0:0:0:
404,172,75845,2,0,P|328:136|256:164,1,160
184,209,76220,2,0,P|112:241|28:197,1,160,0|8,3:0|0:3,0:0:0:0:
116,160,76595,5,2,3:0:0:0:
116,160,76720,1,2,3:0:0:0:
116,160,76845,2,0,L|96:332,1,160,2|0,3:0|0:0,0:0:0:0:
224,244,77220,2,0,P|304:220|376:260,1,160,2|0,3:0|0:0,0:0:0:0:
464,316,77595,6,0,P|480:279|469:225,1,80,8|0,0:3|0:0,0:0:0:0:
348,128,77845,2,0,L|264:136,2,80,0|0|0,0:0|3:0|0:0,0:0:0:0:
451,46,78220,2,0,P|487:122|455:198,1,160,0|8,3:0|0:3,0:0:0:0:
304,292,78595,5,2,3:0:0:0:
304,292,78720,1,2,3:0:0:0:
304,292,78845,2,0,B|320:264|320:264|168:268,1,160,2|0,3:0|0:0,0:0:0:0:
52,224,79220,2,0,B|34:197|34:197|185:190,1,160,2|0,3:0|0:0,0:0:0:0:
380,148,79595,6,0,P|392:204|380:240,1,80,8|0,0:3|0:0,0:0:0:0:
161,191,79845,2,0,P|241:159|309:191,1,160
456,292,80220,2,0,P|376:324|308:292,1,160,0|8,3:0|0:3,0:0:0:0:
388,224,80595,5,2,3:0:0:0:
388,224,80720,1,2,3:0:0:0:
388,224,80845,2,0,P|416:150|372:84,1,160,2|0,3:0|0:0,0:0:0:0:
264,160,81220,2,0,L|84:152,1,160,2|0,3:0|0:0,0:0:0:0:
159,265,81595,6,0,L|196:343,1,80,8|0,0:3|0:0,0:0:0:0:
104,152,81845,2,0,P|60:136|16:144,2,80,0|0|0,0:0|3:0|0:0,0:0:0:0:
236,236,82220,2,0,B|296:282|337:212|416:271,1,160,0|8,3:0|0:3,0:0:0:0:
292,172,82595,5,2,3:0:0:0:
292,172,82720,1,2,3:0:0:0:
292,172,82845,2,0,B|231:107|231:107|176:181,1,160,2|0,3:0|0:0,0:0:0:0:
127,232,83220,2,0,B|74:298|74:298|15:242,1,160,2|0,3:0|0:0,0:0:0:0:
120,112,83595,6,0,L|171:47,1,80,8|0,0:3|0:0,0:0:0:0:
292,172,83845,2,0,B|260:201|260:201|311:252|390:234,1,160
488,208,84220,2,0,B|520:179|520:179|469:128|390:146,1,160,0|8,3:0|0:3,0:0:0:0:
292,172,84595,5,2,3:0:0:0:
292,172,84720,1,2,3:0:0:0:
292,172,84845,2,0,B|212:194|212:194|132:166,1,160,2|0,3:0|0:0,0:0:0:0:
240,280,85220,2,0,B|320:258|320:258|400:286,1,160,2|0,3:0|0:3,0:0:0:0:
150,306,85595,6,0,B|104:321|104:321|63:317,1,80,8|0,0:3|0:0,0:0:0:0:
214,183,85845,2,0,B|260:168|260:168|301:172,2,80,0|0|0,0:0|3:0|0:0,0:0:0:0:
96,228,86220,2,0,B|57:243|57:243|80:108,1,160,0|8,3:0|0:3,0:0:0:0:
296,64,86595,5,2,3:0:0:0:
296,64,86720,1,2,3:0:0:0:
296,64,86845,2,0,B|335:49|335:49|312:184,1,160,2|0,3:0|0:0,0:0:0:0:
216,264,87220,2,0,B|279:284|279:284|309:273|309:273|392:288,1,160,2|0,3:0|0:0,0:0:0:0:
160,96,87595,6,0,P|148:144|164:192,1,80,10|0,3:3|0:0,0:0:0:0:
216,264,87845,6,0,P|145:324|72:258,1,200,2|0,3:2|0:0,0:0:0:0:
144,248,88220,6,0,L|144:180,1,40,2|2,0:2|0:2,2:2:0:0:
144,80,88345,2,0,L|144:28,7,40,0|0|0|0|0|0|0|0,3:0|3:0|3:0|3:0|3:0|3:0|3:0|3:0,3:0:0:0:
97,152,88845,6,0,P|147:165|195:149,1,88.000002685547,2|2,3:2|0:2,0:0:0:0:
266,108,89095,1,2,0:2:0:0:
266,108,89220,2,0,P|320:95|378:116,1,88.000002685547,2|0,3:2|0:0,0:0:0:0:
232,262,89470,1,2,0:2:0:0:
96,151,89595,2,0,L|279:105,1,176.000005371094,8|0,3:0|0:0,0:0:0:0:
360,228,89970,6,0,P|376:275|365:315,1,88.000002685547,0|0,3:0|0:0,0:0:0:0:
200,348,90220,1,0,3:0:0:0:
124,216,90345,1,0,0:0:0:0:
304,168,90470,2,0,L|255:263,1,88.000002685547,8|2,3:0|0:2,0:0:0:0:
200,348,90720,1,2,0:2:0:0:
65,294,90845,6,0,P|31:216|69:140,1,176.000005371094,0|0,3:0|0:0,0:0:0:0:
304,168,91220,2,0,B|152:208|152:208|164:176,1,176.000005371094,0|0,3:0|0:0,0:0:0:0:
382,78,91595,2,0,P|419:154|385:232,1,176.000005371094,8|0,3:0|0:0,0:0:0:0:
152,208,91970,6,0,P|96:196|56:212,1,88.000002685547,0|0,3:0|0:0,0:0:0:0:
160,324,92220,1,0,3:0:0:0:
299,189,92345,1,0,0:0:0:0:
386,284,92470,2,0,P|396:340|386:376,2,88.000002685547,8|2|0,3:0|0:2|0:0,0:0:0:0:
298,189,92845,6,0,L|214:213,1,88.000002685547,2|0,3:2|0:0,0:0:0:0:
343,101,93095,1,0,0:0:0:0:
386,284,93220,2,0,L|488:312,1,88.000002685547,2|0,3:2|0:0,0:0:0:0:
384,188,93470,1,0,0:0:0:0:
248,315,93595,2,0,B|92:323|92:323|124:279,1,176.000005371094,8|0,3:3|0:0,0:0:0:0:
296,140,93970,6,0,P|311:189|300:232,1,88.000002685547,0|0,3:0|0:0,0:0:0:0:
248,315,94220,1,0,3:0:0:0:
80,200,94345,1,0,0:0:0:0:
16,272,94470,2,0,P|4:324|20:372,1,88.000002685547,8|0,3:0|0:0,0:0:0:0:
248,315,94720,5,0,0:0:0:0:
80,200,94845,2,0,P|24:176|-28:192,1,88.000002685547,2|0,3:2|0:0,0:0:0:0:
16,272,95095,5,0,0:0:0:0:
193,158,95220,2,0,P|249:135|301:153,1,88.000002685547,2|0,3:2|0:0,0:0:0:0:
254,232,95470,5,0,0:0:0:0:
86,120,95595,2,0,P|29:97|-22:115,1,88.000002685547,8|0,3:3|0:0,0:0:0:0:
120,296,95845,5,2,0:2:0:0:
254,232,95970,2,0,L|348:192,1,88.000002685547,2|0,3:2|0:0,0:0:0:0:
169,146,96220,2,0,L|72:115,1,88.000002685547,2|0,3:2|0:0,0:0:0:0:
348,96,96470,5,8,3:0:0:0:
334,197,96595,1,0,3:0:0:0:
420,156,96720,1,0,3:0:0:0:
169,146,96845,6,0,P|154:197|179:258,1,88.000002685547,2|2,3:2|0:2,0:0:0:0:
280,324,97095,1,0,0:0:0:0:
280,324,97220,2,0,L|408:344,1,88.000002685547,0|0,3:0|0:0,0:0:0:0:
484,248,97470,1,0,0:0:0:0:
272,160,97595,2,0,B|243:249|243:249|285:337,1,176.000005371094,8|0,3:0|0:0,0:0:0:0:
472,128,97970,6,0,P|423:105|383:117,1,88.000002685547,0|0,3:0|0:0,0:0:0:0:
272,160,98220,1,0,3:0:0:0:
392,276,98345,1,2,0:2:0:0:
392,276,98470,2,0,L|416:192,1,88.000002685547,8|0,3:3|0:0,0:0:0:0:
464,32,98720,1,0,0:0:0:0:
272,160,98845,6,0,P|196:204|116:148,1,176.000005371094,2|0,3:2|0:0,0:0:0:0:
56,65,99220,2,0,B|87:31|142:29|181:73|181:73|237:81,1,176.000005371094,0|0,3:0|0:0,0:0:0:0:
272,160,99595,2,0,B|305:164|305:164|343:209|398:207|430:173,1,176.000005371094,8|0,3:0|0:0,0:0:0:0:
384,29,99970,6,0,L|372:137,1,88.000002685547,0|0,3:0|0:0,0:0:0:0:
360,240,100220,1,0,3:0:0:0:
187,110,100345,1,0,0:0:0:0:
299,27,100470,2,0,P|345:18|395:35,1,88.000002685547,8|0,3:0|0:0,0:0:0:0:
472,156,100720,5,0,0:0:0:0:
296,110,100845,2,0,P|288:50|312:10,1,88.000002685547,2|0,3:2|0:0,0:0:0:0:
472,156,101095,5,0,0:0:0:0:
260,193,101220,2,0,L|162:211,1,88.000002685547,2|0,3:2|0:0,0:0:0:0:
75,229,101470,1,0,0:0:0:0:
316,261,101595,2,0,P|337:158|275:100,1,176.000005371094,8|0,3:0|0:0,0:0:0:0:
75,229,101970,6,0,L|168:209,1,88.000002685547,0|0,3:0|0:0,0:0:0:0:
260,193,102220,1,0,3:0:0:0:
312,348,102345,1,0,0:0:0:0:
427,259,102470,2,0,P|436:215|423:171,1,88.000002685547,8|2,3:0|0:2,0:0:0:0:
312,80,102720,5,2,0:2:0:0:
172,183,102845,2,0,L|276:194,1,88.000002685547,0|0,3:0|0:0,0:0:0:0:
207,89,103095,1,0,0:0:0:0:
138,267,103220,2,0,L|42:273,1,88.000002685547,0|0,3:0|0:0,0:0:0:0:
104,104,103470,1,0,0:0:0:0:
259,192,103595,2,0,P|275:244|263:288,1,88.000002685547,8|0,3:0|0:0,0:0:0:0:
32,304,103845,5,8,3:0:0:0:
207,89,103970,1,8,3:0:0:0:
268,275,104095,6,0,L|268:323,1,44.0000013427735,8|0,3:3|3:0,0:0:0:0:
401,186,104220,2,0,L|411:134,1,44.0000013427735,0|0,3:0|3:0,3:0:0:0:
259,192,104345,6,0,P|284:190|320:194,1,44.0000013427735,0|0,3:0|3:0,3:0:0:0:
472,286,104470,2,0,P|447:288|411:284,1,44.0000013427735,0|0,3:0|3:0,3:0:0:0:
268,275,104595,5,0,3:0:0:0:
232,300,104657,1,0,3:0:0:0:
190,311,104720,1,0,3:0:0:0:
146,305,104782,1,0,3:0:0:0:
108,284,104845,6,0,P|53:198|76:102,1,191.999994140625,0|8,3:0|3:0,0:0:0:0:
240,60,105220,1,0,0:0:0:0:
324,192,105345,2,0,L|216:160,1,95.9999970703126,0|0,3:0|3:0,0:0:0:0:
68,114,105595,2,0,P|51:163|63:232,1,95.9999970703126,8|0,3:0|0:0,0:0:0:0:
280,296,105845,1,0,3:0:0:0:
231,164,105970,1,0,0:0:0:0:
162,297,106095,1,8,3:0:0:0:
324,192,106220,1,0,0:0:0:0:
144,192,106345,5,0,0:0:0:0:
224,360,106470,1,0,3:0:0:0:
376,272,106595,2,0,L|472:224,1,95.9999970703126,8|0,3:0|0:0,0:0:0:0:
300,100,106845,5,0,3:0:0:0:
280,296,106970,1,0,0:0:0:0:
144,192,107095,2,0,P|124:132|144:84,1,95.9999970703126,8|0,3:0|0:0,0:0:0:0:
387,181,107345,5,0,3:0:0:0:
186,275,107470,1,0,3:0:0:0:
211,133,107595,1,8,3:0:0:0:
303,348,107720,1,0,0:0:0:0:
72,316,107845,6,0,P|56:260|85:201,1,95.9999970703126,0|0,3:0|0:0,0:0:0:0:
211,133,108095,1,8,3:0:0:0:
404,280,108220,2,0,P|458:270|496:221,1,95.9999970703126,0|0,3:0|0:0,0:0:0:0:
333,92,108470,5,0,3:0:0:0:
262,275,108595,1,8,3:0:0:0:
211,133,108720,1,0,0:0:0:0:
168,332,108845,6,0,B|197:336|197:336|240:376|296:376|328:332|328:332|364:324,1,191.999994140625,0|8,3:0|3:0,0:0:0:0:
504,262,109220,1,0,0:0:0:0:
262,275,109345,2,0,P|240:208|268:160,1,95.9999970703126,0|0,3:0|3:0,3:0:0:0:
418,86,109595,2,0,L|521:98,1,95.9999970703126,8|0,3:0|0:0,0:0:0:0:
322,220,109845,5,0,3:0:0:0:
436,219,109970,1,0,0:0:0:0:
246,186,110095,1,8,3:0:0:0:
504,262,110220,1,0,0:0:0:0:
313,136,110345,5,0,0:0:0:0:
429,303,110470,1,0,3:0:0:0:
380,84,110595,1,8,3:0:0:0:
353,341,110720,1,0,0:0:0:0:
173,232,110845,6,0,P|161:171|184:126,1,95.9999970703126,0|0,3:0|0:0,0:0:0:0:
313,136,111095,1,8,3:0:0:0:
216,304,111220,1,0,0:0:0:0:
76,148,111345,2,0,L|196:138,1,95.9999970703126,0|0,3:0|3:0,3:0:0:0:
384,256,111595,5,8,3:0:0:0:
172,232,111720,1,0,0:0:0:0:
289,47,111845,2,0,P|313:91|313:135,1,95.9999970703126,0|0,3:0|0:0,0:0:0:0:
216,304,112095,1,8,3:0:0:0:
1,201,112220,2,0,P|39:159|87:147,1,95.9999970703126,0|0,3:0|0:0,0:0:0:0:
268,228,112470,1,0,3:0:0:0:
76,358,112595,2,0,P|56:283|83:211,1,143.999995605469,8|0,3:0|0:0,0:0:0:0:
87,212,112845,6,0,B|150:269|190:167|277:234,1,191.999994140625,0|8,3:0|3:0,0:0:0:0:
344,336,113220,1,0,0:0:0:0:
136,152,113345,2,0,P|128:104|144:56,1,95.9999970703126,0|0,3:0|3:0,3:0:0:0:
338,243,113595,2,0,P|351:288|343:335,1,95.9999970703126,8|0,3:0|0:0,0:0:0:0:
92,296,113845,1,0,3:0:0:0:
202,224,113970,1,0,0:0:0:0:
216,356,114095,1,8,3:0:0:0:
60,184,114220,1,0,0:0:0:0:
338,243,114345,5,0,0:0:0:0:
92,296,114470,1,0,3:0:0:0:
136,152,114595,2,0,P|186:133|244:148,1,95.9999970703126,8|0,3:0|0:0,0:0:0:0:
332,336,114845,5,0,3:0:0:0:
404,136,114970,1,0,0:0:0:0:
489,265,115095,2,0,P|502:324|484:369,1,95.9999970703126,8|0,3:0|0:0,0:0:0:0:
280,184,115345,1,0,3:0:0:0:
332,336,115470,1,0,3:0:0:0:
404,136,115595,1,8,3:0:0:0:
232,292,115720,5,0,0:0:0:0:
484,188,115845,2,0,P|496:128|468:80,1,95.9999970703126,0|0,3:0|0:0,0:0:0:0:
226,139,116095,1,8,3:0:0:0:
384,264,116220,2,0,L|468:328,1,95.9999970703126
404,136,116470,1,0,3:0:0:0:
232,292,116595,2,0,P|160:304|132:294,1,95.9999970703126,8|0,3:0|0:0,0:0:0:0:
226,139,116845,6,0,B|269:162|269:162|342:102|435:151,1,191.999994140625,0|8,3:0|3:0,0:0:0:0:
376,296,117220,1,0,0:0:0:0:
139,297,117345,2,0,P|127:237|155:185,1,95.9999970703126,0|0,3:0|3:0,3:0:0:0:
455,256,117595,2,0,P|467:301|454:347,1,95.9999970703126,8|0,3:0|0:0,0:0:0:0:
139,297,117845,5,0,3:0:0:0:
336,128,117970,1,0,0:0:0:0:
223,295,118095,1,8,3:0:0:0:
252,144,118220,1,0,0:0:0:0:
312,288,118345,5,0,0:0:0:0:
164,168,118470,1,0,3:0:0:0:
392,192,118595,1,8,3:0:0:0:
80,232,118720,1,0,0:0:0:0:
304,378,118845,6,0,P|320:314|296:266,1,95.9999970703126,0|0,3:0|0:0,0:0:0:0:
164,168,119095,1,8,3:0:0:0:
96,328,119220,1,0,0:0:0:0:
312,288,119345,1,0,3:0:0:0:
68,140,119470,5,0,3:0:0:0:
205,307,119595,1,8,3:0:0:0:
288,168,119720,1,0,3:0:0:0:
143,73,119845,6,0,P|59:43|-1:69,1,143.999995605469,4|0,3:2|0:0,0:0:0:0:
68,140,120095,2,0,P|96:200|60:272,1,143.999995605469,4|0,3:2|0:0,0:0:0:0:
20,204,120345,5,0,3:0:0:0:
67,203,120407,1,0,3:0:0:0:
115,202,120470,1,0,3:0:0:0:
163,201,120532,1,0,3:0:0:0:
211,200,120595,1,0,3:0:0:0:
420,128,120845,6,0,P|456:208|408:290,1,160,0|0,3:0|0:0,0:0:0:0:
336,324,121220,1,0,3:0:0:0:
262,135,121470,5,0,0:0:0:0:
228,280,121595,2,0,L|208:360,1,80,2|0,0:3|0:0,0:0:0:0:
92,206,121845,2,0,P|50:197|15:206,2,80,0|0|0,0:0|3:0|0:0,0:0:0:0:
228,280,122220,1,0,3:0:0:0:
312,144,122470,5,2,0:3:0:0:
360,284,122595,2,0,L|396:386,1,80
461,170,122845,6,0,P|389:135|303:147,1,160,0|0,3:0|0:0,0:0:0:0:
218,188,123220,1,0,3:0:0:0:
168,84,123470,5,0,0:0:0:0:
54,240,123595,2,0,P|94:249|145:230,1,80,2|0,0:3|0:0,0:0:0:0:
218,188,123845,5,0,0:0:0:0:
296,92,123970,2,0,P|308:48|300:8,1,80,0|0,3:0|0:0,0:0:0:0:
140,156,124220,2,0,P|131:203|151:258,1,80,0|0,3:0|0:0,0:0:0:0:
212,336,124470,5,2,0:3:0:0:
295,196,124595,2,0,P|246:182|191:200,1,80
28,236,124845,6,0,P|-7:168|23:83,1,160,0|0,3:0|0:0,0:0:0:0:
148,172,125220,1,0,3:0:0:0:
148,172,125470,5,0,0:0:0:0:
295,196,125595,2,0,P|311:144|299:108,1,80,2|0,0:3|0:0,0:0:0:0:
124,64,125845,2,0,L|37:39,2,80,0|0|0,0:0|3:0|0:0,0:0:0:0:
304,120,126220,1,0,3:0:0:0:
304,120,126470,5,2,0:3:0:0:
127,141,126595,2,0,P|116:94|128:54,1,80
302,42,126845,6,0,P|381:143|305:196,1,240,0|0,3:0|3:0,0:0:0:0:
304,120,127345,2,0,L|209:90,3,71.9999978027344,0|0|2|0,0:0|0:0|0:3|0:0,0:0:0:0:
236,200,127845,6,0,L|160:208,3,64,0|0|0|0,0:0|3:0|0:0|3:0,0:0:0:0:
178,297,128345,6,0,L|118:323,3,55.9999982910157,0|8|0|0,0:0|0:3|0:0|0:0,0:0:0:0:
304,248,128845,5,0,3:0:0:0:
304,248,129095,5,0,0:0:0:0:
66,231,129220,2,0,P|56:284|66:318,1,80,0|0,3:0|0:0,0:0:0:0:
144,272,129470,1,0,0:0:0:0:
284,160,129595,1,8,3:0:0:0:
72,153,129845,6,0,P|61:189|68:237,2,80,0|0|0,0:0|3:0|0:0,0:0:0:0:
180,56,130220,1,0,3:0:0:0:
180,56,130470,5,8,3:0:0:0:
196,184,130595,1,0,3:0:0:0:
272,80,130720,5,0,3:0:0:0:
300,256,130845,1,0,3:0:0:0:
300,256,131095,5,0,0:0:0:0:
476,228,131220,2,0,P|488:280|476:328,1,80,0|0,3:0|0:0,0:0:0:0:
404,272,131470,1,0,0:0:0:0:
268,156,131595,1,8,3:0:0:0:
180,130,131845,6,0,P|222:83|302:83,1,120
268,156,132095,6,0,P|324:173|378:152,1,120,0|0,3:0|0:0,0:0:0:0:
456,108,132345,6,0,P|470:157|460:196,1,80,0|8,2:0|3:0,2:0:0:0:
404,272,132595,1,0,3:0:0:0:
404,272,132720,1,0,3:0:0:0:
288,288,132845,6,0,B|224:309|224:309|181:292|181:292|133:341|73:331|37:281,1,264.000008056641,0|0,3:0|0:0,0:0:0:0:
26,263,133345,5,0,3:0:0:0:
163,122,133470,1,0,3:0:0:0:
114,247,133595,1,0,3:0:0:0:
255,99,133720,1,0,3:0:0:0:
288,288,133845,5,0,3:0:0:0:
114,247,133970,1,0,3:0:0:0:
384,152,134095,1,0,3:0:0:0:
176,336,134220,1,0,3:0:0:0:
255,99,134345,5,8,3:0:0:0:
288,288,134470,1,0,3:0:0:0:
92,168,134595,5,0,3:0:0:0:
452,216,134720,1,0,3:0:0:0:
256,192,134845,12,0,135720,0:0:0:0:
304,260,135845,6,2,L|261:260,15,32,2|2|2|2|2|2|2|2|2|2|2|2|2|2|2|2,0:2|0:2|0:2|0:2|0:2|0:2|0:2|0:2|0:2|0:2|0:2|0:2|0:2|0:2|0:2|0:2,0:2:0:0:
376,216,136845,6,0,P|387:262|376:312,1,95.9999970703126,0|0,3:0|0:0,0:0:0:0:
160,196,137095,2,0,P|148:146|162:98,1,95.9999970703126,8|0,3:0|0:0,0:0:0:0:
264,149,137345,1,0,3:0:0:0:
70,237,137470,1,0,3:0:0:0:
112,40,137595,2,0,P|166:24|226:49,1,95.9999970703126,8|0,3:0|0:0,0:0:0:0:
328,196,137845,5,0,3:0:0:0:
70,237,137970,1,0,0:0:0:0:
158,103,138095,1,8,3:0:0:0:
236,220,138220,2,0,P|253:274|232:328,1,95.9999970703126,0|0,3:0|0:0,0:0:0:0:
40,344,138470,5,0,3:0:0:0:
168,272,138595,1,0,3:0:0:0:
40,344,138720,1,0,0:0:0:0:
291,365,138845,6,0,P|305:321|279:265,1,95.9999970703126,0|0,3:0|0:0,0:0:0:0:
136,176,139095,2,0,L|40:200,1,95.9999970703126,8|0,3:0|0:0,0:0:0:0:
168,272,139345,1,0,3:0:0:0:
232,92,139470,1,0,3:0:0:0:
47,107,139595,2,0,P|33:166|61:226,1,95.9999970703126,8|0,3:0|0:0,0:0:0:0:
168,272,139845,5,0,3:0:0:0:
248,180,139970,1,0,0:0:0:0:
316,364,140095,1,8,3:0:0:0:
406,240,140220,2,0,P|352:222|304:238,1,95.9999970703126,0|0,3:0|0:0,0:0:0:0:
168,272,140470,5,0,3:0:0:0:
205,361,140595,1,8,3:0:0:0:
260,284,140720,1,0,0:0:0:0:
123,341,140845,6,0,L|29:376,1,95.9999970703126,0|0,3:0|0:0,0:0:0:0:
393,369,141095,1,8,3:0:0:0:
168,272,141220,2,0,L|59:223,1,95.9999970703126,0|0,0:0|3:0,0:0:0:0:
276,160,141470,5,0,3:0:0:0:
260,284,141595,1,8,3:0:0:0:
379,235,141720,1,0,0:0:0:0:
80,232,141845,6,0,P|64:276|80:332,1,95.9999970703126,0|0,3:0|0:0,0:0:0:0:
260,284,142095,1,8,3:0:0:0:
133,132,142220,2,0,P|78:114|21:135,1,95.9999970703126,0|0,3:0|0:0,0:0:0:0:
80,232,142470,1,0,3:0:0:0:
340,124,142595,2,0,P|386:116|431:134,1,95.9999970703126,0|0,3:0|0:0,0:0:0:0:
384,236,142845,5,0,3:0:0:0:
260,160,142970,1,0,0:0:0:0:
260,284,143095,1,8,3:0:0:0:
376,128,143220,5,0,0:0:0:0:
176,220,143345,1,0,3:0:0:0:
360,336,143470,1,0,3:0:0:0:
260,160,143595,5,8,3:0:0:0:
260,284,143720,1,0,3:0:0:0:
384,236,143845,2,0,L|452:212,3,47.9999985351563,0|0|0|0,3:0|3:0|3:0|3:0,3:0:0:0:
312,335,144095,2,0,L|369:336,3,47.9999985351563,0|0|0|0,3:0|3:0|3:0|3:0,3:0:0:0:
260,284,144345,5,2,3:2:0:0:
227,268,144407,1,2,3:2:0:0:
192,263,144470,1,2,3:2:0:0:
157,272,144532,1,2,3:2:0:0:
127,291,144595,5,2,3:2:0:0:
91,260,144657,1,2,3:2:0:0:
76,215,144720,1,2,3:2:0:0:
86,169,144782,1,2,3:2:0:0:
120,136,144845,2,0,P|166:111|229:122,1,95.9999970703126,0|0,3:0|0:0,0:0:0:0:
408,244,145095,2,0,P|428:188|412:140,1,95.9999970703126,8|0,3:0|0:0,0:0:0:0:
284,196,145345,5,0,3:0:0:0:
408,364,145470,1,0,3:0:0:0:
498,277,145595,2,0,L|400:241,1,95.9999970703126,8|0,3:0|0:0,0:0:0:0:
284,196,145845,5,0,3:0:0:0:
304,328,145970,1,0,0:0:0:0:
378,152,146095,1,8,3:0:0:0:
204,140,146220,2,0,P|184:187|196:239,1,95.9999970703126,0|0,3:0|0:0,0:0:0:0:
424,272,146470,5,0,3:0:0:0:
284,196,146595,1,8,3:0:0:0:
424,272,146720,1,0,0:0:0:0:
214,348,146845,6,0,P|202:293|218:248,1,95.9999970703126,0|0,3:0|0:0,0:0:0:0:
424,180,147095,2,0,P|435:226|423:271,1,95.9999970703126,8|0,3:0|0:0,0:0:0:0:
308,312,147345,1,0,3:0:0:0:
148,220,147470,1,0,3:0:0:0:
269,101,147595,2,0,L|285:205,1,95.9999970703126,8|0,3:0|0:0,0:0:0:0:
308,312,147845,5,0,3:0:0:0:
424,180,147970,1,0,0:0:0:0:
196,156,148095,1,8,3:0:0:0:
423,272,148220,2,0,P|435:226|407:157,1,95.9999970703126,0|0,3:0|0:0,0:0:0:0:
152,60,148470,5,0,3:0:0:0:
196,156,148595,1,8,3:0:0:0:
264,64,148720,1,0,0:0:0:0:
73,154,148845,6,0,P|56:209|77:274,1,95.9999970703126,0|0,3:0|0:0,0:0:0:0:
168,348,149095,1,8,3:0:0:0:
316,264,149220,2,0,P|326:206|300:159,1,95.9999970703126,0|0,0:0|3:0,0:0:0:0:
73,154,149470,5,0,3:0:0:0:
224,228,149595,1,8,3:0:0:0:
264,64,149720,1,0,0:0:0:0:
140,220,149845,6,0,L|76:328,1,95.9999970703126,0|0,3:0|0:0,0:0:0:0:
320,328,150095,1,8,3:0:0:0:
203,141,150220,2,0,P|148:123|93:145,1,95.9999970703126,0|0,3:0|0:0,0:0:0:0:
140,220,150470,5,0,3:0:0:0:
320,328,150595,2,0,P|375:344|436:324,1,95.9999970703126,8|0,3:0|0:0,0:0:0:0:
296,147,150845,6,0,B|241:133|241:133|181:145,1,95.9999970703126,0|0,3:0|0:0,0:0:0:0:
24,284,151095,2,0,B|79:298|79:298|139:286,1,95.9999970703126,8|0,3:0|0:0,0:0:0:0:
244,236,151345,1,0,3:0:0:0:
124,88,151470,1,0,3:0:0:0:
24,284,151595,2,0,P|11:333|28:384,1,95.9999970703126,8|0,3:0|0:0,0:0:0:0:
244,236,151845,6,0,L|232:296,3,47.9999985351563,0|0|0|0,3:0|3:0|3:0|3:0,3:0:0:0:
272,200,152095,1,0,3:0:0:0:
314,178,152157,1,0,3:0:0:0:
361,173,152220,1,0,3:0:0:0:
407,187,152282,1,0,3:0:0:0:
445,217,152345,6,0,P|464:240|474:272,1,47.9999985351563,2|0,3:2|0:0,0:0:0:0:
251,282,152470,2,0,P|243:246|247:222,1,47.9999985351563,2|0,3:2|0:0,0:0:0:0:
346,70,152595,6,0,P|368:126|346:198,1,107.999996704102,2|0,3:2|0:0,0:0:0:0:
282,131,152845,6,0,P|221:114|166:139,1,103.999995239258,8|0,3:0|0:0,0:0:0:0:
340,304,153095,2,0,P|401:321|456:296,1,103.999995239258,8|0,3:0|0:0,0:0:0:0:
183,125,153345,5,8,3:0:0:0:
128,280,153470,1,0,0:0:0:0:
388,232,153595,2,0,P|397:173|368:116,1,103.999995239258,8|0,3:0|0:0,0:0:0:0:
183,125,153845,6,0,P|123:139|81:122,1,103.999995239258,8|0,3:0|0:0,0:0:0:0:
260,36,154095,1,8,3:0:0:0:
388,232,154220,2,0,P|448:246|490:229,1,103.999995239258,0|8,0:0|3:0,0:0:0:0:
304,148,154470,1,0,0:0:0:0:
196,352,154595,1,8,3:0:0:0:
104,200,154720,5,0,3:0:0:0:
104,200,154782,1,0,3:0:0:0:
104,200,154845,2,0,B|52:188|52:188|2:197,1,103.999995239258,8|0,3:0|0:0,0:0:0:0:
305,337,155095,2,0,B|357:349|357:349|406:339,1,103.999995239258,8|0,3:0|0:0,0:0:0:0:
220,124,155345,1,8,3:0:0:0:
104,336,155470,1,0,0:0:0:0:
360,252,155595,1,8,3:0:0:0:
104,200,155720,1,0,0:0:0:0:
305,337,155845,6,0,P|363:358|437:334,1,103.999995239258,8|0,3:0|0:0,0:0:0:0:
296,104,156095,1,8,3:0:0:0:
104,200,156220,2,0,P|87:254|116:324,1,103.999995239258,0|8,0:0|3:0,0:0:0:0:
360,252,156470,1,0,0:0:0:0:
160,120,156595,2,0,P|98:101|39:128,1,103.999995239258,8|0,3:0|0:0,0:0:0:0:
202,319,156845,6,0,L|329:341,1,103.999995239258,8|0,3:0|0:0,0:0:0:0:
232,172,157095,1,8,3:0:0:0:
100,336,157220,1,0,0:0:0:0:
360,252,157345,2,0,P|372:197|336:136,1,103.999995239258,8|0,3:0|0:0,0:0:0:0:
220,56,157595,1,8,3:0:0:0:
92,176,157720,1,0,0:0:0:0:
360,252,157845,2,0,L|476:284,1,103.999995239258,8|0,3:0|0:0,0:0:0:0:
232,172,158095,5,8,3:0:0:0:
295,335,158220,1,0,0:0:0:0:
354,154,158345,1,8,3:0:0:0:
432,356,158470,1,0,0:0:0:0:
488,196,158595,5,8,3:0:0:0:
196,340,158720,1,0,3:0:0:0:
196,340,158782,1,0,3:0:0:0:
196,340,158845,2,0,P|172:284|188:228,1,103.999995239258,8|0,3:0|0:0,0:0:0:0:
250,146,159095,1,8,3:0:0:0:
488,196,159220,2,0,P|498:255|470:306,1,103.999995239258,0|8,0:0|3:0,0:0:0:0:
368,344,159470,1,0,0:0:0:0:
250,146,159595,2,0,L|380:136,1,103.999995239258,8|0,3:0|0:0,0:0:0:0:
488,196,159845,5,8,3:0:0:0:
244,272,159970,1,0,0:0:0:0:
312,40,160095,1,8,3:0:0:0:
384,240,160220,5,0,3:0:0:0:
384,240,160282,1,0,3:0:0:0:
384,240,160345,1,8,3:0:0:0:
250,146,160470,1,0,0:0:0:0:
404,84,160595,1,8,3:0:0:0:
244,272,160720,1,8,3:0:0:0:
135,154,160845,6,0,B|137:95|137:95|170:43,1,103.999995239258,8|0,3:0|0:0,0:0:0:0:
396,248,161095,2,0,B|407:304|407:304|392:360,1,103.999995239258,8|0,3:0|0:0,0:0:0:0:
101,296,161345,5,8,3:0:0:0:
250,146,161470,1,0,0:0:0:0:
292,348,161595,2,0,P|347:364|405:341,1,103.999995239258,8|0,3:0|0:0,0:0:0:0:
132,196,161845,6,0,L|100:296,1,103.999995239258,8|0,3:0|0:0,0:0:0:0:
344,212,162095,1,8,3:0:0:0:
108,88,162220,2,0,P|47:77|0:96,1,103.999995239258,0|8,0:0|3:0,0:0:0:0:
96,292,162470,1,0,0:0:0:0:
256,108,162595,1,8,3:0:0:0:
420,272,162720,5,0,3:0:0:0:
420,272,162782,1,0,3:0:0:0:
420,272,162845,2,0,P|436:212|404:148,1,103.999995239258,8|0,3:0|0:0,0:0:0:0:
108,88,163095,2,0,P|92:140|116:200,1,103.999995239258,8|0,3:0|0:0,0:0:0:0:
344,216,163345,1,8,3:0:0:0:
176,140,163470,1,0,0:0:0:0:
204,296,163595,1,8,3:0:0:0:
344,84,163720,1,0,0:0:0:0:
108,88,163845,6,0,P|90:143|116:204,1,103.999995239258,8|0,3:0|0:0,0:0:0:0:
304,296,164095,1,8,3:0:0:0:
505,158,164220,2,0,L|392:152,1,103.999995239258,0|8,0:0|3:0,0:0:0:0:
176,140,164470,1,0,0:0:0:0:
304,296,164595,2,0,P|328:216|298:152,1,155.999992858887,8|0,3:0|0:0,0:0:0:0:
272,128,164845,6,0,P|260:72|284:20,1,103.999995239258,8|0,3:0|0:0,0:0:0:0:
476,128,165095,1,10,3:3:0:0:
240,228,165220,1,0,0:3:0:0:
345,78,165345,1,10,3:3:0:0:
304,296,165470,1,0,0:3:0:0:
272,128,165595,1,10,3:3:0:0:
210,342,165720,1,0,0:3:0:0:
80,160,165845,6,0,P|132:143|188:164,1,103.999995239258,10|0,3:0|0:0,0:0:0:0:
304,296,166095,1,10,3:0:0:0:
112,252,166220,1,0,0:0:0:0:
272,128,166345,1,10,3:0:0:0:
210,342,166470,1,0,0:0:0:0:
80,160,166595,1,10,3:0:0:0:
372,208,166720,5,0,3:0:0:0:
372,208,166782,1,0,3:0:0:0:
372,208,166845,2,0,P|396:154|380:96,1,103.999995239258,10|2,3:0|0:3,0:0:0:0:
192,44,167095,1,8,3:3:0:0:
80,160,167220,2,0,P|65:211|76:268,1,103.999995239258,2|10,0:3|3:0,0:0:0:0:
216,344,167470,1,0,0:3:0:0:
372,208,167595,2,0,P|310:187|260:204,1,103.999995239258,10|0,3:3|0:0,0:0:0:0:
161,279,167845,5,10,3:0:0:0:
312,272,167970,1,0,3:0:0:0:
107,214,168095,5,10,3:0:0:0:
366,335,168220,1,0,3:0:0:0:
68,288,168345,5,0,3:0:0:0:
34,249,168407,1,0,3:0:0:0:
30,198,168470,1,0,3:0:0:0:
56,154,168532,1,0,3:0:0:0:
103,133,168595,1,0,3:0:0:0:
153,144,168657,1,0,3:0:0:0:
196,172,168720,1,0,3:0:0:0:
247,178,168782,1,0,3:0:0:0:
295,161,168845,6,0,P|396:136|484:184,1,176.000005371094,2|0,3:3|0:0,0:0:0:0:
380,268,169220,1,2,3:3:0:0:
380,268,169470,5,0,0:0:0:0:
210,349,169595,2,0,P|154:357|114:341,1,88.000002685547,0|0,3:0|0:0,0:0:0:0:
295,272,169845,2,0,P|340:259|387:272,2,88.000002685547,0|0|2,0:0|0:0|0:2,0:0:0:0:
210,349,170220,1,2,0:2:0:0:
210,349,170470,5,2,0:2:0:0:
156,212,170595,1,2,0:2:0:0:
112,296,170720,1,2,0:2:0:0:
295,272,170845,6,0,P|298:222|268:176,1,88.000002685547,2|0,0:2|0:2,0:0:0:0:
200,124,171095,1,2,2:0:0:0:
71,210,171220,6,0,P|114:222|158:210,1,88.000002685547,2|0,3:2|0:2,0:0:0:0:
288,104,171470,1,2,2:0:0:0:
195,39,171595,6,0,P|187:87|199:123,1,88.000002685547,2|2,0:2|0:2,0:0:0:0:
360,217,171845,1,2,2:2:0:0:
472,160,171970,6,0,P|480:112|468:72,2,88.000002685547,2|0|0,3:2|0:0|3:0,0:0:0:0:
275,255,172345,1,0,0:0:0:0:
275,255,172470,2,0,P|263:214|284:161,1,88.000002685547,8|0,0:3|0:0,0:0:0:0:
365,107,172720,1,0,0:0:0:0:
350,299,172845,6,0,P|271:340|193:289,1,176.000005371094,2|0,3:3|0:0,0:0:0:0:
275,171,173220,1,2,3:3:0:0:
275,171,173470,5,0,0:0:0:0:
164,80,173595,2,0,P|108:68|76:76,1,88.000002685547
189,165,173845,2,0,P|245:177|277:169,2,88.000002685547,0|2|0,0:0|3:2|0:0,0:0:0:0:
76,72,174220,1,2,3:2:0:0:
76,72,174470,5,2,0:2:0:0:
109,161,174595,1,2,0:2:0:0:
164,80,174720,1,2,0:2:0:0:
76,72,174845,5,8,0:3:0:0:
51,237,174970,1,2,3:2:0:0:
205,170,175095,1,2,3:2:0:0:
109,161,175220,5,8,0:3:0:0:
84,332,175345,1,8,0:3:0:0:
248,260,175470,1,2,3:2:0:0:
148,248,175595,5,2,0:2:0:0:
184,340,175720,1,6,0:2:0:0:
348,276,175845,2,0,P|394:270|440:288,2,88.000002685547,0|0|0,0:2|3:0|0:0,0:0:0:0:
288,352,176220,1,0,3:0:0:0:
288,352,176470,5,8,0:3:0:0:
175,218,176595,2,0,P|127:207|83:219,1,88.000002685547,0|0,3:0|0:0,0:0:0:0:
172,312,176845,5,2,3:0:0:0:
260,168,176970,1,0,0:0:0:0:
89,215,177095,1,2,0:3:0:0:
172,312,177220,2,0,P|232:334|280:312,1,95.9999970703126,2|0,3:3|0:0,0:0:0:0:
336,256,177470,1,0,0:0:0:0:
89,215,177595,2,0,P|77:271|93:323,1,95.9999970703126,10|0,0:3|0:0,0:0:0:0:
336,256,177845,1,0,0:0:0:0:
232,108,177970,1,2,0:3:0:0:
232,108,178470,5,8,0:3:0:0:
360,168,178595,2,0,P|420:184|468:164,1,95.9999970703126
340,60,178845,1,2,3:0:0:0:
256,244,178970,1,0,0:0:0:0:
448,172,179095,1,2,0:3:0:0:
340,60,179220,6,0,P|280:48|236:68,1,95.9999970703126,2|0,3:3|0:0,0:0:0:0:
204,140,179470,1,0,0:0:0:0:
448,172,179595,2,0,P|452:112|428:56,1,95.9999970703126,10|0,0:3|0:0,0:0:0:0:
204,140,179845,1,0,0:0:0:0:
332,296,179970,1,2,3:3:0:0:
332,296,180470,5,8,0:3:0:0:
204,140,180595,2,0,L|172:254,1,95.9999970703126
144,320,180845,2,0,P|92:340|48:332,2,95.9999970703126,2|0|0,3:3|0:0|0:0,0:0:0:0:
285,219,181220,2,0,P|337:203|393:231,1,95.9999970703126,2|0,3:3|0:0,0:0:0:0:
332,296,181470,1,0,0:0:0:0:
236,144,181595,2,8,L|175:42,1,95.9999970703126,10|0,0:3|0:0,0:3:0:0:
124,212,181845,1,0,0:0:0:0:
320,136,181970,1,2,3:3:0:0:
320,136,182470,5,8,0:3:0:0:
124,212,182595,2,0,L|147:100,1,95.9999970703126
160,32,182845,2,0,P|100:16|52:32,2,95.9999970703126,2|0|0,3:3|0:0|0:0,0:0:0:0:
272,206,183220,2,0,P|324:222|378:199,1,95.9999970703126,2|0,3:3|0:0,0:0:0:0:
320,136,183470,1,0,0:0:0:0:
224,276,183595,2,0,L|164:364,1,95.9999970703126,10|0,0:3|0:0,0:0:0:0:
339,364,183845,5,0,0:0:0:0:
188,203,183970,1,2,3:3:0:0:
312,280,184095,1,0,0:0:0:0:
169,355,184220,2,0,P|124:372|77:366,1,95.9999970703126,0|0,3:0|0:0,0:0:0:0:
104,188,184470,5,8,0:3:0:0:
188,203,184595,1,0,3:0:0:0:
124,280,184720,1,0,3:0:0:0:
77,97,184845,6,0,B|120:81|120:81|229:106|229:106|277:93,1,191.999994140625,0|8,3:0|3:0,0:0:0:0:
464,152,185220,1,0,0:0:0:0:
340,332,185345,2,0,L|256:255,1,95.9999970703126,0|0,3:0|3:0,3:0:0:0:
77,97,185595,2,0,P|52:144|60:208,1,95.9999970703126,8|0,3:0|0:0,0:0:0:0:
200,368,185845,1,0,3:0:0:0:
328,188,185970,1,0,0:0:0:0:
88,280,186095,1,8,3:0:0:0:
340,332,186220,1,0,0:0:0:0:
136,164,186345,1,0,0:0:0:0:
200,368,186470,5,0,3:0:0:0:
420,252,186595,2,0,P|439:202|423:143,1,95.9999970703126,8|0,3:0|0:0,0:0:0:0:
136,164,186845,1,0,3:0:0:0:
200,368,186970,1,0,0:0:0:0:
287,266,187095,2,0,L|366:181,1,95.9999970703126,8|0,3:0|0:0,0:0:0:0:
136,164,187345,5,0,3:0:0:0:
108,332,187470,1,0,3:0:0:0:
287,266,187595,1,8,3:0:0:0:
75,239,187720,5,0,3:0:0:0:
75,239,187782,1,0,3:0:0:0:
75,239,187845,1,0,3:0:0:0:
208,336,187970,1,0,3:0:0:0:
236,189,188095,1,8,3:0:0:0:
128,304,188220,5,0,0:0:0:0:
241,264,188345,1,0,3:0:0:0:
148,196,188470,1,0,3:0:0:0:
314,335,188595,6,0,P|343:281|305:188,1,143.999995605469,8|0,3:0|0:0,0:0:0:0:
296,176,188845,2,0,L|116:92,1,191.999994140625,0|8,3:0|3:0,0:0:0:0:
241,264,189220,1,0,0:0:0:0:
424,152,189345,2,0,P|446:98|419:42,1,95.9999970703126,0|0,3:0|3:0,3:0:0:0:
148,196,189595,2,0,P|126:238|135:284,1,95.9999970703126,8|0,3:0|0:0,0:0:0:0:
376,280,189845,5,0,3:0:0:0:
241,264,189970,1,0,0:0:0:0:
432,204,190095,1,8,3:0:0:0:
192,344,190220,1,0,0:0:0:0:
472,377,190345,6,0,P|487:318|456:265,1,95.9999970703126,0|0,0:0|3:0,0:0:0:0:
296,176,190595,1,8,3:0:0:0:
192,344,190720,1,0,0:0:0:0:
39,135,190845,2,0,P|89:118|153:142,1,95.9999970703126,0|0,3:0|0:0,0:0:0:0:
273,341,191095,5,8,3:0:0:0:
192,184,191220,1,0,0:0:0:0:
110,344,191345,1,0,3:0:0:0:
304,192,191470,5,0,3:0:0:0:
119,258,191595,1,8,3:0:0:0:
363,340,191720,1,0,0:0:0:0:
379,131,191845,2,0,P|323:100|275:102,1,95.9999970703126,0|0,3:0|0:0,0:0:0:0:
119,258,192095,1,8,3:0:0:0:
363,340,192220,2,0,L|372:224,1,95.9999970703126,0|0,3:0|0:0,0:0:0:0:
380,132,192470,1,0,0:0:0:0:
146,44,192595,2,0,P|116:88|164:181,1,143.999995605469,8|0,3:0|0:0,0:0:0:0:
194,109,192845,6,0,B|282:154|304:74|397:143,1,191.999994140625,0|8,3:0|3:0,0:0:0:0:
400,312,193220,1,0,0:0:0:0:
201,199,193345,2,0,P|185:135|209:87,1,95.9999970703126,0|0,3:0|3:0,3:0:0:0:
458,95,193595,2,0,P|467:141|450:185,1,95.9999970703126,8|0,3:0|0:0,0:0:0:0:
201,199,193845,1,0,3:0:0:0:
356,132,193970,1,0,0:0:0:0:
332,316,194095,1,8,3:0:0:0:
236,88,194220,1,0,0:0:0:0:
420,232,194345,5,0,0:0:0:0:
165,307,194470,1,0,3:0:0:0:
109,205,194595,2,0,P|157:189|209:203,1,95.9999970703126,8|0,3:0|0:0,0:0:0:0:
332,316,194845,1,0,3:0:0:0:
40,300,194970,1,0,0:0:0:0:
166,108,195095,2,0,L|206:215,1,95.9999970703126,8|0,3:0|0:0,0:0:0:0:
249,345,195345,5,0,3:0:0:0:
262,253,195470,1,0,3:0:0:0:
332,316,195595,1,8,3:0:0:0:
174,285,195720,5,0,3:0:0:0:
174,285,195782,1,0,3:0:0:0:
174,285,195845,1,0,3:0:0:0:
344,236,195970,1,0,3:0:0:0:
249,345,196095,1,8,3:0:0:0:
199,197,196220,5,0,3:0:0:0:
160,372,196345,1,0,0:0:0:0:
332,316,196470,1,0,3:0:0:0:
86,312,196595,2,0,P|65:236|110:158,1,143.999995605469,8|0,3:0|0:0,0:0:0:0:
110,153,196845,6,0,B|190:138|190:138|226:160|226:160|335:130,1,191.999994140625,0|0,3:0|3:0,0:0:0:0:
464,84,197220,1,0,0:0:0:0:
332,316,197345,2,0,P|307:264|317:207,1,95.9999970703126,0|0,3:0|3:0,3:0:0:0:
464,84,197595,2,0,P|489:136|479:193,1,95.9999970703126,8|0,3:0|0:0,0:0:0:0:
220,184,197845,5,0,3:0:0:0:
388,144,197970,1,0,0:0:0:0:
175,108,198095,1,8,3:0:0:0:
433,220,198220,1,0,0:0:0:0:
135,279,198345,6,0,P|123:215|143:163,1,95.9999970703126,0|0,0:0|3:0,0:0:0:0:
388,144,198595,1,8,3:0:0:0:
267,283,198720,1,0,0:0:0:0:
510,268,198845,2,0,P|520:214|480:141,1,95.9999970703126,0|0,3:0|0:0,0:0:0:0:
296,72,199095,5,8,3:0:0:0:
376,252,199220,1,0,0:0:0:0:
208,188,199345,1,0,3:0:0:0:
388,144,199470,5,0,3:0:0:0:
267,283,199595,1,0,0:0:0:0:
208,100,199720,1,8,3:0:0:0:
438,71,199845,6,0,P|475:141|430:231,1,143.999995605469,0|0,3:0|0:0,0:0:0:0:
436,228,200095,5,0,3:0:0:0:
406,216,200157,1,0,3:0:0:0:
376,212,200220,1,0,3:0:0:0:
342,219,200282,1,0,3:0:0:0:
308,244,200345,5,0,3:0:0:0:
268,270,200407,1,0,3:0:0:0:
224,280,200470,1,0,3:0:0:0:
174,274,200532,1,0,3:0:0:0:
132,251,200595,2,0,P|89:178|121:91,1,143.999995605469,4|0,3:2|0:0,3:0:0:0:
152,67,200845,6,0,P|172:107|169:160,2,80,2|0|0,3:2|0:0|0:0,0:0:0:0:
24,149,201220,2,0,P|65:127|116:126,1,80,2|0,3:2|0:0,0:0:0:0:
247,170,201470,5,4,0:2:0:0:
88,208,201595,1,0,0:0:0:0:
247,170,201720,2,0,P|258:126|247:78,1,80,2|0,0:2|0:0,0:0:0:0:
176,124,201970,5,0,3:0:0:0:
335,162,202095,1,0,0:0:0:0:
176,124,202220,2,0,P|165:80|176:32,1,80,2|0,3:2|0:0,0:0:0:0:
256,88,202470,5,2,0:3:0:0:
82,108,202595,1,0,0:0:0:0:
304,280,202845,6,0,P|312:328|304:360,2,80,2|0|0,3:2|0:0|0:0,0:0:0:0:
194,318,203220,2,0,L|90:322,1,80,2|0,3:2|0:0,0:0:0:0:
216,221,203470,5,2,0:3:0:0:
304,357,203595,1,0,0:0:0:0:
403,282,203720,2,0,P|415:239|396:184,1,80,2|0,0:2|0:0,0:0:0:0:
318,214,203970,5,0,3:0:0:0:
194,318,204095,1,0,0:0:0:0:
121,217,204220,2,0,P|122:172|156:125,1,80,2|0,3:2|0:0,0:0:0:0:
233,120,204470,5,2,0:3:0:0:
194,318,204595,1,0,0:0:0:0:
318,214,204720,1,0,0:0:0:0:
121,217,204845,6,0,P|116:169|134:131,2,80,2|0|0,3:2|0:0|0:0,0:0:0:0:
238,215,205220,2,0,L|330:213,1,80,2|0,3:2|0:0,0:0:0:0:
233,120,205470,5,2,0:3:0:0:
194,318,205595,1,0,0:0:0:0:
318,214,205720,1,2,0:2:0:0:
121,217,205845,2,0,P|109:265|125:305,2,80,0|0|0,0:0|3:0|0:0,0:0:0:0:
233,120,206220,1,2,3:2:0:0:
233,120,206470,5,2,0:3:0:0:
404,168,206595,2,0,P|416:208|408:256,1,80
220,198,206845,2,0,P|146:114|238:38,1,240,0|0,3:0|3:0,0:0:0:0:
233,120,207345,6,0,L|312:108,3,71.9999978027344,0|4|0|0,0:0|0:2|0:0|0:0,0:0:0:0:
312,204,207845,6,0,L|376:216,3,64,0|0|0|0,0:0|3:0|0:0|3:0,0:0:0:0:
359,300,208345,6,0,L|423:336,3,55.9999982910157,0|8|0|0,0:0|0:3|0:0|0:0,0:0:0:0:
244,232,208845,5,0,3:0:0:0:
244,232,209095,5,0,3:0:0:0:
456,228,209220,2,0,P|464:180|452:140,1,80
244,232,209470,1,0,3:0:0:0:
376,181,209595,1,8,0:3:0:0:
184,80,209845,6,0,L|100:72,2,80,0|0|0,0:0|3:0|0:0,0:0:0:0:
327,99,210220,1,0,3:0:0:0:
327,99,210470,5,8,3:0:0:0:
268,196,210595,1,0,3:0:0:0:
327,99,210720,5,0,3:0:0:0:
380,272,210845,1,0,3:0:0:0:
380,272,211095,5,0,0:0:0:0:
170,215,211220,2,0,P|174:159|206:119,1,80,0|0,3:0|0:0,0:0:0:0:
380,272,211470,1,0,0:0:0:0:
268,196,211595,1,8,0:3:0:0:
212,304,211845,6,0,P|159:326|77:290,1,120,0|0,0:0|3:0,0:0:0:0:
38,358,212095,6,0,P|22:294|66:226,1,120,0|0,3:0|0:0,0:0:0:0:
100,196,212345,6,0,P|108:144|96:108,1,80,0|8,0:0|0:3,0:0:0:0:
28,28,212595,1,0,3:0:0:0:
28,28,212720,1,0,3:0:0:0:
100,196,212845,6,0,B|181:157|207:229|297:197|297:197|250:137,1,264.000008056641,0|0,3:0|0:0,0:0:0:0:
176,76,213345,5,0,3:0:0:0:
100,196,213470,1,0,3:0:0:0:
292,192,213595,1,0,3:0:0:0:
56,100,213720,1,0,3:0:0:0:
152,300,213845,5,0,3:0:0:0:
236,132,213970,1,0,3:0:0:0:
320,344,214095,1,0,3:0:0:0:
100,196,214220,1,0,3:0:0:0:
384,256,214345,1,8,3:0:0:0:
49,273,214470,5,0,3:0:0:0:
29,251,214532,1,0,3:0:0:0:
16,225,214595,1,0,3:0:0:0:
11,196,214657,1,0,3:0:0:0:
14,167,214720,1,0,3:0:0:0:
26,140,214782,1,0,3:0:0:0:
44,117,214845,6,0,P|76:96|122:88,1,63.9999980468751,2|0,3:2|0:0,0:0:0:0:
162,195,215011,6,0,P|114:199|82:187,1,63.9999980468751,2|0,3:2|0:0,0:0:0:0:
216,116,215178,6,0,P|247:132|266:159,1,63.9999980468751,2|0,3:2|0:0,0:0:0:0:
107,256,215345,6,0,P|96:207|111:168,1,63.9999980468751,2|0,3:2|0:0,0:0:0:0:
295,266,215511,6,0,P|294:300|279:330,1,63.9999980468751,2|0,3:2|0:0,0:0:0:0:
45,262,215678,6,0,P|88:252|124:264,1,63.9999980468751,0|0,3:0|0:0,0:0:0:0:
295,266,215845,6,0,L|281:214,1,47.9999985351563,2|0,3:2|0:0,0:0:0:0:
183,141,215970,2,0,L|193:197,1,47.9999985351563,2|0,3:2|0:0,0:0:0:0:
192,320,216095,6,0,L|181:264,1,47.9999985351563,2|0,3:2|0:0,0:0:0:0:
274,86,216220,2,0,L|286:143,1,47.9999985351563,2|0,3:2|0:0,0:0:0:0:
372,280,216345,6,0,P|406:286|449:270,7,47.9999985351563,2|2|2|2|2|2|2|0,0:2|0:2|0:2|0:2|0:2|0:2|0:2|0:0,0:0:0:0:
295,266,216845,6,0,P|239:279|184:255,1,95.9999970703126,0|0,3:0|0:0,0:0:0:0:
368,116,217095,1,8,3:0:0:0:
456,288,217220,1,0,0:0:0:0:
203,268,217345,2,0,P|195:208|219:152,1,95.9999970703126,0|0,3:0|3:0,3:0:0:0:
415,200,217595,5,8,3:0:0:0:
251,351,217720,1,0,0:0:0:0:
132,208,217845,2,0,L|56:116,1,95.9999970703126,0|0,3:0|0:0,0:0:0:0:
124,316,218095,5,8,3:0:0:0:
322,200,218220,2,0,P|378:190|442:218,1,95.9999970703126,0|0,3:0|0:0,0:0:0:0:
376,330,218470,1,0,3:0:0:0:
132,208,218595,1,8,3:0:0:0:
232,124,218720,1,0,0:0:0:0:
216,313,218845,6,0,P|159:325|112:309,1,95.9999970703126,0|0,3:0|0:0,0:0:0:0:
232,124,219095,2,0,P|289:112|336:128,1,95.9999970703126,8|0,3:0|0:0,0:0:0:0:
376,330,219345,1,0,3:0:0:0:
224,216,219470,1,0,3:0:0:0:
403,142,219595,2,0,L|510:96,1,95.9999970703126,8|0,3:0|0:0,0:0:0:0:
480,244,219845,5,0,3:0:0:0:
224,216,219970,1,0,0:0:0:0:
324,121,220095,1,8,3:0:0:0:
378,238,220220,2,0,P|386:306|366:342,1,95.9999970703126,0|0,3:0|0:0,0:0:0:0:
172,350,220470,5,0,3:0:0:0:
224,216,220595,1,8,3:0:0:0:
172,350,220720,1,0,0:0:0:0:
41,157,220845,6,0,P|93:141|161:165,1,95.9999970703126,0|0,3:0|0:0,0:0:0:0:
296,344,221095,1,8,3:0:0:0:
96,308,221220,2,0,P|84:252|100:208,1,95.9999970703126,0|0,0:0|3:0,0:0:0:0:
340,192,221470,5,0,3:0:0:0:
168,260,221595,1,8,3:0:0:0:
340,192,221720,1,0,0:0:0:0:
144,88,221845,6,0,P|132:152|152:204,1,95.9999970703126,0|0,3:0|0:0,0:0:0:0:
296,344,222095,1,8,3:0:0:0:
435,201,222220,2,0,L|319:189,1,95.9999970703126,0|0,3:0|0:0,0:0:0:0:
172,350,222470,1,0,3:0:0:0:
39,195,222595,2,0,P|29:139|52:97,1,95.9999970703126,8|0,3:0|0:0,0:0:0:0:
264,116,222845,5,0,3:0:0:0:
120,160,222970,1,0,0:0:0:0:
324,220,223095,1,8,3:0:0:0:
168,76,223220,5,0,0:0:0:0:
248,304,223345,1,0,3:0:0:0:
264,116,223470,1,0,3:0:0:0:
146,275,223595,5,8,3:0:0:0:
374,126,223720,1,0,0:0:0:0:
168,76,223845,2,0,P|140:68|111:72,3,47.9999985351563,0|0|0|0,3:0|3:0|3:0|3:0,3:0:0:0:
205,200,224095,2,0,P|233:204|265:200,3,47.9999985351563,0|0|0|0,3:0|3:0|3:0|3:0,3:0:0:0:
84,208,224345,5,2,3:2:0:0:
66,239,224407,1,2,3:2:0:0:
59,274,224470,1,2,3:2:0:0:
64,309,224532,1,2,3:2:0:0:
81,341,224595,5,2,3:2:0:0:
124,321,224657,1,2,3:2:0:0:
171,314,224720,1,2,3:2:0:0:
219,320,224782,1,2,3:2:0:0:
263,338,224845,2,0,P|317:358|372:348,1,95.9999970703126,0|0,3:0|0:0,0:0:0:0:
174,198,225095,2,0,P|120:191|79:211,1,95.9999970703126,8|0,3:0|0:0,0:0:0:0:
171,314,225345,5,0,3:0:0:0:
264,120,225470,1,0,3:0:0:0:
350,261,225595,2,0,P|363:315|349:364,1,95.9999970703126,8|0,3:0|0:0,0:0:0:0:
174,198,225845,5,0,3:0:0:0:
376,156,225970,1,0,0:0:0:0:
263,338,226095,1,8,3:0:0:0:
95,243,226220,2,0,P|82:185|98:149,1,95.9999970703126,0|0,3:0|0:0,0:0:0:0:
376,156,226470,5,0,3:0:0:0:
174,198,226595,1,8,3:0:0:0:
256,80,226720,1,0,0:0:0:0:
332,262,226845,2,0,P|393:280|440:262,1,95.9999970703126,0|0,3:0|0:0,0:0:0:0:
174,198,227095,2,0,L|103:284,1,95.9999970703126,8|0,3:0|0:0,0:0:0:0:
332,260,227345,5,0,3:0:0:0:
139,96,227470,1,0,3:0:0:0:
44,227,227595,2,0,P|28:283|44:331,1,95.9999970703126,8|0,3:0|0:0,0:0:0:0:
272,200,227845,5,0,3:0:0:0:
112,272,227970,1,0,0:0:0:0:
60,137,228095,1,8,3:0:0:0:
272,200,228220,2,0,P|285:255|262:307,1,95.9999970703126,0|0,3:0|0:0,0:0:0:0:
44,227,228470,5,0,3:0:0:0:
228,116,228595,1,8,3:0:0:0:
44,227,228720,1,0,0:0:0:0:
263,292,228845,6,0,P|278:230|254:171,1,95.9999970703126,0|0,3:0|0:0,0:0:0:0:
118,71,229095,1,8,3:0:0:0:
44,227,229220,2,0,L|156:231,1,95.9999970703126,0|0,0:0|3:0,0:0:0:0:
376,132,229470,5,0,3:0:0:0:
263,292,229595,1,8,3:0:0:0:
376,132,229720,1,0,0:0:0:0:
439,345,229845,6,0,P|391:357|333:340,1,95.9999970703126,0|0,3:0|0:0,0:0:0:0:
206,233,230095,1,8,3:0:0:0:
376,132,230220,2,0,L|384:242,1,95.9999970703126,0|0,3:0|0:0,0:0:0:0:
206,233,230470,1,0,3:0:0:0:
322,57,230595,2,0,P|371:40|432:59,1,95.9999970703126,8|0,3:0|0:0,0:0:0:0:
235,321,230845,6,0,B|210:280|210:280|204:217,1,95.9999970703126,0|0,3:0|0:0,0:0:0:0:
450,272,231095,2,0,B|475:313|475:313|481:376,1,95.9999970703126,8|0,3:0|0:0,0:0:0:0:
205,232,231345,1,0,3:0:0:0:
376,112,231470,1,0,3:0:0:0:
450,272,231595,2,0,P|392:285|338:260,1,95.9999970703126,8|0,3:0|0:0,0:0:0:0:
324,242,231782,5,0,3:0:0:0:
324,242,231845,1,8,3:0:0:0:
376,112,231970,1,0,3:0:0:0:
205,232,232095,5,8,3:0:0:0:
288,37,232220,1,0,3:0:0:0:
80,131,232345,5,0,3:0:0:0:
50,168,232407,1,0,3:0:0:0:
38,214,232470,1,0,3:0:0:0:
47,261,232532,1,0,3:0:0:0:
74,300,232595,2,0,P|128:288|185:307,1,107.999996704102,2|0,3:2|0:0,0:0:0:0:
235,356,232845,6,0,P|253:304|228:244,1,103.999995239258,8|0,3:0|0:0,0:0:0:0:
84,33,233095,2,0,P|66:85|91:145,1,103.999995239258,8|0,3:0|0:0,0:0:0:0:
176,296,233345,1,8,3:0:0:0:
300,120,233470,1,0,0:0:0:0:
430,249,233595,2,0,P|446:297|434:357,1,103.999995239258,8|0,3:0|0:0,0:0:0:0:
176,296,233845,6,0,L|293:234,1,103.999995239258,8|0,3:0|0:0,0:0:0:0:
412,156,234095,1,8,3:0:0:0:
178,70,234220,2,0,P|162:134|178:178,1,103.999995239258,0|8,0:0|3:0,0:0:0:0:
356,308,234470,1,0,0:0:0:0:
376,68,234595,1,8,3:0:0:0:
232,230,234720,5,0,3:0:0:0:
232,230,234782,1,0,3:0:0:0:
232,230,234845,2,0,B|174:241|174:241|120:222,1,103.999995239258,8|0,3:0|0:0,0:0:0:0:
412,156,235095,2,0,B|470:145|470:145|524:164,1,103.999995239258,8|0,3:0|0:0,0:0:0:0:
404,340,235345,1,8,3:0:0:0:
301,139,235470,1,0,0:0:0:0:
228,336,235595,1,8,3:0:0:0:
398,230,235720,1,0,0:0:0:0:
158,279,235845,6,0,P|86:291|30:263,1,103.999995239258,8|0,3:0|0:0,0:0:0:0:
198,66,236095,1,8,3:0:0:0:
299,227,236220,2,0,P|347:242|403:226,1,103.999995239258,0|8,0:0|3:0,0:0:0:0:
198,66,236470,5,0,0:0:0:0:
158,279,236595,1,8,3:0:0:0:
284,121,236720,1,0,0:0:0:0:
60,215,236845,2,0,P|40:268|53:324,1,103.999995239258,8|0,3:0|0:0,0:0:0:0:
299,227,237095,1,8,3:0:0:0:
100,116,237220,1,0,0:0:0:0:
282,34,237345,2,0,P|343:20|398:40,1,103.999995239258,8|0,3:0|0:0,0:0:0:0:
158,279,237595,5,8,3:0:0:0:
284,121,237720,1,0,0:0:0:0:
408,252,237845,2,0,P|424:312|408:364,1,103.999995239258,8|0,3:0|0:0,0:0:0:0:
158,279,238095,5,8,3:0:0:0:
336,304,238220,1,0,0:0:0:0:
211,186,238345,1,8,3:0:0:0:
146,374,238470,1,0,0:0:0:0:
314,211,238595,1,8,3:0:0:0:
72,323,238720,5,0,3:0:0:0:
72,323,238782,1,0,3:0:0:0:
72,323,238845,2,0,P|56:263|72:211,1,103.999995239258,8|0,3:0|0:0,0:0:0:0:
129,128,239095,1,8,3:0:0:0:
383,156,239220,2,0,P|398:211|380:267,1,103.999995239258,0|8,0:0|3:0,0:0:0:0:
308,332,239470,1,0,0:0:0:0:
129,128,239595,2,0,L|236:96,1,103.999995239258,8|0,3:0|0:0,0:0:0:0:
424,72,239845,5,8,3:0:0:0:
358,258,239970,1,0,3:0:0:0:
301,77,240095,5,8,3:0:0:0:
232,248,240220,1,0,3:0:0:0:
232,248,240282,1,0,3:0:0:0:
232,248,240345,1,8,3:0:0:0:
129,128,240470,1,0,3:0:0:0:
120,300,240595,5,8,3:0:0:0:
228,98,240720,1,8,3:0:0:0:
358,258,240845,2,0,L|424:340,1,103.999995239258,8|0,3:0|0:0,0:0:0:0:
214,326,241095,2,0,P|161:326|110:287,1,103.999995239258,8|0,3:0|0:0,0:0:0:0:
129,128,241345,1,8,3:0:0:0:
232,248,241470,1,0,0:0:0:0:
391,131,241595,2,0,P|337:103|291:114,1,103.999995239258,8|0,3:0|0:0,0:0:0:0:
124,216,241845,6,0,L|6:220,1,103.999995239258,8|0,3:0|0:0,0:0:0:0:
296,110,242095,1,8,3:0:0:0:
392,244,242220,2,0,P|408:312|392:360,1,103.999995239258,0|8,0:0|3:0,0:0:0:0:
124,216,242470,1,0,0:0:0:0:
296,110,242595,1,8,3:0:0:0:
313,309,242720,5,0,3:0:0:0:
313,309,242782,1,0,3:0:0:0:
313,309,242845,2,0,B|256:319|256:319|185:304,1,103.999995239258,8|0,3:0|0:0,0:0:0:0:
296,110,243095,2,0,B|353:100|353:100|424:115,1,103.999995239258,8|0,3:0|0:0,0:0:0:0:
204,192,243345,1,8,3:0:0:0:
344,24,243470,1,0,0:0:0:0:
456,172,243595,2,0,P|472:232|456:280,1,103.999995239258,8|0,3:0|0:0,0:0:0:0:
432,292,243782,5,0,3:0:0:0:
432,292,243845,1,8,3:0:0:0:
204,192,243970,1,0,3:0:0:0:
356,152,244095,1,8,3:0:0:0:
232,320,244220,5,0,3:0:0:0:
268,120,244345,1,8,3:0:0:0:
336,272,244470,1,0,3:0:0:0:
121,229,244595,6,0,B|89:163|152:134|108:85|108:85|72:114,1,155.999992858887,8|0,3:0|0:0,0:0:0:0:
44,40,244845,6,0,P|24:100|44:148,1,103.999995239258,10|0,3:0|0:0,0:0:0:0:
121,229,245095,1,10,3:0:0:0:
264,120,245220,1,0,0:0:0:0:
240,280,245345,1,10,3:0:0:0:
208,60,245470,1,0,0:0:0:0:
139,325,245595,1,10,3:0:0:0:
185,143,245720,1,0,0:0:0:0:
319,335,245845,6,0,P|336:270|308:218,1,103.999995239258,10|0,3:0|0:0,0:0:0:0:
208,60,246095,1,10,3:0:0:0:
160,236,246220,1,0,0:0:0:0:
376,120,246345,1,10,3:0:0:0:
185,143,246470,1,0,0:0:0:0:
452,196,246595,1,10,3:0:0:0:
264,314,246720,5,0,3:0:0:0:
264,314,246782,1,0,3:0:0:0:
264,314,246845,2,0,P|242:251|260:204,1,103.999995239258,10|2,3:0|0:3,0:0:0:0:
376,120,247095,1,8,3:0:0:0:
503,271,247220,2,0,P|521:321|507:375,1,103.999995239258,2|8,0:3|3:0,0:0:0:0:
264,314,247470,1,2,0:3:0:0:
122,149,247595,2,0,P|170:136|228:161,1,103.999995239258,10|0,3:0|0:0,0:0:0:0:
162,228,247845,5,10,3:0:0:0:
254,57,247970,1,0,3:0:0:0:
264,314,248095,5,10,3:0:0:0:
176,54,248220,1,0,3:0:0:0:
32,168,248345,5,0,3:0:0:0:
9,214,248407,1,0,3:0:0:0:
13,265,248470,1,0,3:0:0:0:
42,307,248532,1,0,3:0:0:0:
87,319,248595,5,0,3:0:0:0:
124,283,248657,1,0,3:0:0:0:
173,269,248720,1,0,3:0:0:0:
223,279,248782,1,0,3:0:0:0:
263,313,248845,1,6,3:2:0:0:
256,192,252845,12,10,256720,3:0:0:0:
174,103,256845,5,0,3:0:0:0:
174,103,256907,1,0,3:0:0:0:
174,103,256970,2,0,P|250:69|336:130,1,176.000005371094,0|0,3:0|0:0,0:0:0:0:
248,180,257345,1,8,3:0:0:0:
152,296,257595,5,0,3:0:0:0:
152,296,257657,1,0,3:0:0:0:
152,296,257720,2,0,P|95:291|48:317,1,88.000002685547,0|0,3:0|0:0,0:0:0:0:
344,196,257970,1,0,3:0:0:0:
344,196,258032,1,0,3:0:0:0:
344,196,258095,2,0,P|400:200|447:174,1,88.000002685547,0|0,3:0|0:0,0:0:0:0:
174,103,258345,5,0,0:0:0:0:
264,288,258470,1,8,3:0:0:0:
384,124,258595,2,0,L|416:74,3,44.0000013427735
344,196,258845,6,0,P|291:207|234:176,1,88.000002685547,0|0,3:0|0:0,0:0:0:0:
304,112,259095,1,0,0:0:0:0:
428,200,259220,2,0,P|438:251|424:300,1,88.000002685547,0|0,3:0|0:0,0:0:0:0:
274,273,259470,6,0,L|260:360,1,80,0|0,3:0|0:0,0:0:0:0:
196,208,259720,2,0,L|168:124,1,71.9999978027344,0|0,3:0|0:0,0:0:0:0:
109,296,259970,2,0,L|84:375,1,64,0|0,3:0|0:0,0:0:0:0:
47,213,260220,2,0,P|122:177|201:213,1,167.999994873047,0|0,3:0|0:0,0:0:0:0:
345,321,260845,5,0,3:0:0:0:
345,321,260907,1,0,3:0:0:0:
345,321,260970,2,0,P|269:355|183:294,1,176.000005371094,0|0,3:0|0:0,0:0:0:0:
271,244,261345,1,8,3:0:0:0:
392,184,261595,5,0,3:0:0:0:
392,184,261657,1,0,3:0:0:0:
392,184,261720,2,0,P|449:179|496:205,1,88.000002685547,0|0,3:0|0:0,0:0:0:0:
196,110,261970,1,0,3:0:0:0:
196,110,262032,1,0,3:0:0:0:
196,110,262095,2,0,P|140:114|93:88,1,88.000002685547,0|0,3:0|0:0,0:0:0:0:
160,24,262345,1,0,0:0:0:0:
228,192,262470,1,8,3:0:0:0:
80,232,262595,2,0,L|24:248,3,44.0000013427735
136,180,262845,6,0,P|152:228|144:272,1,88.000002685547,0|0,3:0|0:0,0:0:0:0:
56,148,263095,1,0,0:0:0:0:
228,192,263220,2,0,P|240:136|220:88,1,88.000002685547,0|0,3:0|0:0,0:0:0:0:
136,180,263470,1,0,0:0:0:0:
324,184,263595,2,0,P|340:232|332:276,1,88.000002685547,0|0,3:0|0:0,0:0:0:0:
228,192,263845,1,0,0:0:0:0:
292,336,263970,6,0,P|332:348|372:344,1,71.9999978027344,0|0,3:0|0:0,0:0:0:0:
335,268,264220,1,0,0:0:0:0:
176,328,264345,2,0,P|128:336|84:320,1,71.9999978027344,8|0,3:0|0:0,0:0:0:0:
144,208,264595,1,8,3:0:0:0:
144,208,264720,1,8,3:0:0:0:
332,183,264845,5,0,3:0:0:0:
332,183,264907,1,0,3:0:0:0:
332,183,264970,2,0,P|324:235|336:271,1,88.000002685547,0|8,3:0|0:3,0:0:0:0:
428,216,265220,1,0,0:0:0:0:
336,96,265345,2,0,P|284:88|244:108,1,88.000002685547,0|0,3:0|0:0,0:0:0:0:
164,276,265595,5,8,3:0:0:0:
164,276,265657,1,0,3:0:0:0:
164,276,265720,2,0,P|165:333|135:378,1,88.000002685547,0|0,3:0|0:0,0:0:0:0:
322,179,265970,1,0,3:0:0:0:
322,179,266032,1,0,3:0:0:0:
322,179,266095,2,0,P|321:122|351:77,1,88.000002685547,8|0,3:0|0:0,0:0:0:0:
420,148,266345,5,0,0:0:0:0:
264,256,266470,1,0,0:0:0:0:
192,136,266595,2,0,L|169:97,3,44.0000013427735,8|0|0|0,0:3|0:0|0:0|0:0,0:0:0:0:
120,164,266845,6,0,P|108:208|120:260,1,88.000002685547,0|0,3:0|0:0,0:0:0:0:
188,336,267095,1,8,0:3:0:0:
339,264,267220,2,0,P|292:249|245:266,1,80,0|0,0:0|3:0,0:0:0:0:
120,164,267470,2,0,P|160:176|208:164,1,71.9999978027344,0|8,0:0|0:3,0:0:0:0:
339,120,267720,2,0,P|334:153|342:186,1,64,0|0,0:0|3:0,0:0:0:0:
188,336,267970,2,0,P|196:296|192:264,1,55.9999982910157,0|8,3:0|0:3,0:0:0:0:
120,164,268220,2,0,P|56:148|0:172,1,111.999996582031,0|0,3:0|0:0,0:0:0:0:
64,244,268595,1,8,0:3:0:0:
168,92,268720,1,0,0:0:0:0:
268,254,268845,5,0,3:0:0:0:
268,254,268907,1,0,3:0:0:0:
268,254,268970,2,0,P|313:264|380:238,1,88.000002685547,0|8,3:0|0:3,0:0:0:0:
316,150,269220,1,0,0:0:0:0:
149,245,269345,2,0,P|106:253|63:243,1,88.000002685547,0|0,3:0|0:0,0:0:0:0:
168,92,269595,5,8,3:3:0:0:
168,92,269657,1,0,3:0:0:0:
168,92,269720,2,0,L|144:0,1,88.000002685547,0|0,3:0|0:0,0:0:0:0:
316,150,269970,1,0,3:0:0:0:
316,150,270032,1,0,3:0:0:0:
316,150,270095,2,0,L|338:235,1,88.000002685547,8|0,3:3|0:0,0:0:0:0:
208,200,270345,1,0,0:0:0:0:
356,52,270470,1,0,3:0:0:0:
432,208,270595,2,0,L|456:260,3,44.0000013427735,8|0|0|0,0:3|0:0|0:0|0:0,0:0:0:0:
412,176,270845,5,8,0:3:0:0:
372,296,270970,1,0,3:0:0:0:
316,150,271095,1,8,0:3:0:0:
256,336,271220,1,0,3:0:0:0:
192,216,271345,5,8,0:3:0:0:
256,336,271470,1,0,3:0:0:0:
316,150,271595,1,8,0:3:0:0:
372,296,271720,1,0,3:0:0:0:
192,216,271845,5,8,0:3:0:0:
412,176,271970,1,0,3:0:0:0:
244,68,272095,1,8,0:3:0:0:
280,248,272220,1,0,3:0:0:0:
368,76,272345,6,0,L|388:36,7,44.0000013427735,0|0|0|2|2|2|2|2,0:0|0:0|0:0|0:2|0:2|0:2|0:2|0:2,0:0:0:0:
288,96,272845,5,2,3:2:0:0:
264,86,272907,1,2,0:2:0:0:
239,83,272970,1,2,0:2:0:0:
213,86,273032,1,2,0:2:0:0:
189,96,273095,5,8,0:3:0:0:
151,121,273157,1,2,0:2:0:0:
107,131,273220,1,2,0:2:0:0:
64,124,273282,1,2,0:2:0:0:
24,99,273345,1,2,3:2:0:0:
47,62,273407,5,2,3:2:0:0:
92,82,273470,1,2,3:2:0:0:
107,131,273532,1,2,3:2:0:0:
97,181,273595,1,2,3:2:0:0:
66,226,273657,1,2,3:2:0:0:
60,276,273720,1,2,3:2:0:0:
81,322,273782,1,2,3:2:0:0:
123,344,273845,2,0,P|156:348|184:343,1,51.999997619629,2|2,3:2|3:2,0:0:0:0:
240,180,273970,2,0,P|208:200|192:224,1,51.999997619629,2|2,3:2|3:2,3:0:0:0:
304,308,274095,6,0,P|312:264|308:244,1,51.999997619629,2|2,3:2|3:2,3:0:0:0:
107,131,274220,2,0,P|99:155|96:181,1,51.999997619629,2|2,3:2|3:2,3:0:0:0:
304,308,274345,6,0,P|355:329|405:312,1,103.999995239258,0|0,3:0|0:0,0:0:0:0:
488,200,274595,1,8,3:0:0:0:
252,82,274720,2,0,P|235:112|253:199,1,103.999995239258,2|0,0:2|3:0,0:0:0:0:
399,315,274970,5,2,0:2:0:0:
316,136,275095,1,8,3:0:0:0:
204,280,275220,1,2,0:2:0:0:
488,200,275345,1,2,3:2:0:0:
216,184,275470,5,0,3:0:0:0:
296,352,275595,1,2,3:2:0:0:
400,184,275720,2,0,P|413:128|394:82,1,103.999995239258,2|0,0:2|3:0,0:0:0:0:
139,70,275970,5,0,3:0:0:0:
316,136,276095,1,8,3:0:0:0:
127,253,276220,1,0,3:0:0:0:
232,39,276345,5,2,0:2:0:0:
300,276,276470,1,0,3:0:0:0:
127,253,276595,1,2,3:2:0:0:
99,209,276657,1,2,3:2:0:0:
91,158,276720,1,2,3:2:0:0:
104,108,276782,1,2,3:2:0:0:
136,64,276845,2,0,P|191:37|257:49,1,103.999995239258,2|0,3:2|0:0,0:0:0:0:
396,220,277095,5,8,3:0:0:0:
192,160,277220,1,2,3:2:0:0:
192,160,277282,1,2,3:2:0:0:
192,160,277345,1,2,3:2:0:0:
336,68,277470,1,2,3:2:0:0:
469,170,277595,2,0,P|485:242|461:286,1,103.999995239258,8|0,3:0|0:0,0:0:0:0:
240,340,277845,5,2,3:2:0:0:
304,212,277970,1,2,3:2:0:0:
352,312,278095,1,8,3:0:0:0:
155,242,278220,2,0,P|145:188|166:133,1,103.999995239258,2|0,3:2|0:0,0:0:0:0:
368,73,278470,2,2,L|410:63,10,25.9999988098145,2|2|2|2|2|2|2|2|2|2|2,0:2|0:2|0:2|0:2|0:2|0:2|0:2|0:2|0:2|0:2|0:2,0:2:0:0:
303,26,278845,6,0,P|288:74|306:137,1,103.999995239258,0|0,3:0|0:0,0:0:0:0:
476,264,279095,1,8,3:0:0:0:
368,73,279220,1,2,0:2:0:0:
357,293,279345,1,2,3:2:0:0:
400,160,279470,1,2,3:2:0:0:
221,293,279595,1,8,3:0:0:0:
418,366,279720,5,0,3:0:0:0:
418,366,279782,1,0,3:0:0:0:
418,366,279845,2,0,P|447:291|415:217,1,155.999992858887,8|0,3:0|0:0,0:0:0:0:
357,293,280095,2,0,B|311:263|294:332|217:300|217:300|241:266,1,155.999992858887,8|0,3:0|0:0,0:0:0:0:
225,235,280345,5,0,3:0:0:0:
179,210,280407,1,0,3:0:0:0:
127,204,280470,1,0,3:0:0:0:
77,215,280532,1,0,3:0:0:0:
34,243,280595,2,0,P|5:161|36:92,1,143.999995605469,8|0,3:0|0:0,0:0:0:0:
40,68,280845,6,0,B|96:55|126:106|216:85|216:85|180:39,1,191.999994140625,2|8,3:2|3:0,0:0:0:0:
348,116,281220,1,0,0:0:0:0:
252,170,281345,1,0,3:0:0:0:
433,126,281470,5,2,3:2:0:0:
250,261,281595,2,0,P|239:204|258:161,1,95.9999970703126,2|0,3:2|0:0,0:0:0:0:
348,116,281845,5,2,3:2:0:0:
509,279,281970,2,0,P|520:222|501:179,1,95.9999970703126,2|8,3:2|3:0,0:0:0:0:
252,170,282220,5,2,3:2:0:0:
204,360,282345,2,0,L|298:344,1,95.9999970703126,2|0,0:2|3:0,0:0:0:0:
348,116,282595,5,8,3:0:0:0:
250,261,282720,2,0,L|156:245,1,95.9999970703126,2|0,0:2|3:0,0:0:0:0:
256,76,282970,5,2,0:2:0:0:
417,272,283095,2,0,P|466:287|521:272,1,95.9999970703126,2|0,3:2|0:0,0:0:0:0:
464,180,283345,5,2,3:2:0:0:
204,360,283470,2,0,P|155:375|100:360,1,95.9999970703126,2|8,3:2|3:0,0:0:0:0:
168,136,283720,5,2,0:2:0:0:
416,272,283845,2,0,L|516:320,1,95.9999970703126,2|0,3:2|3:0,0:0:0:0:
56,268,284095,5,8,3:0:0:0:
273,206,284220,2,0,L|377:178,1,95.9999970703126,2|0,3:2|0:0,0:0:0:0:
204,360,284470,5,2,3:2:0:0:
93,183,284595,2,0,P|79:126|98:85,1,80,2|0,3:2|0:0,0:0:0:0:
336,96,284845,6,0,L|372:40,3,51.999997619629,2|0|0|0,0:2|0:0|0:0|0:0,0:0:0:0:
273,206,285095,2,0,L|208:204,3,51.999997619629,2|0|0|0,3:2|0:0|0:0|0:0,0:0:0:0:
164,120,285345,2,0,L|137:71,4,51.999997619629,2|0|0|0|2,0:2|0:0|0:0|0:0|3:2,0:0:0:0:
93,183,285657,5,2,0:2:0:0:
56,220,285720,1,0,0:0:0:0:
46,273,285782,1,0,0:0:0:0:
69,323,285845,1,0,0:0:0:0:
116,342,285907,1,0,0:0:0:0:
166,319,285970,1,0,0:0:0:0:
222,320,286032,1,0,0:0:0:0:
274,340,286095,2,0,P|285:316|287:290,1,51.999997619629,8|0,3:0|0:0,0:0:0:0:
179,168,286220,2,0,P|165:138|166:106,1,51.999997619629
352,152,286345,6,0,P|384:168|408:208,7,51.999997619629,0|0|0|0|8|0|0|0,0:0|0:0|0:0|0:0|3:0|0:0|0:0|0:0,0:0:0:0:
336,228,286845,5,2,3:2:0:0:
291,201,286907,1,2,3:2:0:0:
271,154,286970,1,2,3:2:0:0:
285,105,287032,1,2,3:2:0:0:
326,74,287095,1,8,3:0:0:0:
377,74,287157,1,0,3:0:0:0:
417,105,287220,2,0,P|436:124|458:176,1,51.999997619629,0|0,3:0|3:0,3:0:0:0:
417,278,287345,5,8,3:3:0:0:
374,307,287407,1,2,3:2:0:0:
323,314,287470,1,2,3:2:0:0:
275,296,287532,1,2,3:2:0:0:
230,265,287595,1,8,3:3:0:0:
180,251,287657,1,2,3:2:0:0:
129,260,287720,2,0,P|100:280|80:312,1,51.999997619629,0|0,3:0|3:0,3:0:0:0:
169,343,287845,5,8,3:3:0:0:
210,313,287907,1,2,3:2:0:0:
230,265,287970,1,2,3:2:0:0:
219,216,288032,1,2,3:2:0:0:
183,179,288095,1,8,3:3:0:0:
132,171,288157,1,2,3:2:0:0:
85,191,288220,2,0,P|60:220|52:264,1,51.999997619629,0|0,3:0|3:0,3:0:0:0:
63,345,288345,5,0,3:0:0:0:
115,332,288407,1,0,3:0:0:0:
169,343,288470,1,0,3:0:0:0:
220,368,288532,1,0,3:0:0:0:
275,359,288595,1,0,3:0:0:0:
324,325,288657,1,0,3:0:0:0:
350,273,288720,1,0,3:0:0:0:
340,213,288782,1,0,3:0:0:0:
302,165,288845,1,10,3:2:0:0:
256,192,294845,12,0,296595,0:0:0:0:
352,152,296845,5,2,3:3:0:0:
332,192,297095,1,2,0:3:0:0:
312,232,297345,2,0,P|272:240|234:230,1,71.9999978027344,2|0,0:3|3:0,0:0:0:0:
372,112,297595,2,0,P|415:108|454:125,1,71.9999978027344,2|0,0:3|3:0,0:0:0:0:
257,143,297845,5,2,3:3:0:0:
200,132,298095,1,2,0:3:0:0:
141,120,298345,2,0,P|124:161|131:210,1,71.9999978027344,2|0,0:3|3:0,0:0:0:0:
163,310,298595,1,2,3:0:0:0:
312,232,298845,5,2,3:0:0:0:
388,224,299095,1,2,0:3:0:0:
464,216,299345,2,0,P|472:168|456:120,1,71.9999978027344,2|0,0:3|3:0,0:0:0:0:
236,240,299595,2,0,P|228:288|244:336,1,71.9999978027344,2|0,0:3|3:0,0:0:0:0:
440,308,299845,5,2,3:3:0:0:
388,224,300095,1,2,0:3:0:0:
332,128,300345,2,0,L|286:47,1,71.9999978027344,2|0,0:3|3:0,0:0:0:0:
440,128,300595,1,0,0:0:0:0:
440,128,300720,1,0,0:0:0:0:
288,183,300845,6,0,B|259:216|227:155|184:185|184:185|127:140|66:180|66:180|85:221,1,264.000008056641
114,267,301345,5,0,3:0:0:0:
196,105,301470,1,0,3:0:0:0:
288,265,301595,1,0,3:0:0:0:
183,184,301720,1,0,3:0:0:0:
318,114,301845,5,0,3:0:0:0:
375,338,301970,1,0,3:0:0:0:
203,265,302095,1,0,3:0:0:0:
426,174,302220,1,0,3:0:0:0:
251,351,302345,5,8,3:0:0:0:
455,329,302470,1,0,3:0:0:0:
472,288,302532,1,0,3:0:0:0:
472,245,302595,1,0,3:0:0:0:
456,204,302657,1,0,3:0:0:0:
425,173,302720,1,0,3:0:0:0:
382,155,302782,1,0,3:0:0:0:
334,163,302845,1,0,3:0:0:0:
256,192,302970,12,0,303782,0:0:0:0:
256,192,303845,12,0,304720,0:0:0:0:
284,128,304845,6,0,B|336:210|262:265|262:265|193:212|193:212|135:244|135:244|67:192|1:252|-4:334|69:373,1,560,0|0,3:0|0:0,0:0:0:0:
92,302,305845,6,0,B|137:322|137:322|188:293|188:293|244:334|244:334|261:333|292:342|325:301,2,240,0|0|0,3:0|3:0|3:0,0:0:0:0:
100,188,306845,6,0,B|87:160|87:160|117:127|170:104|238:136|238:190,1,215.999993408203,4|0,0:2|0:0,0:0:0:0:
167,197,307345,6,0,B|154:225|154:225|184:258|237:281|305:249|305:195,1,215.999993408203,4|0,0:2|0:0,0:0:0:0:
237,180,307845,6,0,B|231:164|231:164|266:113|339:137,1,106.666666666667,4|0,0:2|0:0,0:0:0:0:
342,145,308095,5,0,3:0:0:0:
384,166,308188,5,0,3:0:0:0:
436,166,308251,5,0,3:0:0:0:
484,140,308345,6,0,P|516:232|464:308,1,191.999994140625,0|0,3:0|0:0,0:0:0:0:
324,228,308720,1,0,3:0:0:0:
192,332,308845,6,0,P|172:276|192:228,1,95.9999970703126,0|0,3:0|0:0,0:0:0:0:
296,108,309095,1,8,3:0:0:0:
420,220,309220,2,0,L|300:228,1,95.9999970703126,0|0,0:0|3:0,0:0:0:0:
168,136,309470,5,0,3:0:0:0:
368,32,309595,1,8,3:0:0:0:
420,216,309720,1,0,0:0:0:0:
168,136,309845,2,0,P|152:72|172:24,1,95.9999970703126,0|0,3:0|0:0,0:0:0:0:
396,120,310095,1,8,3:0:0:0:
157,264,310220,2,0,P|81:276|41:256,1,95.9999970703126,0|0,3:0|0:0,0:0:0:0:
288,112,310470,1,0,3:0:0:0:
420,216,310595,2,0,P|436:269|414:331,1,95.9999970703126,8|0,3:0|0:0,0:0:0:0:
156,264,310845,5,0,3:0:0:0:
288,112,310970,1,0,0:0:0:0:
320,256,311095,1,8,3:0:0:0:
98,129,311220,5,0,0:0:0:0:
356,172,311345,1,0,3:0:0:0:
156,264,311470,1,0,3:0:0:0:
186,40,311595,5,8,3:0:0:0:
256,343,311720,1,0,3:0:0:0:
48,216,311845,2,0,L|-20:176,3,47.9999985351563,0|0|0|0,3:0|3:0|3:0|3:0,0:0:0:0:
176,128,312095,6,0,P|184:168|180:208,1,47.9999985351563,0|0,3:0|3:0,0:0:0:0:
70,336,312220,2,0,P|72:312|78:288,1,47.9999985351563,0|0,3:0|3:0,0:0:0:0:
241,262,312345,1,2,3:2:0:0:
282,239,312407,1,2,3:2:0:0:
330,233,312470,1,2,3:2:0:0:
376,244,312532,1,2,3:2:0:0:
415,271,312595,2,0,P|457:205|412:116,1,143.999995605469,2|0,3:2|0:0,0:0:0:0:
420,112,312845,6,0,P|356:122|296:98,1,95.9999970703126,0|0,3:0|0:0,0:0:0:0:
120,264,313095,2,0,P|184:254|244:278,1,95.9999970703126,8|0,3:0|0:0,0:0:0:0:
189,138,313345,5,0,3:0:0:0:
54,338,313470,1,0,3:0:0:0:
324,326,313595,2,0,P|336:262|316:206,1,95.9999970703126,8|0,3:0|0:0,0:0:0:0:
281,172,313782,5,0,3:0:0:0:
281,172,313845,1,0,3:0:0:0:
131,184,313970,1,0,3:0:0:0:
236,342,314095,1,8,3:0:0:0:
372,173,314220,2,0,P|323:160|265:182,1,95.9999970703126,0|0,3:0|0:0,0:0:0:0:
140,288,314470,5,0,3:0:0:0:
329,232,314595,1,8,3:0:0:0:
188,84,314720,1,0,0:0:0:0:
57,245,314845,6,0,P|45:309|73:365,1,95.9999970703126,0|0,3:0|0:0,0:0:0:0:
236,342,315095,1,8,3:0:0:0:
329,232,315220,2,0,P|344:176|328:124,1,95.9999970703126,0|0,0:0|3:0,0:0:0:0:
76,136,315470,5,0,3:0:0:0:
256,176,315595,1,8,3:0:0:0:
140,288,315720,1,0,3:0:0:0:
140,288,315782,1,0,3:0:0:0:
140,288,315845,1,0,3:0:0:0:
176,116,315970,5,0,3:0:0:0:
46,238,316095,1,8,3:0:0:0:
245,273,316220,2,0,L|366:297,1,95.9999970703126,0|0,3:0|0:0,0:0:0:0:
417,162,316470,5,0,3:0:0:0:
478,360,316595,1,8,3:0:0:0:
244,272,316720,1,0,0:0:0:0:
417,162,316845,2,0,P|479:163|523:203,1,95.9999970703126,0|0,3:0|0:0,0:0:0:0:
244,272,317095,1,8,3:0:0:0:
86,134,317220,2,0,L|206:83,1,95.9999970703126,0|0,0:0|3:0,0:0:0:0:
336,200,317470,5,0,3:0:0:0:
88,240,317595,1,8,3:0:0:0:
168,96,317720,1,0,0:0:0:0:
244,272,317845,2,0,P|263:331|248:380,1,95.9999970703126,0|0,3:0|0:0,0:0:0:0:
88,240,318095,1,8,3:0:0:0:
168,96,318220,2,0,P|218:63|279:68,1,95.9999970703126,0|0,3:0|0:0,0:0:0:0:
464,200,318470,5,0,3:0:0:0:
244,272,318595,2,0,L|135:307,1,95.9999970703126,8|0,3:0|0:0,0:0:0:0:
108,316,318782,5,0,3:0:0:0:
108,316,318845,1,8,3:0:0:0:
88,136,318970,1,0,3:0:0:0:
244,272,319095,5,8,3:0:0:0:
8,120,319220,1,0,0:0:0:0:
307,141,319345,5,8,3:0:0:0:
33,189,319470,1,0,3:0:0:0:
242,28,319595,5,8,3:0:0:0:
120,216,319720,1,0,3:0:0:0:
120,216,319782,1,0,3:0:0:0:
120,216,319845,5,8,3:0:0:0:
307,141,319970,1,0,3:0:0:0:
112,68,320095,1,8,3:0:0:0:
232,312,320220,1,0,3:0:0:0:
85,248,320345,5,0,3:0:0:0:
120,216,320407,1,0,3:0:0:0:
166,200,320470,1,0,3:0:0:0:
213,198,320532,1,0,3:0:0:0:
258,213,320595,2,0,P|320:244|416:200,1,143.999995605469,8|0,3:0|0:0,0:0:0:0:
417,146,320845,6,0,P|454:174|454:282,1,160,0|0,3:0|0:0,0:0:0:0:
290,323,321220,2,0,B|152:322|152:322|164:303,1,160,0|0,3:0|0:0,0:0:0:0:
280,147,321595,2,0,B|417:147|417:147|405:166,1,160,8|0,3:0|0:0,0:0:0:0:
280,232,321970,1,0,0:0:0:0:
192,140,322095,5,0,3:0:0:0:
152,128,322188,5,0,3:0:0:0:
100,132,322251,5,0,3:0:0:0:
56,160,322345,6,0,P|28:224|56:300,1,106.666666666667,8|0,3:0|0:0,0:0:0:0:
58,329,322595,2,0,P|117:319|165:339,1,80,0|0,3:0|0:0,0:0:0:0:
352,360,322845,6,0,B|377:314|329:289|352:223|352:223|382:264,1,160,0|0,3:0|0:0,0:0:0:0:
461,51,323220,2,0,B|487:112|487:112|464:211,1,160,0|0,3:0|0:0,0:0:0:0:
256,263,323595,2,0,B|230:202|230:202|251:110,1,160,8|0,3:0|0:0,0:0:0:0:
336,28,323970,1,0,3:0:0:0:
402,132,324095,5,0,3:0:0:0:
382,172,324188,5,0,3:0:0:0:
386,221,324251,5,0,3:0:0:0:
417,260,324345,6,0,P|437:320|417:384,1,120,8|0,3:0|0:0,0:0:0:0:
357,329,324595,2,0,P|309:317|265:325,1,80,0|0,3:0|0:0,0:0:0:0:
114,342,324845,6,0,B|80:347|80:347|106:276|80:223,1,160,0|0,3:0|0:0,0:0:0:0:
36,112,325220,2,0,P|16:60|-20:32,2,80,0|0|0,3:0|0:0|0:0,0:0:0:0:
80,224,325595,2,0,P|161:257|255:222,1,160,8|0,3:0|0:0,0:0:0:0:
316,176,325970,1,0,3:0:0:0:
404,312,326095,5,0,3:0:0:0:
440,284,326188,5,0,3:0:0:0:
460,240,326251,5,0,3:0:0:0:
448,192,326345,6,0,P|428:116|455:57,1,120,8|0,3:0|0:0,0:0:0:0:
488,21,326595,2,8,P|434:6|396:18,1,80,0|0,3:0|0:0,3:0:0:0:
183,172,326845,6,0,B|224:180|224:180|269:207|325:184|325:184|292:153,1,160,0|0,3:0|0:0,0:0:0:0:
94,124,327220,2,0,P|82:168|94:220,1,80,0|0,3:0|0:0,0:0:0:0:
196,289,327470,1,0,0:0:0:0:
324,185,327595,2,0,P|380:177|424:197,1,80,8|0,3:0|0:0,0:0:0:0:
360,296,327845,5,8,3:0:0:0:
228,156,327970,1,0,3:0:0:0:
275,361,328095,1,0,3:0:0:0:
324,185,328220,2,0,L|352:84,1,80,0|0,3:0|3:0,0:0:0:0:
120,108,328470,5,0,3:0:0:0:
151,275,328595,2,0,L|171:367,1,80,8|0,3:0|0:0,0:0:0:0:
324,188,328845,6,0,B|268:178|268:178|212:188,1,95.9999970703126,0|0,3:0|0:0,0:0:0:0:
73,350,329095,2,0,B|129:360|129:360|185:350,1,95.9999970703126,8|0,3:0|0:0,0:0:0:0:
402,244,329345,2,0,P|415:195|402:144,1,95.9999970703126,0|0,3:0|3:0,3:0:0:0:
296,61,329595,1,8,3:0:0:0:
183,182,329720,1,0,0:0:0:0:
345,304,329845,2,0,P|388:325|450:318,1,95.9999970703126,0|0,3:0|0:0,0:0:0:0:
344,148,330095,1,8,3:0:0:0:
216,344,330220,2,0,P|152:356|120:344,1,95.9999970703126,0|0,3:0|0:0,0:0:0:0:
183,182,330470,5,0,3:0:0:0:
172,280,330595,1,0,3:0:0:0:
288,232,330720,1,0,0:0:0:0:
114,117,330845,2,0,P|91:171|106:225,1,95.9999970703126,0|0,3:0|0:0,0:0:0:0:
272,336,331095,1,8,3:0:0:0:
396,288,331220,2,0,P|413:233|391:177,1,95.9999970703126,0|0,0:0|3:0,0:0:0:0:
324,112,331470,1,0,3:0:0:0:
172,280,331595,1,8,3:0:0:0:
114,117,331720,1,0,0:0:0:0:
324,112,331845,6,0,P|340:168|321:221,1,95.9999970703126,0|0,3:0|0:0,0:0:0:0:
210,360,332095,1,8,3:0:0:0:
164,186,332220,2,0,L|267:168,1,95.9999970703126,0|0,3:0|0:0,0:0:0:0:
432,80,332470,5,0,3:0:0:0:
372,280,332595,1,8,3:0:0:0:
432,80,332720,1,0,0:0:0:0:
258,168,332845,6,0,P|238:117|246:75,1,95.9999970703126,0|0,3:0|0:0,0:0:0:0:
352,115,333095,1,8,3:0:0:0:
211,273,333220,2,0,P|165:286|120:271,1,95.9999970703126,0|0,0:0|3:0,0:0:0:0:
244,78,333470,5,0,3:0:0:0:
168,208,333595,1,8,3:0:0:0:
244,78,333720,1,0,0:0:0:0:
53,55,333845,6,0,P|37:119|53:163,1,95.9999970703126,0|0,3:0|0:0,0:0:0:0:
144,296,334095,1,8,3:0:0:0:
269,175,334220,2,0,P|285:239|269:283,1,95.9999970703126,0|0,3:0|0:0,0:0:0:0:
44,268,334470,5,0,3:0:0:0:
199,122,334595,2,0,P|259:94|351:136,1,143.999995605469,8|0,3:0|0:0,0:0:0:0:
389,175,334845,6,0,P|409:124|394:73,1,95.9999970703126,0|0,3:0|0:0,0:0:0:0:
132,205,335095,2,0,P|124:251|143:295,1,95.9999970703126,8|0,3:0|0:0,0:0:0:0:
288,352,335345,1,0,3:0:0:0:
389,175,335470,1,0,3:0:0:0:
192,75,335595,2,0,L|220:187,1,95.9999970703126,8|0,3:0|0:0,0:0:0:0:
231,201,335782,5,0,3:0:0:0:
231,201,335845,1,8,3:0:0:0:
456,232,335970,1,0,3:0:0:0:
264,276,336095,5,8,3:0:0:0:
476,152,336220,1,0,3:0:0:0:
221,115,336345,5,0,3:0:0:0:
177,133,336407,1,0,3:0:0:0:
150,173,336470,1,0,3:0:0:0:
148,220,336532,1,0,3:0:0:0:
172,261,336595,2,0,P|196:316|176:384,1,107.999996704102,2|0,3:2|0:0,0:0:0:0:
117,324,336845,6,0,B|64:335|64:335|7:314,1,103.999995239258,8|0,3:0|0:0,0:0:0:0:
221,115,337095,2,0,B|274:104|274:104|331:125,1,103.999995239258,8|0,3:0|0:0,0:0:0:0:
377,348,337345,1,8,3:0:0:0:
260,204,337470,1,0,0:0:0:0:
116,324,337595,2,0,P|47:333|4:312,1,103.999995239258,8|0,3:0|0:0,0:0:0:0:
112,152,337845,6,0,L|72:256,1,103.999995239258,8|0,3:0|0:0,0:0:0:0:
352,224,338095,1,8,3:0:0:0:
152,56,338220,2,0,L|107:164,1,103.999995239258,0|8,0:0|3:0,0:0:0:0:
392,104,338470,1,0,0:0:0:0:
152,56,338595,2,0,P|92:43|41:64,1,103.999995239258,8|0,3:0|0:0,0:0:0:0:
16,144,338782,5,0,3:0:0:0:
16,144,338845,2,0,P|24:200|4:248,1,103.999995239258,8|0,3:0|0:0,0:0:0:0:
216,356,339095,2,0,P|198:307|207:256,1,103.999995239258,8|0,3:0|0:0,0:0:0:0:
436,156,339345,1,8,3:0:0:0:
296,304,339470,1,0,0:0:0:0:
264,72,339595,1,8,3:0:0:0:
452,264,339720,5,0,0:0:0:0:
207,256,339845,2,0,L|66:249,1,103.999995239258,8|0,3:0|0:0,0:0:0:0:
348,240,340095,5,8,3:0:0:0:
120,124,340220,2,0,L|0:68,1,103.999995239258,0|8,0:0|3:0,0:0:0:0:
61,268,340470,5,0,0:0:0:0:
229,144,340595,1,8,3:0:0:0:
288,328,340720,1,0,3:0:0:0:
288,328,340782,1,0,3:0:0:0:
288,328,340845,2,0,P|346:343|411:318,1,103.999995239258,8|0,3:0|0:0,0:0:0:0:
352,152,341095,5,8,3:0:0:0:
174,308,341220,1,0,0:0:0:0:
32,176,341345,2,0,P|20:112|40:68,1,103.999995239258,8|0,3:0|0:0,0:0:0:0:
352,152,341595,5,8,3:0:0:0:
84,256,341720,1,0,0:0:0:0:
247,364,341845,2,0,P|295:384|344:371,1,103.999995239258,8|0,3:0|0:0,0:0:0:0:
352,152,342095,5,8,3:0:0:0:
174,308,342220,1,0,0:0:0:0:
188,92,342345,5,8,3:0:0:0:
300,296,342470,1,0,0:0:0:0:
352,52,342595,5,8,3:0:0:0:
208,228,342720,1,0,3:0:0:0:
208,228,342782,1,0,3:0:0:0:
208,228,342845,2,0,P|148:245|80:216,1,103.999995239258,8|0,3:0|0:0,0:0:0:0:
271,33,343095,1,8,3:0:0:0:
362,213,343220,2,0,L|472:247,1,103.999995239258,0|8,0:0|3:0,0:0:0:0:
271,33,343470,1,0,0:0:0:0:
108,235,343595,2,0,P|88:279|98:341,1,103.999995239258,8|0,3:0|0:0,0:0:0:0:
360,216,343845,5,8,3:0:0:0:
228,344,343970,1,0,0:0:0:0:
172,144,344095,1,8,3:0:0:0:
364,344,344220,5,0,3:0:0:0:
364,344,344282,1,0,3:0:0:0:
364,344,344345,1,8,3:0:0:0:
280,112,344470,1,0,3:0:0:0:
124,276,344595,1,8,3:0:0:0:
360,216,344720,1,8,3:0:0:0:
172,144,344845,6,0,B|105:137|105:137|48:157,1,103.999995239258,8|0,3:0|0:0,0:0:0:0:
360,216,345095,2,0,B|427:223|427:223|484:203,1,103.999995239258,8|0,3:0|0:0,0:0:0:0:
172,144,345345,2,8,P|156:204|180:272,1,103.999995239258,8|0,3:0|0:0,0:0:0:0:
461,210,345595,2,0,P|468:159|453:109,1,103.999995239258,8|0,3:0|0:0,0:0:0:0:
416,76,345782,5,0,3:0:0:0:
416,76,345845,1,8,3:0:0:0:
172,144,345970,1,0,3:0:0:0:
364,180,346095,1,0,3:0:0:0:
144,48,346220,5,8,3:0:0:0:
316,104,346345,1,8,3:0:0:0:
72,172,346470,1,0,3:0:0:0:
250,231,346595,2,0,P|262:280|245:329,1,103.999995239258,8|0,3:0|0:0,0:0:0:0:
72,172,346845,6,0,L|36:56,1,103.999995239258,8|0,3:0|0:0,0:0:0:0:
364,180,347095,2,0,L|408:296,1,103.999995239258,8|0,3:0|0:0,0:0:0:0:
176,280,347345,1,8,3:0:0:0:
304,100,347470,1,0,0:0:0:0:
499,269,347595,2,0,P|423:285|383:265,1,103.999995239258,8|0,3:0|0:0,0:0:0:0:
364,248,347782,5,0,3:0:0:0:
364,248,347845,1,8,3:0:0:0:
392,92,347970,1,0,3:0:0:0:
288,328,348095,1,8,3:0:0:0:
424,176,348220,1,0,3:0:0:0:
204,232,348345,5,8,3:0:0:0:
456,252,348470,1,0,3:0:0:0:
132,304,348595,2,0,P|104:224|144:152,1,155.999992858887,8|0,3:0|0:0,0:0:0:0:
152,148,348845,6,0,L|260:128,1,103.999995239258,10|0,3:0|0:0,0:0:0:0:
448,88,349095,1,10,3:0:0:0:
372,304,349220,1,0,0:0:0:0:
252,128,349345,1,10,3:0:0:0:
488,224,349470,1,0,0:0:0:0:
204,280,349595,2,0,L|72:300,1,103.999995239258,10|0,3:0|0:0,0:0:0:0:
252,128,349845,5,10,3:0:0:0:
296,352,349970,1,0,0:0:0:0:
136,184,350095,5,10,3:0:0:0:
323,220,350220,1,0,0:0:0:0:
97,274,350345,5,10,3:0:0:0:
352,137,350470,1,0,0:0:0:0:
48,104,350595,6,0,P|28:152|56:224,1,103.999995239258,10|0,3:0|0:0,0:0:0:0:
323,220,350845,6,0,L|456:248,1,103.999995239258,10|2,3:0|0:3,0:0:0:0:
308,56,351095,1,10,3:0:0:0:
184,256,351220,2,0,P|176:316|204:376,1,103.999995239258,2|8,0:3|3:0,0:0:0:0:
388,336,351470,1,0,0:0:0:0:
252,152,351595,2,0,P|188:136|128:156,1,103.999995239258,10|0,3:0|0:0,0:0:0:0:
264,304,351845,5,10,3:0:0:0:
372,108,351970,1,0,3:0:0:0:
152,340,352095,5,10,3:0:0:0:
252,152,352220,1,0,3:0:0:0:
36,336,352345,5,0,3:0:0:0:
7,293,352407,1,0,3:0:0:0:
6,241,352470,1,0,3:0:0:0:
33,197,352532,1,0,3:0:0:0:
82,175,352595,5,0,3:0:0:0:
124,204,352657,1,0,3:0:0:0:
174,208,352720,1,0,3:0:0:0:
222,188,352788,1,0,3:0:0:0:
252,152,352845,2,0,P|266:103|252:62,1,88.000002685547,2|0,3:2|0:0,0:0:0:0:
38,112,353095,1,2,0:2:0:0:
38,112,353220,2,0,P|25:161|34:201,1,88.000002685547,2|0,3:2|0:0,0:0:0:0:
135,302,353470,1,2,0:2:0:0:
135,302,353595,2,0,P|219:337|306:299,1,176.000005371094,8|0,3:0|0:0,0:0:0:0:
252,152,353970,6,0,L|224:240,1,88.000002685547,0|0,3:0|0:0,0:0:0:0:
157,150,354220,1,0,3:0:0:0:
322,83,354345,2,0,P|370:73|425:96,1,88.000002685547,0|8,0:0|3:0,0:0:0:0:
324,232,354595,5,2,3:2:0:0:
324,232,354720,1,2,0:2:0:0:
157,150,354845,6,0,P|99:211|154:299,1,176.000005371094,0|0,3:0|0:0,0:0:0:0:
324,232,355220,2,0,B|461:197|461:197|424:172,1,176.000005371094,0|0,3:0|0:0,0:0:0:0:
157,150,355595,2,0,B|19:184|19:184|57:210,1,176.000005371094,8|0,3:0|0:0,0:0:0:0:
321,316,355970,6,0,P|332:263|311:212,1,88.000002685547,0|0,3:0|0:0,0:0:0:0:
157,150,356220,1,0,3:0:0:0:
82,261,356345,1,0,0:0:0:0:
232,340,356470,2,0,L|192:237,1,88.000002685547,8|2,3:0|0:2,0:0:0:0:
157,150,356720,1,0,0:0:0:0:
323,231,356845,6,0,P|376:246|424:228,1,88.000002685547,2|0,3:2|0:0,0:0:0:0:
368,156,357095,1,0,0:0:0:0:
202,222,357220,2,0,P|149:236|101:218,1,88.000002685547,2|0,3:2|0:0,0:0:0:0:
157,150,357470,1,0,0:0:0:0:
368,156,357595,2,0,P|411:245|354:325,1,176.000005371094,8|0,3:0|0:0,0:0:0:0:
118,228,357970,6,0,L|164:136,1,88.000002685547,0|0,3:0|0:0,0:0:0:0:
196,66,358220,1,0,3:0:0:0:
251,197,358345,1,0,0:0:0:0:
66,146,358470,2,0,P|58:98|70:58,1,88.000002685547,8|0,3:0|0:0,0:0:0:0:
298,129,358720,5,0,0:0:0:0:
118,228,358845,2,0,L|31:275,1,88.000002685547,0|0,3:0|0:0,0:0:0:0:
335,199,359095,5,0,0:0:0:0:
155,100,359220,2,0,L|68:53,1,88.000002685547,0|0,3:0|0:0,0:0:0:0:
377,130,359470,5,0,0:0:0:0:
284,268,359595,2,0,L|228:352,1,88.000002685547,8|0,3:0|0:0,0:0:0:0:
409,285,359845,5,2,0:2:0:0:
409,285,359970,2,0,P|425:217|409:181,1,88.000002685547,2|0,3:2|0:0,0:0:0:0:
256,76,360220,2,0,P|240:124|252:168,1,88.000002685547,2|0,3:2|0:0,0:0:0:0:
409,285,360470,5,8,3:0:0:0:
358,205,360595,1,0,3:0:0:0:
319,284,360720,1,0,3:0:0:0:
487,332,360845,6,0,P|499:284|475:228,1,88.000002685547,2|2,3:2|0:2,0:0:0:0:
240,240,361095,1,2,0:2:0:0:
240,240,361220,2,0,P|228:288|252:344,1,88.000002685547,2|0,3:2|0:0,0:0:0:0:
325,176,361470,1,2,0:2:0:0:
325,176,361595,2,0,P|238:132|156:172,1,176.000005371094,8|0,3:0|0:0,0:0:0:0:
56,272,361970,6,0,L|161:253,1,88.000002685547,0|0,3:0|0:0,0:0:0:0:
240,240,362220,1,0,3:0:0:0:
174,76,362345,5,2,0:2:0:0:
174,76,362470,2,0,P|158:124|174:164,1,88.000002685547,2|0,3:2|0:0,0:0:0:0:
240,240,362720,1,0,0:0:0:0:
399,138,362845,2,0,P|310:96|231:130,1,176.000005371094,2|0,3:2|0:0,0:0:0:0:
336,300,363220,2,0,L|372:208,2,88.000002685547,0|0|0,3:0|0:0|0:0,0:0:0:0:
80,235,363595,2,0,P|162:205|251:253,1,176.000005371094,8|0,3:0|0:0,0:0:0:0:
12,284,363970,6,0,P|-4:236|12:184,1,88.000002685547,0|0,3:0|0:0,0:0:0:0:
128,80,364220,1,0,3:0:0:0:
80,236,364345,1,0,0:0:0:0:
224,128,364470,1,8,3:0:0:0:
36,140,364595,1,0,0:0:0:0:
204,232,364720,1,2,0:2:0:0:
288,67,364845,6,0,P|238:44|189:56,1,88.000002685547,2|0,3:2|0:0,0:0:0:0:
336,216,365095,1,2,0:2:0:0:
336,216,365220,2,0,L|380:120,1,88.000002685547,2|0,3:2|0:0,0:0:0:0:
140,176,365470,1,2,0:2:0:0:
140,176,365595,2,0,L|72:340,1,176.000005371094,8|0,3:0|0:0,0:0:0:0:
299,249,365970,6,0,P|247:231|195:253,1,88.000002685547,0|0,3:0|0:0,0:0:0:0:
360,344,366220,1,0,3:0:0:0:
340,164,366345,1,0,0:0:0:0:
216,232,366470,2,0,P|200:292|220:336,1,88.000002685547,8|2,3:0|0:2,0:0:0:0:
432,256,366720,5,2,0:2:0:0:
220,136,366845,2,0,P|176:124|116:140,1,88.000002685547,0|0,3:0|0:0,0:0:0:0:
0,204,367095,1,0,0:0:0:0:
108,348,367220,2,0,L|140:248,1,88.000002685547,0|0,3:0|0:0,0:0:0:0:
0,204,367470,1,0,0:0:0:0:
215,301,367595,2,0,P|268:313|318:297,1,88.000002685547,8|0,3:0|0:0,0:0:0:0:
220,136,367845,5,2,3:2:0:0:
152,208,367970,1,2,0:2:0:0:
256,228,368095,1,8,3:3:0:0:
124,116,368220,1,2,0:2:0:0:
80,280,368345,5,2,3:2:0:0:
256,228,368470,1,2,3:2:0:0:
124,116,368595,5,2,3:2:0:0:
180,296,368720,1,2,3:2:0:0:
