osu file format v14

[General]
AudioFilename: audio.mp3
AudioLeadIn: 0
PreviewTime: 216630
Countdown: 0
SampleSet: Soft
StackLeniency: 0.7
Mode: 2
LetterboxInBreaks: 0
WidescreenStoryboard: 1

[Editor]
Bookmarks: 8380,24755,40755,56755,72755,88755,104755,120755,136755,152755,168755,184755,200755,216755,232755,248755,288755,304755,320755,336755,352755,368630
DistanceSpacing: 0.8
BeatDivisor: 8
GridSize: 8
TimelineZoom: 3.699999

[Metadata]
Title:Lost My Way
TitleUnicode:Lost My Way
Artist:FELT
ArtistUnicode:FELT
Creator:Daletto
Version:y'all liars and fake: The Sequel
Source:東方神霊廟 ~ Ten Desires.
Tags:Benita bennybananas Benny- Video Game Rock English Renko W.nova Vivienne Maurits"禅"Cornelis zen Cold Snap デザイアドライブ stage 4 theme desire drive seiga kaku コミックマーケット87 comiket87 c87 shinreibyou touhou 東方project ZUN 太田順也 Team Shanghai Alice 上海アリス幻樂団 TH 霍 青娥 NyalettOwO x3 Moete neuronio roberto
BeatmapID:4160121
BeatmapSetID:2000801

[Difficulty]
HPDrainRate:4
CircleSize:4.3
OverallDifficulty:9.8
ApproachRate:9.8
SliderMultiplier:2
SliderTickRate:2

[Events]
//Background and Video events
0,0,"y'all liars and fake.jpg",0,0
//Break Periods
2,248954,256275
//Storyboard Layer 0 (Background)
//Storyboard Layer 1 (Fail)
//Storyboard Layer 2 (Pass)
//Storyboard Layer 3 (Foreground)
//Storyboard Layer 4 (Overlay)
//Storyboard Sound Samples

[TimingPoints]
754,250,4,2,1,40,1,0
8379,-125,4,2,1,15,0,0
8441,-125,4,2,1,30,0,0
8504,-125,4,2,1,50,0,0
22754,-100,4,2,1,55,0,0
23254,-83.3333333333333,4,2,1,55,0,0
23754,-100,4,2,1,50,0,0
24691,-100,4,2,1,5,0,0
24754,-100,4,2,1,65,0,0
40004,-100,4,2,1,70,0,0
40754,-100,4,2,1,65,0,0
56004,-100,4,2,1,70,0,0
56754,-100,4,2,1,50,0,0
71504,-100,4,2,1,55,0,0
72754,-125,4,2,1,60,0,0
88254,-50,4,2,1,60,0,0
88754,-111.111111111111,4,2,1,65,0,0
103879,-111.111111111111,4,2,1,70,0,0
104754,-111.111111111111,4,2,1,75,0,0
119941,-111.111111111111,4,2,1,5,0,0
120004,-111.111111111111,4,2,1,75,0,0
120691,-111.111111111111,4,2,1,5,0,0
120754,-111.111111111111,4,2,1,50,0,0
128754,-111.111111111111,4,2,1,55,0,0
132754,-111.111111111111,4,2,1,70,0,0
133254,-111.111111111111,4,2,1,40,0,0
133379,-111.111111111111,4,2,1,50,0,0
133504,-111.111111111111,4,2,1,60,0,0
133629,-111.111111111111,4,2,1,70,0,0
134754,-133.333333333333,4,2,1,70,0,0
135879,-111.111111111111,4,2,3,60,0,0
136629,-111.111111111111,4,2,1,5,0,0
136754,-90.9090909090909,4,2,1,85,0,1
152504,-100,4,2,1,80,0,0
152754,-90.9090909090909,4,2,2,85,0,1
152816,-90.9090909090909,4,2,1,85,0,1
168754,-111.111111111111,4,2,1,60,0,0
184754,-100,4,2,1,70,0,0
200691,-100,4,2,1,5,0,0
200754,-111.111111111111,4,2,1,50,0,0
212754,-111.111111111111,4,2,1,70,0,0
213254,-111.111111111111,4,2,1,40,0,0
213379,-111.111111111111,4,2,1,50,0,0
213504,-111.111111111111,4,2,1,60,0,0
213629,-111.111111111111,4,2,1,70,0,0
216254,-90.9090909090909,4,2,3,60,0,0
216629,-90.9090909090909,4,2,1,5,0,0
216754,-90.9090909090909,4,2,1,85,0,1
232504,-100,4,2,1,85,0,0
232754,-90.9090909090909,4,2,2,85,0,1
232816,-90.9090909090909,4,2,1,85,0,1
248754,-100,4,2,1,70,0,0
256754,-100,4,2,1,60,0,0
258941,-100,4,2,1,5,0,0
259004,-100,4,2,1,60,0,0
259316,-100,4,2,1,5,0,0
259379,-100,4,2,1,60,0,0
264754,-100,4,2,1,70,0,0
264941,-100,4,2,1,5,0,0
265004,-100,4,2,1,70,0,0
266941,-100,4,2,1,5,0,0
267004,-100,4,2,1,70,0,0
267316,-100,4,2,1,5,0,0
267379,-100,4,2,1,70,0,0
268316,-100,4,2,1,5,0,0
268379,-100,4,2,1,70,0,0
271941,-100,4,2,1,5,0,0
272004,-100,4,2,1,70,0,0
272379,-50,4,2,1,70,0,0
272754,-90.9090909090909,4,2,1,80,0,0
275754,-50,4,2,1,80,0,0
276254,-90.9090909090909,4,2,1,80,0,0
278941,-90.9090909090909,4,2,1,5,0,0
279004,-90.9090909090909,4,2,1,80,0,0
280691,-90.9090909090909,4,2,1,5,0,0
280754,-90.9090909090909,4,2,1,80,0,0
288754,-105.263157894737,4,2,3,70,0,0
289379,-105.263157894737,4,2,3,50,0,0
296754,-105.263157894737,4,2,1,60,0,0
300754,-105.263157894737,4,2,1,70,0,0
301254,-105.263157894737,4,2,1,40,0,0
301379,-105.263157894737,4,2,1,50,0,0
301504,-105.263157894737,4,2,1,60,0,0
301629,-105.263157894737,4,2,1,70,0,0
302816,-105.263157894737,4,2,1,5,0,0
303754,-105.263157894737,4,2,3,60,0,0
304629,-105.263157894737,4,2,3,5,0,0
304754,-100,4,2,1,70,0,1
304816,-100,4,2,1,70,0,0
308254,-50,4,2,1,70,0,0
308754,-90.9090909090909,4,2,1,85,0,1
320691,-90.9090909090909,4,2,1,5,0,1
320754,-100,4,2,1,75,0,0
328504,-100,4,2,1,85,0,0
328754,-90.9090909090909,4,2,1,85,0,1
336504,-100,4,2,1,85,0,0
336754,-90.9090909090909,4,1,2,85,0,1
336816,-90.9090909090909,4,2,1,85,0,1
352754,-100,4,2,1,70,0,0

[Colours]
Combo1 : 95,95,95
Combo2 : 0,96,191
Combo3 : 180,180,180
Combo4 : 0,115,170

[HitObjects]
136,283,8379,5,8,0:0:0:0:
135,243,8441,1,8,0:0:0:0:
134,203,8504,1,8,0:0:0:0:
363,162,8629,1,8,0:0:0:0:
139,175,8754,6,0,P|92:145|155:65,1,160,2|0,1:0|0:0,0:0:0:0:
278,150,9129,2,0,L|89:149,1,160,0|0,1:0|0:0,0:0:0:0:
305,93,9504,1,8,0:0:0:0:
96,113,9629,6,0,L|105:218,1,80,8|0,0:0|0:0,0:0:0:0:
230,261,9879,2,0,L|336:259,1,80,0|0,1:0|0:0,0:0:0:0:
111,218,10129,1,8,0:0:0:0:
318,247,10254,2,0,L|323:149,1,80,8|0,0:0|0:0,0:0:0:0:
217,158,10504,2,0,L|216:58,1,80,2|0,0:0|0:0,0:0:0:0:
319,73,10754,6,0,L|414:71,1,80,0|0,0:0|0:0,0:0:0:0:
247,190,11004,2,0,L|72:183,1,160,0|0,1:0|3:0,0:0:0:0:
145,129,11379,1,0,3:0:0:0:
352,133,11504,1,0,1:0:0:0:
139,148,11629,6,0,L|131:253,1,80,8|0,0:0|0:0,0:0:0:0:
353,266,11879,2,0,L|448:263,1,80,8|0,0:0|1:0,0:0:0:0:
434,182,12129,2,0,L|347:182,1,80,0|0,0:0|0:0,0:0:0:0:
79,186,12379,2,0,L|73:102,1,80,8|2,0:0|0:0,0:0:0:0:
194,95,12629,1,0,0:0:0:0:
64,79,12754,5,0,1:0:0:0:
268,144,13004,2,0,L|269:246,1,80,0|0,0:0|1:0,0:0:0:0:
157,239,13254,2,0,L|158:341,1,80,0|0,3:0|0:0,0:0:0:0:
485,248,13588,6,0,L|489:140,1,106.666666666667
370,141,13879,1,0,1:0:0:0:
477,119,14004,1,0,0:0:0:0:
244,135,14129,1,8,0:0:0:0:
458,80,14254,2,0,L|464:171,1,80,8|0,0:0|1:0,0:0:0:0:
361,187,14504,2,0,L|364:281,1,80,0|0,0:0|1:0,0:0:0:0:
493,297,14754,6,0,L|326:294,1,160,0|4,1:0|3:0,0:0:0:0:
376,236,15129,1,0,3:0:0:0:
257,238,15254,2,0,L|251:147,1,80,0|0,1:0|3:0,0:0:0:0:
371,126,15504,1,8,3:0:0:0:
125,154,15629,6,0,L|51:192,1,80,8|0,0:0|0:0,0:0:0:0:
286,222,15879,1,8,0:0:0:0:
63,221,16004,2,0,L|48:321,1,80,2|0,3:0|0:0,0:0:0:0:
162,328,16254,1,4,3:0:0:0:
349,309,16379,1,8,0:0:0:0:
269,307,16505,2,0,L|141:308,1,120,0|0,1:0|0:0,0:0:0:0:
308,281,16755,6,0,P|360:239|301:174,1,160,12|8,0:0|0:1,0:0:0:0:
69,170,17129,2,0,L|67:275,1,80,0|0,1:0|0:0,0:0:0:0:
178,276,17379,1,8,0:1:0:0:
396,223,17504,1,8,0:0:0:0:
178,276,17629,6,0,L|84:276,1,80,8|0,0:0|0:0,0:0:0:0:
339,349,17879,2,0,L|516:344,1,160,6|0,1:0|0:0,0:0:0:0:
243,290,18254,1,8,0:0:0:0:
325,290,18379,2,0,L|487:287,1,160,0|0,1:0|1:0,0:0:0:0:
235,322,18754,5,0,1:0:0:0:
189,297,18837,1,0,0:0:0:0:
184,246,18920,1,0,0:0:0:0:
223,213,19005,1,0,0:0:0:0:
271,206,19088,1,0,0:0:0:0:
483,213,19171,2,0,L|480:142,1,53.3333333333333,0|0,0:0|1:0,0:0:0:0:
390,128,19379,1,0,0:0:0:0:
479,88,19504,1,0,1:0:0:0:
201,88,19629,6,0,L|113:88,2,80,8|0|2,0:0|0:0|0:0,0:0:0:0:
434,219,20004,2,0,L|259:214,1,160,2|0,1:0|0:0,0:0:0:0:
475,264,20379,2,0,L|484:172,1,80,8|2,0:0|0:0,0:0:0:0:
352,182,20629,6,0,L|349:93,1,80,0|0,1:0|0:0,0:0:0:0:
488,81,20879,1,0,3:0:0:0:
488,81,20941,1,0,0:0:0:0:
488,81,21004,1,0,1:0:0:0:
364,61,21129,1,0,3:0:0:0:
132,163,21254,2,0,L|127:72,1,80,8|0,0:0|1:0,0:0:0:0:
175,73,21441,1,0,0:0:0:0:
358,138,21504,1,8,0:0:0:0:
116,217,21629,6,0,P|81:197|140:115,1,160,8|0,0:0|1:0,0:0:0:0:
210,117,22004,1,0,0:0:0:0:
429,193,22129,1,8,0:0:0:0:
210,117,22254,1,8,0:0:0:0:
110,128,22379,2,0,P|64:157|102:240,1,160,0|0,1:0|1:0,0:0:0:0:
354,277,22755,6,0,L|426:277,1,66.6666666666667,4|4,1:0|3:0,0:0:0:0:
420,277,22920,1,4,3:0:0:0:
216,248,23004,1,0,1:0:0:0:
216,248,23087,2,0,L|288:247,1,66.6666666666667,4|8,3:0|0:0,0:0:0:0:
450,152,23254,1,8,0:0:0:0:
450,152,23338,2,0,L|351:154,1,79.9999975585938,8|8,3:0|0:3,0:0:0:0:
297,151,23505,1,8,3:0:0:0:
297,151,23588,2,0,L|390:148,1,79.9999975585938,4|0,3:0|0:0,0:0:0:0:
224,80,23755,6,0,B|4:140|4:140|203:159|203:159|1:212|1:212|120:222,1,750,12|0,0:0|0:0,0:0:0:0:
392,224,24754,5,6,1:0:0:0:
304,224,24879,2,0,L|312:120,1,100,0|0,0:0|0:0,0:0:0:0:
440,128,25129,2,0,P|400:88|264:80,1,200,2|0,1:0|0:0,0:0:0:0:
136,224,25504,6,0,P|176:184|408:184,1,300,8|0,0:0|1:0,0:0:0:0:
248,144,26129,2,0,L|256:40,1,100,0|0,1:0|3:0,0:0:0:0:
384,96,26379,1,8,0:0:0:0:
320,96,26504,1,0,0:0:0:0:
208,96,26629,1,0,0:0:0:0:
424,256,26754,6,0,P|464:216|376:128,1,200,0|2,1:0|0:0,0:0:0:0:
264,248,27129,2,0,L|416:96,1,200,0|2,1:0|0:0,0:0:0:0:
280,152,27504,6,0,P|176:152|272:56,1,300,8|0,1:2|1:0,0:0:0:0:
392,96,28129,2,0,L|400:200,1,100,0|2,1:0|1:0,0:0:0:0:
272,128,28379,2,0,L|192:48,2,100,8|2|0,0:0|0:0|0:0,0:0:0:0:
480,256,28754,6,0,P|480:200|384:104,1,200,2|0,1:0|0:0,0:0:0:0:
256,200,29129,2,0,P|256:144|352:48,1,200,2|2,1:0|0:0,0:0:0:0:
472,144,29504,6,0,B|480:88|480:88|296:272,1,300,10|0,0:0|1:0,0:0:0:0:
176,184,30129,2,0,L|184:80,1,100,0|0,1:0|0:0,0:0:0:0:
312,128,30379,2,0,L|384:56,2,100,8|2|0,0:0|3:0|0:0,0:0:0:0:
112,280,30754,6,0,P|72:240|160:152,1,200,0|0,1:0|0:0,0:0:0:0:
272,248,31129,2,0,P|312:208|224:120,1,200,2|0,1:0|0:0,0:0:0:0:
360,152,31504,2,0,L|432:80,1,100,10|0,0:0|0:0,0:0:0:0:
192,168,31754,5,2,0:0:0:0:
392,208,31879,2,0,L|400:104,1,100,2|0,1:0|0:0,0:0:0:0:
200,136,32129,2,0,L|400:136,1,200,2|8,1:0|0:0,0:0:0:0:
288,72,32504,1,2,3:0:0:0:
400,72,32629,1,0,3:0:0:0:
176,216,32754,5,6,1:0:0:0:
72,216,32879,2,0,L|64:112,1,100,0|0,0:0|0:0,0:0:0:0:
192,192,33129,2,0,L|48:48,1,200,0|2,1:0|0:0,0:0:0:0:
184,280,33504,6,0,P|288:280|288:120,1,300,8|0,0:0|1:0,0:0:0:0:
144,128,34129,1,0,1:0:0:0:
336,128,34255,1,2,0:0:0:0:
144,128,34379,2,0,L|64:48,2,100,10|0|0,0:0|0:0|0:0,0:0:0:0:
352,232,34754,6,0,P|408:232|408:112,1,200,0|0,1:0|0:0,0:0:0:0:
288,176,35129,2,0,P|288:120|384:24,1,200,0|0,1:0|3:0,0:0:0:0:
256,136,35504,6,0,P|200:136|200:320,1,300,8|2,0:0|3:0,0:0:0:0:
352,216,36129,2,0,L|360:112,1,100,0|0,1:0|0:0,0:0:0:0:
232,160,36379,2,0,P|272:120|408:120,1,200,8|0,0:0|3:0,0:0:0:0:
184,240,36754,6,0,L|40:96,1,200,2|0,1:0|0:0,0:0:0:0:
168,224,37129,2,0,L|312:80,1,200,2|2,1:0|0:0,0:0:0:0:
184,176,37504,6,0,P|192:72|200:176,1,300,8|0,0:0|1:0,0:0:0:0:
64,176,38129,1,0,1:0:0:0:
216,136,38379,1,8,0:0:0:0:
152,136,38504,1,0,0:0:0:0:
40,136,38629,1,2,1:0:0:0:
272,240,38754,6,0,P|328:240|328:120,1,200,0|0,1:0|0:0,0:0:0:0:
208,184,39129,2,0,L|352:40,1,200,0|0,1:0|0:0,0:0:0:0:
104,288,39504,6,0,P|64:248|200:112,1,300,12|0,0:0|1:0,0:0:0:0:
256,104,39941,1,0,0:0:0:0:
408,136,40004,2,0,L|416:80,1,50,8|8,0:0|0:0,0:0:0:0:
264,96,40129,2,0,L|200:96,1,50,8|8,3:0|3:0,0:0:0:0:
392,208,40254,5,8,3:0:0:0:
440,176,40316,1,4,3:0:0:0:
456,144,40379,1,4,3:0:0:0:
440,176,40441,1,4,3:0:0:0:
280,168,40504,2,0,L|224:168,1,50,4|0,3:0|1:0,0:0:0:0:
72,120,40629,2,0,L|128:120,1,50,0|0,1:0|1:0,0:0:0:0:
352,184,40754,5,6,1:0:0:0:
240,243,40879,2,0,L|245:355,1,100,0|8,0:0|0:0,0:0:0:0:
479,357,41129,2,0,L|271:353,1,200,2|0,0:0|1:0,0:0:0:0:
420,319,41504,2,0,L|423:206,1,100,2|8,0:0|0:0,0:0:0:0:
225,209,41879,5,0,1:0:0:0:
331,209,42004,2,0,P|374:171|311:57,1,200,8|0,0:0|3:0,0:0:0:0:
227,62,42379,1,0,1:0:0:0:
106,165,42504,2,0,L|105:288,1,100,10|2,0:0|0:0,0:0:0:0:
313,295,42754,5,0,1:0:0:0:
203,289,42879,2,0,L|197:176,1,100,0|0,0:0|0:0,0:0:0:0:
344,191,43129,2,0,P|387:165|330:45,1,200,8|2,0:0|1:0,0:0:0:0:
209,52,43504,2,0,L|221:167,1,100,8|0,0:0|0:0,0:0:0:0:
389,237,43879,5,0,1:0:0:0:
288,224,44004,2,0,L|282:117,1,100,8|0,0:0|0:0,0:0:0:0:
398,95,44254,2,0,L|401:212,1,100,0|0,0:0|1:0,0:0:0:0:
154,273,44504,1,10,0:0:0:0:
356,262,44629,1,0,0:0:0:0:
120,300,44754,6,0,P|68:270|144:169,1,200,6|8,1:2|0:0,0:0:0:0:
289,155,45254,2,0,L|294:264,1,100,0|0,1:0|1:0,0:0:0:0:
199,293,45504,1,2,0:0:0:0:
441,340,45629,6,0,P|484:298|415:179,1,200,10|0,0:0|1:0,0:0:0:0:
165,270,46004,2,0,L|170:157,1,100,8|0,0:0|0:0,0:0:0:0:
272,176,46254,2,0,L|266:60,1,100,0|0,0:0|1:0,0:0:0:0:
123,80,46504,2,0,L|117:182,1,100,10|0,0:0|3:0,0:0:0:0:
240,237,46754,5,0,1:0:0:0:
117,263,46879,1,0,0:0:0:0:
431,330,47129,2,0,P|472:301|402:176,1,200,8|0,0:0|1:0,0:0:0:0:
294,185,47504,2,0,L|291:289,1,100,10|0,0:0|0:0,0:0:0:0:
485,292,47754,5,2,0:0:0:0:
347,291,47879,2,0,L|345:175,1,100,2|8,1:0|0:0,0:0:0:0:
209,194,48129,2,0,P|161:171|216:65,1,200,2|0,0:0|1:0,0:0:0:0:
424,120,48504,1,8,0:0:0:0:
224,51,48629,1,8,0:0:0:0:
438,75,48754,6,0,P|489:107|422:213,1,200,6|8,1:1|0:0,0:0:0:0:
242,208,49254,2,0,L|256:328,1,100,0|0,1:0|3:0,0:0:0:0:
333,316,49504,1,0,0:0:0:0:
95,339,49629,6,0,P|51:308|126:198,1,200,8|0,0:0|1:0,0:0:0:0:
221,215,50004,2,0,L|221:105,1,100,10|0,0:0|0:0,0:0:0:0:
29,103,50254,1,2,0:0:0:0:
219,88,50379,2,0,L|222:-18,1,100,2|8,1:0|0:0,0:0:0:0:
412,231,50754,6,0,L|410:112,1,100,2|0,1:0|0:0,0:0:0:0:
101,317,51129,2,0,P|56:295|131:186,1,200,8|0,0:0|1:0,0:0:0:0:
170,173,51504,1,8,0:0:0:0:
405,253,51879,5,0,1:0:0:0:
304,248,52004,2,0,L|90:237,1,200,8|0,0:0|0:0,0:0:0:0:
153,168,52379,1,0,0:0:0:0:
368,136,52504,1,10,0:0:0:0:
160,143,52629,1,10,0:0:0:0:
380,104,52754,6,0,P|418:149|340:259,1,200,2|12,1:0|0:0,0:0:0:0:
228,270,53129,2,0,L|111:261,1,100,0|0,0:0|1:0,0:0:0:0:
128,262,53379,1,0,0:0:0:0:
455,319,53629,6,0,P|491:268|434:156,1,200,10|0,0:0|1:0,0:0:0:0:
293,245,54004,2,0,L|294:138,1,100,8|2,0:0|0:0,0:0:0:0:
417,166,54254,2,0,L|416:57,1,100,2|0,0:0|1:0,0:0:0:0:
300,72,54504,2,0,L|190:58,1,100,10|0,0:0|0:0,0:0:0:0:
441,47,54754,6,0,P|487:93|410:182,1,200,0|10,1:0|0:0,0:0:0:0:
97,317,55254,2,0,P|39:288|109:186,1,200,10|0,0:0|1:0,0:0:0:0:
157,178,55629,1,0,0:0:0:0:
377,300,55879,6,0,L|380:232,1,50,0|0,1:0|0:0,0:0:0:0:
316,248,56004,2,0,L|265:248,1,50,8|8,0:0|3:0,0:0:0:0:
262,190,56129,2,0,L|319:188,1,50,8|8,3:0|3:0,0:0:0:0:
470,189,56254,2,0,L|472:132,1,50,8|4,3:0|3:0,0:0:0:0:
401,136,56379,2,0,L|339:132,1,50,4|4,3:0|3:0,0:0:0:0:
280,129,56504,2,0,L|281:59,1,50,4|0,3:0|1:0,0:0:0:0:
451,73,56629,2,0,L|509:69,1,50,0|0,1:0|1:0,0:0:0:0:
248,264,56754,6,0,P|192:264|192:80,1,300,6|2,1:1|3:0,0:0:0:0:
312,88,57379,1,0,0:0:0:0:
192,144,57629,2,0,L|184:40,2,100,0|2|0,1:0|0:0|0:0,0:0:0:0:
312,184,58129,2,0,P|352:144|192:144,1,400,0|0,0:0|0:0,0:0:0:0:
312,184,58754,6,0,P|240:184|192:136,1,133.333333333333,2|0,1:0|0:0,0:0:0:0:
352,184,59087,1,0,0:0:0:0:
200,248,59254,1,2,0:0:0:0:
320,248,59379,2,0,L|328:144,1,100,0|10,3:0|3:1,0:0:0:0:
200,160,59629,2,0,L|208:56,1,100,0|0,1:0|0:0,0:0:0:0:
328,288,60004,6,0,L|184:144,1,200,0|10,1:0|3:1,0:0:0:0:
312,152,60504,2,0,L|200:152,1,100,2|0,0:0|0:0,0:0:0:0:
336,320,60754,6,0,P|336:264|168:96,1,300,0|2,1:0|1:0,0:0:0:0:
304,120,61379,1,0,3:0:0:0:
176,120,61629,1,0,1:0:0:0:
224,120,61754,1,0,0:0:0:0:
304,120,61879,1,2,0:0:0:0:
176,88,62129,6,0,L|168:288,1,200,2|0,0:0|0:0,0:0:0:0:
296,200,62504,2,0,L|168:200,1,100,2|0,0:0|0:0,0:0:0:0:
320,192,62754,6,0,L|328:88,1,100,2|2,1:0|0:0,0:0:0:0:
200,224,63004,2,0,P|160:184|248:96,1,200,2|0,0:0|0:0,0:0:0:0:
360,96,63379,2,0,L|256:96,1,100,2|0,3:0|0:0,0:0:0:0:
136,296,63629,6,0,P|136:240|304:72,1,300,0|0,1:0|1:0,0:0:0:0:
168,256,64255,2,0,L|160:96,1,150,10|0,3:1|0:0,0:0:0:0:
320,144,64629,1,0,0:0:0:0:
64,256,64754,6,0,P|24:216|152:216,1,300,4|0,1:2|0:0,0:0:0:0:
32,200,65254,2,0,P|88:200|168:120,2,155.555555555556,2|0|2,0:0|0:0|1:0,0:0:0:0:
208,248,65847,5,0,0:0:0:0:
304,352,66004,2,0,L|296:40,1,300,0|0,1:0|0:0,0:0:0:0:
120,272,66754,6,0,P|160:232|296:232,1,200,2|0,1:0|3:0,0:0:0:0:
176,176,67129,2,0,L|168:72,1,100,2|0,1:0|0:0,0:0:0:0:
264,128,67347,2,0,L|168:128,1,87.5,2|2,3:0|3:0,0:0:0:0:
288,120,67566,2,0,L|296:64,1,50,2|6,3:0|1:2,3:1:0:0:
168,304,67754,6,0,L|152:96,1,200,2|0,0:0|1:0,0:0:0:0:
280,144,68129,1,2,0:0:0:0:
96,144,68504,1,2,0:0:0:0:
344,296,68754,6,0,L|352:96,1,200,2|0,1:0|0:0,0:0:0:0:
224,176,69129,1,0,1:0:0:0:
304,176,69254,2,0,L|296:72,1,100,0|0,3:0|0:0,0:0:0:0:
168,104,69504,5,10,3:1:0:0:
248,112,69629,2,0,P|304:112|304:296,1,300,0|2,1:0|1:0,0:0:0:0:
184,248,70254,2,0,L|328:104,1,200,10|0,3:1|0:0,0:0:0:0:
200,216,70754,6,0,L|192:112,1,100,0|2,1:0|0:0,0:0:0:0:
320,128,71004,2,0,L|208:128,1,100,2|0,0:0|1:0,0:0:0:0:
344,120,71254,2,0,L|216:120,1,100,2|0,0:0|3:0,0:0:0:0:
432,264,71504,6,0,L|224:264,1,200,12|0,0:0|1:0,0:0:0:0:
317,157,71879,1,0,1:0:0:0:
232,224,72004,1,0,1:0:0:0:
280,224,72087,2,0,L|288:128,1,66.6666666666667,4|0,3:0|1:0,0:0:0:0:
208,240,72254,2,0,P|160:240|56:136,1,200,10|0,0:0|0:0,0:0:0:0:
432,327,72755,6,0,P|412:226|346:214,1,160,6|0,1:0|0:0,0:0:0:0:
231,204,73129,2,0,P|227:146|333:98,1,160,2|0,1:0|0:0,0:0:0:0:
166,261,73504,2,0,P|110:236|181:105,1,240,8|0,0:0|1:0,0:0:0:0:
309,118,74129,1,0,1:0:0:0:
69,137,74379,2,0,L|66:235,1,80,8|2,0:0|0:0,0:0:0:0:
133,261,74629,1,0,3:0:0:0:
357,301,74754,6,0,L|164:312,1,160,2|0,1:0|0:0,0:0:0:0:
335,213,75129,2,0,P|386:163|327:107,1,160,2|0,1:0|0:0,0:0:0:0:
201,112,75504,2,0,L|115:107,1,80,8|0,0:0|0:0,0:0:0:0:
374,254,75754,5,0,0:0:0:0:
374,254,75879,2,0,L|179:260,1,160,0|0,1:0|1:0,0:0:0:0:
35,184,76379,2,0,L|34:285,1,80,8|2,0:0|0:0,0:0:0:0:
115,326,76629,1,0,0:0:0:0:
327,327,76754,6,0,P|316:253|234:203,1,160,2|0,1:0|0:0,0:0:0:0:
388,219,77129,2,0,P|434:193|390:106,1,160,0|0,1:0|0:0,0:0:0:0:
183,154,77504,2,0,L|184:253,1,80,8|0,0:0|0:0,0:0:0:0:
83,288,77754,1,0,0:0:0:0:
206,328,77879,2,0,L|385:330,1,160,0|0,1:0|1:0,0:0:0:0:
126,252,78379,2,0,L|126:153,1,80,8|2,0:0|0:0,0:0:0:0:
213,138,78629,1,0,0:0:0:0:
460,210,78754,6,0,L|281:214,1,160,2|0,1:0|0:0,0:0:0:0:
436,344,79129,2,0,L|432:146,1,160,2|2,1:0|0:0,0:0:0:0:
293,225,79504,2,0,L|291:118,1,80,10|0,0:0|0:0,0:0:0:0:
108,60,79754,5,2,0:0:0:0:
27,108,79879,2,0,L|223:103,1,160,0|0,1:0|1:0,0:0:0:0:
428,153,80379,2,0,L|434:253,1,80,8|2,0:0|0:0,0:0:0:0:
363,266,80629,1,0,0:0:0:0:
128,292,80754,6,0,P|81:258|125:154,1,160,6|0,1:0|0:0,0:0:0:0:
235,144,81129,2,0,L|53:137,1,160,2|2,1:0|0:0,0:0:0:0:
217,224,81504,2,0,L|308:217,1,80,8|0,0:0|0:0,0:0:0:0:
56,274,81879,2,0,L|246:281,1,160,0|0,1:0|1:0,0:0:0:0:
388,301,82379,2,0,L|390:199,1,80,8|2,0:0|0:0,0:0:0:0:
309,194,82629,1,0,3:0:0:0:
76,261,82754,6,0,P|33:241|79:140,1,160,2|0,1:0|0:0,0:0:0:0:
185,141,83129,2,0,L|357:145,1,160,2|0,1:0|0:0,0:0:0:0:
205,244,83504,1,8,0:0:0:0:
127,242,83629,2,0,P|92:216|134:108,1,160,0|0,0:0|1:0,0:0:0:0:
306,128,84129,2,0,L|126:113,1,160,0|8,1:0|0:0,0:0:0:0:
228,90,84504,2,0,L|310:86,1,80,2|0,0:0|0:0,0:0:0:0:
96,235,84754,6,0,L|281:227,1,160,2|0,1:0|0:0,0:0:0:0:
115,312,85129,2,0,P|63:285|78:180,1,160,2|2,1:0|0:0,0:0:0:0:
202,182,85504,2,0,L|209:94,1,80,8|0,0:0|0:0,0:0:0:0:
416,150,85879,2,0,L|246:146,1,160,0|0,1:0|1:0,0:0:0:0:
47,328,86379,2,0,L|144:322,2,80,8|2|0,0:0|0:0|0:0,0:0:0:0:
331,291,86754,6,0,L|136:301,1,160,2|0,1:0|0:0,0:0:0:0:
310,368,87129,2,0,P|349:325|310:236,1,160,2|0,1:0|0:0,0:0:0:0:
176,252,87504,2,0,L|78:243,1,80,8|0,0:0|0:0,0:0:0:0:
96,244,87754,1,0,0:0:0:0:
337,157,87879,2,0,L|144:151,1,160,0|0,1:0|1:0,0:0:0:0:
413,312,88255,2,0,B|20:307|20:307|39:84,1,600,10|0,0:0|0:0,0:0:0:0:
256,192,88755,5,6,1:0:0:0:
168,192,88880,2,0,L|176:96,1,89.9999972534181,2|0,0:0|0:0,0:0:0:0:
360,184,89130,2,0,L|152:184,1,179.999994506836,2|0,1:0|0:0,0:0:0:0:
320,248,89505,6,0,P|352:216|232:96,1,269.999991760254,8|0,0:0|1:0,0:0:0:0:
368,272,90004,2,0,L|376:176,1,89.9999972534181,0|0,0:0|0:0,0:0:0:0:
248,176,90254,2,0,L|256:80,1,89.9999972534181,2|8,0:0|0:0,0:0:0:0:
384,136,90504,2,0,L|280:136,1,89.9999972534181,0|2,0:0|0:0,0:0:0:0:
160,272,90754,6,0,L|168:88,1,179.999994506836,2|0,1:0|3:0,0:0:0:0:
296,120,91129,1,0,0:0:0:0:
136,160,91379,2,0,L|72:96,1,89.9999972534181,2|8,0:0|0:0,0:0:0:0:
144,152,91629,1,0,0:0:0:0:
312,272,91879,6,0,P|312:224|224:136,1,179.999994506836,0|0,1:0|1:0,0:0:0:0:
136,120,92254,1,0,0:0:0:0:
264,112,92379,1,10,0:0:0:0:
136,120,92504,2,0,L|128:24,1,89.9999972534181,0|2,0:0|0:0,0:0:0:0:
312,264,92754,6,0,P|360:264|360:160,1,179.999994506836,2|0,1:0|0:0,0:0:0:0:
232,192,93129,2,0,L|240:8,1,179.999994506836,0|2,1:0|0:0,0:0:0:0:
104,272,93504,6,0,P|104:224|256:72,1,269.999991760254,10|0,0:0|1:0,0:0:0:0:
376,240,94004,2,0,L|368:144,1,89.9999972534181,0|0,0:0|0:0,0:0:0:0:
240,208,94254,2,0,L|232:112,1,89.9999972534181,2|8,0:0|0:0,0:0:0:0:
360,160,94505,2,0,L|256:160,1,89.9999972534181,2|0,0:0|3:0,0:0:0:0:
400,280,94754,6,0,P|432:248|352:168,1,179.999994506836,0|0,1:0|0:0,0:0:0:0:
232,240,95129,2,0,P|200:208|280:128,1,179.999994506836,0|0,1:0|0:0,0:0:0:0:
136,104,95504,2,0,L|128:200,1,89.9999972534181,8|0,0:2|3:0,0:0:0:0:
312,152,95754,6,0,L|208:152,1,89.9999972534181,0|2,0:0|1:0,0:0:0:0:
352,136,96004,1,0,0:0:0:0:
168,272,96129,2,0,P|120:272|120:160,1,179.999994506836,0|10,1:0|0:0,0:0:0:0:
240,152,96504,2,0,L|144:152,1,89.9999972534181,0|0,0:0|1:0,0:0:0:0:
336,216,96754,6,0,L|344:120,1,89.9999972534181,6|0,1:0|0:0,0:0:0:0:
256,120,97004,1,0,0:0:0:0:
440,152,97129,2,0,L|224:152,1,179.999994506836,0|2,1:0|0:0,0:0:0:0:
392,256,97504,6,0,P|392:208|240:56,1,269.999991760254,8|0,0:0|1:0,0:0:0:0:
384,208,98004,2,0,L|392:112,1,89.9999972534181,0|0,1:0|1:0,0:0:0:0:
208,136,98254,1,2,0:0:0:0:
392,144,98379,1,10,0:0:0:0:
480,144,98504,2,0,L|472:48,1,89.9999972534181,0|0,0:0|1:0,0:0:0:0:
288,296,98754,6,0,P|296:200|304:296,1,269.999991760254,2|2,1:0|1:0,0:0:0:0:
152,192,99379,1,2,3:0:0:0:
280,216,99504,6,0,L|288:32,1,179.999994506836,8|0,3:2|0:0,0:0:0:0:
200,72,99879,1,0,1:0:0:0:
328,104,100004,2,0,L|424:104,1,89.9999972534181,2|0,0:0|1:0,0:0:0:0:
240,176,100379,5,8,0:0:0:0:
368,192,100504,2,0,L|360:96,1,89.9999972534181,0|0,0:0|0:0,0:0:0:0:
176,296,100754,6,0,P|128:296|128:192,1,179.999994506836,2|0,1:0|0:0,0:0:0:0:
256,176,101129,2,0,L|160:176,1,89.9999972534181,2|0,1:0|0:0,0:0:0:0:
264,168,101379,1,2,0:0:0:0:
136,224,101504,2,0,L|128:128,1,89.9999972534181,10|0,0:0|0:0,0:0:0:0:
296,176,101879,6,0,L|360:112,1,89.9999972534181,2|0,1:0|0:0,0:0:0:0:
288,168,102129,1,0,1:0:0:0:
120,144,102379,1,8,0:0:0:0:
248,120,102504,2,0,L|360:120,1,89.9999972534181,0|2,0:0|0:0,0:0:0:0:
152,264,102754,6,0,P|120:232|240:112,1,269.999991760254,2|0,1:0|1:0,0:0:0:0:
392,152,103379,1,0,0:0:0:0:
208,136,103504,2,0,L|304:136,1,89.9999972534181,14|0,0:0|0:0,0:0:0:0:
432,128,103754,1,0,0:0:0:0:
248,144,103879,6,0,L|192:144,1,44.999998626709,0|0,1:0|0:0,0:0:0:0:
328,144,104004,1,8,0:0:0:0:
448,144,104066,1,8,3:0:0:0:
328,144,104129,2,0,L|320:96,1,44.999998626709,8|8,3:0|3:0,0:0:0:0:
392,112,104254,2,0,L|400:64,1,44.999998626709,10|4,3:0|3:0,0:0:0:0:
256,288,104379,2,0,L|192:288,1,44.999998626709,4|4,3:0|3:0,0:0:0:0:
280,272,104504,1,6,3:0:0:0:
328,264,104566,1,0,1:0:0:0:
344,248,104629,1,0,1:0:0:0:
328,264,104691,1,0,1:0:0:0:
144,184,104754,6,0,P|96:164|153:75,1,179.999994506836,6|8,1:1|0:0,0:0:0:0:
224,72,105129,1,2,0:0:0:0:
346,136,105254,2,0,L|339:245,1,89.9999972534181,0|0,0:0|1:0,0:0:0:0:
120,268,105504,2,0,L|24:260,1,89.9999972534181,8|0,0:0|0:0,0:0:0:0:
282,319,105754,6,0,L|291:207,1,89.9999972534181,2|0,1:0|0:0,0:0:0:0:
156,215,106004,2,0,L|151:110,1,89.9999972534181,8|0,0:0|0:0,0:0:0:0:
264,99,106254,1,0,0:0:0:0:
150,85,106379,1,0,1:0:0:0:
379,205,106504,2,0,L|472:205,1,89.9999972534181,10|0,0:0|0:0,0:0:0:0:
202,299,106754,6,0,L|322:295,1,89.9999972534181,2|0,1:0|0:0,0:0:0:0:
156,235,107004,2,0,L|64:237,1,89.9999972534181,8|0,0:0|0:0,0:0:0:0:
201,69,107254,2,0,L|201:180,1,89.9999972534181,0|0,1:0|1:0,0:0:0:0:
326,57,107504,2,0,L|323:158,1,89.9999972534181,10|0,0:0|0:0,0:0:0:0:
37,183,107754,6,0,L|31:279,1,89.9999972534181,2|0,1:0|0:0,0:0:0:0:
160,289,108004,1,8,0:0:0:0:
41,281,108129,2,0,L|31:173,1,89.9999972534181,2|0,0:0|0:0,0:0:0:0:
147,175,108379,1,0,1:0:0:0:
373,182,108504,2,0,L|381:280,1,89.9999972534181,10|0,0:0|1:0,0:0:0:0:
110,349,108754,6,0,L|216:345,2,89.9999972534181,2|0|8,1:0|0:0|0:0,0:0:0:0:
326,288,109129,1,0,0:0:0:0:
236,283,109254,1,0,1:0:0:0:
146,278,109379,1,0,0:0:0:0:
365,246,109504,2,0,L|374:139,1,89.9999972534181,8|0,0:0|0:0,0:0:0:0:
148,225,109754,5,2,1:0:0:0:
266,221,109879,1,0,0:0:0:0:
148,225,110004,2,0,L|154:96,1,89.9999972534181,8|0,0:0|0:0,0:0:0:0:
296,127,110254,2,0,L|177:121,1,89.9999972534181,0|0,0:0|1:0,0:0:0:0:
443,103,110504,2,0,L|449:200,1,89.9999972534181,10|0,0:0|0:0,0:0:0:0:
217,262,110754,6,0,L|125:260,2,89.9999972534181,2|0|8,1:0|0:0|0:0,0:0:0:0:
460,269,111129,2,0,L|459:177,1,89.9999972534181,0|0,0:0|1:0,0:0:0:0:
354,158,111379,1,0,1:0:0:0:
118,204,111504,2,0,L|126:306,1,89.9999972534181,8|0,0:0|0:0,0:0:0:0:
337,313,111754,5,2,1:0:0:0:
247,317,111879,1,0,0:0:0:0:
157,322,112004,1,8,0:0:0:0:
389,357,112129,2,0,L|485:351,2,89.9999972534181,2|0|0,0:0|0:0|1:0,0:0:0:0:
177,361,112504,2,0,L|67:347,1,89.9999972534181,10|0,0:0|0:0,0:0:0:0:
398,261,112754,6,0,P|460:211|394:136,1,179.999994506836,6|8,1:0|0:0,0:0:0:0:
325,132,113129,1,0,0:0:0:0:
202,180,113254,2,0,L|207:269,1,89.9999972534181,0|0,1:0|1:0,0:0:0:0:
26,253,113504,2,0,L|15:350,1,89.9999972534181,8|0,0:0|0:0,0:0:0:0:
246,352,113754,6,0,L|355:342,1,89.9999972534181,2|0,1:0|0:0,0:0:0:0:
186,321,114004,2,0,L|188:218,1,89.9999972534181,8|0,0:0|0:0,0:0:0:0:
302,220,114254,1,0,0:0:0:0:
180,217,114379,2,0,L|89:209,2,89.9999972534181,0|8|0,1:0|0:0|0:0,0:0:0:0:
438,70,114754,6,0,L|439:193,1,89.9999972534181,2|0,1:0|0:0,0:0:0:0:
333,222,115004,1,8,0:0:0:0:
122,221,115129,2,0,L|27:223,2,89.9999972534181,0|0|0,0:0|1:0|1:0,0:0:0:0:
338,147,115504,2,0,L|233:141,1,89.9999972534181,10|0,0:0|0:0,0:0:0:0:
30,175,115754,6,0,L|36:287,1,89.9999972534181,2|0,1:0|0:0,0:0:0:0:
126,299,116004,1,8,0:0:0:0:
360,284,116129,2,0,L|247:278,2,89.9999972534181,2|0|0,0:0|0:0|1:0,0:0:0:0:
111,354,116504,2,0,L|108:255,1,89.9999972534181,10|2,0:0|0:0,0:0:0:0:
344,266,116754,6,0,L|341:170,1,89.9999972534181,2|0,1:0|0:0,0:0:0:0:
242,158,117004,1,8,0:0:0:0:
476,127,117129,2,0,L|371:124,1,89.9999972534181,2|0,0:0|1:0,0:0:0:0:
153,147,117379,2,0,L|159:242,1,89.9999972534181,0|10,0:0|0:0,0:0:0:0:
261,258,117629,1,0,0:0:0:0:
46,289,117754,6,0,L|49:173,1,89.9999972534181,2|0,1:0|0:0,0:0:0:0:
184,160,118004,2,0,L|68:149,1,89.9999972534181,8|0,0:0|0:0,0:0:0:0:
228,189,118254,2,0,L|234:301,1,89.9999972534181,0|0,0:0|1:0,0:0:0:0:
34,271,118504,2,0,L|28:365,1,89.9999972534181,10|0,0:0|0:0,0:0:0:0:
238,354,118754,6,0,L|134:347,2,89.9999972534181,2|0|8,1:0|0:0|0:0,0:0:0:0:
477,311,119129,1,2,0:0:0:0:
387,312,119254,1,0,1:0:0:0:
297,313,119379,1,0,1:0:0:0:
63,317,119504,2,0,L|61:220,1,89.9999972534181,10|0,0:0|0:0,0:0:0:0:
298,203,119754,5,14,0:0:0:0:
176,166,119879,1,0,0:0:0:0:
394,155,120004,1,8,0:0:0:0:
456,153,120087,2,0,L|491:72,2,59.9999981689454,4|4|0,3:0|3:0|1:0,0:0:0:0:
202,210,120337,2,0,L|140:207,1,59.9999981689454,0|0,1:0|1:0,0:0:0:0:
322,249,120504,2,0,L|491:235,1,134.999995880127,10|0,0:0|0:0,0:0:0:0:
256,288,120754,6,0,P|160:288|160:144,1,269.999991760254,6|0,1:0|1:0,0:0:0:0:
320,144,121379,2,0,L|200:144,1,89.9999972534181,2|0,0:0|0:0,0:0:0:0:
392,128,121754,5,0,0:0:0:0:
264,288,121879,2,0,L|256:96,1,179.999994506836,0|2,1:0|1:0,0:0:0:0:
424,232,122379,2,0,P|424:184|336:96,1,179.999994506836,10|0,3:1|0:0,0:0:0:0:
208,256,122754,6,0,P|304:264|232:176,2,269.999991760254,2|0|10,1:0|1:0|3:1,0:0:0:0:
368,184,123754,5,2,0:0:0:0:
240,192,123879,2,0,P|192:192|192:88,1,179.999994506836,0|2,0:0|1:0,0:0:0:0:
352,176,124379,2,0,L|224:48,1,179.999994506836,10|0,3:1|3:0,0:0:0:0:
352,264,124754,6,0,P|352:216|200:64,1,269.999991760254,2|0,1:0|1:0,0:0:0:0:
368,176,125379,2,0,L|376:72,1,89.9999972534181,2|10,0:0|3:1,0:0:0:0:
216,136,125754,5,2,0:0:0:0:
344,144,125879,2,0,P|312:112|184:112,1,179.999994506836,0|2,0:0|1:0,0:0:0:0:
344,248,126379,2,0,L|352:64,1,179.999994506836,10|0,3:1|3:0,0:0:0:0:
216,256,126754,6,0,P|184:224|304:104,1,269.999991760254,2|0,1:0|1:0,0:0:0:0:
136,144,127379,2,0,L|40:144,1,89.9999972534181,0|10,0:0|3:1,0:0:0:0:
208,144,127754,5,2,0:0:0:0:
80,144,127879,2,0,P|112:112|240:112,1,179.999994506836,0|0,1:0|1:0,0:0:0:0:
400,224,128379,2,0,L|408:40,1,179.999994506836,8|0,0:0|0:0,0:0:0:0:
224,296,128754,6,0,P|232:200|240:296,1,269.999991760254,6|0,1:2|1:0,0:0:0:0:
96,160,129379,2,0,L|208:160,1,89.9999972534181,0|8,0:0|0:0,0:0:0:0:
344,152,129754,5,2,0:0:0:0:
216,160,129879,2,0,P|216:112|304:24,1,179.999994506836,0|2,1:0|1:0,0:0:0:0:
464,184,130379,2,0,L|456:368,1,179.999994506836,8|0,0:0|1:0,0:0:0:0:
328,328,130754,6,0,P|280:328|280:160,2,269.999991760254,2|0|8,1:0|1:0|0:0,0:0:0:0:
168,240,131754,6,0,L|160:144,1,89.9999972534181,2|0,0:0|1:0,0:0:0:0:
288,208,132004,2,0,L|280:112,1,89.9999972534181,2|0,0:0|1:0,0:0:0:0:
408,168,132254,2,0,L|400:72,1,89.9999972534181,2|8,0:0|0:0,0:0:0:0:
272,184,132504,1,2,0:0:0:0:
400,184,132629,1,0,1:0:0:0:
216,320,132754,6,0,P|168:320|168:152,1,269.999991760254,6|0,1:2|0:0,0:0:0:0:
240,144,133254,1,10,1:2:0:0:
160,120,133379,1,8,1:2:0:0:
280,96,133504,1,10,1:2:0:0:
160,96,133629,1,8,1:2:0:0:
376,144,133754,5,10,1:2:0:0:
256,144,133879,1,8,1:2:0:0:
472,208,134004,1,10,1:2:0:0:
352,208,134129,1,8,1:2:0:0:
136,208,134254,5,10,3:0:0:0:
256,208,134379,2,0,L|264:160,1,44.999998626709,4|4,3:0|3:0,0:0:0:0:
120,144,134504,2,0,L|128:96,1,44.999998626709,6|4,3:0|3:0,0:0:0:0:
328,112,134629,2,0,L|392:112,1,44.999998626709,6|0,3:0|0:0,0:0:0:0:
168,112,134754,6,0,P|176:312|184:112,1,600.000022888185,4|0,0:0|0:0,0:0:0:0:
256,192,135879,12,0,136629,1:0:0:0:
376,192,136754,6,0,P|304:192|152:192,1,220.000006713867,6|10,1:1|0:0,0:0:0:0:
165,174,137129,1,0,0:0:0:0:
355,139,137254,2,0,L|231:139,1,110.000003356934,2|0,1:0|1:0,0:0:0:0:
464,91,137504,2,0,L|471:225,1,110.000003356934,10|0,0:0|0:0,0:0:0:0:
199,300,137754,6,0,L|322:303,2,110.000003356934,2|0|10,1:0|1:0|0:0,0:0:0:0:
455,346,138129,2,0,L|456:225,1,110.000003356934,2|0,1:0|3:0,0:0:0:0:
217,234,138379,2,0,L|100:223,1,110.000003356934,2|10,1:0|0:0,0:0:0:0:
391,156,138629,1,2,0:0:0:0:
137,174,138754,6,0,L|363:164,1,220.000006713867,0|10,1:0|0:0,0:0:0:0:
263,98,139129,1,0,0:0:0:0:
452,95,139254,2,0,L|451:227,1,110.000003356934,0|0,1:0|0:0,0:0:0:0:
166,303,139504,2,0,L|39:299,1,110.000003356934,10|0,0:0|0:0,0:0:0:0:
288,253,139754,6,0,L|277:131,1,110.000003356934,2|0,1:0|1:0,0:0:0:0:
144,125,140004,1,8,0:0:0:0:
360,314,140129,2,0,P|417:278|351:175,1,220.000006713867,2|0,1:0|1:0,0:0:0:0:
104,215,140504,2,0,L|107:89,1,110.000003356934,10|0,0:0|0:0,0:0:0:0:
362,202,140754,6,0,L|113:202,1,220.000006713867,2|10,1:0|0:0,0:0:0:0:
336,67,141129,2,0,L|334:203,1,110.000003356934,2|0,0:0|0:0,0:0:0:0:
212,199,141379,1,0,1:0:0:0:
410,220,141504,2,0,L|530:215,1,110.000003356934,10|0,0:0|0:0,0:0:0:0:
241,276,141754,6,0,L|90:279,2,110.000003356934,2|0|10,1:0|1:0|0:0,0:0:0:0:
32,234,142129,2,0,P|31:159|168:94,1,220.000006713867,2|0,1:0|1:0,0:0:0:0:
376,177,142504,2,0,L|222:182,1,110.000003356934,10|0,0:0|0:0,0:0:0:0:
484,167,142754,6,0,P|466:93|329:56,1,220.000006713867,2|10,1:0|0:0,0:0:0:0:
111,141,143129,2,0,L|107:273,1,110.000003356934,2|0,0:0|1:0,0:0:0:0:
349,285,143379,1,2,1:0:0:0:
127,287,143504,2,0,L|9:272,1,110.000003356934,10|0,0:0|0:0,0:0:0:0:
322,125,143754,6,0,L|322:254,1,110.000003356934,10|0,0:0|1:0,0:0:0:0:
73,214,144004,2,0,L|53:279,2,55.0000016784668,10|0|0,0:0|0:0|0:0,0:0:0:0:
300,287,144254,2,0,L|295:213,1,55.0000016784668,6|0,3:0|0:0,0:0:0:0:
146,189,144379,1,0,0:0:0:0:
361,168,144504,2,0,L|477:177,1,110.000003356934,14|0,0:0|0:0,0:0:0:0:
178,344,144754,6,0,P|125:292|201:189,1,220.000006713867,6|10,1:0|0:0,0:0:0:0:
293,190,145129,1,0,0:0:0:0:
53,149,145254,2,0,L|177:149,1,110.000003356934,2|0,1:0|1:0,0:0:0:0:
440,127,145504,2,0,L|433:261,1,110.000003356934,10|0,0:0|0:0,0:0:0:0:
167,258,145754,5,2,1:0:0:0:
256,177,145879,1,0,1:0:0:0:
380,208,146004,1,10,0:0:0:0:
137,322,146129,2,0,L|1:317,1,110.000003356934,2|0,1:0|3:0,0:0:0:0:
295,234,146379,2,0,L|299:109,1,110.000003356934,0|10,1:0|0:0,0:0:0:0:
58,113,146629,1,0,1:0:0:0:
304,93,146754,6,0,P|359:110|287:221,1,220.000006713867,2|8,1:0|0:0,0:0:0:0:
215,221,147129,1,0,0:0:0:0:
463,210,147254,2,0,L|464:342,1,110.000003356934,0|0,1:0|1:0,0:0:0:0:
202,346,147504,2,0,L|329:342,1,110.000003356934,10|0,0:0|0:0,0:0:0:0:
43,186,147754,6,0,L|181:182,2,110.000003356934,2|0|8,1:0|1:0|0:0,0:0:0:0:
326,268,148129,2,0,L|90:280,1,220.000006713867,2|0,1:0|1:0,0:0:0:0:
334,306,148504,2,0,L|331:180,1,110.000003356934,10|0,0:0|0:0,0:0:0:0:
50,256,148754,6,0,L|46:116,1,110.000003356934,2|0,1:0|0:0,0:0:0:0:
288,138,149004,1,8,0:0:0:0:
54,214,149129,2,0,L|56:350,1,110.000003356934,2|0,0:0|0:0,0:0:0:0:
300,199,149379,1,0,1:0:0:0:
55,364,149504,2,0,L|175:359,1,110.000003356934,2|2,1:0|0:0,0:0:0:0:
438,326,149754,6,0,L|287:329,2,110.000003356934,2|0|8,1:0|1:0|0:0,0:0:0:0:
205,336,150129,2,0,P|148:316|209:192,1,220.000006713867,2|0,1:0|1:0,0:0:0:0:
467,188,150504,2,0,L|313:193,1,110.000003356934,10|0,0:0|0:0,0:0:0:0:
85,244,150754,6,0,L|322:253,1,220.000006713867,2|10,1:0|0:0,0:0:0:0:
415,258,151129,1,0,0:0:0:0:
175,343,151254,2,0,L|178:220,1,110.000003356934,2|0,1:0|1:0,0:0:0:0:
414,233,151504,2,0,L|434:98,1,110.000003356934,10|0,0:0|0:0,0:0:0:0:
182,121,151754,6,0,L|317:125,1,110.000003356934,14|0,0:0|1:0,0:0:0:0:
100,208,152004,2,0,L|19:208,2,73.3333355712891,10|4|4,3:0|3:0|3:0,0:0:0:0:
249,204,152254,1,2,1:0:0:0:
176,203,152337,1,0,1:0:0:0:
102,203,152420,1,0,1:0:0:0:
319,68,152505,2,0,L|451:64,1,100,14|0,0:0|0:0,0:0:0:0:
136,240,152755,6,0,L|56:160,1,110.000003356934,4|0,1:0|0:0,0:0:0:0:
144,232,153004,2,0,L|16:232,1,110.000003356934,8|0,0:0|0:0,0:0:0:0:
248,192,153254,2,0,L|256:80,1,110.000003356934,12|0,0:0|1:0,0:0:0:0:
472,176,153504,2,0,L|464:64,1,110.000003356934,12|0,0:0|1:0,0:0:0:0:
232,176,153754,6,0,L|376:176,1,110.000003356934,14|0,0:0|0:0,0:0:0:0:
224,168,154004,1,8,0:0:0:0:
440,200,154129,2,0,L|312:200,1,110.000003356934,2|12,1:2|0:0,0:0:0:0:
448,192,154379,2,0,L|456:128,1,55.0000016784668,0|0,1:0|0:0,0:0:0:0:
280,136,154504,1,10,0:2:0:0:
488,144,154629,1,0,1:0:0:0:
224,160,154755,6,0,L|96:160,1,110.000003356934,14|0,0:0|0:0,0:0:0:0:
232,152,155004,2,0,L|240:24,1,110.000003356934,8|0,0:0|3:0,0:0:0:0:
32,120,155254,2,0,L|160:120,1,110.000003356934,12|0,0:0|1:0,0:0:0:0:
352,120,155504,2,0,L|472:120,1,110.000003356934,14|0,0:0|0:0,0:0:0:0:
240,216,155754,6,0,L|360:216,1,110.000003356934,14|0,0:0|0:0,0:0:0:0:
344,160,156004,1,8,0:0:0:0:
120,192,156129,2,0,L|248:192,1,110.000003356934,2|12,1:0|0:0,0:0:0:0:
112,184,156379,2,0,L|104:120,1,55.0000016784668,0|0,1:0|1:0,0:0:0:0:
280,128,156504,1,14,0:0:0:0:
72,136,156629,1,0,0:0:0:0:
304,208,156754,6,0,L|424:208,1,110.000003356934,14|0,0:0|0:0,0:0:0:0:
296,200,157004,2,0,L|288:80,1,110.000003356934,8|0,0:0|3:0,0:0:0:0:
64,216,157254,2,0,L|184:216,1,110.000003356934,14|0,0:0|1:0,0:0:0:0:
56,208,157504,2,0,L|48:88,1,110.000003356934,8|0,0:0|1:0,0:0:0:0:
272,136,157754,6,0,L|184:48,1,110.000003356934,14|0,0:0|0:0,0:0:0:0:
280,128,158004,2,0,L|128:128,1,110.000003356934,8|0,0:0|1:0,0:0:0:0:
400,120,158254,2,0,L|272:120,1,110.000003356934,14|0,0:0|1:0,0:0:0:0:
336,104,158441,1,0,1:0:0:0:
400,104,158504,1,8,0:0:0:0:
176,72,158629,1,0,1:0:0:0:
464,224,158754,6,0,L|344:224,1,110.000003356934,14|0,0:0|0:0,0:0:0:0:
360,168,159004,1,8,0:0:0:0:
136,216,159129,2,0,L|256:216,1,110.000003356934,2|12,3:0|0:0,0:0:0:0:
240,160,159379,1,0,1:0:0:0:
456,104,159504,1,10,0:0:0:0:
232,96,159629,1,0,1:0:0:0:
472,216,159754,6,0,L|480:96,1,110.000003356934,12|0,0:2|3:0,0:0:0:0:
272,192,160004,2,0,L|264:72,1,110.000003356934,8|0,0:0|1:0,0:0:0:0:
56,192,160254,1,12,0:0:0:0:
264,168,160379,2,0,L|328:168,1,55.0000016784668,0|0,1:0|1:0,0:0:0:0:
144,104,160504,1,14,0:0:0:0:
368,112,160629,1,8,0:0:0:0:
88,280,160754,6,0,L|80:160,1,110.000003356934,14|0,0:0|0:0,0:0:0:0:
208,176,161004,2,0,L|88:176,1,110.000003356934,8|0,0:0|0:0,0:0:0:0:
320,152,161254,2,0,L|192:152,1,110.000003356934,12|0,0:0|1:0,0:0:0:0:
432,224,161504,2,0,L|440:104,1,110.000003356934,14|0,0:0|1:0,0:0:0:0:
208,176,161754,6,0,L|328:176,1,110.000003356934,14|0,0:0|0:0,0:0:0:0:
448,168,162004,1,8,0:0:0:0:
224,152,162129,2,0,L|344:152,1,110.000003356934,0|12,1:0|0:0,0:0:0:0:
216,144,162379,2,0,L|288:144,1,55.0000016784668,0|0,1:0|1:0,0:0:0:0:
456,120,162504,1,10,0:0:0:0:
248,128,162629,1,0,1:0:0:0:
480,240,162754,6,0,L|472:120,1,110.000003356934,14|0,0:0|0:0,0:0:0:0:
344,184,163004,2,0,L|336:64,1,110.000003356934,8|0,0:0|3:0,0:0:0:0:
104,144,163254,2,0,L|232:144,1,110.000003356934,12|0,0:0|0:0,0:0:0:0:
456,144,163504,2,0,L|328:144,1,110.000003356934,14|0,0:0|0:0,0:0:0:0:
104,224,163754,6,0,L|96:104,1,110.000003356934,14|0,0:0|0:0,0:0:0:0:
224,128,164004,1,8,0:0:0:0:
456,240,164129,2,0,L|336:240,1,110.000003356934,2|12,1:0|0:0,0:0:0:0:
464,232,164379,2,0,L|392:232,1,55.0000016784668,0|0,1:0|1:0,0:0:0:0:
224,208,164504,1,14,0:0:0:0:
432,216,164629,1,0,3:0:0:0:
160,160,164754,6,0,L|40:160,1,110.000003356934,14|0,0:0|3:0,0:0:0:0:
168,152,165004,2,0,L|40:152,1,110.000003356934,12|0,0:0|3:0,0:0:0:0:
176,144,165254,2,0,L|56:144,1,110.000003356934,12|0,0:0|1:0,0:0:0:0:
184,136,165504,2,0,L|56:136,1,110.000003356934,12|0,0:0|1:0,0:0:0:0:
296,224,165754,6,0,L|176:224,1,110.000003356934,12|0,0:2|3:0,0:0:0:0:
304,216,166004,2,0,L|176:216,1,110.000003356934,12|0,0:0|0:0,0:0:0:0:
312,208,166254,1,12,0:0:0:0:
264,208,166316,1,0,1:0:0:0:
202,208,166379,1,0,1:0:0:0:
320,200,166504,2,0,L|192:200,1,110.000003356934,12|0,0:0|1:0,0:0:0:0:
432,224,166754,6,0,L|440:112,1,110.000003356934,12|0,0:0|3:0,0:0:0:0:
312,152,167004,2,0,L|304:40,1,110.000003356934,12|0,0:0|3:0,0:0:0:0:
176,272,167254,2,0,L|184:160,1,110.000003356934,12|0,0:0|1:0,0:0:0:0:
56,200,167504,2,0,L|48:88,1,110.000003356934,12|0,0:0|0:0,0:0:0:0:
272,176,167754,6,0,L|160:176,1,110.000003356934,12|0,0:0|3:0,0:0:0:0:
280,168,168004,2,0,L|288:112,1,55.0000016784668,12|8,1:2|3:0,0:0:0:0:
128,112,168129,2,0,L|120:56,1,55.0000016784668,8|0,3:0|3:0,0:0:0:0:
328,200,168254,2,0,L|384:200,1,55.0000016784668,12|4,1:2|3:0,0:0:0:0:
312,192,168379,1,4,3:0:0:0:
264,184,168441,1,4,3:0:0:0:
240,152,168504,1,4,3:0:0:0:
264,184,168566,1,4,3:0:0:0:
472,144,168629,2,0,L|416:144,1,55.0000016784668,4|4,3:0|3:0,0:0:0:0:
230,138,168755,6,0,P|187:167|243:262,1,179.999994506836,6|0,3:2|0:0,0:0:0:0:
118,229,169129,2,0,P|74:198|130:95,1,179.999994506836,2|0,1:0|0:0,0:0:0:0:
204,83,169504,1,0,1:0:0:0:
410,131,169754,6,0,L|412:242,1,89.9999972534181,0|2,3:0|0:0,0:0:0:0:
293,222,170004,1,2,0:0:0:0:
411,220,170129,1,0,0:0:0:0:
211,331,170379,2,0,L|200:229,1,89.9999972534181,0|2,0:0|0:0,0:0:0:0:
327,207,170629,1,2,0:0:0:0:
102,209,170754,6,0,L|12:207,2,89.9999972534181,2|2|2,1:0|0:0|0:0,0:0:0:0:
297,246,171129,2,0,L|298:128,1,89.9999972534181,2|0,1:0|0:0,0:0:0:0:
173,101,171379,1,2,0:0:0:0:
298,96,171504,2,0,L|394:93,1,89.9999972534181,2|2,0:0|0:0,0:0:0:0:
260,169,171754,6,0,L|262:274,1,89.9999972534181,2|2,0:0|1:0,0:0:0:0:
469,316,172129,1,0,1:0:0:0:
231,275,172379,2,0,L|440:261,1,179.999994506836,8|0,0:0|3:0,0:0:0:0:
229,181,172754,6,0,P|180:156|232:67,1,179.999994506836,2|0,1:0|0:0,0:0:0:0:
354,122,173129,2,0,L|164:128,2,179.999994506836,2|0|2,1:0|3:0|0:0,0:0:0:0:
101,283,173879,1,2,1:0:0:0:
354,122,174129,1,0,1:0:0:0:
190,220,174379,2,0,L|189:128,1,89.9999972534181,2|2,0:0|0:0,0:0:0:0:
311,113,174629,1,2,0:0:0:0:
92,187,174754,5,10,0:0:0:0:
176,134,174879,1,2,0:0:0:0:
273,147,175004,1,2,1:0:0:0:
92,187,175129,1,10,0:0:0:0:
273,147,175254,2,0,L|275:251,1,89.9999972534181,10|2,0:0|1:0,0:0:0:0:
169,295,175504,1,2,1:0:0:0:
359,305,175629,6,0,P|427:281|387:185,1,179.999994506836,10|0,0:0|1:0,0:0:0:0:
180,171,176129,2,0,L|186:273,1,89.9999972534181,2|0,1:0|0:0,0:0:0:0:
398,164,176379,2,0,L|495:161,2,89.9999972534181,8|2|0,0:0|0:0|0:0,0:0:0:0:
179,262,176754,5,6,1:0:0:0:
268,265,176879,1,0,0:0:0:0:
358,268,177004,1,0,0:0:0:0:
231,226,177129,2,0,L|114:217,2,89.9999972534181,0|0|0,1:0|0:0|3:0,0:0:0:0:
462,173,177504,2,0,L|468:275,1,89.9999972534181,10|0,0:0|0:0,0:0:0:0:
385,294,177754,1,0,0:0:0:0:
173,297,177879,5,0,1:0:0:0:
385,294,178129,1,0,1:0:0:0:
173,297,178379,2,0,P|130:251|175:150,1,179.999994506836,8|0,0:0|0:0,0:0:0:0:
419,154,178754,6,0,L|299:165,2,89.9999972534181,2|2|2,1:0|0:0|0:0,0:0:0:0:
274,272,179129,1,2,1:0:0:0:
363,275,179254,1,0,0:0:0:0:
453,279,179379,1,0,3:0:0:0:
243,351,179504,2,0,L|116:347,2,89.9999972534181,10|0|2,0:0|0:0|0:0,0:0:0:0:
469,349,179879,5,0,1:0:0:0:
267,307,180129,1,0,1:0:0:0:
469,349,180379,2,0,P|461:261|375:203,1,179.999994506836,8|0,0:0|3:0,0:0:0:0:
157,243,180754,6,0,L|151:147,1,89.9999972534181,2|0,1:0|3:0,0:0:0:0:
255,121,181004,1,0,3:0:0:0:
117,114,181129,2,0,L|8:109,2,89.9999972534181,2|0|0,1:0|0:0|3:0,0:0:0:0:
321,113,181504,2,0,L|440:108,2,89.9999972534181,10|0|0,0:0|0:0|0:0,0:0:0:0:
83,218,181879,5,0,1:0:0:0:
290,213,182129,1,0,1:0:0:0:
83,218,182379,2,0,P|77:133|165:84,1,179.999994506836,8|0,0:0|0:0,0:0:0:0:
405,217,182754,6,0,L|302:207,2,89.9999972534181,2|0|0,0:0|3:0|3:0,0:0:0:0:
273,309,183129,2,0,L|272:215,1,89.9999972534181,0|0,1:0|0:0,0:0:0:0:
380,183,183379,1,0,3:0:0:0:
190,185,183504,2,0,L|98:179,2,89.9999972534181,8|0|2,0:0|0:0|0:0,0:0:0:0:
404,151,183879,6,0,L|409:246,1,89.9999972534181,0|0,1:0|0:0,0:0:0:0:
189,287,184129,2,0,L|98:294,1,89.9999972534181,0|2,1:0|0:0,0:0:0:0:
336,237,184379,2,0,L|448:242,2,89.9999972534181,8|0|0,0:0|0:0|1:0,0:0:0:0:
96,208,184755,6,0,P|56:168|144:80,1,200,6|8,1:1|0:0,0:0:0:0:
264,96,185129,1,0,0:0:0:0:
128,104,185254,2,0,L|120:208,1,100,0|0,0:0|3:0,0:0:0:0:
320,216,185504,6,0,P|280:176|144:176,1,200,10|0,0:0|1:0,0:0:0:0:
280,144,185879,1,0,0:0:0:0:
144,120,186004,2,0,L|264:120,1,100,8|0,0:0|0:0,0:0:0:0:
376,152,186254,2,0,L|384:256,1,100,0|2,0:0|1:0,0:0:0:0:
248,240,186504,2,0,L|256:136,1,100,10|0,0:0|0:0,0:0:0:0:
456,176,186754,6,0,L|344:176,1,100,2|0,1:0|0:0,0:0:0:0:
464,168,187004,1,10,0:0:0:0:
264,256,187129,2,0,P|216:256|216:136,1,200,2|0,0:0|1:0,0:0:0:0:
352,168,187504,2,0,L|248:168,1,100,8|0,0:0|0:0,0:0:0:0:
56,216,187754,6,0,P|96:176|232:176,1,200,2|8,1:0|0:0,0:0:0:0:
368,216,188129,2,0,P|328:176|192:176,1,200,2|0,0:0|1:0,0:0:0:0:
328,160,188504,2,0,L|432:160,1,100,10|0,0:0|0:0,0:0:0:0:
224,264,188754,6,0,L|328:264,1,100,2|0,1:0|0:0,0:0:0:0:
320,240,189004,1,8,0:0:0:0:
120,232,189129,2,0,P|120:176|216:80,1,200,2|0,0:0|0:0,0:0:0:0:
352,144,189504,2,0,L|456:144,1,100,8|0,0:0|0:0,0:0:0:0:
248,128,189754,6,0,L|240:232,1,100,0|0,1:0|0:0,0:0:0:0:
376,224,190004,1,8,0:0:0:0:
240,296,190129,2,0,P|280:256|416:256,1,200,2|0,0:0|1:0,0:0:0:0:
280,192,190504,2,0,L|392:192,1,100,8|2,0:0|0:0,0:0:0:0:
176,288,190754,6,0,P|176:232|272:136,1,200,2|8,1:0|0:0,0:0:0:0:
136,256,191129,2,0,L|128:56,1,200,2|2,0:0|0:0,0:0:0:0:
264,104,191504,2,0,L|160:104,1,100,10|0,0:0|0:0,0:0:0:0:
368,296,191754,6,0,P|408:256|320:168,1,200,2|8,1:0|0:0,0:0:0:0:
128,288,192129,2,0,L|368:288,1,200,2|0,0:0|1:0,0:0:0:0:
128,176,192504,1,10,0:0:0:0:
328,184,192629,1,2,0:0:0:0:
80,312,192754,6,0,P|40:272|128:184,1,200,6|8,1:0|0:0,0:0:0:0:
240,176,193129,1,2,0:0:0:0:
368,168,193254,2,0,L|264:168,1,100,0|0,1:0|1:0,0:0:0:0:
472,296,193504,6,0,L|480:96,1,200,10|0,0:0|1:0,0:0:0:0:
352,128,193879,1,0,0:0:0:0:
480,104,194004,2,0,L|368:104,1,100,8|0,0:0|0:0,0:0:0:0:
256,152,194254,2,0,L|376:152,1,100,0|0,3:0|1:0,0:0:0:0:
232,144,194504,2,0,L|224:40,1,100,8|0,0:0|0:0,0:0:0:0:
424,176,194754,6,0,L|320:176,1,100,0|0,1:0|0:0,0:0:0:0:
432,168,195004,1,8,0:0:0:0:
232,296,195129,2,0,P|232:240|328:144,1,200,0|0,0:0|1:0,0:0:0:0:
128,144,195504,2,0,L|16:144,1,100,10|0,0:0|0:0,0:0:0:0:
232,200,195754,6,0,L|120:200,1,100,2|0,1:0|0:0,0:0:0:0:
144,176,196004,1,8,0:0:0:0:
352,184,196129,2,0,L|240:184,1,100,2|0,0:0|0:0,0:0:0:0:
264,160,196379,1,0,1:0:0:0:
472,160,196504,2,0,L|368:160,1,100,8|0,0:0|0:0,0:0:0:0:
176,304,196754,6,0,P|120:304|120:184,1,200,2|8,1:0|0:0,0:0:0:0:
320,224,197129,2,0,L|120:224,1,200,2|0,0:0|0:0,0:0:0:0:
328,184,197504,2,0,L|432:184,1,100,10|0,0:0|0:0,0:0:0:0:
224,200,197754,6,0,L|328:200,1,100,0|0,1:0|0:0,0:0:0:0:
216,192,198004,2,0,L|112:192,1,100,8|0,0:0|0:0,0:0:0:0:
248,184,198254,2,0,L|144:184,1,100,0|0,0:0|1:0,0:0:0:0:
256,176,198504,2,0,L|360:176,1,100,8|0,0:0|0:0,0:0:0:0:
152,256,198754,6,0,P|96:256|96:136,1,200,2|8,1:0|0:0,0:0:0:0:
224,320,199129,2,0,L|216:120,1,200,2|2,0:0|1:0,0:0:0:0:
352,256,199504,2,0,L|360:152,1,100,8|0,0:0|0:0,0:0:0:0:
120,152,199754,5,14,0:0:0:0:
352,152,199879,1,0,0:0:0:0:
128,144,200004,2,0,L|136:88,1,50,8|0,0:0|0:0,0:0:0:0:
360,136,200129,2,0,L|368:80,1,50,0|0,0:0|0:0,0:0:0:0:
184,304,200254,2,0,L|120:304,1,50,6|0,3:0|0:0,0:0:0:0:
208,296,200379,2,0,L|264:296,1,50,0|0,0:0|0:0,0:0:0:0:
80,256,200504,2,0,P|40:216|96:160,1,150,12|0,0:0|0:0,0:0:0:0:
320,184,200755,6,0,P|375:152|291:7,1,269.999991760254,6|2,1:0|1:0,0:0:0:0:
111,62,201379,2,0,L|111:155,1,89.9999972534181,2|0,0:0|0:0,0:0:0:0:
199,186,201629,1,0,0:0:0:0:
300,219,201754,5,0,0:0:0:0:
207,219,201879,1,0,1:0:0:0:
423,312,202129,2,0,L|228:300,2,179.999994506836,2|8|0,1:0|3:1|0:0,0:0:0:0:
197,346,202754,6,0,P|158:308|219:200,1,179.999994506836,2|0,1:0|0:0,0:0:0:0:
333,196,203129,2,0,P|321:144|201:99,1,179.999994506836,2|2,1:0|0:0,0:0:0:0:
87,141,203504,2,0,L|77:232,1,89.9999972534181,8|2,3:1|3:0,0:0:0:0:
284,141,203754,6,0,L|293:254,1,89.9999972534181,2|0,0:0|0:0,0:0:0:0:
59,312,204129,2,0,L|264:293,2,179.999994506836,2|8|0,1:0|3:1|3:0,0:0:0:0:
267,334,204754,6,0,P|273:261|169:186,1,179.999994506836,2|0,1:0|0:0,0:0:0:0:
79,204,205129,2,0,P|81:147|187:86,1,179.999994506836,2|2,1:0|0:0,0:0:0:0:
304,90,205504,2,0,L|326:195,1,89.9999972534181,8|2,3:1|0:0,0:0:0:0:
132,178,205754,6,0,L|126:291,1,89.9999972534181,2|0,0:0|0:0,0:0:0:0:
352,291,206129,2,0,L|150:293,2,179.999994506836,0|10|0,1:0|3:1|3:0,0:0:0:0:
144,338,206754,6,0,P|99:307|155:218,1,179.999994506836,2|0,1:0|0:0,0:0:0:0:
286,217,207129,2,0,P|323:187|259:86,1,179.999994506836,2|2,1:0|0:0,0:0:0:0:
139,91,207504,2,0,L|41:93,1,89.9999972534181,8|0,3:1|0:0,0:0:0:0:
260,177,207754,5,2,0:0:0:0:
260,177,207879,2,0,L|49:179,1,179.999994506836,0|0,1:0|1:0,0:0:0:0:
163,169,208254,1,2,0:0:0:0:
358,246,208379,2,0,P|400:173|346:97,1,179.999994506836,8|0,0:0|1:0,0:0:0:0:
141,293,208754,6,0,P|102:255|163:147,1,179.999994506836,6|0,1:0|3:0,0:0:0:0:
277,143,209129,2,0,P|265:91|145:46,1,179.999994506836,2|2,1:0|0:0,0:0:0:0:
353,65,209504,2,0,L|343:156,1,89.9999972534181,8|2,0:0|0:0,0:0:0:0:
141,191,209754,6,0,L|150:304,1,89.9999972534181,2|0,0:0|1:0,0:0:0:0:
408,326,210129,1,2,1:0:0:0:
160,325,210379,2,0,P|119:285|163:160,1,179.999994506836,8|0,0:0|1:0,0:0:0:0:
373,315,210754,6,0,P|412:277|351:169,1,179.999994506836,2|0,1:0|0:0,0:0:0:0:
237,165,211129,2,0,P|249:113|369:68,1,179.999994506836,2|2,1:0|3:0,0:0:0:0:
140,150,211504,2,0,L|129:243,1,89.9999972534181,8|0,0:0|0:0,0:0:0:0:
331,278,211754,6,0,L|422:282,1,89.9999972534181,2|0,0:0|1:0,0:0:0:0:
288,332,212004,2,0,L|176:327,1,89.9999972534181,2|0,0:0|1:0,0:0:0:0:
355,277,212254,2,0,L|458:272,1,89.9999972534181,2|8,0:0|0:0,0:0:0:0:
190,294,212504,2,0,L|172:197,1,89.9999972534181,2|0,0:0|1:0,0:0:0:0:
401,207,212754,6,0,P|439:178|371:74,1,179.999994506836,6|0,1:2|1:2,0:0:0:0:
306,69,213129,1,0,1:2:0:0:
164,152,213254,2,0,L|166:268,1,89.9999972534181,10|8,1:2|1:2,0:0:0:0:
286,268,213504,1,10,1:2:0:0:
166,272,213629,1,8,1:2:0:0:
440,238,213754,5,10,1:2:0:0:
315,219,213879,1,8,1:2:0:0:
440,238,214004,2,0,L|436:142,1,89.9999972534181,10|8,1:2|1:2,0:0:0:0:
190,283,214254,1,10,3:0:0:0:
89,218,214379,2,0,L|90:157,1,44.999998626709,8|8,3:0|3:0,0:0:0:0:
253,161,214504,2,0,L|255:215,1,44.999998626709,4|4,3:0|3:0,0:0:0:0:
42,323,214629,2,0,L|103:317,1,44.999998626709,4|0,3:0|0:0,0:0:0:0:
309,318,214754,6,0,L|312:243,1,59.9999981689454,2|0,1:0|0:0,0:0:0:0:
131,255,214920,2,0,L|123:187,1,59.9999981689454,2|0,1:0|0:0,0:0:0:0:
301,187,215087,2,0,L|375:183,1,59.9999981689454,2|0,1:0|0:0,0:0:0:0:
193,170,215254,2,0,L|123:164,1,59.9999981689454,2|0,1:0|0:0,0:0:0:0:
350,107,215420,2,0,L|358:188,1,59.9999981689454,2|0,1:0|0:0,0:0:0:0:
117,234,215587,2,0,L|111:152,1,59.9999981689454,2|0,1:0|0:0,0:0:0:0:
351,172,215754,2,0,L|437:169,1,59.9999981689454,10|10,3:0|3:0,0:0:0:0:
187,141,215962,5,0,0:0:0:0:
256,192,216254,12,0,216629,1:0:0:0:
176,264,216754,6,0,L|168:40,1,220.000006713867,6|10,1:1|0:0,0:0:0:0:
280,80,217129,1,0,0:0:0:0:
88,144,217254,2,0,L|208:144,1,110.000003356934,2|0,1:0|1:0,0:0:0:0:
392,176,217504,2,0,L|504:176,1,110.000003356934,10|0,0:0|0:0,0:0:0:0:
280,272,217754,6,0,L|272:160,1,110.000003356934,2|0,1:0|1:0,0:0:0:0:
472,160,218004,1,10,0:0:0:0:
272,152,218129,2,0,L|384:152,1,110.000003356934,2|0,1:0|3:0,0:0:0:0:
176,112,218379,2,0,L|56:112,1,110.000003356934,2|8,1:0|0:0,0:0:0:0:
272,224,218629,1,2,0:0:0:0:
56,232,218754,6,0,L|288:232,1,220.000006713867,0|8,1:0|0:0,0:0:0:0:
144,184,219129,1,0,0:0:0:0:
280,192,219254,2,0,L|272:80,1,110.000003356934,0|0,1:0|0:0,0:0:0:0:
472,104,219504,2,0,L|352:104,1,110.000003356934,10|0,0:0|0:0,0:0:0:0:
144,256,219754,6,0,L|152:144,1,110.000003356934,2|0,1:0|1:0,0:0:0:0:
288,160,220004,1,10,0:0:0:0:
72,264,220129,2,0,P|72:208|184:96,1,220.000006713867,0|0,1:0|1:0,0:0:0:0:
392,152,220504,2,0,L|400:40,1,110.000003356934,10|0,0:0|0:0,0:0:0:0:
168,240,220754,6,0,L|296:240,1,110.000003356934,2|0,1:0|0:0,0:0:0:0:
40,144,221004,1,8,0:0:0:0:
280,224,221129,2,0,L|160:224,1,110.000003356934,2|0,0:0|0:0,0:0:0:0:
408,128,221379,1,0,1:0:0:0:
168,200,221504,2,0,L|176:88,1,110.000003356934,10|0,0:0|0:0,0:0:0:0:
416,128,221754,6,0,L|304:128,1,110.000003356934,2|0,1:0|0:0,0:0:0:0:
424,120,222004,1,10,0:0:0:0:
192,240,222129,2,0,L|416:240,1,220.000006713867,2|0,1:0|1:0,0:0:0:0:
176,184,222504,2,0,L|296:184,1,110.000003356934,10|0,0:0|0:0,0:0:0:0:
48,272,222754,6,0,L|56:160,1,110.000003356934,2|0,1:0|0:0,0:0:0:0:
192,176,223004,1,8,0:0:0:0:
416,192,223129,2,0,L|160:192,1,220.000006713867,2|2,0:0|1:0,0:0:0:0:
424,248,223504,2,0,L|432:136,1,110.000003356934,10|2,0:0|0:0,0:0:0:0:
184,128,223754,5,10,0:0:0:0:
424,128,223879,1,0,1:0:0:0:
176,120,224004,1,10,3:0:0:0:
120,120,224066,2,0,L|128:64,1,55.0000016784668,0|0,0:0|0:0,0:0:0:0:
352,200,224254,2,0,L|360:144,1,55.0000016784668,2|0,1:0|0:0,0:0:0:0:
192,176,224379,2,0,L|200:120,1,55.0000016784668,0|0,0:0|0:0,0:0:0:0:
368,144,224504,2,0,L|480:144,1,110.000003356934,14|0,0:0|0:0,0:0:0:0:
224,272,224754,6,0,P|224:216|336:104,1,220.000006713867,6|10,1:0|0:0,0:0:0:0:
216,96,225129,1,0,0:0:0:0:
424,96,225254,2,0,L|304:96,1,110.000003356934,2|0,1:0|1:0,0:0:0:0:
112,160,225504,2,0,L|104:48,1,110.000003356934,10|0,0:0|0:0,0:0:0:0:
328,160,225754,6,0,L|200:160,1,110.000003356934,2|0,1:0|1:0,0:0:0:0:
424,136,226004,1,10,0:0:0:0:
224,136,226129,2,0,L|232:248,1,110.000003356934,2|0,1:0|0:0,0:0:0:0:
32,272,226379,2,0,L|40:160,1,110.000003356934,2|8,1:0|0:0,0:0:0:0:
248,160,226629,1,2,1:0:0:0:
40,120,226754,6,0,L|264:120,1,220.000006713867,0|8,1:0|0:0,0:0:0:0:
128,144,227129,1,0,0:0:0:0:
256,152,227254,2,0,L|144:152,1,110.000003356934,0|0,1:0|1:0,0:0:0:0:
352,216,227504,2,0,L|472:216,1,110.000003356934,10|0,0:0|0:0,0:0:0:0:
232,240,227754,6,0,L|344:240,1,110.000003356934,2|0,1:0|1:0,0:0:0:0:
472,240,228004,1,10,0:0:0:0:
240,200,228129,2,0,P|184:200|184:72,1,220.000006713867,2|0,1:0|1:0,0:0:0:0:
392,160,228504,2,0,L|280:160,1,110.000003356934,10|0,0:0|0:0,0:0:0:0:
48,256,228754,6,0,L|40:144,1,110.000003356934,2|0,1:0|0:0,0:0:0:0:
264,160,229004,1,8,0:0:0:0:
40,120,229129,2,0,L|176:120,1,110.000003356934,2|0,1:0|0:0,0:0:0:0:
376,104,229379,1,0,1:0:0:0:
144,104,229504,2,0,L|24:104,1,110.000003356934,10|2,1:2|0:0,0:0:0:0:
264,152,229754,6,0,L|152:152,1,110.000003356934,2|0,1:0|1:0,0:0:0:0:
160,120,230004,1,8,0:0:0:0:
384,208,230129,2,0,L|152:208,1,220.000006713867,2|0,1:0|1:0,0:0:0:0:
384,192,230504,2,0,L|504:192,1,110.000003356934,10|0,0:0|0:0,0:0:0:0:
256,264,230754,6,0,L|136:264,1,110.000003356934,2|0,1:0|0:0,0:0:0:0:
272,256,231004,2,0,L|280:144,1,110.000003356934,8|0,0:0|0:0,0:0:0:0:
64,208,231254,2,0,L|184:208,1,110.000003356934,2|0,1:0|1:0,0:0:0:0:
48,200,231504,2,0,L|40:88,1,110.000003356934,8|0,0:0|0:0,0:0:0:0:
272,112,231754,5,14,0:0:0:0:
56,112,231879,1,0,1:0:0:0:
296,144,232004,2,0,L|376:144,1,73.3333355712891,10|4,3:0|3:0,0:0:0:0:
288,136,232170,1,4,3:0:0:0:
200,112,232254,2,0,L|280:112,1,73.3333355712891,2|0,1:0|1:0,0:0:0:0:
360,112,232420,1,4,3:0:0:0:
160,288,232504,2,0,L|280:288,1,100,10|0,0:0|0:0,0:0:0:0:
72,200,232754,6,0,L|71:79,1,110.000003356934,6|0,1:0|0:0,0:0:0:0:
215,260,233003,2,0,L|214:131,1,110.000003356934,8|0,0:0|0:0,0:0:0:0:
357,247,233253,2,0,L|353:127,1,110.000003356934,12|0,0:0|1:0,0:0:0:0:
209,133,233503,2,0,L|318:137,1,110.000003356934,12|0,0:0|1:0,0:0:0:0:
71,253,233753,6,0,L|189:256,1,110.000003356934,14|0,0:0|0:0,0:0:0:0:
37,198,234003,1,8,0:0:0:0:
319,198,234128,2,0,L|191:196,1,110.000003356934,2|12,1:0|0:0,0:0:0:0:
353,146,234378,2,0,L|352:79,1,55.0000016784668,0|0,1:0|0:0,0:0:0:0:
140,97,234503,2,0,L|11:90,1,110.000003356934,10|0,0:0|1:0,0:0:0:0:
260,113,234753,6,0,L|258:250,1,110.000003356934,14|0,0:0|0:0,0:0:0:0:
114,216,235003,2,0,L|110:334,1,110.000003356934,8|0,0:0|3:0,0:0:0:0:
253,350,235253,2,0,L|109:346,1,110.000003356934,12|0,0:0|1:0,0:0:0:0:
482,217,235503,2,0,L|362:217,1,110.000003356934,14|0,0:0|0:0,0:0:0:0:
136,252,235753,6,0,L|135:135,1,110.000003356934,14|0,0:0|0:0,0:0:0:0:
279,111,236003,1,8,0:0:0:0:
63,110,236128,1,2,1:0:0:0:
279,111,236253,2,0,L|406:108,1,110.000003356934,12|0,0:0|1:0,0:0:0:0:
163,203,236503,2,0,L|31:195,1,110.000003356934,14|0,0:0|0:0,0:0:0:0:
276,175,236753,6,0,L|339:278,1,110.000003356934,14|0,0:0|0:0,0:0:0:0:
201,312,237003,1,8,0:0:0:0:
333,268,237128,1,0,3:0:0:0:
49,318,237253,2,0,L|46:192,1,110.000003356934,14|0,0:0|1:0,0:0:0:0:
178,178,237503,1,8,0:0:0:0:
46,170,237628,1,0,1:0:0:0:
266,142,237753,5,14,0:0:0:0:
398,190,237878,1,0,0:0:0:0:
266,142,238003,2,0,L|237:260,1,110.000003356934,8|0,0:0|1:0,0:0:0:0:
497,265,238253,1,14,0:0:0:0:
365,318,238378,1,0,1:0:0:0:
497,265,238503,2,0,L|487:142,1,110.000003356934,8|0,0:0|1:0,0:0:0:0:
228,160,238753,5,14,0:0:0:0:
462,74,238878,2,0,L|472:201,1,110.000003356934,0|8,0:0|0:0,0:0:0:0:
192,257,239128,1,2,3:0:0:0:
324,241,239253,1,12,0:0:0:0:
192,257,239378,1,0,1:0:0:0:
424,183,239503,2,0,L|446:311,1,110.000003356934,10|0,0:0|1:0,0:0:0:0:
186,342,239753,6,0,L|314:343,1,110.000003356934,12|0,0:0|3:0,0:0:0:0:
149,309,240003,2,0,L|146:183,1,110.000003356934,8|0,0:0|1:0,0:0:0:0:
396,183,240253,1,12,0:0:0:0:
167,169,240378,2,0,L|171:250,1,55.0000016784668,0|0,1:0|1:0,0:0:0:0:
329,249,240503,1,10,0:0:0:0:
148,289,240628,1,8,0:0:0:0:
415,300,240753,6,0,L|416:179,1,110.000003356934,14|0,0:0|0:0,0:0:0:0:
281,139,241003,2,0,L|394:147,1,110.000003356934,8|0,0:0|0:0,0:0:0:0:
259,281,241253,2,0,L|263:161,1,110.000003356934,12|0,0:0|1:0,0:0:0:0:
415,143,241503,2,0,L|306:147,1,110.000003356934,14|0,0:0|1:0,0:0:0:0:
50,276,241755,6,0,L|68:141,1,110.000003356934,14|0,0:0|0:0,0:0:0:0:
195,125,242003,1,8,0:0:0:0:
457,207,242128,2,0,L|329:205,1,110.000003356934,2|12,1:0|0:0,0:0:0:0:
481,180,242378,2,0,L|482:113,1,55.0000016784668,0|0,1:0|1:0,0:0:0:0:
306,118,242503,2,0,L|179:112,1,110.000003356934,8|0,0:0|1:0,0:0:0:0:
435,204,242753,6,0,L|437:341,1,110.000003356934,14|0,0:0|0:0,0:0:0:0:
298,151,243003,2,0,L|420:147,1,110.000003356934,8|0,0:0|3:0,0:0:0:0:
271,292,243253,2,0,L|161:295,1,110.000003356934,12|0,0:0|0:0,0:0:0:0:
392,314,243503,2,0,L|390:192,1,110.000003356934,14|0,0:0|0:0,0:0:0:0:
170,240,243753,6,0,L|297:237,1,110.000003356934,14|0,0:0|0:0,0:0:0:0:
148,204,244003,1,8,0:0:0:0:
375,149,244128,1,2,1:0:0:0:
142,211,244253,2,0,L|142:323,1,110.000003356934,12|0,0:0|1:0,0:0:0:0:
375,310,244503,2,0,L|496:310,1,110.000003356934,10|0,0:0|3:0,0:0:0:0:
250,258,244753,6,0,L|130:251,1,110.000003356934,14|0,0:0|3:0,0:0:0:0:
287,194,245003,2,0,L|286:80,1,110.000003356934,12|0,0:0|3:0,0:0:0:0:
36,79,245253,2,0,L|33:222,1,110.000003356934,12|0,0:0|1:0,0:0:0:0:
269,289,245503,2,0,L|396:294,1,110.000003356934,12|0,0:0|1:0,0:0:0:0:
146,233,245753,5,12,0:0:0:0:
278,241,245878,1,0,3:0:0:0:
146,233,246003,2,0,L|136:91,1,110.000003356934,12|0,0:0|0:0,0:0:0:0:
352,275,246253,1,12,0:0:0:0:
222,228,246378,2,0,L|221:155,1,55.0000016784668,0|0,1:0|1:0,0:0:0:0:
417,186,246503,2,0,L|427:63,1,110.000003356934,12|0,0:0|1:0,0:0:0:0:
113,70,246753,5,12,0:0:0:0:
245,106,246878,1,0,3:0:0:0:
111,40,247003,1,12,0:0:0:0:
243,76,247128,1,0,3:0:0:0:
471,167,247253,1,12,0:0:0:0:
339,202,247378,1,0,1:0:0:0:
477,145,247503,1,12,0:0:0:0:
345,180,247628,1,0,0:0:0:0:
124,244,247753,6,0,L|121:121,1,110.000003356934,12|0,0:0|3:0,0:0:0:0:
350,136,248003,2,0,L|419:135,1,55.0000016784668,8|8,0:0|3:0,0:0:0:0:
407,88,248128,2,0,L|342:85,1,55.0000016784668,8|8,3:0|3:0,0:0:0:0:
174,232,248253,2,0,L|174:169,1,55.0000016784668,8|4,3:2|3:0,0:0:0:0:
224,170,248378,2,0,L|292:169,1,55.0000016784668,4|4,3:0|3:0,0:0:0:0:
120,135,248503,2,0,L|59:126,1,55.0000016784668,4|4,3:0|3:0,0:0:0:0:
253,104,248628,2,0,L|346:92,1,55.0000016784668,4|4,3:0|3:0,0:0:0:0:
102,62,248754,5,4,3:2:0:0:
320,152,256754,6,0,L|384:152,1,50,6|0,1:0|1:0,0:0:0:0:
304,144,256879,2,0,P|248:144|248:328,1,300,0|8,1:0|0:0,0:0:0:0:
336,304,257379,5,0,0:0:0:0:
208,256,257504,2,0,L|264:256,1,50,2|0,1:0|1:0,0:0:0:0:
320,256,257629,1,0,1:0:0:0:
232,208,257754,5,8,3:1:0:0:
360,200,257879,1,2,1:0:0:0:
368,192,257941,1,0,1:0:0:0:
376,184,258004,1,0,1:0:0:0:
288,176,258129,2,0,L|400:176,1,100,0|8,0:0|3:1,0:0:0:0:
264,144,258379,1,8,0:0:0:0:
408,128,258587,2,0,L|328:128,1,66.6666666666667,0|0,0:0|0:0,0:0:0:0:
184,256,258754,6,0,P|128:256|128:176,1,150,10|0,3:1|0:0,0:0:0:0:
192,176,259004,1,2,0:0:0:0:
320,224,259129,2,0,P|280:184|184:184,1,150,2|0,1:0|0:0,0:0:0:0:
256,160,259379,2,0,L|136:160,1,100,2|8,1:0|0:0,0:0:0:0:
280,144,259629,2,0,L|288:40,1,100,2|8,1:0|3:1,0:0:0:0:
416,112,259879,1,2,1:0:0:0:
240,136,260129,6,0,L|136:136,1,100,2|0,1:0|0:0,0:0:0:0:
264,232,260379,2,0,P|304:192|440:192,1,200,10|2,0:0|1:0,0:0:0:0:
184,280,260754,6,0,L|176:224,1,50,10|0,1:0|1:0,0:0:0:0:
248,240,260879,2,0,P|304:240|304:56,1,300,0|8,1:0|0:0,0:0:0:0:
216,88,261379,1,0,0:0:0:0:
344,112,261504,1,2,1:0:0:0:
336,104,261566,1,0,1:0:0:0:
328,96,261629,1,0,1:0:0:0:
232,80,261754,5,8,3:1:0:0:
360,176,261879,2,0,L|304:176,1,50,2|0,1:0|1:0,0:0:0:0:
248,176,262004,1,0,1:0:0:0:
160,136,262129,1,0,0:0:0:0:
288,200,262254,2,0,L|296:96,1,100,8|8,3:1|0:0,0:0:0:0:
144,120,262587,2,0,L|64:120,1,66.6666666666667,0|0,0:0|0:0,0:0:0:0:
240,168,262754,6,0,L|352:168,1,100,10|2,3:1|3:0,0:0:0:0:
144,216,263004,2,0,L|256:216,1,100,2|0,3:0|3:0,0:0:0:0:
368,216,263254,1,2,3:0:0:0:
168,104,263379,1,2,1:0:0:0:
368,136,263504,5,10,0:0:0:0:
240,136,263629,2,0,L|248:240,1,100,0|10,0:0|3:1,0:0:0:0:
440,160,263879,2,0,L|336:160,1,100,2|0,1:0|0:0,0:0:0:0:
448,152,264129,1,2,1:0:0:0:
256,280,264254,2,0,L|368:280,1,100,8|0,0:0|1:0,0:0:0:0:
160,176,264504,1,8,0:0:0:0:
352,192,264629,1,8,0:0:0:0:
64,232,264754,6,0,P|64:176|128:112,1,150,4|0,1:0|0:0,0:0:0:0:
192,112,265004,1,8,0:0:0:0:
368,168,265254,2,0,L|256:168,1,100,0|0,1:0|1:0,0:0:0:0:
392,160,265504,2,0,L|400:56,1,100,10|0,0:0|0:0,0:0:0:0:
208,224,265754,6,0,L|104:224,1,100,0|2,1:0|1:0,0:0:0:0:
168,208,265941,1,0,1:0:0:0:
232,216,266004,2,0,P|288:216|288:96,1,200,8|0,0:0|3:0,0:0:0:0:
208,96,266379,1,0,1:0:0:0:
336,104,266504,2,0,L|456:104,1,100,8|2,0:0|0:0,0:0:0:0:
240,192,266754,6,0,P|240:136|312:64,1,150,2|0,1:0|0:0,0:0:0:0:
360,64,267004,1,10,0:0:0:0:
168,176,267129,2,0,L|352:176,1,150,2|0,0:0|0:0,0:0:0:0:
256,152,267379,2,0,L|120:152,1,100,2|8,1:0|0:0,0:0:0:0:
344,160,267629,6,0,L|224:160,1,100,2|0,0:0|1:0,0:0:0:0:
256,120,267879,1,2,3:0:0:0:
384,96,268004,1,8,0:0:0:0:
192,248,268129,2,0,P|152:208|208:152,1,150,2|0,0:0|0:0,0:0:0:0:
272,152,268379,2,0,L|376:152,1,100,2|10,1:0|0:0,0:0:0:0:
248,128,268629,1,0,0:0:0:0:
440,160,268754,6,0,L|496:160,1,50,2|0,1:0|1:0,0:0:0:0:
432,152,268879,2,0,L|320:152,1,100,0|8,1:0|0:0,0:0:0:0:
160,184,269254,2,0,L|288:184,1,100,0|0,1:0|1:0,0:0:0:0:
136,176,269504,5,10,0:0:0:0:
128,168,269566,1,0,1:0:0:0:
120,160,269629,2,0,L|232:160,1,100,0|0,1:0|1:0,0:0:0:0:
352,128,269879,2,0,L|296:128,1,50,2|0,1:0|1:0,0:0:0:0:
240,128,270004,2,0,L|352:128,1,100,8|0,0:0|0:0,0:0:0:0:
232,120,270254,2,0,L|336:120,1,100,0|0,0:0|1:0,0:0:0:0:
136,216,270504,1,10,0:0:0:0:
80,216,270566,1,0,0:0:0:0:
88,208,270629,1,0,0:0:0:0:
96,200,270691,1,0,0:0:0:0:
384,192,270754,6,0,L|264:192,1,100,14|4,0:0|3:0,0:0:0:0:
96,144,271004,2,0,L|200:144,1,100,10|4,0:0|3:0,0:0:0:0:
152,120,271191,1,4,3:0:0:0:
88,136,271254,2,0,L|200:136,1,100,10|4,0:0|3:0,0:0:0:0:
376,112,271504,1,10,3:0:0:0:
192,112,271629,1,4,3:0:0:0:
424,240,271754,6,0,P|464:200|408:144,1,150,12|0,0:0|0:0,0:0:0:0:
344,144,272004,1,8,0:0:0:0:
152,144,272129,1,0,0:0:0:0:
352,136,272254,2,0,L|408:136,1,50,8|0,0:0|3:0,0:0:0:0:
256,120,272379,2,0,B|176:200|176:288|176:288|408:296,1,400,2|4,3:0|3:0,0:0:0:0:
200,192,272754,6,0,L|112:192,1,73.3333355712891,6|2,1:2|1:0,0:0:0:0:
64,192,272920,1,2,1:0:0:0:
144,160,273004,2,0,L|152:88,1,73.3333355712891,6|2,3:0|1:0,0:0:0:0:
72,96,273170,1,2,1:0:0:0:
248,128,273254,1,6,3:0:0:0:
168,128,273337,2,0,L|248:128,1,73.3333355712891,2|2,1:0|1:0,0:0:0:0:
416,144,273504,2,0,L|336:144,1,73.3333355712891,10|2,1:2|1:0,0:0:0:0:
128,152,273670,1,2,1:0:0:0:
344,176,273754,6,0,L|480:176,1,110.000003356934,6|2,3:0|1:0,0:0:0:0:
248,136,274004,1,10,0:0:0:0:
456,120,274129,2,0,L|400:120,1,55.0000016784668,6|6,3:0|3:0,0:0:0:0:
328,120,274254,1,10,3:0:0:0:
160,216,274379,1,0,1:0:0:0:
264,216,274504,2,0,L|272:104,1,110.000003356934,10|0,0:0|0:0,0:0:0:0:
48,112,274754,6,0,L|56:224,1,110.000003356934,4|2,3:0|0:0,0:0:0:0:
288,224,275004,1,10,0:0:0:0:
360,224,275066,2,0,L|432:224,1,55.0000016784668,6|6,3:0|3:0,0:0:0:0:
288,184,275255,1,2,1:0:0:0:
424,184,275379,1,4,3:0:0:0:
216,168,275504,1,10,0:0:0:0:
432,160,275629,1,6,3:0:0:0:
152,224,275754,6,0,B|144:24|144:24|344:32|344:32|352:136|272:216|272:216|72:208,1,800,4|0,3:0|0:0,0:0:0:0:
200,192,276379,1,4,3:0:0:0:
72,184,276504,1,8,0:0:0:0:
288,176,276629,1,6,3:0:0:0:
64,176,276754,5,6,1:2:0:0:
72,168,276816,1,4,3:0:0:0:
80,160,276879,2,0,L|200:160,1,110.000003356934,4|8,3:0|0:0,0:0:0:0:
440,160,277129,2,0,L|320:160,1,110.000003356934,2|2,0:0|1:0,0:0:0:0:
360,112,277295,1,0,0:0:0:0:
400,104,277337,1,0,0:0:0:0:
456,136,277379,2,0,L|344:136,1,110.000003356934,4|10,3:0|0:0,0:0:0:0:
464,128,277629,1,2,1:0:0:0:
264,200,277754,6,0,L|256:88,1,110.000003356934,4|2,3:0|1:0,0:0:0:0:
456,200,278004,2,0,L|448:88,1,110.000003356934,8|0,0:0|0:0,0:0:0:0:
248,104,278254,1,8,3:0:0:0:
448,104,278379,6,0,L|328:104,1,110.000003356934,6|10,3:0|1:2,0:0:0:0:
208,104,278629,1,0,0:0:0:0:
336,88,278754,2,0,P|336:144|256:224,1,165.000005035401,8|0,3:0|0:0,0:0:0:0:
192,224,279004,2,0,L|80:224,1,110.000003356934,8|10,0:0|3:0,0:0:0:0:
288,168,279254,2,0,L|424:168,1,110.000003356934,6|2,3:0|1:0,0:0:0:0:
184,144,279504,1,8,3:0:0:0:
400,136,279629,1,0,0:0:0:0:
120,256,279754,6,0,P|80:216|176:120,1,220.000006713867,14|10,0:0|3:0,0:0:0:0:
256,120,280087,1,8,3:0:0:0:
336,120,280170,1,8,3:0:0:0:
152,72,280254,1,6,3:0:0:0:
232,64,280337,1,4,3:0:0:0:
320,64,280420,1,4,3:0:0:0:
136,208,280504,2,0,P|80:208|80:112,1,165.000005035401,10|0,0:0|0:0,0:0:0:0:
296,200,280754,6,0,P|296:144|184:32,1,220.000006713867,14|8,0:0|0:0,0:0:0:0:
320,64,281129,1,4,3:0:0:0:
192,56,281254,2,0,L|184:168,1,110.000003356934,8|4,3:0|3:0,0:0:0:0:
400,176,281504,5,10,0:0:0:0:
288,176,281629,2,0,L|296:64,1,110.000003356934,0|8,0:0|3:0,0:0:0:0:
96,128,281879,2,0,L|216:128,1,110.000003356934,6|8,3:0|0:0,0:0:0:0:
88,120,282129,1,4,3:0:0:0:
296,112,282254,6,0,L|184:112,1,110.000003356934,2|4,0:0|3:0,0:0:0:0:
72,112,282504,1,8,0:0:0:0:
280,176,282629,1,6,3:0:0:0:
168,176,282754,2,0,L|176:64,1,110.000003356934,8|0,3:0|0:0,0:0:0:0:
384,120,283004,6,0,L|264:120,1,110.000003356934,10|0,0:0|0:0,0:0:0:0:
392,112,283254,1,8,3:0:0:0:
192,240,283379,2,0,L|200:128,1,110.000003356934,6|8,3:0|0:0,0:0:0:0:
320,136,283629,1,4,3:0:0:0:
120,136,283754,6,0,L|232:136,1,110.000003356934,6|0,3:0|0:0,0:0:0:0:
352,120,284004,1,8,0:0:0:0:
144,104,284129,2,0,L|32:104,1,110.000003356934,10|0,3:0|0:0,0:0:0:0:
264,80,284379,1,4,3:0:0:0:
40,56,284504,2,0,L|160:56,1,110.000003356934,10|0,0:0|0:0,0:0:0:0:
384,152,284754,6,0,L|264:152,1,110.000003356934,2|10,1:0|3:0,0:0:0:0:
400,144,285004,2,0,L|288:144,1,110.000003356934,10|0,0:0|1:0,0:0:0:0:
416,128,285254,2,0,L|424:72,1,55.0000016784668,10|0,3:0|0:0,0:0:0:0:
344,80,285379,2,0,L|336:24,1,55.0000016784668,4|0,3:0|0:0,0:0:0:0:
416,128,285504,2,0,L|424:72,1,55.0000016784668,10|2,1:2|1:0,0:0:0:0:
272,128,285629,2,0,L|264:72,1,55.0000016784668,2|2,1:0|1:0,0:0:0:0:
456,80,285754,6,0,L|376:80,1,55.0000016784668,2|2,3:0|0:0,0:0:0:0:
216,64,285879,2,0,L|136:64,1,55.0000016784668,0|4,3:0|3:0,0:0:0:0:
344,184,286004,2,0,L|472:184,1,110.000003356934,10|6,0:0|3:0,0:0:0:0:
224,200,286254,2,0,L|360:200,1,110.000003356934,6|10,3:0|3:0,0:0:0:0:
104,112,286504,2,0,L|96:224,1,110.000003356934,10|10,0:0|3:0,0:0:0:0:
352,112,286754,5,14,0:0:0:0:
96,112,286879,1,6,3:0:0:0:
360,104,287004,2,0,L|416:104,1,55.0000016784668,10|10,0:0|0:0,0:0:0:0:
192,72,287129,2,0,L|128:72,1,55.0000016784668,6|6,3:0|3:0,0:0:0:0:
360,128,287254,2,0,L|472:128,1,110.000003356934,14|4,0:0|3:0,0:0:0:0:
328,88,287441,1,0,0:0:0:0:
192,184,287504,2,0,L|96:184,1,73.3333355712891,10|6,0:0|3:0,0:0:0:0:
304,152,287670,1,2,1:0:0:0:
120,272,287754,6,0,L|352:272,1,220.000006713867,14|10,0:0|0:0,0:0:0:0:
264,240,288087,2,0,L|184:240,1,73.3333355712891,8|8,3:0|3:0,0:0:0:0:
384,168,288254,2,0,L|392:96,1,73.3333355712891,10|6,0:0|3:0,0:0:0:0:
304,104,288420,1,6,3:0:0:0:
216,96,288504,2,0,L|304:96,1,73.3333355712891,10|0,1:2|0:0,0:0:0:0:
471,87,288670,1,2,1:0:0:0:
249,259,288755,6,0,P|187:231|249:132,1,189.999994926453,6|0,0:1|0:0,0:0:0:0:
316,126,289129,1,0,0:0:0:0:
124,104,289379,1,0,0:0:0:0:
420,82,289754,5,2,0:0:0:0:
318,258,289879,2,0,P|316:179|431:120,1,189.999994926453,0|0,0:0|0:0,0:0:0:0:
490,117,290254,1,0,0:0:0:0:
293,129,290504,1,0,0:0:0:0:
490,117,290754,6,0,L|286:117,1,189.999994926453,2|0,0:0|0:0,0:0:0:0:
392,249,291129,2,0,P|456:214|396:121,1,189.999994926453,0|0,0:0|0:0,0:0:0:0:
160,347,291629,2,0,L|145:238,1,94.9999974632264,2|0,0:0|0:0,0:0:0:0:
248,235,291879,2,0,L|451:231,2,189.999994926453,2|0|0,0:0|0:0|0:0,0:0:0:0:
97,309,292754,6,0,P|62:252|129:150,1,189.999994926453,2|0,0:0|0:0,0:0:0:0:
223,153,293129,2,0,L|13:143,1,189.999994926453,0|0,0:0|0:0,0:0:0:0:
222,235,293629,2,0,L|227:117,1,94.9999974632264,2|0,0:0|0:0,0:0:0:0:
135,112,293879,2,0,L|335:104,2,189.999994926453,2|0|0,0:0|0:0|0:0,0:0:0:0:
424,304,294754,6,0,L|229:293,1,189.999994926453,2|0,0:0|0:0,0:0:0:0:
330,256,295129,2,0,P|380:209|321:104,1,189.999994926453,0|0,0:0|0:0,0:0:0:0:
149,213,295629,2,0,L|144:95,1,94.9999974632264,2|0,0:0|0:0,0:0:0:0:
336,105,296004,2,0,L|136:97,1,189.999994926453,0|0,0:0|0:0,0:0:0:0:
243,132,296379,2,0,L|23:109,1,189.999994926453,0|0,0:0|0:0,0:0:0:0:
290,75,296754,6,0,L|488:77,1,189.999994926453,6|8,1:0|3:1,0:0:0:0:
327,180,297129,2,0,L|318:303,1,94.9999974632264,0|8,0:0|3:1,0:0:0:0:
450,183,297379,2,0,L|458:298,1,94.9999974632264,0|8,1:0|3:1,0:0:0:0:
333,312,297629,1,0,1:0:0:0:
97,317,297754,6,0,L|306:323,1,189.999994926453,10|8,3:1|3:1,0:0:0:0:
152,282,298129,2,0,L|148:174,1,94.9999974632264,2|8,0:0|3:1,0:0:0:0:
346,179,298504,2,0,L|353:80,1,94.9999974632264,10|0,3:1|3:0,0:0:0:0:
137,222,298754,6,0,P|81:192|139:85,1,189.999994926453,10|8,1:0|3:1,0:0:0:0:
257,90,299129,2,0,L|371:96,1,94.9999974632264,0|8,0:0|3:1,0:0:0:0:
229,187,299379,2,0,L|102:182,1,94.9999974632264,0|8,1:0|3:1,0:0:0:0:
281,255,299629,1,0,1:0:0:0:
43,287,299754,6,0,L|235:297,1,189.999994926453,10|10,3:1|3:1,0:0:0:0:
325,303,300129,1,0,3:0:0:0:
221,267,300254,2,0,L|211:148,1,94.9999974632264,10|0,3:1|0:0,0:0:0:0:
332,169,300504,2,0,L|463:162,1,94.9999974632264,10|0,3:1|0:0,0:0:0:0:
80,204,300754,6,0,P|42:175|112:72,1,189.999994926453,6|0,1:2|1:2,0:0:0:0:
175,66,301129,1,0,1:2:0:0:
417,131,301254,2,0,L|415:246,1,94.9999974632264,10|8,1:2|1:2,0:0:0:0:
295,247,301504,1,10,1:2:0:0:
415,251,301629,1,8,1:2:0:0:
72,238,301754,5,10,1:2:0:0:
269,214,301879,1,8,1:2:0:0:
72,238,302004,2,0,L|76:140,1,94.9999974632264,10|8,1:2|1:2,0:0:0:0:
296,232,302254,5,10,3:0:0:0:
195,186,302379,2,0,L|194:122,1,47.4999987316132,8|8,3:0|3:0,0:0:0:0:
372,124,302504,2,0,L|431:120,1,47.4999987316132,6|4,3:0|3:0,0:0:0:0:
213,52,302629,2,0,L|275:46,1,47.4999987316132,6|0,3:0|0:0,0:0:0:0:
453,212,302754,6,0,P|472:155|388:268,1,759.999979705811,6|0,1:2|0:0,0:0:0:0:
256,192,303879,12,0,304629,0:0:0:0:
256,192,304754,5,6,1:0:0:0:
384,288,305754,6,0,L|392:80,1,200,2|0,1:0|0:0,0:0:0:0:
256,264,306129,2,0,L|264:64,1,200,2|0,1:0|0:0,0:0:0:0:
128,192,306504,2,0,L|136:88,1,100,2|0,1:0|0:0,0:0:0:0:
384,288,306754,5,6,1:2:0:0:
128,192,307254,1,0,3:0:0:0:
384,288,307754,6,0,P|384:232|288:136,1,200,2|8,3:0|0:0,0:0:0:0:
168,136,308066,1,0,0:0:0:0:
48,136,308129,2,0,L|112:136,1,50,0|0,0:0|0:0,0:0:0:0:
336,360,308254,2,0,B|408:288|408:8|408:8|168:16,1,600,8|8,0:0|0:0,0:0:0:0:
456,264,308754,6,0,L|464:152,1,110.000003356934,6|0,1:0|0:0,0:0:0:0:
224,168,309004,1,8,0:0:0:0:
464,136,309129,2,0,L|336:136,1,110.000003356934,2|0,0:0|0:0,0:0:0:0:
112,112,309379,1,0,1:0:0:0:
344,96,309504,2,0,L|224:96,1,110.000003356934,10|0,0:0|3:0,0:0:0:0:
464,216,309754,6,0,L|352:216,1,110.000003356934,2|0,1:0|1:0,0:0:0:0:
472,208,310004,1,10,0:0:0:0:
240,176,310129,2,0,L|464:176,1,220.000006713867,2|0,1:0|1:0,0:0:0:0:
224,160,310504,2,0,L|216:48,1,110.000003356934,10|0,0:0|0:0,0:0:0:0:
448,160,310754,6,0,L|336:160,1,110.000003356934,6|0,0:0|0:0,0:0:0:0:
208,136,311004,1,10,0:0:0:0:
440,136,311129,2,0,L|200:136,1,220.000006713867,2|2,3:0|1:0,0:0:0:0:
448,104,311504,2,0,L|328:104,1,110.000003356934,10|0,0:0|0:0,0:0:0:0:
96,80,311754,5,14,0:0:0:0:
344,80,311879,1,0,1:0:0:0:
88,72,312004,2,0,L|32:72,1,55.0000016784668,10|0,3:0|0:0,0:0:0:0:
96,64,312129,1,0,0:0:0:0:
320,208,312254,2,0,L|328:152,1,55.0000016784668,2|0,1:0|0:0,0:0:0:0:
136,128,312379,2,0,L|56:128,1,55.0000016784668,0|0,0:0|0:0,0:0:0:0:
272,128,312504,1,12,0:0:0:0:
480,128,312629,1,0,0:0:0:0:
200,304,312754,6,0,L|432:304,1,220.000006713867,6|10,1:0|0:0,0:0:0:0:
192,248,313129,1,0,0:0:0:0:
416,168,313254,2,0,L|424:56,1,110.000003356934,2|0,1:0|1:0,0:0:0:0:
200,144,313504,2,0,L|328:144,1,110.000003356934,10|0,0:0|0:0,0:0:0:0:
88,192,313754,6,0,L|80:80,1,110.000003356934,2|0,1:0|1:0,0:0:0:0:
304,192,314004,1,10,0:0:0:0:
80,176,314129,2,0,L|216:176,1,110.000003356934,2|0,1:0|3:0,0:0:0:0:
416,160,314379,2,0,L|280:160,1,110.000003356934,2|8,1:0|0:0,0:0:0:0:
72,152,314629,1,2,1:0:0:0:
304,240,314754,6,0,P|360:240|360:112,1,220.000006713867,0|8,1:0|0:0,0:0:0:0:
231,111,315129,1,0,3:0:0:0:
359,111,315254,2,0,L|367:223,1,110.000003356934,0|0,1:0|1:0,0:0:0:0:
144,88,315504,2,0,L|24:88,1,110.000003356934,10|0,0:0|0:0,0:0:0:0:
272,184,315754,5,2,1:0:0:0:
152,184,315879,2,0,L|160:72,1,110.000003356934,0|10,1:0|0:0,0:0:0:0:
392,136,316129,2,0,L|168:136,1,220.000006713867,2|0,1:0|1:0,0:0:0:0:
400,152,316504,2,0,L|408:40,1,110.000003356934,10|0,0:0|0:0,0:0:0:0:
168,168,316754,6,0,L|288:168,1,110.000003356934,2|0,1:0|0:0,0:0:0:0:
56,144,317004,1,8,0:0:0:0:
280,216,317129,2,0,L|288:104,1,110.000003356934,2|0,0:0|0:0,0:0:0:0:
56,144,317379,1,0,1:0:0:0:
288,120,317504,2,0,L|176:120,1,110.000003356934,10|0,0:0|3:0,0:0:0:0:
416,128,317754,6,0,L|296:128,1,110.000003356934,2|0,1:0|1:0,0:0:0:0:
184,112,318004,1,10,0:0:0:0:
416,256,318129,2,0,P|416:200|304:88,1,220.000006713867,2|0,1:0|1:0,0:0:0:0:
72,240,318504,2,0,L|64:128,1,110.000003356934,10|0,0:0|0:0,0:0:0:0:
288,192,318754,6,0,L|176:192,1,110.000003356934,10|0,0:0|1:0,0:0:0:0:
304,176,319004,2,0,L|192:176,1,110.000003356934,10|0,0:0|1:0,0:0:0:0:
424,256,319254,2,0,L|312:256,1,110.000003356934,10|0,0:0|1:0,0:0:0:0:
440,240,319504,2,0,L|328:240,1,110.000003356934,10|4,0:0|3:0,0:0:0:0:
88,256,319754,6,0,L|200:256,1,110.000003356934,10|4,0:0|3:0,0:0:0:0:
72,240,320004,2,0,L|64:168,2,73.3333355712891,14|4|4,3:0|3:0|3:0,0:0:0:0:
264,224,320254,2,0,L|272:144,2,73.3333355712891,10|0|0,3:0|0:0|3:0,0:0:0:0:
456,216,320504,2,0,L|448:48,1,165.000005035401,10|0,0:0|0:0,0:0:0:0:
198,212,320755,6,0,L|429:203,1,200,6|0,1:0|0:0,0:0:0:0:
86,169,321129,1,4,1:2:0:0:
198,249,321255,2,0,P|185:186|42:133,1,200,0|14,0:0|1:2,0:0:0:0:
303,243,321754,6,0,L|467:240,1,133.333333333333,2|0,1:0|0:0,0:0:0:0:
247,227,322004,2,0,L|158:222,2,66.6666666666667,10|0|0,3:0|0:0|0:0,0:0:0:0:
457,176,322254,1,10,0:0:0:0:
353,238,322379,2,0,P|347:176|469:109,1,200,2|2,1:0|1:0,0:0:0:0:
500,109,322691,1,0,1:0:0:0:
229,305,322754,6,0,P|171:261|245:166,1,200,4|0,1:0|0:0,0:0:0:0:
472,262,323129,2,0,L|235:266,1,200,4|0,1:2|0:0,0:0:0:0:
472,262,323504,2,0,L|472:142,1,100,14|0,0:2|0:0,0:0:0:0:
243,161,323754,6,0,L|16:144,1,200,2|10,3:0|3:0,0:0:0:0:
59,71,324087,2,0,L|141:78,1,66.6666666666667,0|0,0:0|0:0,0:0:0:0:
336,192,324254,2,0,L|212:199,1,100,8|0,0:0|1:0,0:0:0:0:
469,187,324504,2,0,L|475:299,1,100,2|0,0:0|0:0,0:0:0:0:
423,325,324691,1,0,0:0:0:0:
244,343,324754,6,0,L|465:330,1,200,6|0,1:1|0:0,0:0:0:0:
171,341,325129,2,0,P|100:311|152:203,1,200,6|0,1:2|0:0,0:0:0:0:
333,205,325504,2,0,L|449:195,1,100,14|0,1:2|0:0,0:0:0:0:
229,259,325754,6,0,P|226:191|356:140,1,200,2|10,0:0|3:0,0:0:0:0:
395,130,326087,2,0,L|463:129,1,66.6666666666667,0|0,0:0|0:0,0:0:0:0:
242,213,326254,2,0,L|119:211,1,100,8|0,0:0|1:0,0:0:0:0:
274,150,326504,2,0,L|381:149,1,100,0|0,0:0|1:0,0:0:0:0:
142,96,326754,6,0,L|29:95,2,100,6|0|0,1:0|0:0|0:0,0:0:0:0:
369,237,327129,1,6,1:2:0:0:
269,237,327254,1,0,0:0:0:0:
169,238,327379,1,2,0:0:0:0:
422,114,327504,2,0,L|436:234,1,100,14|0,0:0|0:0,0:0:0:0:
123,186,327754,5,10,0:0:0:0:
177,185,327879,1,8,3:0:0:0:
270,188,328004,1,8,3:0:0:0:
30,127,328129,2,0,L|36:22,1,100,10|8,0:0|3:0,0:0:0:0:
307,93,328379,1,8,3:0:0:0:
38,140,328504,2,0,L|165:149,1,100,10|0,0:0|0:0,0:0:0:0:
334,344,328755,6,0,L|76:327,1,220.000006713867,6|10,1:0|0:0,0:0:0:0:
114,329,329129,1,0,0:0:0:0:
332,287,329254,1,2,1:0:0:0:
222,268,329379,1,0,1:0:0:0:
455,131,329504,2,0,L|462:265,1,110.000003356934,10|0,0:0|0:0,0:0:0:0:
220,245,329754,5,2,1:0:0:0:
342,204,329879,1,0,1:0:0:0:
220,245,330004,1,10,0:0:0:0:
491,254,330129,2,0,L|380:252,1,110.000003356934,2|0,1:0|3:0,0:0:0:0:
106,254,330379,2,0,L|245:257,1,110.000003356934,2|8,1:0|0:0,0:0:0:0:
494,174,330629,1,2,1:0:0:0:
201,89,330754,6,0,L|441:98,1,220.000006713867,0|8,1:0|0:0,0:0:0:0:
309,175,331129,1,0,3:0:0:0:
49,210,331254,2,0,L|48:342,1,110.000003356934,0|0,1:0|1:0,0:0:0:0:
280,344,331504,2,0,L|389:347,1,110.000003356934,10|0,0:0|0:0,0:0:0:0:
156,248,331754,5,2,1:0:0:0:
251,249,331879,1,0,1:0:0:0:
361,250,332004,1,10,0:0:0:0:
102,311,332129,2,0,P|50:281|127:167,1,220.000006713867,2|0,1:0|1:0,0:0:0:0:
343,167,332504,2,0,L|461:169,1,110.000003356934,10|0,0:0|0:0,0:0:0:0:
202,255,332754,6,0,L|198:115,1,110.000003356934,2|0,1:0|0:0,0:0:0:0:
463,133,333004,1,8,0:0:0:0:
243,125,333129,2,0,L|109:119,1,110.000003356934,2|0,0:0|0:0,0:0:0:0:
378,92,333379,1,2,1:0:0:0:
147,85,333504,2,0,L|27:80,1,110.000003356934,8|0,0:0|3:0,0:0:0:0:
237,179,333754,5,2,1:0:0:0:
237,179,333879,1,0,1:0:0:0:
119,177,334004,1,10,0:0:0:0:
301,270,334129,2,0,L|54:278,1,220.000006713867,2|0,1:0|1:0,0:0:0:0:
321,327,334504,2,0,L|475:332,1,110.000003356934,10|0,0:0|0:0,0:0:0:0:
154,348,334754,6,0,P|102:304|186:182,1,220.000006713867,2|8,1:0|0:0,0:0:0:0:
269,183,335129,1,0,0:0:0:0:
34,246,335254,2,0,L|37:123,1,110.000003356934,2|0,1:0|1:0,0:0:0:0:
285,188,335505,2,0,L|160:176,1,110.000003356934,8|0,0:0|0:0,0:0:0:0:
379,138,335754,6,0,L|506:139,1,110.000003356934,14|0,0:0|1:0,0:0:0:0:
201,230,336004,1,10,3:0:0:0:
201,230,336087,1,4,3:0:0:0:
276,230,336170,1,4,3:0:0:0:
176,167,336254,2,0,L|92:165,2,73.3333355712891,2|0|0,1:0|1:0|1:0,0:0:0:0:
426,166,336505,2,0,L|326:169,1,100,10|0,0:0|0:0,0:0:0:0:
56,240,336755,6,0,L|176:240,1,110.000003356934,6|0,1:0|0:0,0:0:0:0:
40,232,337004,2,0,L|168:232,1,110.000003356934,8|0,0:0|0:0,0:0:0:0:
272,208,337254,2,0,L|152:208,1,110.000003356934,12|0,0:0|1:0,0:0:0:0:
288,200,337504,2,0,L|160:200,1,110.000003356934,12|0,0:0|1:0,0:0:0:0:
400,152,337754,6,0,L|288:152,1,110.000003356934,14|0,0:0|0:0,0:0:0:0:
168,152,338004,1,8,0:0:0:0:
392,128,338129,2,0,L|240:128,1,110.000003356934,2|12,1:0|0:0,0:0:0:0:
408,120,338379,2,0,L|336:120,1,55.0000016784668,0|0,0:0|0:0,0:0:0:0:
184,112,338504,1,10,0:0:0:0:
408,112,338629,1,0,1:0:0:0:
128,264,338754,6,0,L|136:152,1,110.000003356934,14|0,0:0|0:0,0:0:0:0:
264,208,339004,2,0,L|272:96,1,110.000003356934,8|0,0:0|3:0,0:0:0:0:
144,104,339254,2,0,L|272:104,1,110.000003356934,12|0,0:0|1:0,0:0:0:0:
480,104,339504,2,0,L|360:104,1,110.000003356934,14|0,0:0|0:0,0:0:0:0:
144,184,339754,6,0,L|256:184,1,110.000003356934,14|0,0:0|0:0,0:0:0:0:
376,184,340004,1,8,0:0:0:0:
144,160,340129,2,0,L|272:160,1,110.000003356934,2|12,1:0|0:0,0:0:0:0:
128,144,340379,2,0,L|72:144,1,55.0000016784668,0|0,1:0|1:0,0:0:0:0:
240,88,340504,1,14,0:0:0:0:
16,88,340629,1,0,0:0:0:0:
296,192,340754,6,0,L|408:192,1,110.000003356934,14|0,0:0|0:0,0:0:0:0:
280,176,341004,2,0,L|392:176,1,110.000003356934,8|0,0:0|3:0,0:0:0:0:
160,272,341254,2,0,L|168:160,1,110.000003356934,14|0,0:0|1:0,0:0:0:0:
296,224,341504,2,0,L|304:112,1,110.000003356934,8|0,0:0|1:0,0:0:0:0:
80,136,341754,6,0,L|200:136,1,110.000003356934,14|0,0:0|0:0,0:0:0:0:
64,128,342004,2,0,L|56:16,1,110.000003356934,8|0,0:0|1:0,0:0:0:0:
280,112,342254,2,0,L|160:112,1,110.000003356934,14|0,0:0|1:0,0:0:0:0:
224,88,342441,1,0,1:0:0:0:
296,88,342504,1,8,0:0:0:0:
72,80,342629,1,0,1:0:0:0:
352,168,342754,6,0,L|224:168,1,110.000003356934,14|0,0:0|0:0,0:0:0:0:
248,136,343004,1,8,0:0:0:0:
472,152,343129,2,0,L|352:152,1,110.000003356934,2|12,3:0|0:0,0:0:0:0:
240,144,343379,1,0,1:0:0:0:
472,128,343504,2,0,L|336:128,1,110.000003356934,10|0,0:0|1:0,0:0:0:0:
136,280,343754,6,0,L|264:280,1,110.000003356934,12|0,0:0|3:0,0:0:0:0:
120,272,344004,2,0,L|8:272,1,110.000003356934,8|0,0:0|1:0,0:0:0:0:
248,168,344254,1,12,0:0:0:0:
24,152,344379,2,0,L|80:152,1,55.0000016784668,0|0,1:0|1:0,0:0:0:0:
248,144,344504,1,10,0:0:0:0:
24,136,344629,1,8,0:0:0:0:
304,160,344754,6,0,L|424:160,1,110.000003356934,14|0,0:0|0:0,0:0:0:0:
288,144,345004,2,0,L|280:256,1,110.000003356934,8|0,0:0|0:0,0:0:0:0:
152,256,345254,2,0,L|160:144,1,110.000003356934,12|0,0:0|1:0,0:0:0:0:
384,144,345504,2,0,L|504:144,1,110.000003356934,14|0,0:0|1:0,0:0:0:0:
280,216,345754,6,0,L|392:216,1,110.000003356934,14|0,0:0|0:0,0:0:0:0:
264,208,346004,1,8,0:0:0:0:
56,176,346129,2,0,L|168:176,1,110.000003356934,0|12,1:0|0:0,0:0:0:0:
40,168,346379,2,0,L|96:168,1,55.0000016784668,0|0,1:0|1:0,0:0:0:0:
264,144,346504,1,8,0:0:0:0:
40,144,346629,1,0,1:0:0:0:
320,176,346754,6,0,L|328:64,1,110.000003356934,14|0,0:0|0:0,0:0:0:0:
200,160,347004,2,0,L|208:48,1,110.000003356934,8|0,0:0|3:0,0:0:0:0:
80,160,347254,2,0,L|88:48,1,110.000003356934,12|0,0:0|0:0,0:0:0:0:
312,112,347504,2,0,L|176:112,1,110.000003356934,14|0,0:0|0:0,0:0:0:0:
432,208,347754,6,0,L|440:96,1,110.000003356934,14|0,0:0|0:0,0:0:0:0:
312,112,348004,1,8,0:0:0:0:
88,176,348129,2,0,L|216:176,1,110.000003356934,2|12,1:0|0:0,0:0:0:0:
320,176,348379,2,0,L|384:176,1,55.0000016784668,0|0,1:0|1:0,0:0:0:0:
208,112,348504,1,10,0:0:0:0:
432,112,348629,1,0,3:0:0:0:
152,224,348754,6,0,L|32:224,1,110.000003356934,14|0,0:0|3:0,0:0:0:0:
168,208,349004,2,0,L|288:208,1,110.000003356934,12|0,0:0|3:0,0:0:0:0:
152,200,349254,2,0,L|312:200,1,110.000003356934,12|0,0:0|1:0,0:0:0:0:
136,184,349504,2,0,L|24:184,1,110.000003356934,12|0,0:0|1:0,0:0:0:0:
256,176,349754,6,0,L|136:176,1,110.000003356934,12|0,0:0|3:0,0:0:0:0:
272,168,350004,2,0,L|280:56,1,110.000003356934,12|0,0:0|0:0,0:0:0:0:
152,64,350254,2,0,L|208:64,1,55.0000016784668,12|0,0:0|1:0,0:0:0:0:
280,64,350379,1,0,1:0:0:0:
152,64,350504,2,0,L|144:176,1,110.000003356934,12|0,0:0|1:0,0:0:0:0:
376,192,350754,6,0,L|488:192,1,110.000003356934,12|0,0:0|3:0,0:0:0:0:
360,176,351004,2,0,L|352:64,1,110.000003356934,12|0,0:0|3:0,0:0:0:0:
224,176,351254,2,0,L|336:176,1,110.000003356934,12|0,0:0|1:0,0:0:0:0:
208,160,351504,2,0,L|200:48,1,110.000003356934,12|0,0:0|0:0,0:0:0:0:
424,112,351754,6,0,L|288:112,1,110.000003356934,12|8,0:0|0:0,0:0:0:0:
440,104,352004,2,0,L|384:104,1,55.0000016784668,4|4,3:0|3:0,0:0:0:0:
192,104,352129,2,0,L|104:104,1,55.0000016784668,4|4,3:0|3:0,0:0:0:0:
336,264,352254,2,0,L|344:200,1,55.0000016784668,8|4,0:2|3:0,0:0:0:0:
272,200,352379,1,4,3:0:0:0:
224,176,352441,1,4,3:0:0:0:
200,128,352504,1,4,3:0:0:0:
224,176,352566,1,4,3:0:0:0:
416,184,352629,2,0,L|480:184,1,55.0000016784668,4|4,3:0|3:0,0:0:0:0:
228,182,352754,5,6,1:0:0:0:
340,241,352879,2,0,L|335:353,1,100,0|0,0:0|0:0,0:0:0:0:
111,364,353129,2,0,P|62:338|130:222,1,200,2|2,1:0|0:0,0:0:0:0:
221,213,353504,2,0,L|218:100,1,100,8|2,0:0|0:0,0:0:0:0:
301,209,353879,5,0,1:0:0:0:
181,209,354004,2,0,P|138:171|201:57,1,200,0|0,0:0|3:0,0:0:0:0:
414,63,354379,1,8,0:0:0:0:
188,59,354504,2,0,L|189:182,1,100,0|0,0:0|0:0,0:0:0:0:
319,260,354754,5,2,1:0:0:0:
194,258,354879,2,0,L|188:145,1,100,0|2,0:0|0:0,0:0:0:0:
310,157,355129,2,0,L|99:163,1,200,2|0,1:0|0:0,0:0:0:0:
346,227,355504,2,0,L|462:228,1,100,8|2,0:0|3:0,0:0:0:0:
212,231,355879,5,0,1:0:0:0:
333,219,356004,2,0,L|339:112,1,100,0|0,0:0|1:0,0:0:0:0:
215,115,356254,2,0,L|212:232,1,100,0|8,0:0|0:0,0:0:0:0:
318,246,356504,1,2,0:0:0:0:
213,257,356629,1,0,0:0:0:0:
451,293,356754,6,0,L|216:294,1,200,0|2,1:0|0:0,0:0:0:0:
377,153,357129,2,0,L|517:137,2,100,0|0|2,1:0|0:0|0:0,0:0:0:0:
157,147,357504,1,10,0:0:0:0:
395,301,357629,6,0,P|438:259|369:140,1,200,0|0,0:0|0:0,0:0:0:0:
165,270,358004,2,0,L|111:176,2,100,0|0|2,3:0|1:0|0:0,0:0:0:0:
409,249,358379,1,8,0:0:0:0:
165,270,358504,2,0,L|159:372,1,100,0|0,3:0|0:0,0:0:0:0:
400,365,358754,6,0,L|402:244,1,100,2|0,1:0|0:0,0:0:0:0:
309,234,359004,1,2,0:0:0:0:
187,203,359129,2,0,L|410:187,1,200,0|2,1:0|0:0,0:0:0:0:
294,185,359504,2,0,L|291:289,1,100,8|0,0:0|0:0,0:0:0:0:
485,292,359754,5,2,0:0:0:0:
347,291,359879,2,0,L|345:175,1,100,2|0,1:0|0:0,0:0:0:0:
120,198,360129,2,0,L|330:196,1,200,2|8,1:0|0:0,0:0:0:0:
343,140,360504,1,2,0:0:0:0:
143,71,360629,1,0,1:0:0:0:
357,95,360754,6,0,P|408:127|341:233,1,200,6|0,1:0|0:0,0:0:0:0:
140,262,361254,2,0,L|258:271,2,100,2|2|8,0:0|0:0|0:0,0:0:0:0:
261,340,361629,6,0,P|305:309|230:199,1,200,0|2,0:0|1:0,0:0:0:0:
132,202,362004,2,0,L|132:92,1,100,0|0,0:0|1:0,0:0:0:0:
332,132,362254,1,2,0:0:0:0:
109,23,362379,2,0,L|212:22,1,100,10|0,0:0|0:0,0:0:0:0:
308,29,362629,1,0,1:0:0:0:
183,245,362754,6,0,L|181:126,1,100,2|0,1:0|0:0,0:0:0:0:
391,185,363129,2,0,L|147:195,1,200,0|2,1:0|0:0,0:0:0:0:
100,196,363504,1,8,0:0:0:0:
220,117,363629,1,0,0:0:0:0:
413,285,363879,5,0,1:0:0:0:
312,280,364004,2,0,P|271:249|332:125,1,200,0|0,0:0|0:0,0:0:0:0:
407,114,364379,1,8,0:0:0:0:
279,88,364504,1,0,0:0:0:0:
404,90,364629,1,0,3:0:0:0:
132,104,364754,6,0,P|76:153|138:247,1,200,2|0,1:0|0:0,0:0:0:0:
251,277,365129,2,0,L|252:173,1,100,2|0,1:0|0:0,0:0:0:0:
126,176,365379,2,0,L|120:70,1,100,2|8,0:0|0:0,0:0:0:0:
242,96,365630,6,0,L|35:103,1,200,0|0,0:0|1:0,0:0:0:0:
163,268,366004,2,0,L|162:161,1,100,2|0,0:0|1:0,0:0:0:0:
286,176,366254,2,0,L|287:67,1,100,0|8,0:0|0:0,0:0:0:0:
168,76,366504,2,0,L|58:62,1,100,0|2,0:0|1:0,0:0:0:0:
322,60,366754,6,0,P|368:106|291:195,1,200,0|0,1:0|0:0,0:0:0:0:
206,195,367129,1,0,1:0:0:0:
105,288,367254,2,0,L|110:175,1,100,0|2,1:0|0:0,0:0:0:0:
346,187,367504,2,0,L|352:78,1,100,12|0,0:0|0:0,0:0:0:0:
221,70,367754,5,2,1:0:0:0:
344,69,367879,1,10,0:0:0:0:
198,113,368004,2,0,L|189:219,1,100,10|6,3:0|3:0,0:0:0:0:
332,226,368254,2,0,L|338:335,1,100,10|6,0:0|3:0,0:0:0:0:
35,334,368504,1,6,3:0:0:0:
312,303,368629,5,14,3:0:0:0:
