osu file format v14

[General]
AudioFilename: audio.mp3
AudioLeadIn: 0
PreviewTime: 221087
Countdown: 0
SampleSet: Soft
StackLeniency: 0.7
Mode: 0
LetterboxInBreaks: 0
WidescreenStoryboard: 1

[Editor]
Bookmarks: 8937,22364,35790,49217,62643,67678,71035,84462,97888,101245,104601,118028,131455,144881,149916,153273,166699,180126,190196,193552,200266,201944,202573,206979,222084,235511,242224,248937,262364,275790,282504,289217,295930,302643,308308,315650,315860
DistanceSpacing: 1
BeatDivisor: 4
GridSize: 32
TimelineZoom: 1.4

[Metadata]
Title:Little Nova
TitleUnicode:Little Nova
Artist:FELT
ArtistUnicode:FELT
Creator:_83
Version:Saigyou Ayakashi
Source:東方妖々夢 ~ Perfect Cherry Blossom.
Tags:東方Project 舞花 Maika NAGI☆ Little Planet ZUN Mystical Dream Snow Petal C82 touhou
BeatmapID:1269565
BeatmapSetID:600882

[Difficulty]
HPDrainRate:6
CircleSize:5
OverallDifficulty:7
ApproachRate:8
SliderMultiplier:1.4
SliderTickRate:1

[Events]
//Background and Video events
0,0,"yuyuko-saigyouji-youmu-konpaku-touhou-project.jpg",0,0
//Break Periods
//Storyboard Layer 0 (Background)
//Storyboard Layer 1 (Fail)
//Storyboard Layer 2 (Pass)
//Storyboard Layer 3 (Foreground)
//Storyboard Sound Samples

[TimingPoints]
546,419.58041958042,4,1,1,100,1,0
7259,-133.333333333333,4,2,1,30,0,0
8937,-133.333333333333,4,2,7,30,0,0
9147,-133.333333333333,4,2,17,30,0,0
9357,-133.333333333333,4,2,8,30,0,0
9566,-133.333333333333,4,2,9,30,0,0
9776,-133.333333333333,4,2,13,30,0,0
9986,-133.333333333333,4,2,6,40,0,0
10196,-133.333333333333,4,2,13,30,0,0
10406,-133.333333333333,4,2,18,30,0,0
10825,-133.333333333333,4,2,12,30,0,0
11035,-133.333333333333,4,2,5,30,0,0
11245,-133.333333333333,4,2,19,30,0,0
11664,-133.333333333333,4,2,8,30,0,0
11874,-133.333333333333,4,2,13,30,0,0
12084,-133.333333333333,4,2,16,30,0,0
12294,-133.333333333333,4,2,18,30,0,0
12713,-133.333333333333,4,2,11,15,0,0
12923,-133.333333333333,4,2,16,30,0,0
13343,-133.333333333333,4,2,18,40,0,0
13762,-133.333333333333,4,2,13,30,0,0
14182,-133.333333333333,4,2,15,30,0,0
14392,-133.333333333333,4,2,5,30,0,0
14601,-133.333333333333,4,2,9,30,0,0
14811,-133.333333333333,4,2,13,30,0,0
15021,-133.333333333333,4,2,9,30,0,0
15231,-133.333333333333,4,2,5,30,0,0
15441,-133.333333333333,4,2,15,30,0,0
15650,-133.333333333333,4,2,7,30,0,0
15860,-133.333333333333,4,2,17,30,0,0
16070,-133.333333333333,4,2,8,30,0,0
16280,-133.333333333333,4,2,9,30,0,0
16490,-133.333333333333,4,2,13,30,0,0
16699,-133.333333333333,4,2,6,30,0,0
16909,-133.333333333333,4,2,13,30,0,0
17119,-133.333333333333,4,2,18,30,0,0
17539,-133.333333333333,4,2,12,30,0,0
17748,-133.333333333333,4,2,19,30,0,0
17958,-133.333333333333,4,2,5,30,0,0
18168,-133.333333333333,4,2,8,30,0,0
18378,-133.333333333333,4,2,13,30,0,0
18587,-133.333333333333,4,2,16,30,0,0
18797,-133.333333333333,4,2,5,15,0,0
19007,-133.333333333333,4,2,18,30,0,0
19427,-133.333333333333,4,2,11,15,0,0
19636,-133.333333333333,4,2,6,30,0,0
20056,-133.333333333333,4,2,16,30,0,0
20476,-133.333333333333,4,2,13,30,0,0
20895,-133.333333333333,4,2,15,30,0,0
21105,-133.333333333333,4,2,5,30,0,0
21315,-133.333333333333,4,2,9,30,0,0
21525,-133.333333333333,4,2,13,30,0,0
21734,-133.333333333333,4,2,6,30,0,0
21944,-133.333333333333,4,2,14,30,0,0
22154,-133.333333333333,4,2,10,30,0,0
22364,-100,4,2,7,45,0,0
22574,-100,4,2,17,45,0,0
22784,-100,4,2,8,45,0,0
22993,-100,4,2,9,45,0,0
23203,-100,4,2,13,45,0,0
23413,-100,4,2,6,45,0,0
23623,-100,4,2,13,45,0,0
23833,-100,4,2,18,45,0,0
24252,-100,4,2,12,45,0,0
24462,-100,4,2,5,45,0,0
24672,-100,4,2,19,45,0,0
25091,-100,4,2,8,45,0,0
25301,-100,4,2,13,45,0,0
25511,-100,4,2,16,45,0,0
25721,-100,4,2,18,45,0,0
26140,-100,4,2,11,45,0,0
26245,-100,4,2,13,45,0,0
26350,-100,4,2,16,45,0,0
26770,-100,4,2,18,45,0,0
27189,-100,4,2,13,45,0,0
27609,-100,4,2,15,45,0,0
27819,-100,4,2,5,45,0,0
28028,-100,4,2,9,45,0,0
28238,-100,4,2,13,45,0,0
28448,-100,4,2,9,45,0,0
28658,-100,4,2,5,45,0,0
28868,-100,4,2,15,45,0,0
29077,-100,4,2,7,45,0,0
29287,-100,4,2,17,45,0,0
29497,-100,4,2,8,45,0,0
29707,-100,4,2,9,45,0,0
29917,-100,4,2,13,45,0,0
30126,-100,4,2,6,45,0,0
30336,-100,4,2,13,45,0,0
30546,-100,4,2,18,45,0,0
30966,-100,4,2,12,45,0,0
31175,-100,4,2,19,45,0,0
31385,-100,4,2,5,45,0,0
31595,-100,4,2,8,45,0,0
31805,-100,4,2,13,45,0,0
32014,-100,4,2,16,45,0,0
32224,-100,4,2,5,45,0,0
32434,-100,4,2,18,45,0,0
32854,-100,4,2,11,45,0,0
32958,-100,4,2,13,45,0,0
33063,-100,4,2,6,45,0,0
33483,-100,4,2,16,45,0,0
33903,-100,4,2,13,45,0,0
34322,-100,4,2,15,45,0,0
34532,-100,4,2,5,45,0,0
34742,-100,4,2,9,45,0,0
34952,-100,4,2,13,45,0,0
35161,-100,4,2,6,45,0,0
35371,-100,4,2,14,45,0,0
35581,-100,4,2,10,45,0,0
35790,-100,4,2,21,45,0,0
36000,-100,4,2,25,45,0,0
36210,-100,4,2,7,45,0,0
36420,-100,4,2,22,45,0,0
36629,-100,4,2,12,45,0,0
36839,-100,4,2,5,45,0,0
37049,-100,4,2,12,45,0,0
37259,-100,4,2,17,80,0,0
37285,-100,4,2,25,45,0,0
37678,-100,4,2,11,45,0,0
37888,-100,4,2,20,45,0,0
38098,-100,4,2,26,70,0,0
38124,-100,4,2,26,45,0,0
38518,-100,4,2,7,45,0,0
38727,-100,4,2,12,45,0,0
38937,-100,4,2,15,45,0,0
39147,-100,4,2,17,45,0,0
39566,-100,4,2,23,45,0,0
39776,-100,4,2,15,45,0,0
40196,-100,4,2,17,45,0,0
40615,-100,4,2,12,45,0,0
41035,-100,4,2,24,45,0,0
41245,-100,4,2,20,45,0,0
41455,-100,4,2,22,45,0,0
41664,-100,4,2,12,45,0,0
41874,-100,4,2,22,45,0,0
42084,-100,4,2,20,30,0,0
42294,-100,4,2,24,45,0,0
42504,-100,4,2,21,45,0,0
42713,-100,4,2,25,45,0,0
42923,-100,4,2,7,45,0,0
43133,-100,4,2,22,45,0,0
43343,-100,4,2,12,45,0,0
43552,-100,4,2,5,45,0,0
43762,-100,4,2,12,45,0,0
43972,-100,4,2,17,45,0,0
44392,-100,4,2,11,45,0,0
44601,-100,4,2,26,45,0,0
44811,-100,4,2,20,45,0,0
45021,-100,4,2,7,45,0,0
45231,-100,4,2,12,45,0,0
45441,-100,4,2,15,45,0,0
45650,-100,4,2,20,45,0,0
45860,-100,4,2,17,45,0,0
46280,-100,4,2,23,45,0,0
46490,-100,4,2,5,45,0,0
46909,-100,4,2,15,45,0,0
47329,-100,4,2,12,45,0,0
47748,-100,4,2,24,45,0,0
47958,-100,4,2,20,45,0,0
48168,-100,4,2,22,45,0,0
48378,-100,4,2,12,45,0,0
48587,-100,4,2,5,45,0,0
48797,-133.333333333333,4,2,13,30,0,0
49007,-133.333333333333,4,2,9,30,0,0
49112,-133.333333333333,4,2,1,5,0,0
49217,-100,4,2,1,45,0,0
62643,-100,4,2,1,45,0,0
71035,-100,4,2,1,70,0,1
97888,-100,4,2,1,60,0,0
104497,-133.333333333333,4,2,1,5,0,0
104916,-200,4,2,1,30,0,0
118028,-133.333333333333,4,2,1,30,0,0
131455,-100,4,2,1,45,0,0
144881,-100,4,2,1,45,0,0
153273,-100,4,2,1,70,0,1
180126,-133.333333333333,4,2,16,35,0,0
180336,-133.333333333333,4,2,6,35,0,0
180546,-133.333333333333,4,2,27,35,0,0
180755,-133.333333333333,4,2,28,35,0,0
180965,-133.333333333333,4,2,27,35,0,0
181175,-133.333333333333,4,2,6,35,0,0
181385,-133.333333333333,4,2,16,35,0,0
181595,-133.333333333333,4,2,6,35,0,0
181805,-133.333333333333,4,2,27,35,0,0
182014,-133.333333333333,4,2,28,35,0,0
182224,-133.333333333333,4,2,27,35,0,0
182434,-133.333333333333,4,2,6,35,0,0
182643,-133.333333333333,4,2,16,35,0,0
182853,-133.333333333333,4,2,6,35,0,0
183063,-133.333333333333,4,2,27,35,0,0
183272,-133.333333333333,4,2,28,35,0,0
183482,-133.333333333333,4,2,27,35,0,0
183535,-133.333333333333,4,2,1,5,0,0
183692,-133.333333333333,4,2,6,35,0,0
183902,-133.333333333333,4,2,16,35,0,0
184112,-133.333333333333,4,2,6,35,0,0
184322,-133.333333333333,4,2,27,35,0,0
184531,-133.333333333333,4,2,28,35,0,0
184741,-133.333333333333,4,2,27,35,0,0
184951,-133.333333333333,4,2,6,35,0,0
185161,-133.333333333333,4,2,16,35,0,0
185371,-133.333333333333,4,2,6,35,0,0
185581,-133.333333333333,4,2,27,35,0,0
185790,-133.333333333333,4,2,28,35,0,0
186000,-133.333333333333,4,2,27,35,0,0
186052,-133.333333333333,4,2,1,5,0,0
186210,-133.333333333333,4,2,6,35,0,0
186420,-133.333333333333,4,2,16,35,0,0
186472,-133.333333333333,4,2,1,5,0,0
186629,-133.333333333333,4,2,6,35,0,0
186840,-133.333333333333,4,2,27,35,0,0
186892,-133.333333333333,4,2,1,5,0,0
187049,-133.333333333333,4,2,28,35,0,0
187259,-133.333333333333,4,2,27,35,0,0
187469,-133.333333333333,4,2,6,35,0,0
187678,-133.333333333333,4,2,16,35,0,0
187888,-133.333333333333,4,2,6,35,0,0
188098,-133.333333333333,4,2,27,35,0,0
188307,-133.333333333333,4,2,28,35,0,0
188517,-133.333333333333,4,2,27,35,0,0
188727,-133.333333333333,4,2,6,35,0,0
188937,-133.333333333333,4,2,16,35,0,0
189147,-133.333333333333,4,2,6,35,0,0
189357,-133.333333333333,4,2,27,35,0,0
189566,-133.333333333333,4,2,28,35,0,0
189776,-133.333333333333,4,2,27,35,0,0
189986,-133.333333333333,4,2,6,35,0,0
193552,-100,4,2,7,36,0,0
193972,-100,4,2,31,36,0,0
194182,-100,4,2,12,36,0,0
195021,-100,4,2,19,36,0,0
195441,-100,4,2,17,36,0,0
195860,-100,4,2,12,36,0,0
196490,-100,4,2,26,36,0,0
196699,-100,4,2,29,36,0,0
196909,-100,4,2,21,36,0,0
197329,-100,4,2,30,36,0,0
197539,-100,4,2,12,36,0,0
197958,-100,4,2,17,36,0,0
198378,-100,4,2,5,36,0,0
198797,-100,4,2,17,36,0,0
199217,-100,4,2,12,36,0,0
199636,-100,4,2,20,36,0,0
200266,-100,4,2,1,36,0,0
201944,-100,4,2,6,36,0,0
202573,-100,4,2,32,36,0,0
202993,-100,4,2,1,36,0,0
203622,-133.333333333333,4,2,1,36,0,0
213692,-100,4,2,1,36,0,0
221664,-200,4,2,1,20,0,0
235511,-133.333333333333,4,2,1,30,0,0
242224,-133.333333333333,4,2,1,35,0,0
245580,-133.333333333333,4,2,1,45,0,0
248098,-100,4,2,1,35,0,0
248937,-90.9090909090909,4,2,1,75,0,1
275790,-100,4,2,1,55,0,0
302643,-133.333333333333,4,2,16,35,0,0
302853,-133.333333333333,4,2,6,35,0,0
303063,-133.333333333333,4,2,27,35,0,0
303272,-133.333333333333,4,2,28,35,0,0
303482,-133.333333333333,4,2,27,35,0,0
303692,-133.333333333333,4,2,6,35,0,0
303902,-133.333333333333,4,2,16,35,0,0
304112,-133.333333333333,4,2,6,35,0,0
304322,-133.333333333333,4,2,27,35,0,0
304531,-133.333333333333,4,2,28,35,0,0
304741,-133.333333333333,4,2,27,35,0,0
304951,-133.333333333333,4,2,6,35,0,0
305161,-133.333333333333,4,2,16,35,0,0
305371,-133.333333333333,4,2,6,35,0,0
305581,-133.333333333333,4,2,27,35,0,0
305790,-133.333333333333,4,2,28,35,0,0
306000,-133.333333333333,4,2,27,35,0,0
306210,-133.333333333333,4,2,6,35,0,0
306420,-133.333333333333,4,2,16,35,0,0
306630,-133.333333333333,4,2,6,35,0,0
306840,-133.333333333333,4,2,27,35,0,0
307049,-133.333333333333,4,2,28,35,0,0
307259,-133.333333333333,4,2,27,35,0,0
307469,-133.333333333333,4,2,6,35,0,0
307678,-133.333333333333,4,2,16,35,0,0
307888,-133.333333333333,4,2,6,35,0,0
308098,-133.333333333333,4,2,27,35,0,0
308308,-500,4,2,28,25,0,0
308334,-500,4,2,1,25,0,0
309357,-500,4,2,1,15,0,0
311035,-500,4,2,1,10,0,0
314392,-500,4,2,1,5,0,0

[Colours]
Combo1 : 98,76,208
Combo2 : 153,58,216
Combo3 : 216,58,195
Combo4 : 17,254,176

[HitObjects]
0,49,8937,5,2,0:0:0:0:
29,67,9147,1,2,0:0:0:0:
76,79,9357,1,2,0:0:0:0:
138,79,9566,1,2,0:0:0:0:
203,38,9776,1,2,0:0:0:0:
291,20,9986,2,0,P|267:31|242:39,1,52.5000020027161,2|2,0:0|0:0,0:0:0:0:
234,138,10406,6,0,P|278:103|341:85,1,105.000004005432,2|2,0:0|0:0,0:0:0:0:
385,106,11035,1,2,0:0:0:0:
427,129,11245,1,2,0:0:0:0:
512,229,11664,1,2,0:0:0:0:
477,236,11874,1,2,0:0:0:0:
438,266,12084,1,2,0:0:0:0:
412,338,12294,6,0,P|341:344|288:354,1,105.000004005432,2|2,0:0|0:0,0:0:0:0:
242,384,12923,2,0,P|189:380|133:363,2,105.000004005432,2|2|2,0:0|0:0|0:0,0:0:0:0:
94,300,14182,5,2,0:0:0:0:
82,264,14392,1,2,0:0:0:0:
78,217,14601,1,2,0:0:0:0:
99,157,14811,1,2,0:0:0:0:
124,110,15021,1,2,0:0:0:0:
121,68,15231,1,2,0:0:0:0:
103,41,15441,1,2,0:0:0:0:
93,36,15650,5,2,0:0:0:0:
86,66,15860,1,2,0:0:0:0:
97,95,16070,1,2,0:0:0:0:
122,134,16280,1,2,0:0:0:0:
159,184,16490,1,2,0:0:0:0:
148,261,16699,2,0,P|143:237|145:209,1,52.5000020027161,2|2,0:0|0:0,0:0:0:0:
38,219,17119,6,0,P|88:237|147:284,1,105.000004005432,2|2,0:0|0:0,0:0:0:0:
137,280,17748,1,2,0:0:0:0:
158,302,17958,1,2,0:0:0:0:
186,316,18168,1,2,0:0:0:0:
231,328,18378,1,2,0:0:0:0:
293,334,18587,2,0,P|332:346|348:353,1,52.5000020027161,2|2,0:0|0:0,0:0:0:0:
403,384,19007,6,0,P|459:377|510:344,1,105.000004005432,2|2,0:0|0:0,0:0:0:0:
505,270,19636,2,0,P|500:213|517:157,2,105.000004005432,2|2|2,0:0|0:0|0:0,0:0:0:0:
469,107,20895,5,2,0:0:0:0:
448,64,21105,1,2,0:0:0:0:
398,24,21315,1,2,0:0:0:0:
350,21,21525,1,2,0:0:0:0:
288,35,21734,1,2,0:0:0:0:
209,44,21944,1,2,0:0:0:0:
151,17,22154,1,2,0:0:0:0:
13,50,22364,6,0,P|41:78|71:120,1,70,6|2,0:0|0:0,0:0:0:0:
134,109,22783,1,2,0:2:0:0:
134,109,22888,1,0,0:0:0:0:
134,109,22993,2,0,P|178:119|222:119,1,70,2|2,0:0|0:2,0:0:0:0:
231,93,23308,2,0,L|217:136,1,35,0|2,0:0|0:0,0:0:0:0:
239,194,23622,1,2,0:2:0:0:
196,252,23832,6,0,P|138:251|39:284,1,140,2|2,0:0|0:0,0:0:0:0:
12,328,24462,1,2,0:0:0:0:
62,379,24671,2,0,P|120:380|219:347,1,140,2|2,0:0|0:0,0:0:0:0:
251,313,25301,1,2,0:0:0:0:
337,294,25511,1,2,0:0:0:0:
423,324,25720,6,0,P|459:324|504:338,1,70,2|0,0:0|0:0,0:0:0:0:
507,261,26140,1,2,0:0:0:0:
507,261,26245,1,2,0:0:0:0:
507,261,26350,2,0,P|445:234|395:181,2,140,2|2|2,0:0|0:0|0:0,0:0:0:0:
405,167,27608,5,2,0:0:0:0:
368,147,27817,1,2,0:0:0:0:
306,134,28027,1,2,0:0:0:0:
223,150,28238,1,2,0:0:0:0:
160,140,28448,1,2,0:0:0:0:
120,124,28657,1,2,0:0:0:0:
104,109,28867,1,2,0:0:0:0:
112,20,29077,6,0,P|152:23|186:33,1,70,6|2,0:0|0:0,0:0:0:0:
251,76,29497,1,2,0:0:0:0:
251,76,29601,1,0,0:0:0:0:
251,76,29706,2,0,P|311:71|337:74,1,70,2|2,0:0|0:0,0:0:0:0:
339,103,30021,2,2,L|346:63,1,35,0|2,0:0|0:0,0:0:0:0:
392,13,30336,1,2,0:0:0:0:
464,23,30546,6,0,P|459:97|467:164,1,140,2|2,0:0|0:0,0:0:0:0:
512,237,31175,1,2,0:0:0:0:
506,278,31385,1,2,0:0:0:0:
471,330,31594,1,2,0:0:0:0:
409,345,31804,1,2,0:0:0:0:
326,331,32014,2,0,P|287:332|241:347,1,70,2|2,0:0|0:0,0:0:0:0:
170,384,32434,6,0,P|177:348|191:317,1,70,2|0,0:0|0:0,0:0:0:0:
256,269,32853,1,2,0:0:0:0:
256,269,32958,1,2,0:0:0:0:
256,269,33063,2,0,P|286:209|306:131,2,140,2|2|2,0:0|0:0|0:0,0:0:0:0:
330,128,34322,5,2,0:0:0:0:
339,169,34532,1,2,0:0:0:0:
369,223,34741,1,2,0:0:0:0:
369,307,34951,1,2,3:2:0:0:
298,375,35161,1,2,3:2:0:0:
205,342,35371,1,2,3:2:0:0:
121,344,35580,1,2,0:0:0:0:
20,333,35790,6,0,P|41:293|49:244,1,70,6|2,3:2|0:0,0:0:0:0:
32,196,36210,1,2,0:0:0:0:
30,175,36420,1,2,0:0:0:0:
38,133,36629,1,2,0:0:0:0:
74,81,36839,1,2,0:0:0:0:
92,43,37049,1,2,0:0:0:0:
33,15,37259,6,0,P|23:78|51:153,1,140,2|2,3:2|0:0,0:0:0:0:
147,174,37888,1,2,0:0:0:0:
210,232,38098,2,0,P|279:229|354:251,1,140,2|2,0:0|0:0,0:0:0:0:
415,259,38727,1,2,0:0:0:0:
483,242,38937,1,2,0:0:0:0:
512,162,39147,6,0,P|473:159|430:146,1,70,6|0,3:2|0:0,0:0:0:0:
408,89,39566,1,2,0:0:0:0:
337,67,39776,2,0,P|270:82|211:119,2,140,2|2|2,0:0|0:0|3:2,0:0:0:0:
223,139,41035,5,2,0:0:0:0:
184,156,41245,1,2,0:0:0:0:
120,154,41455,1,2,0:0:0:0:
49,109,41664,1,2,0:0:0:0:
36,47,41874,1,2,0:0:0:0:
88,11,42084,1,10,0:0:0:0:
88,11,42189,1,8,0:0:0:0:
88,11,42294,1,10,0:0:0:0:
58,132,42504,6,0,P|50:164|45:217,1,70,6|2,3:2|0:0,0:0:0:0:
55,219,42923,1,2,0:0:0:0:
72,257,43133,1,2,0:0:0:0:
82,319,43343,1,2,0:0:0:0:
29,384,43552,1,2,0:0:0:0:
58,328,43762,1,2,0:0:0:0:
141,277,43972,6,0,P|118:208|112:137,1,140,2|2,3:2|0:0,0:0:0:0:
118,119,44601,1,2,0:0:0:0:
129,78,44811,1,2,0:0:0:0:
109,18,45021,1,2,0:0:0:0:
48,0,45231,1,2,0:0:0:0:
0,41,45441,2,0,P|12:77|4:132,1,70,2|2,0:0|0:0,0:0:0:0:
12,190,45860,6,0,P|67:160|151:144,1,140,6|2,3:2|0:0,0:0:0:0:
227,160,46490,2,0,P|296:146|365:86,2,140,2|2|2,0:0|0:0|3:2,0:0:0:0:
348,77,47748,5,2,0:0:0:0:
408,58,47958,1,2,0:0:0:0:
489,79,48168,1,10,0:0:0:0:
489,79,48273,1,8,0:0:0:0:
489,79,48378,1,10,0:0:0:0:
462,158,48587,1,2,0:0:0:0:
495,234,48797,2,0,P|495:206|516:165,1,52.5000020027161,2|2,3:2|0:0,0:0:0:0:
509,257,49217,6,0,P|462:243|368:246,1,140,4|0,3:2|0:0,0:0:0:0:
315,287,49846,1,0,0:0:0:0:
265,336,50056,2,0,P|227:339|190:338,1,70,0|0,3:0|3:0,0:0:0:0:
134,302,50476,1,8,0:0:0:0:
64,291,50685,1,0,3:0:0:0:
7,217,50895,5,0,3:0:0:0:
7,217,51000,2,0,L|88:228,1,70,8|0,0:0|3:0,0:0:0:0:
76,226,51315,1,10,0:0:0:0:
153,260,51525,1,2,3:2:0:0:
215,250,51734,1,2,0:0:0:0:
252,231,51944,1,2,3:2:0:0:
304,150,52154,2,0,P|288:181|280:215,1,70,8|2,0:0|0:0,0:0:0:0:
330,280,52573,6,0,P|366:218|365:136,1,140,4|0,3:2|0:0,0:0:0:0:
333,59,53203,1,0,3:0:0:0:
428,7,53413,2,0,P|421:62|430:116,1,105,2|0,0:0|3:0,0:0:0:0:
428,110,53832,2,0,P|439:148|442:185,1,70,10|0,0:0|3:0,0:0:0:0:
481,258,54252,6,0,L|397:248,1,70,0|0,3:0|0:0,0:0:0:0:
411,249,54566,1,2,3:3:0:0:
411,249,54671,2,0,P|412:273|415:293,1,35,2|2,0:3|0:3,0:0:0:0:
431,307,54881,1,2,3:1:0:0:
382,360,55091,2,0,P|347:364|303:371,1,70,0|0,0:0|3:0,0:0:0:0:
231,384,55511,1,8,0:0:0:0:
32,297,55930,6,0,P|84:321|174:312,1,140,4|0,3:2|0:0,0:0:0:0:
228,257,56559,1,0,3:0:0:0:
204,178,56769,2,0,P|206:123|229:64,1,105,2|2,3:0|0:0,0:0:0:0:
222,76,57189,2,0,P|248:45|257:5,1,70,8|0,0:0|3:0,0:0:0:0:
142,91,57608,6,0,P|87:62|26:48,2,105,2|2|2,3:2|3:2|3:2,0:0:0:0:
160,166,58448,1,8,3:0:0:0:
160,166,58552,1,8,0:0:0:0:
160,166,58657,1,4,3:0:0:0:
209,224,58867,2,0,P|247:231|299:229,1,70,10|0,0:0|0:0,0:0:0:0:
360,193,59287,6,0,P|345:280|350:311,2,105,4|0|0,3:2|3:0|3:0,0:0:0:0:
414,149,60126,1,2,0:3:0:0:
441,84,60336,1,0,3:3:0:0:
388,18,60546,1,8,0:0:0:0:
388,18,60650,1,4,3:0:0:0:
388,18,60755,1,0,3:0:0:0:
324,86,60965,6,0,L|234:93,1,70,2|0,3:3|3:0,0:0:0:0:
234,105,61280,2,0,L|144:112,1,70,8|0,0:0|3:0,0:0:0:0:
145,124,61594,1,4,3:2:0:0:
75,134,61804,1,2,0:0:0:0:
12,101,62014,1,0,3:0:0:0:
29,18,62224,1,8,0:0:0:0:
29,18,62329,1,8,0:0:0:0:
29,18,62434,1,4,3:0:0:0:
95,149,62643,6,0,P|90:191|103:271,2,105,2|2|2,3:3|0:3|3:3,0:0:0:0:
190,35,63483,2,0,P|187:69|173:115,1,70,12|0,0:0|0:0,0:0:0:0:
74,135,63902,2,0,P|47:158|19:196,1,70,0|0,3:0|3:0,0:0:0:0:
91,348,64322,6,0,P|108:299|116:233,2,105,0|8|2,3:0|0:0|3:2,0:0:0:0:
183,384,65161,1,8,0:0:0:0:
283,366,65371,2,0,L|330:375,1,35,0|2,3:0|0:3,0:0:0:0:
331,383,65580,2,0,P|331:335|343:286,1,70,2|0,3:2|3:0,0:0:0:0:
374,226,66000,6,0,L|459:241,1,70,2|0,3:2|3:0,0:0:0:0:
442,238,66315,1,0,3:0:0:0:
442,238,66420,1,8,0:0:0:0:
504,168,66629,1,2,0:3:0:0:
504,168,66734,1,2,0:3:0:0:
504,168,66839,1,8,0:0:0:0:
460,112,67049,1,4,3:0:0:0:
446,43,67259,2,0,L|439:112,1,70,10|2,0:0|0:0,0:0:0:0:
384,176,67678,6,0,P|361:106|307:53,1,140,4|0,3:2|3:0,0:0:0:0:
224,90,68308,2,0,P|156:88|84:61,1,140,8|0,0:0|3:0,0:0:0:0:
0,109,68937,1,8,0:0:0:0:
0,109,69042,1,4,3:0:0:0:
0,109,69147,1,2,0:0:0:0:
0,109,69566,5,0,3:0:0:0:
42,174,69776,1,8,0:0:0:0:
33,251,69986,1,8,0:0:0:0:
69,349,70196,1,8,0:0:0:0:
102,337,70301,1,8,0:0:0:0:
131,318,70406,1,4,3:0:0:0:
228,194,70615,1,8,3:0:0:0:
257,175,70720,1,8,3:0:0:0:
290,163,70825,1,4,3:0:0:0:
475,202,71035,6,0,P|408:232|330:224,1,140,4|8,1:0|0:0,0:0:0:0:
205,178,71664,2,0,P|172:179|122:188,1,70,2|0,3:2|0:0,0:0:0:0:
153,342,72084,2,0,P|168:312|185:265,1,70,2|8,3:2|0:0,0:0:0:0:
182,172,72504,1,2,0:0:0:0:
158,66,72713,6,0,P|190:38|238:24,1,70,2|0,0:0|3:0,0:0:0:0:
315,27,73133,1,8,0:0:0:0:
392,71,73343,2,0,P|437:64|474:47,1,70,2|0,3:2|0:0,0:0:0:0:
304,1,73762,2,0,P|287:43|283:84,1,70,2|8,3:2|0:0,0:0:0:0:
363,140,74182,6,0,L|355:231,1,70,2|0,0:0|3:0,0:0:0:0:
288,306,74601,2,0,L|296:397,1,70,2|8,0:0|0:0,0:0:0:0:
306,294,75021,1,2,3:2:0:0:
272,218,75230,1,2,0:0:0:0:
194,187,75440,1,2,3:2:0:0:
110,200,75650,1,10,0:0:0:0:
51,345,75860,6,0,P|87:286|92:217,1,140,6|2,3:2|3:2,0:0:0:0:
0,89,76490,2,0,P|1:43|18:5,1,70,8|0,0:0|0:0,0:0:0:0:
78,75,76909,1,10,0:0:0:0:
78,75,77014,1,2,3:0:0:0:
78,75,77119,1,4,3:0:0:0:
165,85,77329,1,10,0:0:0:0:
278,0,77539,1,2,0:0:0:0:
303,19,77644,1,2,0:0:0:0:
331,32,77748,6,0,P|382:39|476:8,1,140,4|8,0:1|0:0,0:0:0:0:
503,126,78378,2,0,P|460:175|452:202,1,70,2|0,0:0|0:0,0:0:0:0:
462,263,78797,1,2,3:2:0:0:
390,307,79007,1,10,0:0:0:0:
306,379,79217,6,0,P|242:373|164:317,1,140,2|2,3:2|3:2,0:0:0:0:
146,252,79846,1,10,0:0:0:0:
0,257,80056,2,0,P|55:289|141:275,1,140,2|2,3:2|3:2,0:0:0:0:
272,222,80685,2,0,P|323:226|343:234,1,70,8|0,0:0|0:0,0:0:0:0:
512,196,81105,6,0,P|458:196|372:160,1,140,2|8,3:2|0:0,0:0:0:0:
296,63,81734,2,0,P|219:79|161:141,1,140,2|2,3:2|0:3,0:0:0:0:
137,195,82364,1,8,0:0:0:0:
45,106,82573,6,0,P|57:178|67:254,1,140,4|0,3:2|3:0,0:0:0:0:
144,384,83203,2,0,P|152:349|163:312,1,70,8|0,0:0|0:0,0:0:0:0:
273,192,83622,1,10,0:0:0:0:
267,235,83727,1,8,0:3:0:0:
247,273,83832,1,0,3:0:0:0:
169,88,84042,1,10,0:0:0:0:
175,45,84147,1,8,0:3:0:0:
195,8,84252,1,8,0:3:0:0:
214,147,84462,6,0,P|283:157|359:171,1,140,4|8,3:1|0:0,0:0:0:0:
507,97,85091,2,0,P|470:92|429:82,1,70,2|0,3:2|0:0,0:0:0:0:
331,3,85511,2,0,P|294:7|253:17,1,70,2|8,3:2|0:0,0:0:0:0:
179,71,85930,1,2,3:2:0:0:
79,18,86140,6,0,L|105:162,1,140,2|8,0:0|0:0,0:0:0:0:
54,257,86769,1,2,3:2:0:0:
110,354,86979,2,0,P|154:329|195:320,1,70,2|0,3:2|3:0,0:0:0:0:
281,356,87399,1,8,0:0:0:0:
341,231,87608,6,0,L|335:152,1,70,2|0,0:0|3:0,0:0:0:0:
229,70,88028,2,0,L|223:-9,1,70,2|8,0:0|0:0,0:0:0:0:
250,61,88448,1,2,3:2:0:0:
216,137,88657,1,2,0:0:0:0:
138,168,88867,1,2,3:2:0:0:
54,155,89077,1,10,0:2:0:0:
0,244,89287,6,0,P|74:264|128:302,1,140,6|2,3:2|3:2,0:0:0:0:
250,384,89916,2,0,P|243:342|248:294,1,70,8|2,0:0|3:2,0:0:0:0:
313,269,90336,1,10,0:0:0:0:
313,269,90441,1,8,3:0:0:0:
313,269,90546,1,0,3:0:0:0:
352,193,90755,1,6,0:0:0:0:
299,45,90965,1,8,0:0:0:0:
264,68,91070,1,8,0:0:0:0:
221,72,91175,6,0,P|160:94|95:160,1,140,6|10,0:1|0:0,0:0:0:0:
5,269,91804,2,0,P|32:205|34:135,1,140,2|2,3:2|3:2,0:0:0:0:
0,50,92434,1,8,0:0:0:0:
81,8,92643,6,0,L|226:20,1,140,6|2,0:0|0:3,0:0:0:0:
302,44,93273,1,8,0:0:0:0:
366,99,93483,1,2,3:2:0:0:
394,189,93692,2,0,P|406:121|482:77,1,140,2|8,3:2|0:0,0:0:0:0:
512,0,94322,6,0,P|458:38|368:26,1,140,2|2,0:0|0:3,0:0:0:0:
201,15,94951,2,0,P|235:4|270:1,1,70,8|0,0:0|3:0,0:0:0:0:
372,48,95371,1,8,0:0:0:0:
199,34,95580,1,8,3:0:0:0:
66,146,95790,1,4,3:0:0:0:
51,319,96000,1,4,1:0:0:0:
51,319,96420,5,0,3:0:0:0:
138,230,96629,2,0,L|119:321,1,70,8|0,0:0|0:0,0:0:0:0:
195,384,97049,1,8,0:0:0:0:
197,342,97154,1,4,3:0:0:0:
217,305,97259,1,0,3:0:0:0:
319,187,97469,1,8,0:0:0:0:
344,154,97574,1,8,0:0:0:0:
319,120,97679,1,8,0:0:0:0:
279,133,97784,1,8,0:0:0:0:
279,175,97888,6,0,P|302:239|286:328,1,140,4|8,0:1|0:0,0:0:0:0:
207,350,98518,1,2,3:2:0:0:
116,324,98727,1,8,0:0:0:0:
148,231,98937,2,0,L|140:300,1,70,4|0,3:0|0:0,0:0:0:0:
38,384,99357,6,0,L|54:244,1,140,4|0,0:0|3:0,0:0:0:0:
15,163,99986,1,8,0:0:0:0:
15,163,100196,1,4,3:0:0:0:
81,93,100406,2,0,L|158:111,1,70,8|8,0:0|3:0,0:0:0:0:
235,66,100825,1,4,3:0:0:0:
475,16,101245,6,0,L|386:25,1,70,4|0,0:0|0:0,0:0:0:0:
339,65,101664,1,0,3:0:0:0:
272,106,101874,2,0,L|109:89,1,140,12|8,0:0|3:0,0:0:0:0:
66,144,102504,1,0,3:0:0:0:
105,217,102713,1,4,1:0:0:0:
256,192,102923,12,0,104601,0:0:0:0:
10,291,105021,6,0,L|55:303,1,35,2|2,0:0|0:0,0:0:0:0:
92,343,105441,2,0,P|132:345|165:340,1,70,2|0,0:0|0:0,0:0:0:0:
233,311,106070,2,0,P|225:345|225:384,2,70,2|0|2,0:0|0:0|0:0,0:0:0:0:
293,290,107119,2,0,L|364:300,1,70,2|0,0:0|0:0,0:0:0:0:
424,281,107748,6,0,P|427:245|439:208,1,70,2|2,0:0|0:0,0:0:0:0:
494,180,108378,1,2,0:0:0:0:
494,180,109217,1,2,0:0:0:0:
436,212,109427,2,0,L|352:219,2,70,2|0|0,0:0|0:0|0:0,0:0:0:0:
440,216,111315,5,0,0:0:0:0:
440,216,111734,2,0,L|439:170,1,35,2|2,0:0|0:0,0:0:0:0:
458,108,112154,2,0,P|423:118|382:121,1,70,2|0,0:0|0:0,0:0:0:0:
335,79,112783,2,0,L|346:5,2,70,2|2|0,0:0|0:0|0:0,0:0:0:0:
272,55,113832,2,0,P|235:63|192:77,1,70,2|0,0:0|0:0,0:0:0:0:
138,86,114462,6,0,P|109:63|70:42,1,70,2|2,0:0|0:0,0:0:0:0:
14,134,115301,2,0,P|21:192|36:242,1,105,0|2,0:0|0:0,0:0:0:0:
93,267,116140,1,2,0:0:0:0:
201,238,116559,1,2,0:0:0:0:
309,209,116979,2,0,B|288:258|296:308|296:308|283:288|255:273,1,140,2|0,0:0|0:0,0:0:0:0:
246,355,118028,6,0,P|300:345|360:348,1,105.000004005432,4|2,0:1|0:0,0:0:0:0:
512,253,118867,2,0,P|458:263|398:260,1,105.000004005432,2|0,0:0|0:0,0:0:0:0:
347,203,119497,2,0,P|279:219|218:285,1,157.500006008148,2|0,3:2|0:0,0:0:0:0:
180,354,120336,1,2,0:0:0:0:
180,354,120546,2,0,P|178:310|154:243,1,105.000004005432,2|0,0:0|0:0,0:0:0:0:
96,197,121175,1,2,0:0:0:0:
0,153,121385,5,4,3:1:0:0:
0,153,121594,2,0,P|88:184|159:175,1,157.500006008148,2|0,0:0|0:0,0:0:0:0:
139,53,122643,1,2,0:0:0:0:
175,117,122853,2,0,P|227:132|286:146,1,105.000004005432,2|0,0:0|0:0,0:0:0:0:
462,100,123692,2,0,P|410:85|351:71,1,105.000004005432,2|0,0:0|0:0,0:0:0:0:
295,78,124322,1,0,3:0:0:0:
295,78,124427,1,0,3:0:0:0:
295,78,124532,1,8,0:0:0:0:
226,3,124741,6,0,P|221:57|210:112,1,105.000004005432,4|2,3:1|0:0,0:0:0:0:
99,268,125580,2,0,P|103:213|115:159,1,105.000004005432,2|2,0:0|0:0,0:0:0:0:
173,206,126210,2,0,P|225:211|281:218,2,105.000004005432,2|2|2,3:2|0:0|0:0,0:0:0:0:
113,164,127259,2,0,P|102:143|94:109,1,52.5000020027161,2|0,0:0|0:0,0:0:0:0:
98,41,127678,1,2,0:0:0:0:
98,41,127888,1,4,0:0:0:0:
161,86,128098,6,0,P|225:91|323:118,1,157.500006008148,4|0,0:1|0:0,0:0:0:0:
435,254,129147,2,0,P|405:248|379:238,1,52.5000020027161,2|2,2:0|2:0,0:0:0:0:
301,201,129566,2,0,P|319:246|325:317,1,105.000004005432,0|0,3:0|0:0,0:0:0:0:
207,349,130406,1,8,3:0:0:0:
207,349,130511,1,8,3:0:0:0:
207,349,130615,1,8,0:0:0:0:
155,296,130825,1,8,3:0:0:0:
85,272,131035,1,4,3:0:0:0:
12,285,131245,1,2,3:2:0:0:
3,356,131455,6,0,P|21:297|13:202,1,140,4|0,3:2|0:0,0:0:0:0:
0,139,132084,1,0,0:0:0:0:
50,73,132294,2,0,L|126:85,1,70,0|0,3:0|3:0,0:0:0:0:
198,108,132713,1,8,0:0:0:0:
281,99,132923,1,0,3:0:0:0:
303,24,133133,5,0,3:0:0:0:
303,24,133238,2,0,L|384:39,1,70,8|0,0:0|3:0,0:0:0:0:
371,36,133552,1,10,0:0:0:0:
419,92,133762,1,2,3:2:0:0:
395,150,133971,1,2,0:0:0:0:
368,181,134181,1,2,3:2:0:0:
277,214,134391,2,0,P|310:205|345:205,1,70,8|0,0:0|0:0,0:0:0:0:
443,255,134811,6,0,P|385:280|301:283,1,140,4|0,3:2|0:0,0:0:0:0:
208,242,135441,1,0,3:0:0:0:
59,242,135650,2,0,P|112:220|159:180,1,105,0|0,0:0|3:0,0:0:0:0:
149,190,136070,2,0,L|132:112,1,70,10|0,0:0|3:0,0:0:0:0:
4,24,136490,6,0,L|88:14,1,70,0|0,3:0|0:0,0:0:0:0:
74,15,136804,1,2,3:3:0:0:
74,15,136909,2,0,P|73:39|70:59,1,35,2|2,0:3|0:3,0:0:0:0:
54,73,137119,1,2,3:1:0:0:
0,160,137329,2,0,P|43:158|78:149,1,70,0|0,0:0|3:0,0:0:0:0:
134,121,137748,1,8,0:0:0:0:
353,25,138168,6,0,P|288:40|199:56,1,140,4|0,0:0|0:0,0:0:0:0:
160,118,138797,1,0,3:0:0:0:
213,190,139007,2,0,P|213:252|200:298,1,105,0|0,3:0|0:0,0:0:0:0:
202,293,139427,2,0,P|188:329|188:364,1,70,8|0,0:0|3:0,0:0:0:0:
289,274,139846,6,0,P|341:288|423:280,2,105,2|2|2,3:2|3:2|3:2,0:0:0:0:
270,205,140685,1,8,0:0:0:0:
270,205,140790,1,8,0:0:0:0:
270,205,140895,1,0,3:0:0:0:
312,145,141105,2,0,P|349:148|388:159,1,70,10|2,0:0|0:3,0:0:0:0:
480,117,141525,6,0,P|435:102|384:61,2,105,4|0|0,0:0|3:0|3:0,0:0:0:0:
512,196,142364,1,0,3:0:0:0:
470,267,142573,1,2,0:3:0:0:
510,373,142783,1,8,0:0:0:0:
510,373,142888,1,4,3:0:0:0:
510,373,142993,1,0,3:0:0:0:
426,348,143203,6,0,L|336:341,1,70,2|0,0:3|3:0,0:0:0:0:
336,329,143518,2,0,L|246:322,1,70,8|4,0:0|0:0,0:0:0:0:
247,310,143832,1,4,3:2:0:0:
181,282,144041,1,0,3:0:0:0:
112,297,144252,1,0,3:0:0:0:
107,382,144462,1,8,0:0:0:0:
107,382,144566,1,8,0:0:0:0:
107,382,144671,1,4,3:0:0:0:
169,254,144881,6,0,P|175:212|208:138,2,105,2|2|2,3:3|0:3|3:3,0:0:0:0:
270,384,145720,2,0,P|258:351|232:311,1,70,12|0,0:0|0:0,0:0:0:0:
100,271,146140,2,0,P|73:248|45:210,1,70,0|0,3:0|3:0,0:0:0:0:
93,69,146559,6,0,P|110:118|118:184,2,105,8|8|2,0:0|0:0|3:2,0:0:0:0:
141,0,147399,1,8,0:0:0:0:
215,41,147609,2,0,L|262:32,1,35,8|0,3:0|3:0,0:0:0:0:
263,24,147818,2,0,P|263:72|275:121,1,70,2|0,3:2|3:0,0:0:0:0:
329,150,148238,6,0,L|414:135,1,70,0|0,3:0|3:0,0:0:0:0:
397,138,148553,1,0,3:0:0:0:
397,138,148658,1,12,0:0:0:0:
473,206,148867,1,2,0:3:0:0:
473,206,148972,1,2,0:3:0:0:
473,206,149077,1,8,0:0:0:0:
475,290,149287,1,8,3:0:0:0:
443,375,149497,2,0,L|436:306,1,70,10|2,0:0|3:2,0:0:0:0:
387,209,149916,6,0,P|364:279|310:332,1,140,4|8,0:0|3:0,0:0:0:0:
227,295,150546,2,0,P|159:297|87:324,1,140,8|0,0:0|3:0,0:0:0:0:
3,276,151175,1,8,0:0:0:0:
3,276,151280,1,8,0:0:0:0:
3,276,151385,1,2,0:0:0:0:
3,276,151804,5,0,3:0:0:0:
45,211,152014,1,0,3:0:0:0:
36,134,152224,1,12,0:0:0:0:
72,36,152434,2,0,L|169:48,1,70,2|0,0:0|3:0,0:0:0:0:
315,84,152853,2,0,L|412:72,1,70,6|0,0:0|0:0,0:0:0:0:
512,209,153273,6,0,P|446:178|370:174,1,140,4|8,0:1|0:0,0:0:0:0:
221,211,153902,2,0,P|198:239|174:289,1,70,2|0,3:2|0:0,0:0:0:0:
375,306,154322,2,0,P|348:278|296:253,1,70,2|8,3:2|0:0,0:0:0:0:
201,216,154741,1,2,3:2:0:0:
80,172,154951,6,0,P|86:91|134:22,1,140,2|8,0:0|0:0,0:0:0:0:
213,6,155580,1,2,0:0:0:0:
315,53,155790,2,0,P|355:56|401:45,1,70,2|0,0:0|3:0,0:0:0:0:
306,31,156210,1,8,0:0:0:0:
222,127,156420,6,0,L|215:215,1,70,2|0,0:0|3:0,0:0:0:0:
293,307,156839,2,0,L|300:395,1,70,2|8,0:0|0:0,0:0:0:0:
279,294,157259,1,2,3:2:0:0:
313,218,157468,1,2,0:0:0:0:
391,187,157678,1,2,3:2:0:0:
475,200,157888,1,10,0:0:0:0:
501,101,158098,6,0,P|423:88|372:33,1,140,6|0,0:0|3:0,0:0:0:0:
218,15,158727,2,0,P|257:28|295:60,1,70,8|0,0:0|0:0,0:0:0:0:
261,125,159147,1,8,0:0:0:0:
261,125,159252,1,8,3:0:0:0:
261,125,159357,1,0,3:0:0:0:
301,213,159566,1,8,0:0:0:0:
234,339,159776,1,2,0:3:0:0:
192,342,159881,1,2,0:3:0:0:
153,359,159986,6,0,P|106:338|58:260,1,140,4|8,3:2|0:0,0:0:0:0:
39,122,160615,2,0,P|46:88|64:52,1,70,2|0,3:2|0:0,0:0:0:0:
201,101,161035,2,0,L|279:107,1,70,2|8,3:2|0:0,0:0:0:0:
385,0,161455,6,0,P|325:35|298:98,1,140,2|0,3:2|3:0,0:0:0:0:
370,194,162084,1,8,0:0:0:0:
332,289,162294,2,0,P|341:255|343:220,1,70,2|0,0:0|0:0,0:0:0:0:
375,384,162713,2,0,P|303:316|234:297,1,140,2|2,3:2|0:3,0:0:0:0:
194,371,163343,6,0,L|46:383,1,140,2|8,3:2|0:0,0:0:0:0:
0,289,163972,2,0,P|-6:240|15:203,1,70,2|0,3:2|0:0,0:0:0:0:
68,169,164392,1,0,3:0:0:0:
152,174,164601,1,8,0:0:0:0:
155,15,164811,6,0,L|132:153,1,140,4|0,0:1|3:0,0:0:0:0:
193,282,165441,2,0,P|206:226|221:205,1,70,12|0,0:0|0:0,0:0:0:0:
340,128,165860,1,8,0:0:0:0:
339,86,165965,1,8,0:0:0:0:
317,49,166070,1,8,3:0:0:0:
199,222,166280,1,8,3:0:0:0:
200,264,166385,1,8,3:0:0:0:
222,301,166490,1,4,3:0:0:0:
378,370,166699,6,0,P|431:315|431:237,1,140,4|8,3:1|0:0,0:0:0:0:
382,119,167329,2,0,P|359:91|317:68,1,70,2|0,3:2|0:0,0:0:0:0:
214,219,167748,2,0,P|252:212|284:198,1,70,2|8,3:2|0:0,0:0:0:0:
402,130,168168,1,0,0:0:0:0:
507,219,168378,6,0,P|442:223|365:291,1,140,2|8,0:0|0:0,0:0:0:0:
311,352,169007,1,0,3:0:0:0:
198,343,169217,2,0,P|156:357|127:392,1,70,2|0,0:0|3:0,0:0:0:0:
218,358,169636,1,8,0:0:0:0:
297,249,169846,6,0,L|304:161,1,70,2|0,0:0|3:0,0:0:0:0:
226,69,170266,2,0,L|219:-19,1,70,2|8,0:0|0:0,0:0:0:0:
246,82,170685,1,2,3:2:0:0:
212,158,170894,1,2,0:0:0:0:
134,189,171104,1,2,3:2:0:0:
50,176,171314,1,10,0:0:0:0:
0,264,171525,6,0,P|73:282|134:334,1,140,6|0,0:0|3:0,0:0:0:0:
209,384,172154,2,0,P|209:348|218:299,1,70,8|0,0:0|3:0,0:0:0:0:
274,266,172573,1,4,3:0:0:0:
274,266,172678,1,8,0:0:0:0:
274,266,172783,1,8,0:0:0:0:
312,177,172993,1,8,0:0:0:0:
260,30,173203,1,2,0:3:0:0:
226,55,173308,1,2,0:3:0:0:
184,62,173413,6,0,P|113:98|75:156,1,140,4|8,0:0|0:0,0:0:0:0:
13,223,174042,2,0,P|36:150|32:74,1,140,2|0,3:0|3:0,0:0:0:0:
0,7,174671,1,8,0:0:0:0:
86,20,174881,6,0,P|159:43|235:39,1,140,4|0,0:0|3:0,0:0:0:0:
318,18,175511,1,8,0:0:0:0:
395,78,175720,1,0,3:0:0:0:
400,202,175930,2,0,P|431:142|490:97,1,140,2|8,3:2|0:0,0:0:0:0:
506,11,176559,6,0,P|458:66|377:73,1,140,2|0,0:0|3:0,0:0:0:0:
223,22,177189,2,0,P|258:21|293:27,1,70,8|0,0:0|3:0,0:0:0:0:
381,91,177608,1,8,0:0:0:0:
212,37,177818,1,2,3:2:0:0:
54,118,178028,1,2,3:2:0:0:
0,287,178238,1,4,0:0:0:0:
0,287,178657,5,0,3:0:0:0:
89,190,178867,2,0,P|80:228|62:266,1,70,8|0,0:0|3:0,0:0:0:0:
117,373,179287,1,8,0:0:0:0:
131,333,179392,1,8,0:0:0:0:
161,304,179497,1,4,3:0:0:0:
311,240,179706,1,8,0:0:0:0:
336,207,179811,1,8,0:0:0:0:
311,173,179916,1,8,0:0:0:0:
271,186,180021,1,8,0:0:0:0:
271,228,180126,5,2,0:0:0:0:
258,268,180336,1,2,0:0:0:0:
223,314,180546,1,2,0:0:0:0:
151,330,180755,1,2,0:0:0:0:
219,304,180965,1,2,0:0:0:0:
276,311,181175,1,2,0:0:0:0:
315,326,181385,5,2,0:0:0:0:
356,328,181594,1,2,0:0:0:0:
412,315,181804,1,2,0:0:0:0:
475,277,182014,1,2,0:0:0:0:
406,303,182224,1,2,0:0:0:0:
356,328,182434,1,2,0:0:0:0:
324,356,182643,5,2,0:0:0:0:
283,367,182853,1,2,0:0:0:0:
224,358,183063,1,2,0:0:0:0:
151,360,183273,1,2,0:0:0:0:
223,345,183483,2,0,L|225:362,1,13.125000500679,2|0,0:0|0:0,0:0:0:0:
267,309,183692,1,2,0:0:0:0:
286,271,183902,5,2,0:0:0:0:
294,229,184112,1,2,0:0:0:0:
321,178,184322,1,2,0:0:0:0:
381,135,184532,1,2,0:0:0:0:
330,188,184741,1,2,0:0:0:0:
273,200,184951,1,2,0:0:0:0:
230,198,185161,5,2,0:0:0:0:
189,186,185371,1,2,0:0:0:0:
134,173,185580,1,2,0:0:0:0:
60,183,185790,1,2,0:0:0:0:
133,187,186000,2,0,L|135:170,1,13.125000500679,2|0,0:0|0:0,0:0:0:0:
188,169,186210,1,2,0:0:0:0:
224,148,186420,6,0,L|222:131,1,13.125000500679,2|0,0:0|0:0,0:0:0:0:
265,143,186629,1,2,0:0:0:0:
322,151,186839,2,0,L|324:134,1,13.125000500679,2|0,0:0|0:0,0:0:0:0:
392,173,187049,1,2,0:0:0:0:
323,137,187259,1,2,0:0:0:0:
279,106,187469,1,2,0:0:0:0:
255,71,187678,5,2,0:0:0:0:
229,37,187888,1,2,0:0:0:0:
181,4,188098,1,2,0:0:0:0:
108,0,188308,1,2,0:0:0:0:
179,18,188518,1,2,0:0:0:0:
219,58,188727,1,2,0:0:0:0:
245,90,188937,5,2,0:0:0:0:
280,112,189147,1,2,0:0:0:0:
334,130,189357,1,2,0:0:0:0:
407,131,189566,1,2,0:0:0:0:
335,114,189776,1,2,0:0:0:0:
276,159,189986,1,2,0:0:0:0:
276,232,190196,6,0,B|259:291|281:335|281:335|229:332|188:373|188:373|151:322|100:320|100:320|130:274|114:218|114:218,2,420.000016021729,0|0|2,0:0|0:0|0:2,0:0:0:0:
276,232,193972,1,2,0:0:0:0:
414,254,194182,5,2,1:2:0:0:
457,199,194601,1,2,0:0:0:0:
461,129,195021,1,2,0:0:0:0:
433,64,195441,1,2,0:0:0:0:
460,0,195860,1,2,0:0:0:0:
443,68,196280,5,2,0:0:0:0:
382,103,196490,1,2,3:2:0:0:
312,109,196699,1,2,3:2:0:0:
245,86,196909,5,6,0:0:0:0:
245,86,197329,1,2,0:0:0:0:
116,30,197539,5,2,1:2:0:0:
141,94,197958,1,2,0:0:0:0:
120,161,198378,1,2,3:2:0:0:
90,224,198797,1,2,0:2:0:0:
83,293,199217,1,2,0:0:0:0:
107,227,199636,5,2,0:0:0:0:
71,167,199846,1,2,0:3:0:0:
71,167,199951,1,2,0:3:0:0:
71,167,200056,1,2,0:3:0:0:
117,113,200266,6,0,P|139:66|139:39,1,70,4|2,3:2|0:3,0:0:0:0:
130,37,200580,2,0,P|161:49|196:49,1,70,8|2,0:0|0:3,0:0:0:0:
210,39,200895,1,2,3:0:0:0:
316,9,201105,6,0,P|323:60|337:83,1,70,2|2,0:0|0:3,0:0:0:0:
348,86,201419,2,0,P|315:92|286:111,1,70,2|2,0:0|0:3,0:0:0:0:
289,126,201734,1,8,0:0:0:0:
256,192,201944,5,2,0:0:0:0:
256,192,202573,1,2,0:0:0:0:
305,333,202993,1,2,0:3:0:0:
305,333,203098,1,2,0:3:0:0:
305,333,203203,1,8,0:0:0:0:
237,294,203413,1,0,3:0:0:0:
174,340,203622,6,0,P|113:331|57:304,1,105.000004005432,4|2,3:2|0:3,0:0:0:0:
50,250,204252,1,8,0:0:0:0:
105,65,204671,1,0,3:0:0:0:
74,121,204881,1,2,0:3:0:0:
94,197,205091,5,12,0:0:0:0:
94,197,205511,1,0,3:3:0:0:
194,26,205930,1,8,0:0:0:0:
194,26,206035,1,8,0:0:0:0:
194,26,206140,1,8,0:0:0:0:
229,88,206350,1,8,3:0:0:0:
213,158,206559,1,4,3:0:0:0:
254,218,206769,1,0,3:0:0:0:
220,281,206979,6,0,L|152:288,1,52.5000020027161,4|0,0:0|0:0,0:0:0:0:
155,296,207294,2,0,L|87:289,1,52.5000020027161,2|0,0:0|0:0,0:0:0:0:
88,281,207608,1,2,0:0:0:0:
44,348,207818,1,2,0:3:0:0:
117,383,208028,1,0,3:0:0:0:
195,369,208238,2,0,L|266:374,1,52.5000020027161,8|0,0:0|3:0,0:0:0:0:
247,372,208552,1,2,0:0:0:0:
247,372,208657,5,2,3:3:0:0:
312,321,208867,2,0,L|307:294,2,26.2500010013581,2|2|2,0:0|3:2|0:3,0:0:0:0:
394,357,209287,2,0,L|453:365,1,52.5000020027161,2|2,3:2|2:3,0:0:0:0:
465,373,209601,2,0,L|501:325,1,52.5000020027161,0|0,0:0|0:0,0:0:0:0:
491,313,209916,1,8,0:0:0:0:
454,244,210126,1,2,0:0:0:0:
507,162,210336,6,0,L|442:172,1,52.5000020027161,4|0,3:2|0:0,0:0:0:0:
439,162,210650,2,0,L|374:152,1,52.5000020027161,2|0,3:2|0:0,0:0:0:0:
370,162,210965,1,0,3:0:0:0:
360,92,211175,1,2,0:3:0:0:
288,88,211385,1,0,3:0:0:0:
223,118,211594,2,0,L|159:122,1,52.5000020027161,8|0,0:0|3:0,0:0:0:0:
170,121,211909,1,2,0:0:0:0:
170,121,212014,5,2,0:3:0:0:
103,59,212224,2,0,L|99:85,1,26.2500010013581,2|0,0:3|3:0,0:0:0:0:
80,105,212434,1,2,0:3:0:0:
80,105,212539,1,2,0:3:0:0:
80,105,212643,1,4,0:0:0:0:
35,163,212853,1,2,0:3:0:0:
82,233,213063,1,0,3:0:0:0:
20,285,213273,2,0,P|34:263|56:242,1,52.5000020027161,8|2,0:0|0:3,0:0:0:0:
221,200,213692,6,0,P|245:140|282:105,2,105,4|4|4,3:2|3:2|3:2,0:0:0:0:
159,253,214532,1,2,0:0:0:0:
56,223,214846,1,2,3:2:0:0:
29,114,215161,1,6,0:0:0:0:
148,158,215371,6,0,P|124:98|87:63,2,105,2|2|2,0:0|0:0|0:0,0:0:0:0:
232,110,216210,1,2,0:0:0:0:
350,124,216525,1,2,0:3:0:0:
426,26,216839,1,2,0:0:0:0:
472,165,217049,6,0,P|455:134|343:108,1,140,6|0,3:2|0:0,0:0:0:0:
274,79,217678,2,0,P|340:68|401:13,2,140,4|8|4,3:0|3:0|3:1,0:0:0:0:
256,192,218622,12,0,221664,0:0:0:0:
170,283,222084,6,0,P|173:224|168:161,1,105.000004005432,2|0,0:0|0:0,0:0:0:0:
170,178,223133,2,0,P|201:181|247:175,1,70,0|0,0:0|0:0,0:0:0:0:
308,158,223762,2,0,L|304:236,1,70,2|0,0:0|0:0,0:0:0:0:
359,274,224392,2,0,P|399:261|441:254,2,70,0|0|2,0:0|0:0|0:0,0:0:0:0:
359,274,225650,6,0,P|322:269|282:266,1,70,2|0,0:0|0:0,0:0:0:0:
232,299,226280,2,0,P|210:295|193:290,2,35,0|0|0,0:0|0:0|0:0,0:0:0:0:
294,338,226909,2,0,P|328:341|379:349,1,70,0|0,0:0|0:0,0:0:0:0:
492,166,227958,2,0,P|457:168|416:171,1,70,2|2,0:0|0:0,0:0:0:0:
267,113,228797,6,0,P|232:129|196:149,1,70,2|0,0:0|0:0,0:0:0:0:
142,179,229427,2,0,P|139:140|128:105,1,70,2|0,0:0|0:0,0:0:0:0:
80,65,230056,1,2,0:0:0:0:
14,62,230266,2,0,P|10:113|12:146,1,70,2|0,0:0|0:0,0:0:0:0:
48,188,230895,1,2,0:0:0:0:
97,243,231105,2,0,P|102:287|105:324,1,70,2|2,0:0|0:0,0:0:0:0:
279,373,232154,6,0,P|254:346|241:306,1,70,2|0,0:0|0:0,0:0:0:0:
301,262,232783,2,0,B|326:219|310:186|306:180|302:175|280:140|295:88,1,175,2|0,0:0|0:0,0:0:0:0:
293,92,234671,2,0,P|269:124|229:139,1,70,2|2,0:0|0:0,0:0:0:0:
74,124,235511,6,0,P|44:80|48:11,1,105.000004005432,2|0,0:3|0:0,0:0:0:0:
104,0,236140,2,0,P|150:17|212:13,1,105.000004005432,2|0,0:3|0:0,0:0:0:0:
372,58,236979,1,2,0:3:0:0:
372,58,237189,2,0,P|432:48|526:104,1,157.500006008148,2|0,0:0|0:0,0:0:0:0:
503,162,238028,2,0,P|449:168|379:178,1,105.000004005432,2|0,0:0|0:0,0:0:0:0:
339,214,238657,6,0,P|282:204|228:187,2,105.000004005432,2|0|2,0:0|0:0|0:0,0:0:0:0:
409,249,239706,2,0,P|419:275|411:310,1,52.5000020027161,0|0,0:0|0:0,0:0:0:0:
362,338,240126,1,2,0:3:0:0:
295,327,240336,2,0,L|172:336,1,105.000004005432,2|0,0:0|0:0,0:0:0:0:
190,334,241175,1,2,0:0:0:0:
136,291,241385,2,0,L|152:186,1,105.000004005432,2|0,0:0|0:0,0:0:0:0:
116,126,242014,1,2,0:3:0:0:
70,48,242224,6,0,P|118:80|176:83,1,105.000004005432,6|0,3:2|0:0,0:0:0:0:
260,39,242853,2,0,L|374:29,1,105.000004005432,2|2,0:0|0:0,0:0:0:0:
453,68,243483,1,2,0:0:0:0:
510,145,243692,6,0,P|492:193|392:210,1,157.500006008148,2|0,0:0|0:0,0:0:0:0:
324,156,244532,1,2,0:0:0:0:
256,216,244741,2,0,L|267:290,2,52.5000020027161,2|2|10,0:0|0:0|0:0,0:0:0:0:
256,216,245371,1,2,0:3:0:0:
173,168,245580,6,0,L|164:281,1,105.000004005432,4|0,0:0|0:0,0:0:0:0:
83,358,246210,2,0,P|88:326|85:293,1,52.5000020027161,2|0,3:2|0:0,0:0:0:0:
29,235,246629,2,0,P|24:203|27:170,1,52.5000020027161,0|0,3:0|0:0,0:0:0:0:
94,120,247049,6,0,P|112:78|66:30,1,105.000004005432,4|8,0:0|0:0,0:0:0:0:
24,102,247678,1,8,0:0:0:0:
111,137,247888,1,8,0:0:0:0:
203,43,248098,6,0,P|237:50|299:76,1,70,2|0,0:0|3:0,0:0:0:0:
445,122,248518,2,0,P|497:99|508:44,1,105,8|0,0:1|0:0,0:0:0:0:
494,44,248937,6,0,P|479:117|486:206,1,154.000004699707,4|8,1:0|0:0,0:0:0:0:
512,355,249566,2,0,P|489:308|460:275,1,77.0000023498536,2|0,3:2|0:0,0:0:0:0:
327,211,249986,2,0,P|274:207|231:216,1,77.0000023498536,2|8,3:2|0:0,0:0:0:0:
107,242,250406,1,0,3:0:0:0:
0,111,250615,6,0,P|41:148|157:169,1,154.000004699707,2|8,0:0|0:0,0:0:0:0:
264,154,251245,1,0,3:0:0:0:
371,86,251455,2,0,P|400:43|409:1,1,77.0000023498536,2|0,0:0|0:0,0:0:0:0:
353,69,251874,1,8,0:0:0:0:
261,123,252084,6,0,L|266:204,1,77.0000023498536,2|0,0:0|3:0,0:0:0:0:
364,308,252504,2,0,L|359:389,1,77.0000023498536,2|8,0:0|0:0,0:0:0:0:
383,298,252923,1,0,3:0:0:0:
345,214,253132,1,2,0:0:0:0:
259,180,253342,1,2,3:2:0:0:
167,194,253552,1,10,0:0:0:0:
3,93,253762,6,0,P|87:132|155:109,1,154.000004699707,6|0,0:0|0:0,0:0:0:0:
298,5,254392,2,0,P|264:23|240:53,1,77.0000023498536,8|0,0:0|3:0,0:0:0:0:
285,132,254811,1,8,0:0:0:0:
285,132,254916,1,2,0:3:0:0:
285,132,255021,1,0,3:0:0:0:
345,231,255231,1,8,0:0:0:0:
275,364,255441,1,2,0:3:0:0:
233,367,255546,1,2,0:3:0:0:
194,384,255650,6,0,P|147:363|102:271,1,154.000004699707,2|8,3:2|0:0,0:0:0:0:
104,107,256280,2,0,P|119:70|161:32,1,77.0000023498536,2|0,3:2|0:0,0:0:0:0:
284,142,256699,2,0,L|380:156,1,77.0000023498536,2|8,3:2|0:0,0:0:0:0:
482,34,257119,6,0,P|439:41|374:136,1,154.000004699707,2|0,3:2|3:0,0:0:0:0:
434,231,257748,1,8,0:0:0:0:
411,319,257958,2,0,P|398:279|400:231,1,77.0000023498536,2|0,3:2|0:0,0:0:0:0:
487,375,258378,2,0,P|418:344|320:367,1,154.000004699707,2|0,0:0|0:0,0:0:0:0:
252,383,259007,6,0,L|83:365,1,154.000004699707,2|8,3:2|0:0,0:0:0:0:
0,289,259636,2,0,P|54:303|123:233,1,154.000004699707,0|2,3:0|0:3,0:0:0:0:
83,146,260266,1,8,0:0:0:0:
162,23,260476,6,0,P|157:107|235:158,1,154.000004699707,4|0,1:0|3:0,0:0:0:0:
268,338,261105,2,0,P|252:299|221:264,1,77.0000023498536,8|0,1:2|0:0,0:0:0:0:
128,367,261525,1,8,0:0:0:0:
93,381,261630,1,8,0:0:0:0:
55,384,261734,1,8,0:0:0:0:
249,247,261944,1,8,0:0:0:0:
284,233,262049,1,8,0:0:0:0:
322,230,262153,1,8,0:0:0:0:
497,352,262364,6,0,P|422:341|367:288,1,154.000004699707,4|8,0:1|0:0,0:0:0:0:
292,157,262993,2,0,P|286:109|303:68,1,77.0000023498536,2|0,3:2|0:0,0:0:0:0:
494,131,263413,2,0,P|455:160|411:165,1,77.0000023498536,2|8,3:2|0:0,0:0:0:0:
289,174,263832,1,2,0:0:0:0:
168,104,264042,6,0,P|95:112|19:177,1,154.000004699707,2|8,3:2|0:0,0:0:0:0:
53,280,264671,1,2,0:0:0:0:
162,340,264881,2,0,P|221:363|250:384,1,77.0000023498536,2|0,3:2|3:0,0:0:0:0:
148,360,265301,1,8,0:0:0:0:
248,275,265511,6,0,L|253:194,1,77.0000023498536,2|0,0:0|3:0,0:0:0:0:
351,90,265931,2,0,L|346:9,1,77.0000023498536,2|8,0:0|0:0,0:0:0:0:
372,105,266350,1,2,0:0:0:0:
334,189,266559,1,2,0:0:0:0:
248,223,266769,1,2,3:2:0:0:
156,209,266979,1,10,0:0:0:0:
23,290,267189,6,0,P|94:282|172:330,1,154.000004699707,4|0,0:0|3:0,0:0:0:0:
331,384,267818,2,0,P|290:366|260:329,1,77.0000023498536,8|0,0:0|0:0,0:0:0:0:
319,284,268238,1,2,3:0:0:0:
319,284,268343,1,8,0:0:0:0:
319,284,268448,1,8,0:0:0:0:
365,184,268657,1,8,0:0:0:0:
311,22,268867,1,2,0:3:0:0:
277,47,268972,1,2,0:3:0:0:
235,54,269077,6,0,P|156:93|127:165,1,154.000004699707,4|8,0:0|0:0,0:0:0:0:
62,239,269706,2,0,P|89:155|59:84,1,154.000004699707,2|2,3:2|0:0,0:0:0:0:
0,22,270336,1,10,0:0:0:0:
100,0,270546,6,0,L|259:24,1,154.000004699707,4|0,0:0|3:0,0:0:0:0:
370,1,271175,1,8,0:0:0:0:
409,113,271385,1,0,3:0:0:0:
403,218,271594,2,0,P|436:150|506:125,1,154.000004699707,2|8,3:2|0:0,0:0:0:0:
512,20,272224,6,0,P|478:87|408:112,1,154.000004699707,6|0,0:0|0:0,0:0:0:0:
300,59,272853,2,0,P|264:43|227:36,1,77.0000023498536,8|0,0:0|0:0,0:0:0:0:
397,124,273273,1,8,0:0:0:0:
224,52,273483,1,2,3:2:0:0:
56,135,273692,1,2,3:2:0:0:
8,316,273902,1,6,0:0:0:0:
8,316,274322,5,0,3:0:0:0:
97,209,274532,2,0,P|89:251|65:297,1,77.0000023498536,8|0,0:0|0:0,0:0:0:0:
157,384,274951,1,8,0:0:0:0:
158,342,275056,1,8,0:0:0:0:
180,305,275161,1,2,0:3:0:0:
323,185,275371,1,8,0:0:0:0:
348,152,275476,1,8,0:0:0:0:
323,118,275581,1,8,0:0:0:0:
283,131,275686,1,2,0:3:0:0:
283,173,275790,6,0,P|281:240|234:318,1,140,4|8,0:0|0:0,0:0:0:0:
123,307,276420,2,0,P|101:267|100:218,1,70,2|0,3:2|0:0,0:0:0:0:
142,147,276839,1,0,3:0:0:0:
90,58,277049,1,8,0:0:0:0:
0,149,277259,6,0,P|59:167|119:242,1,140,2|0,3:2|3:0,0:0:0:0:
175,342,277888,2,0,P|208:364|258:372,1,70,8|0,0:0|3:0,0:0:0:0:
315,333,278308,1,2,0:0:0:0:
401,319,278518,1,2,0:3:0:0:
451,238,278727,2,0,P|435:269|428:303,1,70,8|2,0:0|0:3,0:0:0:0:
317,260,279147,6,0,L|312:175,1,70,2|0,3:2|3:0,0:0:0:0:
312,190,279462,1,0,3:0:0:0:
312,190,279566,1,8,0:0:0:0:
349,71,279776,2,0,P|377:135|440:183,1,140,2|2,0:0|3:2,0:0:0:0:
512,120,280406,1,8,0:0:0:0:
470,37,280615,6,0,L|313:50,1,140,4|0,0:0|3:0,0:0:0:0:
237,82,281245,1,8,0:0:0:0:
142,62,281455,1,0,3:0:0:0:
79,0,281664,1,8,0:0:0:0:
79,0,281769,1,2,3:0:0:0:
79,0,281874,1,0,3:0:0:0:
8,103,282084,2,0,L|19:199,1,70,8|0,0:0|3:0,0:0:0:0:
15,172,282399,1,0,3:0:0:0:
15,172,282504,6,0,P|78:214|107:282,1,140,4|8,3:2|0:0,0:0:0:0:
163,373,283133,2,0,P|164:324|177:288,1,70,2|0,3:2|0:0,0:0:0:0:
261,267,283552,1,0,3:0:0:0:
326,194,283762,1,8,0:0:0:0:
279,94,283972,6,0,P|311:140|412:161,1,140,2|2,3:2|3:2,0:0:0:0:
477,112,284601,2,0,P|498:84|512:52,1,70,8|0,0:0|3:0,0:0:0:0:
401,181,285021,1,2,0:0:0:0:
439,260,285231,1,2,3:3:0:0:
390,341,285441,2,0,P|391:306|405:274,1,70,8|2,0:0|3:0,0:0:0:0:
323,377,285860,6,0,L|235:387,1,70,2|0,3:2|0:0,0:0:0:0:
164,363,286280,1,8,0:0:0:0:
91,307,286490,2,0,P|76:243|121:166,1,140,0|0,3:0|3:0,0:0:0:0:
175,97,287119,1,8,0:0:0:0:
30,33,287329,6,0,P|88:69|157:73,1,140,4|0,1:0|3:0,0:0:0:0:
330,3,287958,2,0,P|301:15|259:42,1,70,12|0,0:0|3:0,0:0:0:0:
223,184,288378,1,8,0:0:0:0:
246,214,288483,1,8,3:0:0:0:
277,235,288587,1,4,3:0:0:0:
454,308,288797,1,8,0:0:0:0:
417,304,288902,1,8,0:0:0:0:
380,311,289006,1,4,3:0:0:0:
266,384,289217,6,0,P|206:379|139:320,1,140,6|8,0:0|0:0,0:0:0:0:
154,229,289846,2,0,P|136:189|38:136,1,140,2|2,3:2|0:3,0:0:0:0:
4,209,290476,1,8,0:0:0:0:
94,199,290685,1,2,3:2:0:0:
155,130,290895,6,0,P|225:126|317:166,1,140,2|8,0:0|0:0,0:0:0:0:
369,205,291525,2,0,P|429:183|456:101,1,140,2|2,3:2|0:3,0:0:0:0:
402,17,292154,2,0,P|395:57|397:96,1,70,8|2,0:0|0:3,0:0:0:0:
470,181,292573,6,0,P|487:241|452:324,1,140,4|8,3:0|0:0,0:0:0:0:
362,299,293203,2,0,P|313:304|234:357,1,140,2|2,3:2|0:3,0:0:0:0:
130,384,293832,2,0,P|155:352|168:315,1,70,8|2,0:0|3:0,0:0:0:0:
96,202,294252,6,0,P|149:248|233:252,1,140,2|8,0:0|0:0,0:0:0:0:
295,195,294881,2,0,L|303:114,1,70,0|0,3:0|3:0,0:0:0:0:
301,125,295196,1,8,0:0:0:0:
301,125,295301,1,8,0:0:0:0:
234,88,295511,1,8,1:2:0:0:
215,14,295720,1,2,0:3:0:0:
183,36,295825,1,2,0:3:0:0:
147,50,295930,6,0,P|96:89|78:166,1,140,4|8,0:0|0:0,0:0:0:0:
144,239,296559,2,0,P|147:275|137:331,1,70,2|0,3:2|0:0,0:0:0:0:
68,363,296979,1,2,0:3:0:0:
41,279,297189,1,8,0:0:0:0:
131,217,297399,6,0,P|177:260|263:271,1,140,6|0,0:0|3:0,0:0:0:0:
355,231,298028,1,8,0:0:0:0:
374,120,298238,2,0,P|328:77|242:66,1,140,2|4,3:2|3:0,0:0:0:0:
130,120,298867,2,0,P|79:114|46:92,1,70,8|2,0:0|0:3,0:0:0:0:
154,132,299287,6,0,L|140:227,1,70,2|0,3:2|0:0,0:0:0:0:
83,277,299706,1,8,0:0:0:0:
122,368,299916,1,2,3:2:0:0:
219,342,300126,2,0,L|149:345,1,70,8|2,0:0|3:3,0:0:0:0:
73,266,300546,1,4,3:0:0:0:
134,137,300755,6,0,P|192:165|279:169,1,140,4|0,1:1|3:0,0:0:0:0:
438,73,301385,2,0,P|400:87|367:113,1,70
377,301,301804,1,8,0:0:0:0:
405,320,301908,1,8,0:0:0:0:
438,331,302013,1,4,3:0:0:0:
242,204,302224,1,8,0:0:0:0:
200,200,302329,1,8,0:0:0:0:
185,239,302434,1,8,0:0:0:0:
217,266,302539,1,8,0:0:0:0:
253,244,302644,5,2,0:0:0:0:
282,214,302853,1,2,0:0:0:0:
330,181,303063,1,2,0:0:0:0:
401,163,303273,1,2,0:0:0:0:
327,170,303483,1,2,0:0:0:0:
270,159,303692,1,2,0:0:0:0:
229,146,303902,5,2,0:0:0:0:
187,142,304112,1,2,0:0:0:0:
130,152,304322,1,2,0:0:0:0:
58,170,304532,1,2,0:0:0:0:
131,169,304741,1,2,0:0:0:0:
185,187,304951,1,2,0:0:0:0:
217,213,305161,5,2,0:0:0:0:
253,233,305371,1,2,0:0:0:0:
308,249,305580,1,2,0:0:0:0:
381,253,305790,1,2,0:0:0:0:
308,263,306000,1,2,0:0:0:0:
255,287,306210,1,2,0:0:0:0:
220,311,306420,5,2,0:0:0:0:
179,322,306629,1,2,0:0:0:0:
121,328,306839,1,2,0:0:0:0:
49,312,307049,1,2,0:0:0:0:
122,317,307259,1,2,0:0:0:0:
177,331,307469,1,2,0:0:0:0:
216,344,307678,5,2,0:0:0:0:
256,354,307888,1,2,0:0:0:0:
313,353,308098,1,2,0:0:0:0:
378,312,308308,2,0,B|410:258|376:201|373:195|366:188|337:131|365:84|365:84|330:117|292:108|270:73|273:41|307:23|326:35|330:53,1,406,2|0,0:0|0:0,0:0:0:0:
