osu file format v14

[General]
AudioFilename: FELT - Liminality.mp3
AudioLeadIn: 0
PreviewTime: 327338
Countdown: 1
SampleSet: None
StackLeniency: 0.7
Mode: 1
LetterboxInBreaks: 1
WidescreenStoryboard: 0

[Editor]
DistanceSpacing: 0.8
BeatDivisor: 4
GridSize: 32
TimelineZoom: 2.599999

[Metadata]
Title:Liminality
TitleUnicode:
Artist:FELT
ArtistUnicode:
Creator:-[ ix Ishida xi ]-
Version:Taiko
Source:
Tags:
BeatmapID:1713199
BeatmapSetID:816980

[Difficulty]
HPDrainRate:5
CircleSize:5
OverallDifficulty:5
ApproachRate:5
SliderMultiplier:1.4
SliderTickRate:1

[Events]
//Background and Video events
0,0,"Konachan.com - 56552 flowers green_hair kieta long_hair onozuka_komachi red_hair scythe shikieiki_yamaxanadu sky touhou twintails water weapon.jpg",0,0
//Break Periods
//Storyboard Layer 0 (Background)
//Storyboard Layer 1 (Fail)
//Storyboard Layer 2 (Pass)
//Storyboard Layer 3 (Foreground)
//Storyboard Sound Samples

[TimingPoints]
450,413.793103448276,4,1,0,25,1,0
40174,-100,4,1,0,50,0,0
66760,-100,4,1,0,25,0,0
79846,-100,4,1,0,80,0,0
79898,413.793103448276,6,1,0,80,1,0
80001,-100,6,1,0,45,0,0
80466,-100,6,1,0,70,0,0
80622,-100,6,1,0,40,0,0
81087,-100,6,1,0,80,0,0
81242,-100,6,1,0,40,0,0
82277,-100,6,1,0,80,0,0
82432,-100,6,1,0,35,0,0
83518,-100,6,1,0,80,0,0
83725,-100,6,1,0,50,0,0
84760,-100,6,1,0,80,0,0
84966,-100,6,1,0,40,0,0
85432,-100,6,1,0,80,0,0
85587,-100,6,1,0,40,0,0
86053,-100,6,1,0,80,0,0
86208,-100,6,1,0,40,0,0
86466,-100,6,1,0,80,0,0
86570,-100,6,1,0,30,0,0
86880,-100,6,1,0,100,0,0
86984,-100,6,1,0,35,0,0
87294,-100,6,1,0,80,0,0
87398,-100,6,1,0,40,0,0
88018,-100,6,1,0,85,0,0
88329,-100,6,1,0,30,0,0
88535,-100,6,1,0,80,0,0
89880,-100,6,1,0,50,0,0
90346,-100,6,1,0,80,0,0
90553,-100,6,1,0,40,0,0
90966,-100,6,1,0,100,0,0
91173,-100,6,1,0,40,0,0
91794,-100,6,1,0,80,0,0
92001,-100,6,1,0,40,0,0
92570,-100,6,1,0,80,0,0
92673,-100,6,1,0,30,0,0
92880,-100,6,1,0,100,0,0
92984,-100,6,1,0,50,0,0
93449,-100,6,1,0,80,0,0
93604,-100,6,1,0,25,0,0
93811,-100,6,1,0,80,0,0
93966,-100,6,1,0,25,0,0
94122,-100,6,1,0,80,0,0
94277,-100,6,1,0,25,0,0
94432,-100,6,1,0,80,0,0
94587,-100,6,1,0,40,0,0
94742,-100,6,1,0,100,0,0
94898,-100,6,1,0,50,0,0
95156,-100,6,1,0,100,0,0
95260,-100,6,1,0,50,0,0
95673,-100,6,1,0,100,0,0
95777,-100,6,1,0,50,0,0
95880,-100,6,1,0,70,0,0
95984,-100,6,1,0,40,0,0
96398,-100,6,1,0,55,0,0
97173,-100,6,1,0,40,0,0
97535,-100,6,1,0,40,0,0
97846,-100,6,1,0,70,0,0
98415,-100,6,1,0,90,0,0
99501,-100,6,1,0,20,0,0
99708,-100,6,1,0,90,0,0
100277,-50,6,1,0,90,0,0
100794,-25,6,1,0,90,0,0
101000,413.793103448276,4,1,0,50,1,0
106793,413.793103448276,4,1,0,50,1,0
108448,413.793103448276,6,1,0,50,1,0
110930,413.793103448276,4,1,0,50,1,0
137412,413.793103448276,5,1,0,50,1,0
149205,413.793103448276,4,1,0,50,1,0
152516,-50,4,1,0,100,0,0
152619,-200,4,1,0,30,0,0
153291,-50,4,1,0,100,0,0
153395,-200,4,1,0,30,0,0
154119,-50,4,1,0,100,0,0
154222,-200,4,1,0,30,0,0
154998,-25,4,1,0,30,0,0
155101,-100,4,1,0,80,0,0
155204,-100,4,1,0,60,0,0
155308,-100,4,1,0,40,0,0
155411,-100,4,1,0,20,0,0
155515,-100,4,1,0,5,0,0
155722,-100,4,1,0,50,0,0
155825,-100,4,1,0,70,0,0
158514,413.793103448276,4,1,0,100,1,1
158514,-83.3333333333333,4,1,0,100,0,1
185048,-83.3333333333333,4,1,0,60,0,0
188410,-100,4,1,0,40,0,0
214789,413.793103448276,5,1,0,100,1,0
214892,-100,5,1,0,75,0,0
226582,413.793103448276,4,1,0,60,1,0
229788,-100,4,1,0,100,0,0
229892,-100,4,1,0,100,0,0
229892,-50,4,1,0,100,0,0
229995,-200,4,1,0,30,0,0
230667,-50,4,1,0,100,0,0
230771,-200,4,1,0,30,0,0
231495,-50,4,1,0,100,0,0
231598,-200,4,1,0,30,0,0
232323,-50,4,1,0,100,0,0
232478,-50,4,1,0,85,0,0
232581,-50,4,1,0,70,0,0
232685,-50,4,1,0,55,0,0
232788,-50,4,1,0,40,0,0
232892,-50,4,1,0,25,0,0
232995,-50,4,1,0,10,0,0
233098,-50,4,1,0,10,0,0
233150,-100,4,1,0,50,0,0
235892,413.793103448276,4,1,0,100,1,1
235892,-83.3333333333333,4,1,0,100,0,1
262374,-71.4285714285714,4,1,0,85,0,1
262426,-125,4,1,0,5,0,0
262581,-125,4,1,0,100,0,0
262650,-71.4285714285714,4,1,0,100,0,0
262719,-100,4,1,0,30,0,0
263340,-71.4285714285714,4,1,0,100,0,0
263478,-100,4,1,0,30,0,0
263771,-71.4285714285714,4,1,0,100,0,0
263874,-100,4,1,0,30,0,0
264392,-71.4285714285714,4,1,0,100,0,0
264495,-100,4,1,0,30,0,0
265116,-71.4285714285714,4,1,0,100,0,0
265219,-100,4,1,0,30,0,0
265426,-71.4285714285714,4,1,0,100,0,0
265478,413.793103448276,4,1,0,100,1,0
265478,-71.4285714285714,4,1,0,100,0,0
265529,-100,4,1,0,30,0,0
265840,-71.4285714285714,4,1,0,100,0,0
265943,-100,4,1,0,30,0,0
266460,-71.4285714285714,4,1,0,100,0,0
266564,-100,4,1,0,30,0,0
267081,-71.4285714285714,4,1,0,100,0,0
267185,-100,4,1,0,30,0,0
267702,-71.4285714285714,4,1,0,100,0,0
267805,-100,4,1,0,30,0,0
268323,-71.4285714285714,4,1,0,100,0,0
268426,-100,4,1,0,30,0,0
268736,-71.4285714285714,4,1,0,100,0,0
268788,413.793103448276,4,1,0,100,1,0
268788,-71.4285714285714,4,1,0,100,0,0
268839,-100,4,1,0,30,0,0
269046,-71.4285714285714,4,1,0,100,0,0
269150,-100,4,1,0,30,0,0
269356,-71.4285714285714,4,1,0,100,0,0
269874,-100,4,1,0,30,0,0
270184,-71.4285714285714,4,1,0,100,0,0
270288,-100,4,1,0,30,0,0
270805,-71.4285714285714,4,1,0,100,0,0
270908,-100,4,1,0,30,0,0
271529,-71.4285714285714,4,1,0,100,0,0
271632,-100,4,1,0,30,0,0
271839,-71.4285714285714,4,1,0,100,0,0
271891,413.793103448276,4,1,0,100,1,0
271891,-71.4285714285714,4,1,0,100,0,0
271943,-100,4,1,0,30,0,0
272098,-100,4,1,0,60,0,0
273546,413.793103448276,5,1,0,60,1,0
275356,-71.4285714285714,5,1,0,100,0,0
275408,413.793103448276,4,1,0,100,1,0
275408,-71.4285714285714,4,1,0,100,0,0
275822,-100,4,1,0,30,0,0
276391,-71.4285714285714,4,1,0,100,0,0
276494,-100,4,1,0,30,0,0
276805,-71.4285714285714,4,1,0,100,0,0
276908,-100,4,1,0,30,0,0
277425,-83.3333333333333,4,1,0,100,0,0
277529,-100,4,1,0,30,0,0
278150,-71.4285714285714,4,1,0,100,0,0
278253,-100,4,1,0,30,0,0
278460,-71.4285714285714,4,1,0,100,0,0
278563,-100,4,1,0,30,0,0
278822,-71.4285714285714,4,1,0,100,0,0
278977,-100,4,1,0,30,0,0
279494,-71.4285714285714,4,1,0,100,0,0
279598,-100,4,1,0,30,0,0
280115,-71.4285714285714,4,1,0,100,0,0
280219,-100,4,1,0,30,0,0
280736,-71.4285714285714,4,1,0,100,0,0
280839,-100,4,1,0,30,0,0
281356,-71.4285714285714,4,1,0,100,0,0
281460,-100,4,1,0,30,0,0
281770,-71.4285714285714,4,1,0,100,0,0
281822,413.793103448276,4,1,0,100,1,0
281822,-71.4285714285714,4,1,0,100,0,0
281873,-100,4,1,0,30,0,0
282080,-71.4285714285714,4,1,0,100,0,0
282184,-100,4,1,0,30,0,0
282390,-71.4285714285714,4,1,0,100,0,0
282959,-100,4,1,0,30,0,0
283218,-71.4285714285714,4,1,0,100,0,0
283322,-100,4,1,0,30,0,0
283839,-71.4285714285714,4,1,0,100,0,0
283942,-71.4285714285714,4,1,0,70,0,0
284304,-100,4,1,0,30,0,0
284563,-71.4285714285714,4,1,0,100,0,0
284666,-100,4,1,0,30,0,0
284873,-71.4285714285714,4,1,0,100,0,0
284977,-100,4,1,0,60,0,0
288442,-133.333333333333,4,1,0,60,0,0
288856,-100,4,1,0,60,0,0
288959,-133.333333333333,4,1,0,60,0,0
289684,-128.205128205128,4,1,0,10,0,0
289753,-123.456790123457,4,1,0,20,0,0
289822,-119.047619047619,4,1,0,30,0,0
289890,-114.942528735632,4,1,0,40,0,0
289942,-111.111111111111,4,1,0,50,0,0
289994,-107.52688172043,4,1,0,60,0,0
290046,-104.166666666667,4,1,0,70,0,0
290097,-101.010101010101,4,1,0,80,0,0
290149,-100,4,1,0,60,0,0
292166,-133.333333333333,4,1,0,60,0,0
292994,-128.205128205128,4,1,0,10,0,0
293063,-123.456790123457,4,1,0,20,0,0
293132,-119.047619047619,4,1,0,30,0,0
293201,-114.942528735632,4,1,0,40,0,0
293253,-111.111111111111,4,1,0,50,0,0
293304,-107.52688172043,4,1,0,60,0,0
293356,-104.166666666667,4,1,0,70,0,0
293408,-101.010101010101,4,1,0,80,0,0
293459,-100,4,1,0,60,0,0
295477,-133.333333333333,4,1,0,60,0,0
296304,-128.205128205128,4,1,0,10,0,0
296373,-123.456790123457,4,1,0,20,0,0
296442,-119.047619047619,4,1,0,30,0,0
296510,-114.942528735632,4,1,0,40,0,0
296562,-111.111111111111,4,1,0,50,0,0
296614,-107.52688172043,4,1,0,60,0,0
296665,-104.166666666667,4,1,0,70,0,0
296717,-101.010101010101,4,1,0,80,0,0
296770,-100,4,1,0,60,0,0
298787,-133.333333333333,4,1,0,60,0,0
299615,-128.205128205128,4,1,0,10,0,0
299684,-123.456790123457,4,1,0,20,0,0
299753,-119.047619047619,4,1,0,30,0,0
299822,-114.942528735632,4,1,0,40,0,0
299873,-111.111111111111,4,1,0,50,0,0
299925,-107.52688172043,4,1,0,60,0,0
299977,-104.166666666667,4,1,0,70,0,0
300028,-101.010101010101,4,1,0,80,0,0
300080,-100,4,1,0,60,0,0
301684,-133.333333333333,4,1,0,60,0,0
302925,-128.205128205128,4,1,0,10,0,0
302994,-123.456790123457,4,1,0,20,0,0
303063,-119.047619047619,4,1,0,30,0,0
303131,-114.942528735632,4,1,0,40,0,0
303183,-111.111111111111,4,1,0,50,0,0
303234,-107.52688172043,4,1,0,60,0,0
303286,-104.166666666667,4,1,0,70,0,0
303338,-101.010101010101,4,1,0,80,0,0
303390,-100,4,1,0,60,0,0
304994,-133.333333333333,4,1,0,60,0,0
306235,-128.205128205128,4,1,0,10,0,0
306304,-123.456790123457,4,1,0,20,0,0
306373,-119.047619047619,4,1,0,30,0,0
306441,-114.942528735632,4,1,0,40,0,0
306493,-111.111111111111,4,1,0,50,0,0
306545,-107.52688172043,4,1,0,60,0,0
306596,-104.166666666667,4,1,0,70,0,0
306648,-101.010101010101,4,1,0,80,0,0
306701,-100,4,1,0,60,0,0
308304,-133.333333333333,4,1,0,60,0,0
309546,-128.205128205128,4,1,0,10,0,0
309615,-123.456790123457,4,1,0,20,0,0
309684,-119.047619047619,4,1,0,30,0,0
309753,-114.942528735632,4,1,0,40,0,0
309804,-111.111111111111,4,1,0,50,0,0
309856,-107.52688172043,4,1,0,60,0,0
309908,-104.166666666667,4,1,0,70,0,0
309959,-101.010101010101,4,1,0,80,0,0
310011,-100,4,1,0,60,0,0
312028,-133.333333333333,4,1,0,60,0,0
312856,-128.205128205128,4,1,0,10,0,0
312925,-123.456790123457,4,1,0,20,0,0
312994,-119.047619047619,4,1,0,30,0,0
313063,-114.942528735632,4,1,0,40,0,0
313115,-111.111111111111,4,1,0,50,0,0
313166,-107.52688172043,4,1,0,60,0,0
313218,-104.166666666667,4,1,0,70,0,0
313270,-101.010101010101,4,1,0,80,0,0
313890,-200,4,1,0,60,0,0
316166,-66.6666666666667,4,1,0,60,0,0
316235,-68.9655172413793,4,1,0,60,0,0
316304,-71.4285714285714,4,1,0,60,0,0
316373,-74.0740740740741,4,1,0,60,0,0
316442,-76.9230769230769,4,1,0,60,0,0
316511,-80,4,1,0,60,0,0
316580,413.793103448276,7,1,0,100,1,0
316580,-83.3333333333333,7,1,0,100,0,0
316717,-83.3333333333333,7,1,0,30,0,0
317148,-55.5555555555556,7,1,0,100,0,0
317304,-83.3333333333333,7,1,0,30,0,0
317459,-55.5555555555556,7,1,0,100,0,0
317821,-83.3333333333333,7,1,0,30,0,0
317976,-55.5555555555556,7,1,0,100,0,0
318080,-83.3333333333333,7,1,0,30,0,0
318597,-55.5555555555556,7,1,0,100,0,0
318700,-83.3333333333333,7,1,0,30,0,0
318907,-55.5555555555556,7,1,0,100,0,0
319269,-83.3333333333333,7,1,0,30,0,0
319424,-55.5555555555556,7,1,0,100,0,0
319528,-83.3333333333333,7,1,0,30,0,0
320045,-55.5555555555556,7,1,0,100,0,0
320148,-83.3333333333333,7,1,0,30,0,0
320355,-55.5555555555556,7,1,0,100,0,0
320769,-83.3333333333333,7,1,0,30,0,0
320873,-55.5555555555556,7,1,0,100,0,0
320976,-83.3333333333333,7,1,0,30,0,0
321493,-55.5555555555556,7,1,0,100,0,0
321597,-83.3333333333333,7,1,0,30,0,0
321804,-55.5555555555556,7,1,0,100,0,0
322166,-83.3333333333333,7,1,0,30,0,0
322321,-50,7,1,0,100,0,0
322373,413.793103448276,4,1,0,100,1,0
322373,-50,4,1,0,100,0,1
322476,-71.4285714285714,4,1,0,100,0,1
327441,-73.5294117647059,4,1,0,100,0,1
327545,-75.7575757575758,4,1,0,100,0,1
327648,-78.125,4,1,0,100,0,1
327752,-80.6451612903226,4,1,0,100,0,1
327855,-83.3333333333333,4,1,0,100,0,1
327959,-86.2068965517241,4,1,0,100,0,1
328062,-89.2857142857143,4,1,0,100,0,1
328166,-92.5925925925926,4,1,0,100,0,1
328269,-96.1538461538461,4,1,0,100,0,1
328373,413.793103448276,4,1,0,100,1,0
328476,-200,4,1,0,5,0,0
329924,-200,4,1,0,50,0,0
341614,-133.333333333333,4,1,0,70,0,0
351545,-125,4,1,0,70,0,0
351752,-117.647058823529,4,1,0,75,0,0
351959,-111.111111111111,4,1,0,80,0,0
352166,-105.263157894737,4,1,0,85,0,0
352373,-100,4,1,0,90,0,0
352579,-95.2380952380952,4,1,0,95,0,0
352786,-90.9090909090909,4,1,0,100,0,0
353200,-86.9565217391304,4,1,0,100,0,0
354648,-83.3333333333333,4,1,0,100,0,0
354855,-83.3333333333333,4,1,0,100,0,1
374717,-66.6666666666667,4,1,0,100,0,0
381338,-66.6666666666667,4,1,0,50,0,1
381390,-100,4,1,0,50,0,0
460631,-25,4,1,0,50,0,0

[HitObjects]
256,192,7070,5,2,0:0:0:0:
384,160,8518,1,0,0:0:0:0:
448,128,10174,1,2,0:0:0:0:
128,352,11622,1,0,0:0:0:0:
416,160,13691,1,2,0:0:0:0:
448,160,15139,1,0,0:0:0:0:
416,192,16794,1,0,0:0:0:0:
448,128,17001,1,2,0:0:0:0:
416,192,18450,1,0,0:0:0:0:
416,224,19898,1,0,0:0:0:0:
416,128,20312,1,2,0:0:0:0:
448,160,21760,1,0,0:0:0:0:
416,128,23001,1,2,0:0:0:0:
448,288,23622,1,6,0:0:0:0:
480,128,25070,1,0,0:0:0:0:
256,384,26312,1,0,0:0:0:0:
352,256,26932,1,4,0:0:0:0:
416,192,27243,1,0,0:0:0:0:
352,224,27553,1,0,0:0:0:0:
416,192,27863,1,0,0:0:0:0:
448,160,28587,1,4,0:0:0:0:
448,192,28898,1,0,0:0:0:0:
384,224,29208,1,0,0:0:0:0:
480,224,29518,1,0,0:0:0:0:
448,192,30243,1,4,0:0:0:0:
480,192,30553,1,0,0:0:0:0:
384,192,30863,1,0,0:0:0:0:
416,160,31174,1,0,0:0:0:0:
288,128,31898,1,4,0:0:0:0:
384,128,32208,1,0,0:0:0:0:
384,224,32518,1,0,0:0:0:0:
384,128,32829,1,0,0:0:0:0:
352,192,33139,1,0,0:0:0:0:
448,192,33553,1,4,0:0:0:0:
448,192,33863,1,0,0:0:0:0:
384,224,34174,1,0,0:0:0:0:
448,192,34484,1,0,0:0:0:0:
480,160,35208,1,4,0:0:0:0:
384,160,35518,1,0,0:0:0:0:
480,160,35829,1,0,0:0:0:0:
384,160,36139,1,0,0:0:0:0:
416,160,36243,1,2,0:0:0:0:
448,160,36863,1,4,0:0:0:0:
448,64,37174,1,0,0:0:0:0:
416,128,37484,1,0,0:0:0:0:
384,192,37794,1,0,0:0:0:0:
512,256,38312,1,0,0:0:0:0:
448,192,38518,1,4,0:0:0:0:
384,224,38829,1,0,0:0:0:0:
448,192,39139,1,0,0:0:0:0:
384,224,39450,1,0,0:0:0:0:
384,192,39553,1,2,0:0:0:0:
448,160,39760,1,6,0:0:0:0:
448,128,39863,1,0,0:0:0:0:
416,160,39967,1,0,0:0:0:0:
416,160,40070,1,0,0:0:0:0:
448,192,40174,1,4,0:0:0:0:
480,128,40381,1,2,0:0:0:0:
448,160,40484,1,0,0:0:0:0:
352,160,40794,1,0,0:0:0:0:
448,160,41105,1,2,0:0:0:0:
448,160,41208,1,0,0:0:0:0:
448,128,41415,1,0,0:0:0:0:
480,160,41622,1,2,0:0:0:0:
512,128,42036,1,0,0:0:0:0:
480,160,42243,1,2,0:0:0:0:
512,128,42346,1,0,0:0:0:0:
512,128,42553,1,2,0:0:0:0:
480,128,42656,1,0,0:0:0:0:
480,128,42760,1,2,0:0:0:0:
480,160,42863,1,0,0:0:0:0:
448,128,42967,1,2,0:0:0:0:
416,192,43277,1,0,0:0:0:0:
416,160,43381,1,0,0:0:0:0:
416,160,43484,1,2,0:0:0:0:
320,160,43794,1,2,0:0:0:0:
416,160,44105,1,0,0:0:0:0:
416,160,44208,1,0,0:0:0:0:
384,160,44312,1,2,0:0:0:0:
416,192,44518,1,0,0:0:0:0:
416,192,44622,1,0,0:0:0:0:
416,192,44725,1,0,0:0:0:0:
448,160,44932,1,2,0:0:0:0:
448,160,45346,1,0,0:0:0:0:
416,192,45553,1,2,0:0:0:0:
416,192,45863,1,2,0:0:0:0:
512,128,45967,1,0,0:0:0:0:
480,128,46070,1,0,0:0:0:0:
480,128,46174,1,0,0:0:0:0:
448,160,46277,1,2,0:0:0:0:
480,128,46484,1,2,0:0:0:0:
448,128,46587,1,2,0:0:0:0:
448,128,46794,1,0,0:0:0:0:
448,128,47105,1,2,0:0:0:0:
416,192,47415,1,0,0:0:0:0:
480,128,47622,1,2,0:0:0:0:
448,160,47829,1,0,0:0:0:0:
416,160,47932,1,0,0:0:0:0:
416,160,48036,1,0,0:0:0:0:
480,128,48243,1,2,0:0:0:0:
416,224,48656,1,0,0:0:0:0:
416,160,48863,1,2,0:0:0:0:
416,160,49174,1,2,0:0:0:0:
448,160,49277,1,0,0:0:0:0:
448,128,49381,1,0,0:0:0:0:
416,128,49484,1,0,0:0:0:0:
448,128,49587,1,2,0:0:0:0:
416,160,49794,1,0,0:0:0:0:
416,256,50105,1,0,0:0:0:0:
352,192,50415,1,2,0:0:0:0:
448,128,50725,1,0,0:0:0:0:
480,160,50932,1,2,0:0:0:0:
416,160,51139,1,0,0:0:0:0:
416,160,51243,1,0,0:0:0:0:
416,160,51346,1,0,0:0:0:0:
480,128,51553,1,2,0:0:0:0:
480,128,51967,1,0,0:0:0:0:
416,160,52174,1,2,0:0:0:0:
352,224,52484,1,2,0:0:0:0:
416,160,52587,1,0,0:0:0:0:
416,160,52691,1,0,0:0:0:0:
384,160,52794,1,0,0:0:0:0:
480,128,52898,1,2,0:0:0:0:
480,128,53001,1,2,0:0:0:0:
448,160,53208,1,0,0:0:0:0:
416,192,53415,1,0,0:0:0:0:
416,160,53725,1,2,0:0:0:0:
448,160,54036,1,0,0:0:0:0:
480,96,54243,1,2,0:0:0:0:
448,128,54450,1,0,0:0:0:0:
416,128,54553,1,0,0:0:0:0:
416,128,54656,1,0,0:0:0:0:
384,192,54863,1,2,0:0:0:0:
480,128,55277,1,0,0:0:0:0:
448,160,55484,1,2,0:0:0:0:
352,160,55794,1,2,0:0:0:0:
448,128,55898,1,0,0:0:0:0:
448,128,56001,1,0,0:0:0:0:
416,128,56105,1,0,0:0:0:0:
416,160,56208,1,2,0:0:0:0:
416,160,56415,1,0,0:0:0:0:
480,224,56725,1,0,0:0:0:0:
416,160,57036,1,2,0:0:0:0:
352,192,57346,1,0,0:0:0:0:
384,192,57450,1,0,0:0:0:0:
416,160,57553,1,2,0:0:0:0:
384,192,57760,1,0,0:0:0:0:
288,128,58174,1,2,0:0:0:0:
384,128,58587,1,0,0:0:0:0:
448,128,58794,1,2,0:0:0:0:
416,160,59105,1,2,0:0:0:0:
448,160,59208,1,0,0:0:0:0:
448,160,59312,1,0,0:0:0:0:
448,160,59415,1,0,0:0:0:0:
480,128,59518,1,2,0:0:0:0:
448,160,59725,1,0,0:0:0:0:
448,128,60036,1,0,0:0:0:0:
448,160,60346,1,2,0:0:0:0:
416,160,60656,1,0,0:0:0:0:
448,160,60863,1,2,0:0:0:0:
384,128,61174,1,0,0:0:0:0:
384,160,61277,1,0,0:0:0:0:
448,160,61484,1,2,0:0:0:0:
448,160,61898,1,0,0:0:0:0:
480,128,62105,1,2,0:0:0:0:
416,192,62415,1,2,0:0:0:0:
448,160,62518,1,0,0:0:0:0:
416,160,62622,1,0,0:0:0:0:
416,160,62725,1,0,0:0:0:0:
448,160,62829,1,2,0:0:0:0:
416,96,63036,1,0,0:0:0:0:
416,160,63346,1,0,0:0:0:0:
448,224,63553,1,0,0:0:0:0:
512,128,63656,1,2,0:0:0:0:
416,160,63967,1,0,0:0:0:0:
512,128,64174,1,2,0:0:0:0:
480,128,64277,1,0,0:0:0:0:
448,128,64381,1,0,0:0:0:0:
448,128,64484,1,0,0:0:0:0:
416,160,64587,1,0,0:0:0:0:
448,128,64794,1,2,0:0:0:0:
480,128,65208,1,0,0:0:0:0:
448,192,65415,1,2,0:0:0:0:
480,160,65622,1,0,0:0:0:0:
480,128,65725,1,2,0:0:0:0:
448,128,65829,1,2,0:0:0:0:
416,128,65932,1,0,0:0:0:0:
512,128,66036,1,0,0:0:0:0:
480,128,66139,1,2,0:0:0:0:
448,128,66243,1,2,0:0:0:0:
448,128,66346,1,2,0:0:0:0:
480,160,66450,1,0,0:0:0:0:
448,192,66656,1,4,0:0:0:0:
448,192,67277,1,0,0:0:0:0:
448,160,68105,1,2,0:0:0:0:
448,160,69967,1,2,0:0:0:0:
448,160,71415,1,0,0:0:0:0:
448,160,72656,1,2,0:0:0:0:
448,160,73277,1,0,0:0:0:0:
288,256,74932,1,0,0:0:0:0:
320,192,75243,1,0,0:0:0:0:
384,128,75553,1,0,0:0:0:0:
352,192,75863,1,0,0:0:0:0:
480,128,76587,1,2,0:0:0:0:
320,192,77208,1,2,0:0:0:0:
320,96,77622,1,2,0:0:0:0:
384,128,77932,1,2,0:0:0:0:
256,320,78243,1,0,0:0:0:0:
288,288,78346,1,0,0:0:0:0:
320,256,78553,1,0,0:0:0:0:
384,192,78863,1,0,0:0:0:0:
384,288,79174,1,0,0:0:0:0:
416,224,79484,1,2,0:0:0:0:
384,192,79587,1,2,0:0:0:0:
384,192,79691,1,2,0:0:0:0:
384,192,79794,1,2,0:0:0:0:
416,224,79898,1,4,0:0:0:0:
416,160,80104,1,0,0:0:0:0:
384,128,80208,1,0,0:0:0:0:
352,128,80311,1,2,0:0:0:0:
384,160,80415,1,0,0:0:0:0:
416,160,80518,1,6,0:0:0:0:
448,128,80725,1,2,0:0:0:0:
416,160,80829,1,2,0:0:0:0:
384,128,80932,1,2,0:0:0:0:
416,128,81035,1,0,0:0:0:0:
448,128,81139,1,2,0:0:0:0:
480,160,81346,1,0,0:0:0:0:
480,160,81553,1,4,0:0:0:0:
416,160,81760,1,2,0:0:0:0:
512,160,81966,1,4,0:0:0:0:
448,128,82173,1,2,0:0:0:0:
448,192,82380,1,6,0:0:0:0:
416,192,82484,1,0,0:0:0:0:
416,160,82691,1,2,0:0:0:0:
352,160,82898,1,0,0:0:0:0:
384,160,83001,1,2,0:0:0:0:
416,160,83104,1,2,0:0:0:0:
448,160,83208,1,0,0:0:0:0:
480,128,83311,1,2,0:0:0:0:
448,128,83415,1,2,0:0:0:0:
480,160,83622,1,6,0:0:0:0:
480,128,83932,1,4,0:0:0:0:
416,192,84242,1,4,0:0:0:0:
416,288,84553,1,6,0:0:0:0:
448,128,84863,1,6,0:0:0:0:
384,128,85070,1,0,0:0:0:0:
384,160,85173,1,0,0:0:0:0:
480,128,85277,1,2,0:0:0:0:
480,128,85380,1,0,0:0:0:0:
448,160,85484,1,6,0:0:0:0:
384,160,85691,1,2,0:0:0:0:
416,192,85794,1,2,0:0:0:0:
416,192,85898,1,2,0:0:0:0:
384,192,86001,1,0,0:0:0:0:
416,192,86104,1,6,0:0:0:0:
480,128,86311,1,0,0:0:0:0:
416,160,86518,1,4,0:0:0:0:
512,160,86725,1,0,0:0:0:0:
512,160,86932,1,6,0:0:0:0:
416,160,87139,1,2,0:0:0:0:
416,160,87242,1,2,0:0:0:0:
416,192,87346,1,6,0:0:0:0:
416,192,87449,1,0,0:0:0:0:
448,160,87656,1,2,0:0:0:0:
448,160,87863,1,0,0:0:0:0:
416,128,87966,1,0,0:0:0:0:
448,128,88070,1,2,0:0:0:0:
416,160,88277,1,2,0:0:0:0:
384,160,88380,1,0,0:0:0:0:
352,160,88484,1,0,0:0:0:0:
384,160,88587,1,6,0:0:0:0:
416,160,88898,1,6,0:0:0:0:
352,128,89208,1,6,0:0:0:0:
256,160,89518,1,6,0:0:0:0:
352,160,89829,1,6,0:0:0:0:
448,128,90139,1,2,0:0:0:0:
480,128,90242,1,0,0:0:0:0:
384,128,90449,1,2,0:0:0:0:
448,128,90760,1,0,0:0:0:0:
416,128,90863,1,0,0:0:0:0:
416,192,91070,1,2,0:0:0:0:
512,128,91277,1,0,0:0:0:0:
448,96,91484,1,2,0:0:0:0:
480,160,91691,1,0,0:0:0:0:
416,192,91898,1,6,0:0:0:0:
448,128,92104,1,0,0:0:0:0:
416,160,92311,1,0,0:0:0:0:
416,160,92415,1,0,0:0:0:0:
416,160,92518,1,0,0:0:0:0:
448,160,92622,1,2,0:0:0:0:
512,128,92829,1,0,0:0:0:0:
448,160,92932,1,2,0:0:0:0:
448,160,93139,1,0,0:0:0:0:
448,160,93242,1,0,0:0:0:0:
448,160,93346,1,2,0:0:0:0:
480,192,93553,1,6,0:0:0:0:
416,160,93760,1,0,0:0:0:0:
448,160,93863,1,2,0:0:0:0:
448,160,94070,1,0,0:0:0:0:
416,192,94173,1,2,0:0:0:0:
448,160,94380,1,0,0:0:0:0:
448,160,94484,1,2,0:0:0:0:
480,96,94691,1,0,0:0:0:0:
480,128,94794,1,6,0:0:0:0:
448,160,95001,1,0,0:0:0:0:
448,160,95104,1,0,0:0:0:0:
480,128,95208,1,2,0:0:0:0:
416,192,95415,1,0,0:0:0:0:
416,224,95518,1,0,0:0:0:0:
416,224,95622,1,0,0:0:0:0:
448,160,95725,1,2,0:0:0:0:
448,224,95932,1,2,0:0:0:0:
448,160,96035,1,2,0:0:0:0:
448,160,96139,1,0,0:0:0:0:
416,160,96242,1,0,0:0:0:0:
416,160,96346,1,0,0:0:0:0:
448,160,96449,1,2,0:0:0:0:
512,128,96656,1,0,0:0:0:0:
448,160,96760,1,2,0:0:0:0:
448,160,96863,1,2,0:0:0:0:
448,160,97070,1,0,0:0:0:0:
416,160,97277,1,0,0:0:0:0:
416,160,97380,1,0,0:0:0:0:
384,128,97484,1,0,0:0:0:0:
416,160,97587,1,2,0:0:0:0:
352,128,97794,1,2,0:0:0:0:
384,128,97898,1,2,0:0:0:0:
416,160,98001,1,0,0:0:0:0:
384,192,98208,1,0,0:0:0:0:
416,160,98311,1,2,0:0:0:0:
448,192,98518,1,6,0:0:0:0:
384,160,98829,1,6,0:0:0:0:
448,224,99139,1,6,0:0:0:0:
416,160,99449,1,6,0:0:0:0:
448,160,99553,1,2,0:0:0:0:
448,160,99656,1,0,0:0:0:0:
416,256,99760,1,6,0:0:0:0:
448,128,100277,1,2,0:0:0:0:
448,160,100794,1,6,0:0:0:0:
352,224,101206,1,0,0:0:0:0:
384,224,101310,1,0,0:0:0:0:
416,192,101413,1,0,0:0:0:0:
416,192,101517,1,0,0:0:0:0:
448,128,101620,1,2,0:0:0:0:
416,160,101724,1,2,0:0:0:0:
448,160,101827,1,0,0:0:0:0:
480,128,101931,1,2,0:0:0:0:
480,160,102034,1,2,0:0:0:0:
448,160,102137,1,0,0:0:0:0:
448,160,102241,1,0,0:0:0:0:
480,128,102344,1,2,0:0:0:0:
448,160,102448,1,2,0:0:0:0:
416,160,102551,1,2,0:0:0:0:
448,128,102655,1,0,0:0:0:0:
512,96,102758,1,2,0:0:0:0:
448,160,102862,1,2,0:0:0:0:
416,160,102965,1,0,0:0:0:0:
448,160,103068,1,0,0:0:0:0:
480,160,103172,1,2,0:0:0:0:
448,192,103275,1,2,0:0:0:0:
448,160,103379,1,0,0:0:0:0:
416,160,103482,1,0,0:0:0:0:
480,128,103586,1,2,0:0:0:0:
448,160,103689,1,0,0:0:0:0:
416,160,103793,1,0,0:0:0:0:
448,160,103896,1,2,0:0:0:0:
448,160,104000,1,2,0:0:0:0:
448,160,104103,1,0,0:0:0:0:
384,160,104310,1,2,0:0:0:0:
384,224,104517,1,0,0:0:0:0:
384,256,104621,1,0,0:0:0:0:
480,128,104724,1,2,0:0:0:0:
448,128,104827,1,0,0:0:0:0:
448,160,104931,1,2,0:0:0:0:
416,128,105034,1,2,0:0:0:0:
480,128,105137,1,0,0:0:0:0:
416,160,105241,1,2,0:0:0:0:
384,224,105344,1,2,0:0:0:0:
384,224,105448,1,2,0:0:0:0:
480,128,105551,1,0,0:0:0:0:
448,160,105758,1,0,0:0:0:0:
416,128,105862,1,2,0:0:0:0:
448,160,105965,1,2,0:0:0:0:
480,128,106068,1,0,0:0:0:0:
480,128,106172,1,0,0:0:0:0:
480,128,106275,1,2,0:0:0:0:
448,128,106379,1,2,0:0:0:0:
448,128,106482,1,0,0:0:0:0:
448,160,106586,1,0,0:0:0:0:
448,128,106689,1,2,0:0:0:0:
480,128,106896,1,2,0:0:0:0:
480,128,107000,1,0,0:0:0:0:
480,128,107103,1,2,0:0:0:0:
480,160,107206,1,0,0:0:0:0:
480,128,107310,1,2,0:0:0:0:
480,128,107413,1,0,0:0:0:0:
480,128,107517,1,2,0:0:0:0:
480,128,107620,1,0,0:0:0:0:
480,128,107724,1,2,0:0:0:0:
480,128,107827,1,0,0:0:0:0:
480,128,107931,1,2,0:0:0:0:
480,160,108034,1,0,0:0:0:0:
480,128,108137,1,2,0:0:0:0:
480,128,108241,1,0,0:0:0:0:
480,160,108344,1,2,0:0:0:0:
448,128,108448,1,0,0:0:0:0:
480,128,108551,1,2,0:0:0:0:
480,160,108655,1,0,0:0:0:0:
448,128,108758,1,2,0:0:0:0:
480,128,108862,1,0,0:0:0:0:
480,160,108965,1,2,0:0:0:0:
480,160,109068,1,0,0:0:0:0:
448,128,109172,1,2,0:0:0:0:
416,160,109275,1,0,0:0:0:0:
384,160,109379,1,2,0:0:0:0:
352,128,109586,1,0,0:0:0:0:
480,160,109793,1,2,0:0:0:0:
480,128,109896,1,0,0:0:0:0:
448,160,110000,1,2,0:0:0:0:
416,160,110103,1,2,0:0:0:0:
416,192,110206,1,2,0:0:0:0:
448,160,110310,1,0,0:0:0:0:
480,128,110413,1,2,0:0:0:0:
480,128,110517,1,0,0:0:0:0:
448,128,110620,1,2,0:0:0:0:
480,128,110724,1,0,0:0:0:0:
448,128,110827,1,2,0:0:0:0:
448,128,110931,1,0,0:0:0:0:
448,160,111034,1,0,0:0:0:0:
416,160,111241,1,2,0:0:0:0:
480,128,111551,1,2,0:0:0:0:
448,160,111655,1,0,0:0:0:0:
416,224,111965,1,0,0:0:0:0:
448,192,112172,1,0,0:0:0:0:
480,128,112379,1,2,0:0:0:0:
480,128,112793,1,0,0:0:0:0:
448,192,113000,1,2,0:0:0:0:
384,224,113310,1,2,0:0:0:0:
416,192,113413,1,0,0:0:0:0:
448,160,113517,1,0,0:0:0:0:
448,128,113620,1,0,0:0:0:0:
480,128,113724,1,2,0:0:0:0:
448,128,113827,1,2,0:0:0:0:
448,128,113931,1,2,0:0:0:0:
480,128,114034,1,0,0:0:0:0:
448,160,114448,1,0,0:0:0:0:
352,128,114551,1,2,0:0:0:0:
448,160,114862,1,2,0:0:0:0:
448,160,114965,1,2,0:0:0:0:
448,160,115068,1,0,0:0:0:0:
416,192,115275,1,0,0:0:0:0:
416,192,115379,1,0,0:0:0:0:
480,128,115689,1,2,0:0:0:0:
512,128,116103,1,0,0:0:0:0:
480,160,116310,1,2,0:0:0:0:
416,192,116620,1,2,0:0:0:0:
416,160,116724,1,0,0:0:0:0:
384,160,116827,1,2,0:0:0:0:
448,192,116931,1,0,0:0:0:0:
416,160,117034,1,2,0:0:0:0:
448,160,117241,1,2,0:0:0:0:
448,128,117344,1,0,0:0:0:0:
448,160,117551,1,0,0:0:0:0:
480,128,117862,1,2,0:0:0:0:
416,160,118172,1,2,0:0:0:0:
416,160,118275,1,2,0:0:0:0:
448,160,118379,1,0,0:0:0:0:
448,192,118482,1,0,0:0:0:0:
416,224,118586,1,0,0:0:0:0:
448,128,118689,1,2,0:0:0:0:
448,128,118793,1,2,0:0:0:0:
448,160,119000,1,0,0:0:0:0:
480,128,119310,1,2,0:0:0:0:
448,160,119413,1,0,0:0:0:0:
448,160,119620,1,2,0:0:0:0:
416,224,119931,1,2,0:0:0:0:
448,128,120034,1,0,0:0:0:0:
448,160,120137,1,0,0:0:0:0:
416,128,120241,1,0,0:0:0:0:
480,128,120344,1,2,0:0:0:0:
480,128,120551,1,0,0:0:0:0:
448,160,120655,1,0,0:0:0:0:
448,224,120862,1,0,0:0:0:0:
448,160,121172,1,2,0:0:0:0:
384,160,121379,1,0,0:0:0:0:
352,192,121482,1,0,0:0:0:0:
352,224,121586,1,2,0:0:0:0:
416,160,121896,1,0,0:0:0:0:
416,160,122103,1,0,0:0:0:0:
416,224,122310,1,0,0:0:0:0:
416,192,122413,1,2,0:0:0:0:
416,160,122517,1,0,0:0:0:0:
448,160,122620,1,2,0:0:0:0:
448,160,122724,1,2,0:0:0:0:
448,128,122827,1,0,0:0:0:0:
480,128,122931,1,2,0:0:0:0:
448,128,123034,1,2,0:0:0:0:
480,128,123137,1,0,0:0:0:0:
416,160,123241,1,0,0:0:0:0:
448,160,123344,1,2,0:0:0:0:
448,160,123448,1,2,0:0:0:0:
480,128,123551,1,0,0:0:0:0:
448,128,123655,1,2,0:0:0:0:
416,128,123758,1,2,0:0:0:0:
416,128,123862,1,2,0:0:0:0:
448,128,123965,1,0,0:0:0:0:
448,192,124172,1,6,0:0:0:0:
480,192,124482,1,2,0:0:0:0:
384,160,124793,1,0,0:0:0:0:
384,192,124896,1,0,0:0:0:0:
416,192,125000,1,2,0:0:0:0:
448,160,125206,1,0,0:0:0:0:
480,128,125310,1,2,0:0:0:0:
512,128,125413,1,0,0:0:0:0:
448,128,125620,1,2,0:0:0:0:
448,160,125827,1,0,0:0:0:0:
448,160,126034,1,0,0:0:0:0:
416,192,126241,1,2,0:0:0:0:
448,128,126551,1,0,0:0:0:0:
416,128,126655,1,0,0:0:0:0:
416,192,126862,1,0,0:0:0:0:
448,160,126965,1,2,0:0:0:0:
448,160,127172,1,2,0:0:0:0:
480,128,127275,1,0,0:0:0:0:
448,192,127482,1,4,0:0:0:0:
480,128,127793,1,2,0:0:0:0:
480,128,128103,1,0,0:0:0:0:
448,128,128310,1,0,0:0:0:0:
416,128,128413,1,0,0:0:0:0:
416,128,128620,1,0,0:0:0:0:
448,160,128827,1,0,0:0:0:0:
448,160,128931,1,2,0:0:0:0:
384,256,129344,1,0,0:0:0:0:
448,160,129551,1,2,0:0:0:0:
448,128,129862,1,0,0:0:0:0:
416,160,130068,1,0,0:0:0:0:
416,160,130172,1,0,0:0:0:0:
448,128,130275,1,2,0:0:0:0:
416,64,130482,1,2,0:0:0:0:
416,96,130586,1,2,0:0:0:0:
448,96,130689,1,0,0:0:0:0:
448,128,130793,1,0,0:0:0:0:
384,192,131103,1,2,0:0:0:0:
448,128,131413,1,2,0:0:0:0:
448,128,131517,1,2,0:0:0:0:
480,128,131620,1,0,0:0:0:0:
448,160,131827,1,0,0:0:0:0:
416,192,131931,1,0,0:0:0:0:
448,160,132241,1,2,0:0:0:0:
480,128,132655,1,2,0:0:0:0:
480,128,132862,1,2,0:0:0:0:
448,128,132965,1,2,0:0:0:0:
448,160,133068,1,0,0:0:0:0:
448,160,133275,1,2,0:0:0:0:
416,128,133482,1,0,0:0:0:0:
480,128,133586,1,2,0:0:0:0:
416,160,133793,1,0,0:0:0:0:
416,160,133896,1,0,0:0:0:0:
448,192,134103,1,0,0:0:0:0:
480,128,134310,1,0,0:0:0:0:
480,128,134413,1,2,0:0:0:0:
384,128,134724,1,0,0:0:0:0:
384,224,135034,1,0,0:0:0:0:
416,192,135137,1,2,0:0:0:0:
448,160,135241,1,2,0:0:0:0:
480,128,135344,1,0,0:0:0:0:
448,160,135551,1,2,0:0:0:0:
480,96,135862,1,0,0:0:0:0:
448,128,135965,1,0,0:0:0:0:
512,96,136172,1,2,0:0:0:0:
480,128,136379,1,0,0:0:0:0:
480,128,136482,1,2,0:0:0:0:
448,160,136586,1,2,0:0:0:0:
384,128,136896,1,2,0:0:0:0:
416,192,137103,1,2,0:0:0:0:
416,224,137206,1,2,0:0:0:0:
384,192,137310,1,2,0:0:0:0:
352,192,137413,1,0,0:0:0:0:
416,192,137827,1,0,0:0:0:0:
448,128,138034,1,2,0:0:0:0:
448,160,138137,1,2,0:0:0:0:
448,128,138241,1,2,0:0:0:0:
416,192,138551,1,0,0:0:0:0:
480,128,138862,1,2,0:0:0:0:
480,128,139172,1,0,0:0:0:0:
480,128,139275,1,0,0:0:0:0:
448,192,139482,1,2,0:0:0:0:
480,128,139896,1,0,0:0:0:0:
384,160,140310,1,0,0:0:0:0:
448,128,140620,1,2,0:0:0:0:
352,160,140931,1,2,0:0:0:0:
416,160,141137,1,0,0:0:0:0:
416,160,141241,1,0,0:0:0:0:
416,160,141448,1,0,0:0:0:0:
416,128,141551,1,2,0:0:0:0:
448,128,141758,1,0,0:0:0:0:
416,160,141965,1,0,0:0:0:0:
480,128,142172,1,2,0:0:0:0:
416,160,142379,1,2,0:0:0:0:
448,128,142689,1,0,0:0:0:0:
384,160,143000,1,2,0:0:0:0:
416,96,143310,1,0,0:0:0:0:
384,128,143413,1,0,0:0:0:0:
512,224,143620,1,2,0:0:0:0:
448,160,144034,1,0,0:0:0:0:
384,256,144448,1,0,0:0:0:0:
416,192,144758,1,2,0:0:0:0:
448,128,145068,1,0,0:0:0:0:
384,192,145379,1,0,0:0:0:0:
416,192,145482,1,2,0:0:0:0:
512,128,145689,1,0,0:0:0:0:
448,128,145896,1,2,0:0:0:0:
512,160,146103,1,0,0:0:0:0:
480,160,146206,1,2,0:0:0:0:
448,160,146310,1,2,0:0:0:0:
512,128,146517,1,0,0:0:0:0:
480,128,146620,1,2,0:0:0:0:
448,160,146724,1,2,0:0:0:0:
448,160,146827,1,0,0:0:0:0:
480,160,147034,1,2,0:0:0:0:
480,128,147137,1,0,0:0:0:0:
416,192,147448,1,0,0:0:0:0:
416,160,147551,1,0,0:0:0:0:
448,128,147758,1,2,0:0:0:0:
448,160,148172,1,0,0:0:0:0:
384,256,148586,1,0,0:0:0:0:
448,192,148896,1,0,0:0:0:0:
416,128,149206,1,2,0:0:0:0:
416,224,149619,1,2,0:0:0:0:
448,192,149826,1,2,0:0:0:0:
448,160,149930,1,0,0:0:0:0:
480,128,150033,1,2,0:0:0:0:
480,160,150137,1,0,0:0:0:0:
480,160,150240,1,2,0:0:0:0:
512,128,150344,1,0,0:0:0:0:
480,128,150447,1,2,0:0:0:0:
480,160,150550,1,0,0:0:0:0:
448,160,150654,1,2,0:0:0:0:
480,128,150757,1,0,0:0:0:0:
448,160,150861,1,2,0:0:0:0:
384,160,151068,1,2,0:0:0:0:
416,160,151171,1,2,0:0:0:0:
416,192,151275,1,2,0:0:0:0:
480,128,151378,1,0,0:0:0:0:
448,128,151481,1,0,0:0:0:0:
480,128,151585,1,2,0:0:0:0:
480,160,151688,1,0,0:0:0:0:
480,160,151792,1,0,0:0:0:0:
480,128,151895,1,2,0:0:0:0:
416,192,151999,1,2,0:0:0:0:
480,128,152102,1,0,0:0:0:0:
416,224,152516,1,6,0:0:0:0:
448,160,152826,1,0,0:0:0:0:
416,160,152929,1,0,0:0:0:0:
384,160,153033,1,0,0:0:0:0:
384,192,153136,1,0,0:0:0:0:
480,128,153240,1,2,0:0:0:0:
448,128,153343,1,4,0:0:0:0:
448,160,153653,1,0,0:0:0:0:
416,160,153757,1,0,0:0:0:0:
416,192,153860,1,0,0:0:0:0:
416,160,153964,1,0,0:0:0:0:
480,128,154067,1,2,0:0:0:0:
480,160,154171,1,4,0:0:0:0:
448,160,154481,1,0,0:0:0:0:
416,192,154584,1,0,0:0:0:0:
416,192,154688,1,0,0:0:0:0:
416,192,154791,1,0,0:0:0:0:
448,160,154895,1,2,0:0:0:0:
256,192,154998,12,4,155619,0:0:0:0:
448,192,155826,5,0,0:0:0:0:
448,192,155930,5,0,0:0:0:0:
448,160,156033,1,2,0:0:0:0:
448,160,156137,1,2,0:0:0:0:
416,160,156344,1,2,0:0:0:0:
352,160,156550,1,2,0:0:0:0:
384,192,156653,1,0,0:0:0:0:
416,192,156757,1,0,0:0:0:0:
384,224,156860,1,0,0:0:0:0:
416,224,156964,1,0,0:0:0:0:
448,160,157067,1,2,0:0:0:0:
480,128,157274,1,0,0:0:0:0:
448,160,157378,1,2,0:0:0:0:
416,160,157481,1,0,0:0:0:0:
384,96,157688,1,0,0:0:0:0:
384,160,157895,1,0,0:0:0:0:
480,128,158102,1,2,0:0:0:0:
448,160,158309,1,0,0:0:0:0:
416,224,158514,1,6,0:0:0:0:
352,224,158720,1,0,0:0:0:0:
320,224,158824,1,0,0:0:0:0:
352,224,158927,1,2,0:0:0:0:
416,192,159134,1,0,0:0:0:0:
480,128,159238,1,2,0:0:0:0:
416,128,159445,1,0,0:0:0:0:
384,128,159548,1,0,0:0:0:0:
448,128,159755,1,2,0:0:0:0:
416,192,159962,1,2,0:0:0:0:
416,192,160065,1,2,0:0:0:0:
448,128,160169,1,0,0:0:0:0:
416,128,160272,1,0,0:0:0:0:
384,192,160479,1,0,0:0:0:0:
416,192,160582,1,2,0:0:0:0:
448,160,160789,1,0,0:0:0:0:
480,128,161100,1,2,0:0:0:0:
384,192,161203,1,0,0:0:0:0:
448,160,161410,1,2,0:0:0:0:
448,160,161514,1,2,0:0:0:0:
448,160,161617,1,0,0:0:0:0:
416,192,161824,1,4,0:0:0:0:
352,160,162134,1,0,0:0:0:0:
448,160,162445,1,2,0:0:0:0:
384,224,162755,1,2,0:0:0:0:
416,192,162858,1,0,0:0:0:0:
416,192,163065,1,0,0:0:0:0:
448,160,163272,1,2,0:0:0:0:
448,160,163686,1,0,0:0:0:0:
384,256,163893,1,2,0:0:0:0:
448,192,164203,1,2,0:0:0:0:
448,160,164307,1,0,0:0:0:0:
448,128,164410,1,2,0:0:0:0:
448,160,164514,1,0,0:0:0:0:
448,160,164720,1,2,0:0:0:0:
480,96,164927,1,0,0:0:0:0:
480,96,165031,1,2,0:0:0:0:
448,128,165134,1,0,0:0:0:0:
416,192,165445,1,0,0:0:0:0:
448,160,165548,1,2,0:0:0:0:
480,160,165755,1,0,0:0:0:0:
480,128,165858,1,2,0:0:0:0:
416,192,165962,1,0,0:0:0:0:
416,160,166065,1,0,0:0:0:0:
448,160,166169,1,0,0:0:0:0:
480,128,166376,1,2,0:0:0:0:
416,160,166582,1,0,0:0:0:0:
384,160,166686,1,0,0:0:0:0:
416,160,166789,1,2,0:0:0:0:
448,224,167099,1,2,0:0:0:0:
448,192,167203,1,0,0:0:0:0:
448,96,167410,1,2,0:0:0:0:
384,128,167720,1,2,0:0:0:0:
416,160,167824,1,0,0:0:0:0:
480,128,168031,1,2,0:0:0:0:
480,96,168134,1,2,0:0:0:0:
480,128,168238,1,0,0:0:0:0:
448,160,168445,1,4,0:0:0:0:
448,192,168651,1,0,0:0:0:0:
416,192,168755,1,0,0:0:0:0:
416,192,168858,1,0,0:0:0:0:
448,160,169065,1,2,0:0:0:0:
448,160,169272,1,0,0:0:0:0:
480,192,169479,1,4,0:0:0:0:
480,128,169686,1,0,0:0:0:0:
480,192,169893,1,6,0:0:0:0:
384,160,170307,1,0,0:0:0:0:
416,160,170514,1,2,0:0:0:0:
416,160,170720,1,0,0:0:0:0:
448,160,170824,1,2,0:0:0:0:
448,128,170927,1,2,0:0:0:0:
416,160,171031,1,2,0:0:0:0:
480,128,171134,1,0,0:0:0:0:
448,160,171238,1,2,0:0:0:0:
416,128,171341,1,2,0:0:0:0:
416,160,171445,1,0,0:0:0:0:
416,160,171548,1,0,0:0:0:0:
416,160,171755,1,6,0:0:0:0:
352,160,171962,1,0,0:0:0:0:
384,192,172065,1,0,0:0:0:0:
416,128,172169,1,2,0:0:0:0:
448,160,172376,1,0,0:0:0:0:
448,160,172479,1,2,0:0:0:0:
448,160,172686,1,2,0:0:0:0:
448,160,172789,1,0,0:0:0:0:
416,192,172996,1,2,0:0:0:0:
416,192,173203,1,2,0:0:0:0:
416,192,173307,1,2,0:0:0:0:
448,160,173410,1,0,0:0:0:0:
448,128,173514,1,0,0:0:0:0:
448,160,173720,1,0,0:0:0:0:
448,160,173824,1,2,0:0:0:0:
416,224,174031,1,0,0:0:0:0:
384,224,174134,1,0,0:0:0:0:
448,160,174341,1,2,0:0:0:0:
448,160,174445,1,0,0:0:0:0:
448,160,174548,1,0,0:0:0:0:
448,160,174651,1,2,0:0:0:0:
416,160,174755,1,0,0:0:0:0:
416,224,174962,1,0,0:0:0:0:
448,160,175065,1,0,0:0:0:0:
384,192,175376,1,0,0:0:0:0:
416,160,175686,1,2,0:0:0:0:
480,128,175996,1,2,0:0:0:0:
480,160,176100,1,0,0:0:0:0:
384,160,176307,1,0,0:0:0:0:
448,128,176514,1,2,0:0:0:0:
352,128,176927,1,0,0:0:0:0:
416,128,177134,1,2,0:0:0:0:
512,160,177445,1,2,0:0:0:0:
480,128,177548,1,0,0:0:0:0:
480,128,177651,1,2,0:0:0:0:
416,160,177755,1,0,0:0:0:0:
416,160,177962,1,2,0:0:0:0:
448,160,178169,1,0,0:0:0:0:
448,192,178272,1,0,0:0:0:0:
416,192,178376,1,2,0:0:0:0:
416,224,178479,1,2,0:0:0:0:
416,160,178686,1,0,0:0:0:0:
416,160,178789,1,0,0:0:0:0:
480,128,178996,1,2,0:0:0:0:
416,160,179100,1,2,0:0:0:0:
480,128,179307,1,2,0:0:0:0:
416,160,179410,1,0,0:0:0:0:
416,160,179514,1,0,0:0:0:0:
416,128,179617,1,2,0:0:0:0:
448,160,179720,1,2,0:0:0:0:
448,128,179824,1,0,0:0:0:0:
416,160,180031,1,2,0:0:0:0:
384,192,180134,1,2,0:0:0:0:
480,160,180341,1,0,0:0:0:0:
416,128,180445,1,0,0:0:0:0:
416,128,180651,1,2,0:0:0:0:
384,160,180755,1,2,0:0:0:0:
320,160,180962,1,2,0:0:0:0:
416,160,181065,1,0,0:0:0:0:
384,160,181169,1,0,0:0:0:0:
416,224,181272,1,2,0:0:0:0:
416,224,181376,1,2,0:0:0:0:
384,224,181479,1,0,0:0:0:0:
384,192,181582,1,0,0:0:0:0:
448,160,181686,1,2,0:0:0:0:
416,160,181789,1,2,0:0:0:0:
480,128,181996,1,0,0:0:0:0:
448,160,182100,1,0,0:0:0:0:
448,160,182307,1,2,0:0:0:0:
448,160,182410,1,2,0:0:0:0:
448,160,182617,1,0,0:0:0:0:
448,160,182720,1,0,0:0:0:0:
480,128,182927,1,2,0:0:0:0:
512,128,183134,1,2,0:0:0:0:
480,160,183238,1,0,0:0:0:0:
480,128,183341,1,2,0:0:0:0:
448,160,183445,1,2,0:0:0:0:
384,160,183651,1,0,0:0:0:0:
448,128,183962,1,2,0:0:0:0:
320,128,184272,1,2,0:0:0:0:
416,160,184376,1,0,0:0:0:0:
416,160,184479,1,0,0:0:0:0:
448,160,184582,1,2,0:0:0:0:
416,160,184686,1,2,0:0:0:0:
448,160,184789,1,2,0:0:0:0:
416,160,184893,1,2,0:0:0:0:
448,160,184996,1,0,0:0:0:0:
416,160,185100,1,0,0:0:0:0:
384,160,185203,1,0,0:0:0:0:
448,128,185307,1,2,0:0:0:0:
416,160,185410,1,2,0:0:0:0:
512,160,185514,1,0,0:0:0:0:
448,128,185617,1,2,0:0:0:0:
448,160,185720,1,0,0:0:0:0:
480,128,185824,1,2,0:0:0:0:
448,160,185927,1,2,0:0:0:0:
448,128,186134,1,0,0:0:0:0:
416,160,186238,1,0,0:0:0:0:
416,160,186341,1,0,0:0:0:0:
448,160,186445,1,2,0:0:0:0:
480,160,186548,1,0,0:0:0:0:
448,128,186651,1,2,0:0:0:0:
448,160,186755,1,2,0:0:0:0:
480,128,186858,1,0,0:0:0:0:
448,160,187065,1,0,0:0:0:0:
416,192,187169,1,0,0:0:0:0:
480,128,187272,1,2,0:0:0:0:
448,160,187376,1,0,0:0:0:0:
480,128,187479,1,2,0:0:0:0:
448,160,187582,1,2,0:0:0:0:
448,160,187686,1,0,0:0:0:0:
416,224,187893,1,0,0:0:0:0:
416,224,187996,1,0,0:0:0:0:
448,160,188100,1,2,0:0:0:0:
448,160,188203,1,2,0:0:0:0:
416,192,188307,1,4,0:0:0:0:
320,160,188617,1,0,0:0:0:0:
352,160,188720,1,0,0:0:0:0:
352,160,188927,1,2,0:0:0:0:
448,160,189031,1,2,0:0:0:0:
448,160,189134,1,0,0:0:0:0:
416,192,189341,1,0,0:0:0:0:
416,224,189445,1,0,0:0:0:0:
448,160,189755,1,2,0:0:0:0:
352,96,190065,1,0,0:0:0:0:
288,128,190376,1,0,0:0:0:0:
352,192,190582,1,2,0:0:0:0:
448,160,190996,1,2,0:0:0:0:
448,160,191100,1,0,0:0:0:0:
448,160,191307,1,0,0:0:0:0:
480,160,191410,1,2,0:0:0:0:
480,128,191514,1,2,0:0:0:0:
512,128,191617,1,0,0:0:0:0:
448,160,191927,1,0,0:0:0:0:
416,192,192031,1,0,0:0:0:0:
416,192,192341,1,0,0:0:0:0:
512,128,192445,1,2,0:0:0:0:
448,160,192548,1,0,0:0:0:0:
448,160,192651,1,0,0:0:0:0:
448,128,192755,1,2,0:0:0:0:
448,160,192858,1,2,0:0:0:0:
448,128,192962,1,0,0:0:0:0:
448,160,193065,1,0,0:0:0:0:
512,128,193272,1,2,0:0:0:0:
480,128,193376,1,0,0:0:0:0:
448,128,193479,1,0,0:0:0:0:
448,192,193686,1,2,0:0:0:0:
448,192,193893,1,0,0:0:0:0:
416,192,193996,1,2,0:0:0:0:
416,160,194100,1,2,0:0:0:0:
416,160,194203,1,2,0:0:0:0:
448,160,194307,1,0,0:0:0:0:
448,192,194514,1,2,0:0:0:0:
416,192,194720,1,0,0:0:0:0:
384,160,194824,1,2,0:0:0:0:
448,160,194927,1,2,0:0:0:0:
448,192,195238,1,0,0:0:0:0:
416,160,195342,1,2,0:0:0:0:
448,160,195548,1,0,0:0:0:0:
448,128,195651,1,2,0:0:0:0:
416,160,195755,1,2,0:0:0:0:
448,160,195962,1,0,0:0:0:0:
448,160,196065,1,0,0:0:0:0:
448,160,196169,1,2,0:0:0:0:
384,160,196376,1,0,0:0:0:0:
448,160,196789,1,0,0:0:0:0:
448,160,196996,1,2,0:0:0:0:
448,160,197100,1,2,0:0:0:0:
480,128,197203,1,0,0:0:0:0:
480,128,197410,1,2,0:0:0:0:
448,128,197617,1,2,0:0:0:0:
480,160,197720,1,0,0:0:0:0:
416,160,197927,1,0,0:0:0:0:
416,192,198031,1,2,0:0:0:0:
416,192,198238,1,0,0:0:0:0:
384,96,198548,1,0,0:0:0:0:
448,128,198651,1,2,0:0:0:0:
384,128,198858,1,0,0:0:0:0:
448,128,198962,1,0,0:0:0:0:
480,128,199065,1,2,0:0:0:0:
480,128,199272,1,0,0:0:0:0:
448,128,199376,1,2,0:0:0:0:
416,160,199479,1,2,0:0:0:0:
448,128,199686,1,0,0:0:0:0:
416,128,199789,1,0,0:0:0:0:
416,160,199893,1,0,0:0:0:0:
448,128,199996,1,2,0:0:0:0:
448,128,200100,1,2,0:0:0:0:
480,128,200203,1,0,0:0:0:0:
448,160,200307,1,2,0:0:0:0:
448,128,200410,1,0,0:0:0:0:
448,128,200514,1,0,0:0:0:0:
416,128,200617,1,0,0:0:0:0:
448,128,200720,1,2,0:0:0:0:
416,128,200824,1,2,0:0:0:0:
448,128,200927,1,0,0:0:0:0:
448,128,201031,1,0,0:0:0:0:
448,128,201134,1,2,0:0:0:0:
448,128,201238,1,2,0:0:0:0:
416,128,201341,1,2,0:0:0:0:
416,160,201445,1,2,0:0:0:0:
448,160,201548,1,6,0:0:0:0:
448,128,201651,1,0,0:0:0:0:
448,160,201755,1,0,0:0:0:0:
480,128,201858,1,2,0:0:0:0:
416,160,202065,1,2,0:0:0:0:
448,160,202272,1,2,0:0:0:0:
448,128,202479,1,0,0:0:0:0:
448,128,202582,1,0,0:0:0:0:
480,128,202686,1,0,0:0:0:0:
448,160,202789,1,2,0:0:0:0:
448,160,202996,1,0,0:0:0:0:
448,192,203100,1,0,0:0:0:0:
416,192,203203,1,2,0:0:0:0:
448,160,203410,1,2,0:0:0:0:
448,160,203617,1,0,0:0:0:0:
448,128,203824,1,0,0:0:0:0:
448,160,203927,1,0,0:0:0:0:
480,128,204031,1,2,0:0:0:0:
448,160,204134,1,2,0:0:0:0:
480,128,204238,1,0,0:0:0:0:
480,128,204341,1,2,0:0:0:0:
448,160,204548,1,2,0:0:0:0:
480,128,204651,1,0,0:0:0:0:
416,192,204755,1,0,0:0:0:0:
384,160,204858,1,0,0:0:0:0:
416,192,205169,1,0,0:0:0:0:
416,192,205272,1,2,0:0:0:0:
512,128,205479,1,0,0:0:0:0:
480,128,205582,1,2,0:0:0:0:
448,128,205686,1,0,0:0:0:0:
448,128,205789,1,0,0:0:0:0:
512,128,205893,1,2,0:0:0:0:
480,128,205996,1,0,0:0:0:0:
448,160,206100,1,2,0:0:0:0:
384,160,206307,1,0,0:0:0:0:
416,160,206410,1,0,0:0:0:0:
448,160,206514,1,2,0:0:0:0:
416,160,206617,1,2,0:0:0:0:
448,160,206824,1,0,0:0:0:0:
416,192,206927,1,2,0:0:0:0:
448,224,207134,1,2,0:0:0:0:
416,192,207238,1,2,0:0:0:0:
512,128,207341,1,0,0:0:0:0:
448,160,207445,1,2,0:0:0:0:
448,192,207548,1,0,0:0:0:0:
480,128,207755,1,2,0:0:0:0:
480,128,207824,1,2,0:0:0:0:
480,128,207893,1,2,0:0:0:0:
480,128,207962,1,2,0:0:0:0:
448,160,208065,1,0,0:0:0:0:
416,192,208169,1,2,0:0:0:0:
512,128,208479,1,0,0:0:0:0:
480,128,208582,1,2,0:0:0:0:
416,192,208789,1,2,0:0:0:0:
480,128,208893,1,0,0:0:0:0:
448,160,208996,1,0,0:0:0:0:
480,160,209100,1,2,0:0:0:0:
480,128,209203,1,0,0:0:0:0:
448,128,209307,1,0,0:0:0:0:
480,128,209410,1,2,0:0:0:0:
448,128,209617,1,0,0:0:0:0:
480,128,209720,1,2,0:0:0:0:
448,128,209824,1,0,0:0:0:0:
416,160,210031,1,0,0:0:0:0:
416,160,210134,1,0,0:0:0:0:
448,160,210238,1,2,0:0:0:0:
416,224,210445,1,0,0:0:0:0:
416,192,210548,1,0,0:0:0:0:
416,224,210651,1,0,0:0:0:0:
448,192,210755,1,2,0:0:0:0:
480,128,210858,1,0,0:0:0:0:
448,160,210962,1,0,0:0:0:0:
448,128,211065,1,2,0:0:0:0:
480,128,211169,1,0,0:0:0:0:
448,160,211272,1,2,0:0:0:0:
416,192,211479,1,2,0:0:0:0:
480,128,211686,1,0,0:0:0:0:
448,160,211789,1,0,0:0:0:0:
416,192,211893,1,2,0:0:0:0:
384,160,212100,1,2,0:0:0:0:
352,160,212203,1,2,0:0:0:0:
480,128,212307,1,0,0:0:0:0:
448,128,212410,1,0,0:0:0:0:
416,160,212514,1,0,0:0:0:0:
448,128,212617,1,2,0:0:0:0:
448,128,212720,1,2,0:0:0:0:
448,192,212927,1,6,0:0:0:0:
416,160,213341,1,0,0:0:0:0:
352,192,213548,1,0,0:0:0:0:
416,192,213755,1,0,0:0:0:0:
416,160,213858,1,2,0:0:0:0:
416,160,213962,1,2,0:0:0:0:
384,224,214272,1,2,0:0:0:0:
416,160,214479,1,2,0:0:0:0:
416,128,214582,1,2,0:0:0:0:
416,128,214686,1,2,0:0:0:0:
448,192,214789,1,4,0:0:0:0:
448,128,214995,1,2,0:0:0:0:
480,128,215203,1,0,0:0:0:0:
448,160,215306,1,2,0:0:0:0:
384,96,215616,1,2,0:0:0:0:
416,96,215720,1,0,0:0:0:0:
448,128,215823,1,0,0:0:0:0:
480,160,215926,1,2,0:0:0:0:
480,128,216133,1,0,0:0:0:0:
448,160,216237,1,2,0:0:0:0:
288,128,216857,1,2,0:0:0:0:
384,192,217271,1,0,0:0:0:0:
448,224,217685,1,0,0:0:0:0:
480,128,217995,1,2,0:0:0:0:
416,128,218306,1,2,0:0:0:0:
480,160,218513,1,0,0:0:0:0:
448,160,218616,1,0,0:0:0:0:
384,192,218823,1,0,0:0:0:0:
480,128,218926,1,2,0:0:0:0:
448,160,219133,1,2,0:0:0:0:
480,160,219340,1,0,0:0:0:0:
480,160,219444,1,2,0:0:0:0:
448,192,219547,1,0,0:0:0:0:
480,160,219754,1,2,0:0:0:0:
448,160,219857,1,0,0:0:0:0:
416,192,219961,1,0,0:0:0:0:
448,160,220064,1,2,0:0:0:0:
512,128,220271,1,0,0:0:0:0:
448,160,220375,1,2,0:0:0:0:
480,128,220789,1,0,0:0:0:0:
448,192,220995,1,2,0:0:0:0:
448,128,221409,1,0,0:0:0:0:
416,192,221823,1,0,0:0:0:0:
480,128,222133,1,2,0:0:0:0:
416,128,222340,1,2,0:0:0:0:
480,128,222444,1,0,0:0:0:0:
416,192,222754,1,0,0:0:0:0:
448,192,222857,1,2,0:0:0:0:
448,128,223064,1,0,0:0:0:0:
448,192,223271,1,2,0:0:0:0:
448,128,223478,1,0,0:0:0:0:
448,160,223582,1,0,0:0:0:0:
480,160,223685,1,2,0:0:0:0:
448,160,223892,1,0,0:0:0:0:
480,128,223995,1,2,0:0:0:0:
448,128,224099,1,2,0:0:0:0:
448,160,224202,1,2,0:0:0:0:
416,160,224409,1,2,0:0:0:0:
448,192,224513,1,0,0:0:0:0:
416,160,224926,1,2,0:0:0:0:
448,160,225133,1,0,0:0:0:0:
416,160,225237,1,0,0:0:0:0:
416,160,225340,1,0,0:0:0:0:
416,192,225444,1,0,0:0:0:0:
416,192,225547,1,0,0:0:0:0:
448,192,225651,1,2,0:0:0:0:
448,160,225754,1,0,0:0:0:0:
448,128,225857,1,2,0:0:0:0:
448,128,225961,1,2,0:0:0:0:
480,128,226030,1,0,0:0:0:0:
448,128,226099,1,0,0:0:0:0:
448,128,226168,1,0,0:0:0:0:
416,160,226271,1,0,0:0:0:0:
480,128,226375,1,2,0:0:0:0:
448,128,226478,1,2,0:0:0:0:
448,160,226582,1,0,0:0:0:0:
480,160,226995,1,2,0:0:0:0:
480,128,227099,1,0,0:0:0:0:
480,160,227202,1,2,0:0:0:0:
480,128,227306,1,0,0:0:0:0:
480,128,227409,1,2,0:0:0:0:
480,160,227513,1,0,0:0:0:0:
480,160,227616,1,2,0:0:0:0:
480,128,227720,1,0,0:0:0:0:
480,128,227823,1,2,0:0:0:0:
448,128,227926,1,0,0:0:0:0:
480,160,228030,1,2,0:0:0:0:
448,160,228133,1,0,0:0:0:0:
480,160,228237,1,2,0:0:0:0:
448,160,228340,1,0,0:0:0:0:
416,192,228444,1,0,0:0:0:0:
480,128,228547,1,2,0:0:0:0:
448,160,228651,1,2,0:0:0:0:
480,160,228754,1,0,0:0:0:0:
480,160,228857,1,2,0:0:0:0:
448,160,228961,1,2,0:0:0:0:
480,160,229064,1,0,0:0:0:0:
480,128,229168,1,2,0:0:0:0:
448,160,229271,1,2,0:0:0:0:
416,192,229375,1,0,0:0:0:0:
448,160,229478,1,2,0:0:0:0:
352,224,229892,1,6,0:0:0:0:
416,160,230202,1,0,0:0:0:0:
416,160,230305,1,0,0:0:0:0:
416,160,230409,1,0,0:0:0:0:
416,192,230512,1,0,0:0:0:0:
480,160,230616,1,2,0:0:0:0:
480,192,230719,1,4,0:0:0:0:
448,160,231029,1,0,0:0:0:0:
448,160,231133,1,0,0:0:0:0:
416,192,231236,1,0,0:0:0:0:
416,192,231340,1,0,0:0:0:0:
448,160,231443,1,2,0:0:0:0:
448,192,231547,1,4,0:0:0:0:
448,160,231857,1,0,0:0:0:0:
416,192,231960,1,0,0:0:0:0:
416,192,232064,1,0,0:0:0:0:
416,192,232167,1,0,0:0:0:0:
448,160,232271,1,2,0:0:0:0:
256,192,232374,12,0,233098,0:0:0:0:
224,288,233202,5,0,0:0:0:0:
256,288,233305,5,0,0:0:0:0:
288,256,233409,1,2,0:0:0:0:
320,256,233512,1,2,0:0:0:0:
384,256,233719,1,2,0:0:0:0:
416,224,233926,1,2,0:0:0:0:
416,192,234029,1,0,0:0:0:0:
448,160,234133,1,0,0:0:0:0:
416,160,234237,1,0,0:0:0:0:
416,192,234443,1,2,0:0:0:0:
448,160,234650,1,0,0:0:0:0:
480,160,234754,1,2,0:0:0:0:
416,192,234857,1,0,0:0:0:0:
480,160,235064,1,2,0:0:0:0:
448,96,235271,1,0,0:0:0:0:
448,160,235374,1,0,0:0:0:0:
480,160,235478,1,2,0:0:0:0:
448,160,235685,1,0,0:0:0:0:
480,192,235892,1,6,0:0:0:0:
416,192,236098,1,0,0:0:0:0:
384,192,236202,1,0,0:0:0:0:
448,160,236305,1,2,0:0:0:0:
480,128,236512,1,0,0:0:0:0:
480,128,236616,1,2,0:0:0:0:
416,160,236823,1,2,0:0:0:0:
480,128,236926,1,0,0:0:0:0:
448,128,237029,1,0,0:0:0:0:
480,128,237133,1,2,0:0:0:0:
448,160,237340,1,2,0:0:0:0:
416,192,237443,1,2,0:0:0:0:
480,128,237547,1,0,0:0:0:0:
448,128,237650,1,0,0:0:0:0:
416,160,237857,1,0,0:0:0:0:
448,160,237960,1,2,0:0:0:0:
416,160,238167,1,0,0:0:0:0:
512,160,238478,1,2,0:0:0:0:
448,160,238581,1,0,0:0:0:0:
448,160,238685,1,0,0:0:0:0:
448,160,238788,1,2,0:0:0:0:
448,128,238892,1,0,0:0:0:0:
416,160,238995,1,0,0:0:0:0:
384,160,239202,1,0,0:0:0:0:
320,96,239512,1,0,0:0:0:0:
384,128,239823,1,2,0:0:0:0:
416,192,240236,1,0,0:0:0:0:
448,160,240443,1,2,0:0:0:0:
448,96,240650,1,2,0:0:0:0:
448,128,240754,1,2,0:0:0:0:
448,160,240857,1,0,0:0:0:0:
416,160,240960,1,0,0:0:0:0:
352,192,241167,1,0,0:0:0:0:
448,160,241271,1,2,0:0:0:0:
448,160,241478,1,0,0:0:0:0:
416,160,241581,1,0,0:0:0:0:
416,192,241788,1,2,0:0:0:0:
448,160,241892,1,0,0:0:0:0:
416,192,241995,1,0,0:0:0:0:
448,128,242098,1,2,0:0:0:0:
448,160,242202,1,2,0:0:0:0:
448,160,242305,1,0,0:0:0:0:
512,128,242512,1,2,0:0:0:0:
448,160,242823,1,0,0:0:0:0:
416,160,243133,1,2,0:0:0:0:
416,160,243443,1,2,0:0:0:0:
448,160,243547,1,0,0:0:0:0:
480,128,243754,1,2,0:0:0:0:
480,128,243857,1,0,0:0:0:0:
448,160,243960,1,0,0:0:0:0:
448,160,244167,1,2,0:0:0:0:
352,160,244478,1,0,0:0:0:0:
448,160,244788,1,2,0:0:0:0:
384,192,245098,1,2,0:0:0:0:
352,192,245202,1,0,0:0:0:0:
448,160,245305,1,2,0:0:0:0:
352,192,245409,1,2,0:0:0:0:
384,160,245512,1,0,0:0:0:0:
384,128,245616,1,0,0:0:0:0:
448,128,245823,1,2,0:0:0:0:
480,160,246029,1,0,0:0:0:0:
448,128,246133,1,0,0:0:0:0:
480,160,246236,1,2,0:0:0:0:
512,128,246443,1,0,0:0:0:0:
480,128,246547,1,2,0:0:0:0:
448,128,246650,1,0,0:0:0:0:
448,128,246754,1,0,0:0:0:0:
448,160,246857,1,0,0:0:0:0:
448,160,247064,1,2,0:0:0:0:
448,224,247271,1,6,0:0:0:0:
416,160,247478,1,0,0:0:0:0:
384,224,247685,1,0,0:0:0:0:
448,224,247892,1,6,0:0:0:0:
448,160,248098,1,0,0:0:0:0:
448,160,248202,1,2,0:0:0:0:
416,160,248305,1,2,0:0:0:0:
448,160,248409,1,2,0:0:0:0:
416,160,248512,1,0,0:0:0:0:
448,160,248719,1,2,0:0:0:0:
448,160,248823,1,0,0:0:0:0:
448,160,248926,1,0,0:0:0:0:
448,160,249029,1,2,0:0:0:0:
416,192,249133,1,0,0:0:0:0:
352,192,249340,1,0,0:0:0:0:
320,192,249443,1,0,0:0:0:0:
448,160,249547,1,2,0:0:0:0:
480,128,249754,1,0,0:0:0:0:
448,128,249857,1,2,0:0:0:0:
384,160,250064,1,0,0:0:0:0:
416,160,250167,1,0,0:0:0:0:
480,128,250374,1,2,0:0:0:0:
448,160,250478,1,2,0:0:0:0:
448,160,250581,1,0,0:0:0:0:
512,128,250788,1,2,0:0:0:0:
480,128,250892,1,0,0:0:0:0:
448,128,251098,1,0,0:0:0:0:
448,128,251305,1,0,0:0:0:0:
448,160,251409,1,0,0:0:0:0:
448,160,251512,1,2,0:0:0:0:
416,192,251719,1,2,0:0:0:0:
480,128,251823,1,0,0:0:0:0:
480,128,252029,1,2,0:0:0:0:
480,128,252133,1,0,0:0:0:0:
448,160,252236,1,0,0:0:0:0:
384,128,252443,1,0,0:0:0:0:
384,224,252754,1,0,0:0:0:0:
448,160,253064,1,2,0:0:0:0:
352,160,253374,1,2,0:0:0:0:
480,128,253478,1,0,0:0:0:0:
416,128,253685,1,0,0:0:0:0:
448,128,253892,1,2,0:0:0:0:
448,128,253995,1,2,0:0:0:0:
480,128,254098,1,0,0:0:0:0:
448,256,254305,1,0,0:0:0:0:
448,160,254512,1,2,0:0:0:0:
448,96,254719,1,0,0:0:0:0:
416,160,254823,1,2,0:0:0:0:
448,160,255029,1,2,0:0:0:0:
416,160,255133,1,0,0:0:0:0:
416,160,255340,1,2,0:0:0:0:
352,160,255547,1,0,0:0:0:0:
416,128,255650,1,0,0:0:0:0:
448,160,255754,1,2,0:0:0:0:
512,96,256064,1,0,0:0:0:0:
512,128,256167,1,2,0:0:0:0:
480,128,256374,1,0,0:0:0:0:
448,160,256478,1,2,0:0:0:0:
448,160,256581,1,0,0:0:0:0:
416,192,256788,1,0,0:0:0:0:
448,192,256995,1,2,0:0:0:0:
480,128,257202,1,0,0:0:0:0:
480,160,257305,1,2,0:0:0:0:
448,160,257409,1,0,0:0:0:0:
416,192,257512,1,0,0:0:0:0:
448,128,257719,1,0,0:0:0:0:
480,160,257823,1,2,0:0:0:0:
480,128,258029,1,0,0:0:0:0:
448,160,258133,1,2,0:0:0:0:
384,128,258340,1,2,0:0:0:0:
480,128,258443,1,0,0:0:0:0:
448,160,258547,1,0,0:0:0:0:
448,128,258650,1,2,0:0:0:0:
416,160,258754,1,2,0:0:0:0:
448,160,258857,1,0,0:0:0:0:
416,128,259064,1,0,0:0:0:0:
448,64,259167,1,0,0:0:0:0:
480,96,259271,1,2,0:0:0:0:
448,128,259340,1,0,0:0:0:0:
448,128,259409,1,0,0:0:0:0:
448,128,259478,1,2,0:0:0:0:
416,160,259581,1,2,0:0:0:0:
384,160,259685,1,0,0:0:0:0:
416,160,259788,1,2,0:0:0:0:
416,224,259995,1,2,0:0:0:0:
448,160,260098,1,0,0:0:0:0:
448,160,260202,1,0,0:0:0:0:
480,128,260305,1,2,0:0:0:0:
448,160,260409,1,0,0:0:0:0:
416,192,260512,1,2,0:0:0:0:
416,192,260719,1,2,0:0:0:0:
480,128,260823,1,0,0:0:0:0:
448,160,260926,1,0,0:0:0:0:
480,128,261029,1,2,0:0:0:0:
448,160,261133,1,0,0:0:0:0:
448,160,261236,1,0,0:0:0:0:
416,160,261340,1,0,0:0:0:0:
448,160,261443,1,2,0:0:0:0:
416,160,261547,1,2,0:0:0:0:
416,160,261650,1,2,0:0:0:0:
480,128,261754,1,0,0:0:0:0:
448,160,261857,1,2,0:0:0:0:
448,160,261960,1,2,0:0:0:0:
416,160,262064,1,2,0:0:0:0:
480,128,262167,1,0,0:0:0:0:
512,160,262374,1,6,0:0:0:0:
416,160,262650,1,6,0:0:0:0:
288,160,262995,1,0,0:0:0:0:
288,160,263098,1,0,0:0:0:0:
320,160,263202,1,0,0:0:0:0:
384,352,263409,1,6,0:0:0:0:
384,288,263616,1,0,0:0:0:0:
384,256,263719,1,0,0:0:0:0:
416,256,263823,1,6,0:0:0:0:
416,224,264029,1,0,0:0:0:0:
416,192,264133,1,0,0:0:0:0:
416,160,264236,1,0,0:0:0:0:
384,160,264340,1,0,0:0:0:0:
256,256,264443,1,6,0:0:0:0:
416,160,264650,1,0,0:0:0:0:
416,160,264754,1,0,0:0:0:0:
416,192,264857,1,0,0:0:0:0:
416,192,265064,1,0,0:0:0:0:
448,224,265167,1,6,0:0:0:0:
416,224,265271,1,0,0:0:0:0:
416,224,265374,1,0,0:0:0:0:
384,288,265478,1,6,0:0:0:0:
384,256,265685,1,0,0:0:0:0:
416,160,265788,1,0,0:0:0:0:
448,192,265892,1,6,0:0:0:0:
416,160,266098,1,0,0:0:0:0:
416,192,266202,1,0,0:0:0:0:
416,192,266305,1,0,0:0:0:0:
384,192,266409,1,0,0:0:0:0:
352,352,266512,1,6,0:0:0:0:
384,320,266719,1,2,0:0:0:0:
416,160,266823,1,2,0:0:0:0:
448,160,266926,1,0,0:0:0:0:
416,160,267029,1,0,0:0:0:0:
448,224,267133,1,6,0:0:0:0:
416,192,267340,1,0,0:0:0:0:
384,192,267443,1,0,0:0:0:0:
384,224,267547,1,0,0:0:0:0:
320,320,267754,1,6,0:0:0:0:
416,192,267960,1,0,0:0:0:0:
416,192,268064,1,0,0:0:0:0:
416,192,268167,1,0,0:0:0:0:
416,192,268271,1,0,0:0:0:0:
416,192,268374,1,6,0:0:0:0:
384,192,268581,1,0,0:0:0:0:
384,192,268685,1,0,0:0:0:0:
352,288,268788,1,6,0:0:0:0:
384,224,268994,1,0,0:0:0:0:
416,192,269098,1,6,0:0:0:0:
384,192,269305,1,0,0:0:0:0:
416,192,269408,1,6,0:0:0:0:
416,192,269615,1,6,0:0:0:0:
416,256,269822,1,6,0:0:0:0:
416,224,270029,1,0,0:0:0:0:
416,224,270132,1,0,0:0:0:0:
416,160,270236,1,6,0:0:0:0:
416,192,270443,1,0,0:0:0:0:
416,224,270546,1,0,0:0:0:0:
416,224,270650,1,0,0:0:0:0:
384,320,270856,1,6,0:0:0:0:
384,256,271063,1,0,0:0:0:0:
384,224,271167,1,0,0:0:0:0:
352,192,271270,1,0,0:0:0:0:
384,224,271477,1,0,0:0:0:0:
416,160,271581,1,6,0:0:0:0:
384,160,271684,1,0,0:0:0:0:
352,160,271788,1,0,0:0:0:0:
384,256,271891,1,6,0:0:0:0:
384,160,272305,1,2,0:0:0:0:
416,128,272512,1,0,0:0:0:0:
416,128,272615,1,0,0:0:0:0:
416,128,272719,1,0,0:0:0:0:
416,160,272822,1,0,0:0:0:0:
416,160,272925,1,2,0:0:0:0:
416,192,273029,1,2,0:0:0:0:
416,160,273132,1,0,0:0:0:0:
416,128,273236,1,0,0:0:0:0:
416,160,273443,1,0,0:0:0:0:
416,224,273546,1,6,0:0:0:0:
448,128,273960,1,0,0:0:0:0:
480,160,274167,1,2,0:0:0:0:
480,128,274374,1,0,0:0:0:0:
448,128,274477,1,0,0:0:0:0:
448,160,274684,1,0,0:0:0:0:
416,160,274788,1,2,0:0:0:0:
416,160,274994,1,2,0:0:0:0:
416,192,275098,1,2,0:0:0:0:
448,128,275201,1,0,0:0:0:0:
448,128,275305,1,2,0:0:0:0:
384,224,275408,1,6,0:0:0:0:
352,160,275684,1,6,0:0:0:0:
448,128,276029,1,0,0:0:0:0:
416,128,276132,1,0,0:0:0:0:
384,160,276236,1,0,0:0:0:0:
480,320,276443,1,6,0:0:0:0:
448,288,276650,1,0,0:0:0:0:
416,256,276753,1,0,0:0:0:0:
384,256,276856,1,6,0:0:0:0:
384,160,277167,1,0,0:0:0:0:
384,160,277270,1,0,0:0:0:0:
480,128,277477,1,6,0:0:0:0:
416,128,277684,1,2,0:0:0:0:
384,128,277788,1,2,0:0:0:0:
416,128,277891,1,0,0:0:0:0:
384,160,277994,1,0,0:0:0:0:
416,160,278201,1,6,0:0:0:0:
416,224,278408,1,0,0:0:0:0:
256,288,278512,1,6,0:0:0:0:
352,256,278925,1,6,0:0:0:0:
384,224,279132,1,2,0:0:0:0:
416,192,279236,1,2,0:0:0:0:
448,160,279339,1,0,0:0:0:0:
480,128,279546,1,6,0:0:0:0:
416,160,279753,1,0,0:0:0:0:
480,128,279856,1,2,0:0:0:0:
448,128,279960,1,0,0:0:0:0:
448,160,280063,1,0,0:0:0:0:
384,256,280167,1,6,0:0:0:0:
416,192,280477,1,0,0:0:0:0:
416,160,280581,1,0,0:0:0:0:
416,96,280788,1,6,0:0:0:0:
416,160,280994,1,0,0:0:0:0:
480,128,281098,1,2,0:0:0:0:
448,160,281201,1,0,0:0:0:0:
416,160,281305,1,0,0:0:0:0:
352,256,281408,1,6,0:0:0:0:
384,192,281615,1,0,0:0:0:0:
384,192,281719,1,0,0:0:0:0:
416,160,281822,1,6,0:0:0:0:
384,224,282028,1,0,0:0:0:0:
416,64,282132,1,6,0:0:0:0:
384,192,282235,1,0,0:0:0:0:
384,192,282339,1,0,0:0:0:0:
416,160,282442,1,6,0:0:0:0:
416,96,282649,1,6,0:0:0:0:
384,160,282856,1,6,0:0:0:0:
384,160,283063,1,0,0:0:0:0:
384,160,283166,1,0,0:0:0:0:
416,256,283270,1,6,0:0:0:0:
384,160,283580,1,0,0:0:0:0:
384,160,283684,1,0,0:0:0:0:
384,192,283787,1,0,0:0:0:0:
384,96,283890,1,6,0:0:0:0:
416,128,284097,1,2,0:0:0:0:
416,160,284201,1,2,0:0:0:0:
480,128,284408,1,0,0:0:0:0:
416,160,284511,1,0,0:0:0:0:
416,256,284615,1,6,0:0:0:0:
416,224,284718,1,0,0:0:0:0:
384,192,284822,1,0,0:0:0:0:
384,192,284925,1,6,0:0:0:0:
480,128,285546,1,2,0:0:0:0:
480,128,285649,1,0,0:0:0:0:
448,160,285753,1,0,0:0:0:0:
480,128,285856,1,2,0:0:0:0:
416,192,286166,1,2,0:0:0:0:
448,160,286580,1,6,0:0:0:0:
480,128,287201,1,0,0:0:0:0:
448,128,287304,1,0,0:0:0:0:
416,160,287408,1,0,0:0:0:0:
480,128,287511,1,2,0:0:0:0:
416,192,287822,1,2,0:0:0:0:
448,128,288028,1,0,0:0:0:0:
448,160,288235,1,2,0:0:0:0:
352,96,288856,1,2,0:0:0:0:
384,288,289477,1,2,0:0:0:0:
384,224,289684,1,2,0:0:0:0:
384,224,289753,1,2,0:0:0:0:
384,224,289822,1,2,0:0:0:0:
384,224,289891,1,2,0:0:0:0:
384,224,289943,1,2,0:0:0:0:
384,224,289994,1,2,0:0:0:0:
384,224,290046,1,2,0:0:0:0:
384,224,290098,1,2,0:0:0:0:
384,288,290718,1,2,0:0:0:0:
384,192,291132,1,2,0:0:0:0:
384,288,291546,1,2,0:0:0:0:
384,160,292166,1,2,0:0:0:0:
384,288,292787,1,2,0:0:0:0:
384,224,292994,1,2,0:0:0:0:
384,224,293063,1,2,0:0:0:0:
384,224,293132,1,2,0:0:0:0:
384,224,293201,1,2,0:0:0:0:
384,224,293253,1,2,0:0:0:0:
384,224,293304,1,2,0:0:0:0:
384,224,293356,1,2,0:0:0:0:
384,224,293408,1,2,0:0:0:0:
416,128,293822,1,2,0:0:0:0:
384,256,294442,1,2,0:0:0:0:
384,256,294856,1,2,0:0:0:0:
352,128,295477,1,2,0:0:0:0:
384,288,296097,1,2,0:0:0:0:
384,224,296304,1,2,0:0:0:0:
384,224,296373,1,2,0:0:0:0:
384,224,296442,1,2,0:0:0:0:
384,224,296511,1,2,0:0:0:0:
384,224,296563,1,2,0:0:0:0:
384,224,296614,1,2,0:0:0:0:
384,224,296666,1,2,0:0:0:0:
384,224,296718,1,2,0:0:0:0:
384,224,297339,1,2,0:0:0:0:
384,320,297753,1,2,0:0:0:0:
384,224,298166,1,2,0:0:0:0:
384,224,298787,1,2,0:0:0:0:
384,288,299408,1,2,0:0:0:0:
384,224,299615,1,2,0:0:0:0:
384,224,299684,1,2,0:0:0:0:
384,224,299753,1,2,0:0:0:0:
384,224,299822,1,2,0:0:0:0:
384,224,299874,1,2,0:0:0:0:
384,224,299925,1,2,0:0:0:0:
384,224,299977,1,2,0:0:0:0:
384,224,300029,1,2,0:0:0:0:
448,128,300649,1,2,0:0:0:0:
384,192,301063,1,2,0:0:0:0:
416,320,301684,1,2,0:0:0:0:
416,224,302097,1,2,0:0:0:0:
384,288,302718,1,2,0:0:0:0:
384,224,302925,1,2,0:0:0:0:
384,224,302994,1,2,0:0:0:0:
384,224,303063,1,2,0:0:0:0:
384,224,303132,1,2,0:0:0:0:
384,224,303184,1,2,0:0:0:0:
384,224,303235,1,2,0:0:0:0:
384,224,303287,1,2,0:0:0:0:
384,224,303339,1,2,0:0:0:0:
480,320,303959,1,2,0:0:0:0:
384,224,304580,1,2,0:0:0:0:
416,160,304994,1,2,0:0:0:0:
480,96,305408,1,2,0:0:0:0:
384,288,306028,1,2,0:0:0:0:
384,224,306235,1,2,0:0:0:0:
384,224,306304,1,2,0:0:0:0:
384,224,306373,1,2,0:0:0:0:
384,224,306442,1,2,0:0:0:0:
384,224,306494,1,2,0:0:0:0:
384,224,306545,1,2,0:0:0:0:
384,224,306597,1,2,0:0:0:0:
384,224,306649,1,2,0:0:0:0:
448,128,307270,1,2,0:0:0:0:
384,256,307890,1,2,0:0:0:0:
384,160,308304,1,2,0:0:0:0:
384,256,308718,1,2,0:0:0:0:
384,288,309339,1,2,0:0:0:0:
384,224,309546,1,2,0:0:0:0:
384,224,309615,1,2,0:0:0:0:
384,224,309684,1,2,0:0:0:0:
384,224,309753,1,2,0:0:0:0:
384,224,309805,1,2,0:0:0:0:
384,224,309856,1,2,0:0:0:0:
384,224,309908,1,2,0:0:0:0:
384,224,309960,1,2,0:0:0:0:
448,128,310580,1,2,0:0:0:0:
416,256,311201,1,2,0:0:0:0:
416,224,311408,1,6,0:0:0:0:
448,96,312028,1,2,0:0:0:0:
384,288,312649,1,2,0:0:0:0:
384,224,312856,1,2,0:0:0:0:
384,224,312925,1,2,0:0:0:0:
384,224,312994,1,2,0:0:0:0:
384,224,313063,1,2,0:0:0:0:
384,224,313115,1,2,0:0:0:0:
384,224,313166,1,2,0:0:0:0:
384,224,313218,1,2,0:0:0:0:
384,224,313270,1,2,0:0:0:0:
448,128,313890,1,0,0:0:0:0:
480,128,316166,1,2,0:0:0:0:
480,128,316235,1,0,0:0:0:0:
480,128,316304,1,0,0:0:0:0:
480,128,316373,1,0,0:0:0:0:
480,128,316442,1,0,0:0:0:0:
480,128,316511,1,0,0:0:0:0:
480,128,316580,1,6,0:0:0:0:
352,224,316993,1,0,0:0:0:0:
384,192,317097,1,0,0:0:0:0:
320,192,317200,1,6,0:0:0:0:
320,128,317407,1,0,0:0:0:0:
416,160,317511,1,6,0:0:0:0:
352,224,317769,1,6,0:0:0:0:
384,192,317924,1,0,0:0:0:0:
416,192,318028,1,6,0:0:0:0:
384,160,318338,1,0,0:0:0:0:
384,160,318442,1,0,0:0:0:0:
352,160,318545,1,0,0:0:0:0:
320,32,318648,1,6,0:0:0:0:
352,160,318855,1,0,0:0:0:0:
352,96,318959,1,6,0:0:0:0:
416,160,319217,1,6,0:0:0:0:
352,160,319373,1,0,0:0:0:0:
384,224,319476,1,6,0:0:0:0:
320,160,319890,1,0,0:0:0:0:
320,160,319993,1,0,0:0:0:0:
320,32,320097,1,6,0:0:0:0:
320,96,320304,1,0,0:0:0:0:
352,96,320408,1,6,0:0:0:0:
416,160,320666,1,6,0:0:0:0:
384,192,320821,1,0,0:0:0:0:
384,224,320925,1,6,0:0:0:0:
256,160,321235,1,0,0:0:0:0:
288,192,321338,1,0,0:0:0:0:
256,160,321442,1,0,0:0:0:0:
320,32,321545,1,6,0:0:0:0:
384,192,321752,1,0,0:0:0:0:
352,96,321856,1,6,0:0:0:0:
416,160,322114,1,6,0:0:0:0:
384,224,322269,1,0,0:0:0:0:
384,224,322373,1,6,0:0:0:0:
416,160,322579,1,0,0:0:0:0:
384,192,322683,1,0,0:0:0:0:
416,192,322786,1,2,0:0:0:0:
448,160,322890,1,2,0:0:0:0:
448,160,322993,1,0,0:0:0:0:
416,192,323097,1,0,0:0:0:0:
448,160,323304,1,2,0:0:0:0:
448,160,323407,1,2,0:0:0:0:
416,192,323510,1,0,0:0:0:0:
416,192,323614,1,0,0:0:0:0:
448,160,323717,1,2,0:0:0:0:
448,160,323821,1,2,0:0:0:0:
448,160,324028,1,0,0:0:0:0:
416,160,324131,1,0,0:0:0:0:
448,160,324235,1,2,0:0:0:0:
448,160,324338,1,2,0:0:0:0:
416,160,324441,1,0,0:0:0:0:
384,160,324545,1,0,0:0:0:0:
448,160,324752,1,2,0:0:0:0:
448,192,324855,1,0,0:0:0:0:
384,224,324959,1,0,0:0:0:0:
352,256,325062,1,0,0:0:0:0:
512,128,325166,1,2,0:0:0:0:
448,160,325373,1,0,0:0:0:0:
448,160,325476,1,2,0:0:0:0:
448,160,325579,1,2,0:0:0:0:
448,192,325683,1,0,0:0:0:0:
416,192,325786,1,0,0:0:0:0:
480,160,325993,1,2,0:0:0:0:
448,160,326097,1,0,0:0:0:0:
448,160,326200,1,0,0:0:0:0:
448,160,326304,1,2,0:0:0:0:
448,160,326407,1,2,0:0:0:0:
416,192,326510,1,0,0:0:0:0:
416,224,326614,1,0,0:0:0:0:
480,160,326717,1,2,0:0:0:0:
448,160,326821,1,0,0:0:0:0:
448,160,326924,1,0,0:0:0:0:
416,192,327028,1,0,0:0:0:0:
448,160,327131,1,2,0:0:0:0:
480,160,327235,1,2,0:0:0:0:
448,192,327338,1,0,0:0:0:0:
448,160,327441,1,2,0:0:0:0:
416,160,327545,1,2,0:0:0:0:
416,160,327648,1,2,0:0:0:0:
416,160,327752,1,2,0:0:0:0:
416,192,327855,1,2,0:0:0:0:
416,192,327959,1,2,0:0:0:0:
384,192,328062,1,2,0:0:0:0:
416,192,328166,1,2,0:0:0:0:
416,192,328269,1,2,0:0:0:0:
416,224,328373,1,6,0:0:0:0:
448,160,330028,1,2,0:0:0:0:
256,256,330855,1,2,0:0:0:0:
480,224,331683,1,2,0:0:0:0:
96,288,333131,1,2,0:0:0:0:
224,128,333959,1,2,0:0:0:0:
480,224,334993,1,2,0:0:0:0:
32,192,336648,1,2,0:0:0:0:
416,128,338097,1,2,0:0:0:0:
416,192,338304,1,2,0:0:0:0:
416,96,339959,1,2,0:0:0:0:
288,224,340579,1,2,0:0:0:0:
448,224,341200,1,2,0:0:0:0:
352,288,341614,1,6,0:0:0:0:
384,224,341924,1,2,0:0:0:0:
384,224,342027,1,2,0:0:0:0:
416,128,342235,1,2,0:0:0:0:
320,128,342545,1,2,0:0:0:0:
352,128,342648,1,2,0:0:0:0:
384,160,342855,1,2,0:0:0:0:
448,160,343062,1,2,0:0:0:0:
416,160,343166,1,2,0:0:0:0:
384,160,343269,1,2,0:0:0:0:
384,192,343373,1,2,0:0:0:0:
384,128,343579,1,2,0:0:0:0:
384,192,343683,1,2,0:0:0:0:
384,160,343890,1,2,0:0:0:0:
384,128,344200,1,2,0:0:0:0:
384,128,344304,1,2,0:0:0:0:
384,160,344510,1,2,0:0:0:0:
416,160,344614,1,2,0:0:0:0:
416,192,344717,1,2,0:0:0:0:
384,128,344924,1,2,0:0:0:0:
384,160,345235,1,2,0:0:0:0:
384,192,345338,1,2,0:0:0:0:
384,128,345545,1,2,0:0:0:0:
384,128,345855,1,2,0:0:0:0:
384,160,345959,1,2,0:0:0:0:
384,160,346166,1,2,0:0:0:0:
384,160,346373,1,2,0:0:0:0:
288,160,346786,1,2,0:0:0:0:
352,160,346993,1,2,0:0:0:0:
320,160,347096,1,2,0:0:0:0:
384,160,347304,1,2,0:0:0:0:
384,192,347407,1,2,0:0:0:0:
384,192,347614,1,2,0:0:0:0:
448,160,347821,1,2,0:0:0:0:
416,160,347924,1,2,0:0:0:0:
384,192,348028,1,2,0:0:0:0:
448,160,348235,1,2,0:0:0:0:
416,160,348338,1,2,0:0:0:0:
352,192,348545,1,2,0:0:0:0:
384,192,348648,1,2,0:0:0:0:
416,160,348855,1,2,0:0:0:0:
352,128,349166,1,2,0:0:0:0:
416,160,349269,1,2,0:0:0:0:
384,192,349476,1,2,0:0:0:0:
384,192,349683,1,2,0:0:0:0:
384,224,349786,1,2,0:0:0:0:
384,192,349890,1,2,0:0:0:0:
384,160,349993,1,2,0:0:0:0:
384,192,350200,1,2,0:0:0:0:
384,192,350304,1,2,0:0:0:0:
416,128,350510,1,2,0:0:0:0:
416,224,350821,1,2,0:0:0:0:
416,224,350924,1,2,0:0:0:0:
448,160,351131,1,2,0:0:0:0:
416,192,351338,1,2,0:0:0:0:
416,192,351441,1,2,0:0:0:0:
448,160,351545,1,2,0:0:0:0:
416,192,351752,1,2,0:0:0:0:
352,160,351959,1,2,0:0:0:0:
288,160,352166,1,2,0:0:0:0:
352,128,352373,1,2,0:0:0:0:
288,160,352579,1,2,0:0:0:0:
352,160,352786,1,2,0:0:0:0:
416,160,352993,1,2,0:0:0:0:
416,192,353097,1,2,0:0:0:0:
384,192,353200,1,0,0:0:0:0:
384,192,353304,1,2,0:0:0:0:
384,192,353407,1,2,0:0:0:0:
352,160,353510,1,2,0:0:0:0:
352,192,353614,1,2,0:0:0:0:
352,192,353717,1,2,0:0:0:0:
352,192,353821,1,2,0:0:0:0:
384,192,353924,1,2,0:0:0:0:
384,128,354131,1,2,0:0:0:0:
384,160,354235,1,2,0:0:0:0:
384,160,354338,1,2,0:0:0:0:
384,160,354441,1,2,0:0:0:0:
384,192,354545,1,2,0:0:0:0:
416,192,354648,1,0,0:0:0:0:
416,160,354752,1,0,0:0:0:0:
416,192,354855,1,6,0:0:0:0:
480,96,355269,1,2,0:0:0:0:
480,160,355476,1,0,0:0:0:0:
448,192,355579,1,2,0:0:0:0:
448,160,355683,1,0,0:0:0:0:
416,192,355890,1,0,0:0:0:0:
384,192,356097,1,2,0:0:0:0:
384,192,356304,1,2,0:0:0:0:
384,192,356407,1,2,0:0:0:0:
416,192,356510,1,0,0:0:0:0:
384,160,356614,1,0,0:0:0:0:
448,192,356821,1,0,0:0:0:0:
448,160,356924,1,2,0:0:0:0:
448,160,357131,1,0,0:0:0:0:
352,160,357441,1,0,0:0:0:0:
320,160,357545,1,0,0:0:0:0:
448,160,357752,1,2,0:0:0:0:
448,160,357855,1,2,0:0:0:0:
448,160,357959,1,0,0:0:0:0:
384,160,358166,1,0,0:0:0:0:
384,160,358476,1,0,0:0:0:0:
448,192,358786,1,2,0:0:0:0:
352,192,359097,1,2,0:0:0:0:
384,192,359200,1,0,0:0:0:0:
448,160,359407,1,0,0:0:0:0:
416,192,359614,1,2,0:0:0:0:
448,160,360028,1,0,0:0:0:0:
448,160,360235,1,2,0:0:0:0:
416,192,360545,1,2,0:0:0:0:
448,192,360648,1,0,0:0:0:0:
448,160,360752,1,2,0:0:0:0:
448,192,360855,1,0,0:0:0:0:
480,128,361062,1,2,0:0:0:0:
448,160,361166,1,2,0:0:0:0:
480,160,361269,1,0,0:0:0:0:
448,192,361373,1,0,0:0:0:0:
448,160,361476,1,2,0:0:0:0:
416,160,361579,1,2,0:0:0:0:
448,128,361786,1,0,0:0:0:0:
416,128,361890,1,0,0:0:0:0:
480,128,362097,1,2,0:0:0:0:
448,128,362200,1,2,0:0:0:0:
416,160,362407,1,0,0:0:0:0:
416,160,362510,1,0,0:0:0:0:
448,128,362614,1,2,0:0:0:0:
448,128,362717,1,2,0:0:0:0:
416,160,362821,1,2,0:0:0:0:
448,160,362924,1,0,0:0:0:0:
448,160,363131,1,2,0:0:0:0:
416,160,363235,1,2,0:0:0:0:
416,160,363441,1,0,0:0:0:0:
416,160,363545,1,0,0:0:0:0:
480,128,363752,1,2,0:0:0:0:
416,160,364062,1,2,0:0:0:0:
384,192,364166,1,2,0:0:0:0:
384,192,364269,1,2,0:0:0:0:
448,160,364373,1,0,0:0:0:0:
416,128,364476,1,0,0:0:0:0:
480,128,364579,1,2,0:0:0:0:
448,128,364683,1,2,0:0:0:0:
448,160,364786,1,0,0:0:0:0:
416,192,364993,1,0,0:0:0:0:
384,192,365097,1,0,0:0:0:0:
448,160,365200,1,2,0:0:0:0:
512,160,365407,1,0,0:0:0:0:
448,160,365510,1,2,0:0:0:0:
416,192,365614,1,0,0:0:0:0:
448,160,365717,1,2,0:0:0:0:
448,160,365821,1,2,0:0:0:0:
416,128,366028,1,2,0:0:0:0:
416,160,366131,1,2,0:0:0:0:
416,160,366235,1,2,0:0:0:0:
416,192,366338,1,2,0:0:0:0:
416,160,366441,1,0,0:0:0:0:
416,192,366545,1,0,0:0:0:0:
416,192,366752,1,0,0:0:0:0:
448,192,366855,1,2,0:0:0:0:
448,160,367062,1,0,0:0:0:0:
416,160,367166,1,0,0:0:0:0:
448,160,367373,1,0,0:0:0:0:
416,192,367476,1,0,0:0:0:0:
416,160,367683,1,2,0:0:0:0:
416,160,367786,1,2,0:0:0:0:
448,160,367890,1,0,0:0:0:0:
480,160,367993,1,0,0:0:0:0:
448,192,368097,1,6,0:0:0:0:
448,192,368304,1,0,0:0:0:0:
448,160,368510,1,2,0:0:0:0:
512,128,368717,1,0,0:0:0:0:
480,160,368821,1,2,0:0:0:0:
448,192,368924,1,0,0:0:0:0:
384,224,369131,1,0,0:0:0:0:
448,160,369338,1,2,0:0:0:0:
416,224,369545,1,2,0:0:0:0:
416,192,369648,1,2,0:0:0:0:
448,160,369752,1,0,0:0:0:0:
416,160,369855,1,0,0:0:0:0:
416,192,370062,1,0,0:0:0:0:
448,160,370166,1,2,0:0:0:0:
512,128,370373,1,0,0:0:0:0:
416,128,370683,1,0,0:0:0:0:
384,128,370786,1,0,0:0:0:0:
448,128,370993,1,2,0:0:0:0:
480,128,371097,1,2,0:0:0:0:
448,160,371200,1,0,0:0:0:0:
416,192,371407,1,0,0:0:0:0:
448,128,371717,1,0,0:0:0:0:
416,192,371821,1,0,0:0:0:0:
480,192,372028,1,2,0:0:0:0:
384,192,372338,1,2,0:0:0:0:
416,192,372441,1,0,0:0:0:0:
448,160,372648,1,0,0:0:0:0:
448,224,372855,1,6,0:0:0:0:
352,160,373269,1,2,0:0:0:0:
384,192,373476,1,2,0:0:0:0:
416,224,373683,1,6,0:0:0:0:
448,224,373786,1,2,0:0:0:0:
448,192,373890,1,0,0:0:0:0:
448,192,373993,1,2,0:0:0:0:
448,192,374097,1,0,0:0:0:0:
480,128,374304,1,2,0:0:0:0:
448,160,374407,1,2,0:0:0:0:
416,160,374510,1,2,0:0:0:0:
416,192,374614,1,2,0:0:0:0:
448,192,374717,1,6,0:0:0:0:
352,160,375028,1,0,0:0:0:0:
448,160,375338,1,2,0:0:0:0:
384,128,376166,1,2,0:0:0:0:
480,192,376373,1,6,0:0:0:0:
480,160,376683,1,0,0:0:0:0:
384,160,376993,1,2,0:0:0:0:
512,160,377821,1,2,0:0:0:0:
416,224,378028,1,6,0:0:0:0:
448,128,378441,1,2,0:0:0:0:
416,224,378855,1,2,0:0:0:0:
320,160,379269,1,2,0:0:0:0:
384,192,379476,1,0,0:0:0:0:
384,192,380304,1,0,0:0:0:0:
480,160,380717,1,2,0:0:0:0:
352,288,381338,1,6,0:0:0:0:
384,160,382786,1,0,0:0:0:0:
416,160,384648,1,2,0:0:0:0:
64,320,386097,1,0,0:0:0:0:
384,192,387338,1,0,0:0:0:0:
416,160,387545,1,2,0:0:0:0:
448,128,387648,1,2,0:0:0:0:
448,160,387752,1,0,0:0:0:0:
416,160,387959,1,2,0:0:0:0:
416,160,388579,1,0,0:0:0:0:
416,128,388683,1,2,0:0:0:0:
416,128,388786,1,2,0:0:0:0:
416,128,388993,1,0,0:0:0:0:
416,160,389097,1,0,0:0:0:0:
352,160,389304,1,0,0:0:0:0:
384,160,389407,1,0,0:0:0:0:
416,192,389614,1,0,0:0:0:0:
320,160,389924,1,0,0:0:0:0:
416,192,390235,1,0,0:0:0:0:
512,96,390545,1,0,0:0:0:0:
480,128,390648,1,2,0:0:0:0:
384,192,391062,1,2,0:0:0:0:
416,192,391166,1,2,0:0:0:0:
416,160,391269,1,2,0:0:0:0:
416,160,391579,1,2,0:0:0:0:
512,160,391890,1,0,0:0:0:0:
416,160,391993,1,2,0:0:0:0:
416,160,392097,1,2,0:0:0:0:
416,192,392304,1,0,0:0:0:0:
416,224,392407,1,0,0:0:0:0:
416,224,392614,1,0,0:0:0:0:
416,224,392821,1,0,0:0:0:0:
416,192,392924,1,0,0:0:0:0:
416,224,393235,1,0,0:0:0:0:
416,224,393545,1,0,0:0:0:0:
448,160,393752,1,2,0:0:0:0:
416,192,393959,1,0,0:0:0:0:
384,32,394579,1,2,0:0:0:0:
448,160,395200,1,0,0:0:0:0:
416,192,395407,1,2,0:0:0:0:
448,96,395717,1,0,0:0:0:0:
448,128,395821,1,0,0:0:0:0:
256,128,396028,1,2,0:0:0:0:
448,128,396131,1,2,0:0:0:0:
416,192,396235,1,0,0:0:0:0:
384,128,396545,1,0,0:0:0:0:
288,160,396855,1,0,0:0:0:0:
352,160,397062,1,2,0:0:0:0:
288,160,397166,1,0,0:0:0:0:
352,160,397373,1,0,0:0:0:0:
416,160,397579,1,0,0:0:0:0:
480,128,397890,1,2,0:0:0:0:
416,192,398200,1,0,0:0:0:0:
416,160,398510,1,0,0:0:0:0:
480,160,398717,1,2,0:0:0:0:
448,160,398821,1,0,0:0:0:0:
448,160,399028,1,0,0:0:0:0:
416,224,399338,1,0,0:0:0:0:
416,192,399545,1,0,0:0:0:0:
416,192,399855,1,0,0:0:0:0:
416,192,400166,1,0,0:0:0:0:
480,192,400373,1,2,0:0:0:0:
416,128,400579,1,0,0:0:0:0:
480,160,400890,1,2,0:0:0:0:
448,160,400993,1,2,0:0:0:0:
416,192,401200,1,6,0:0:0:0:
480,128,401510,1,0,0:0:0:0:
416,160,401821,1,0,0:0:0:0:
448,128,402028,1,2,0:0:0:0:
448,160,402131,1,0,0:0:0:0:
448,160,402338,1,0,0:0:0:0:
384,160,402648,1,0,0:0:0:0:
480,192,402855,1,6,0:0:0:0:
480,96,403166,1,0,0:0:0:0:
448,160,403476,1,2,0:0:0:0:
416,192,403683,1,2,0:0:0:0:
448,160,403786,1,0,0:0:0:0:
416,192,403993,1,0,0:0:0:0:
352,160,404200,1,2,0:0:0:0:
384,192,404407,1,2,0:0:0:0:
416,192,404510,1,2,0:0:0:0:
448,128,405959,1,0,0:0:0:0:
320,384,406993,1,2,0:0:0:0:
352,320,407200,1,0,0:0:0:0:
384,256,407407,1,0,0:0:0:0:
384,224,407510,1,0,0:0:0:0:
384,192,407614,1,0,0:0:0:0:
448,160,407821,1,6,0:0:0:0:
480,128,408028,1,0,0:0:0:0:
448,160,408235,1,2,0:0:0:0:
480,96,408441,1,0,0:0:0:0:
448,96,408545,1,2,0:0:0:0:
416,160,408648,1,2,0:0:0:0:
416,160,408855,1,0,0:0:0:0:
416,224,409062,1,0,0:0:0:0:
416,192,409166,1,2,0:0:0:0:
416,160,409269,1,2,0:0:0:0:
416,192,409476,1,0,0:0:0:0:
448,160,409683,1,2,0:0:0:0:
480,128,409786,1,0,0:0:0:0:
416,160,409993,1,2,0:0:0:0:
416,192,410097,1,0,0:0:0:0:
416,160,410304,1,2,0:0:0:0:
416,160,410407,1,2,0:0:0:0:
416,192,410510,1,0,0:0:0:0:
448,160,410717,1,2,0:0:0:0:
448,160,410821,1,2,0:0:0:0:
416,192,410924,1,2,0:0:0:0:
416,160,411028,1,2,0:0:0:0:
448,160,411131,1,0,0:0:0:0:
416,160,411338,1,2,0:0:0:0:
416,192,411545,1,0,0:0:0:0:
416,192,411648,1,0,0:0:0:0:
448,160,411752,1,2,0:0:0:0:
416,160,411959,1,2,0:0:0:0:
384,192,412166,1,0,0:0:0:0:
384,192,412269,1,0,0:0:0:0:
384,224,412373,1,0,0:0:0:0:
416,160,412476,1,2,0:0:0:0:
384,224,412579,1,2,0:0:0:0:
416,192,412786,1,0,0:0:0:0:
480,160,412993,1,2,0:0:0:0:
448,160,413097,1,0,0:0:0:0:
512,128,413304,1,2,0:0:0:0:
416,160,413407,1,0,0:0:0:0:
448,160,413614,1,2,0:0:0:0:
416,160,413717,1,2,0:0:0:0:
480,128,413924,1,2,0:0:0:0:
416,160,414028,1,2,0:0:0:0:
416,160,414131,1,2,0:0:0:0:
416,160,414235,1,2,0:0:0:0:
416,160,414338,1,2,0:0:0:0:
416,192,414441,1,0,0:0:0:0:
448,160,414648,1,2,0:0:0:0:
448,160,414855,1,0,0:0:0:0:
416,160,415062,1,0,0:0:0:0:
448,160,415166,1,2,0:0:0:0:
416,160,415269,1,2,0:0:0:0:
448,192,415476,1,0,0:0:0:0:
384,160,415683,1,0,0:0:0:0:
416,192,415786,1,2,0:0:0:0:
416,192,415890,1,2,0:0:0:0:
448,160,416097,1,0,0:0:0:0:
448,160,416304,1,2,0:0:0:0:
448,160,416407,1,0,0:0:0:0:
416,160,416614,1,2,0:0:0:0:
384,192,416717,1,0,0:0:0:0:
448,160,416924,1,2,0:0:0:0:
416,192,417028,1,2,0:0:0:0:
448,160,417131,1,0,0:0:0:0:
416,192,417338,1,2,0:0:0:0:
416,160,417441,1,2,0:0:0:0:
416,192,417545,1,2,0:0:0:0:
416,192,417648,1,2,0:0:0:0:
416,160,417752,1,0,0:0:0:0:
480,160,417959,1,2,0:0:0:0:
448,160,418166,1,0,0:0:0:0:
448,160,418269,1,0,0:0:0:0:
448,160,418373,1,2,0:0:0:0:
416,160,418579,1,2,0:0:0:0:
448,128,418786,1,0,0:0:0:0:
448,128,418890,1,0,0:0:0:0:
416,160,418993,1,0,0:0:0:0:
416,160,419097,1,2,0:0:0:0:
416,160,419200,1,2,0:0:0:0:
480,128,419407,1,0,0:0:0:0:
448,192,419614,1,2,0:0:0:0:
448,160,419717,1,0,0:0:0:0:
448,160,419924,1,2,0:0:0:0:
416,192,420028,1,0,0:0:0:0:
416,160,420235,1,2,0:0:0:0:
384,192,420338,1,2,0:0:0:0:
384,192,420545,1,2,0:0:0:0:
384,192,420752,1,2,0:0:0:0:
416,224,420855,1,2,0:0:0:0:
384,192,420959,1,2,0:0:0:0:
416,160,421062,1,0,0:0:0:0:
416,192,421166,1,0,0:0:0:0:
416,224,421373,1,0,0:0:0:0:
416,224,421579,1,0,0:0:0:0:
448,192,421786,1,0,0:0:0:0:
448,160,421890,1,2,0:0:0:0:
384,96,422200,1,0,0:0:0:0:
448,160,422510,1,0,0:0:0:0:
512,160,422717,1,2,0:0:0:0:
448,160,422821,1,0,0:0:0:0:
416,192,423028,1,0,0:0:0:0:
448,128,423235,1,0,0:0:0:0:
448,192,423441,1,0,0:0:0:0:
448,160,423545,1,2,0:0:0:0:
448,160,423648,1,0,0:0:0:0:
448,160,423855,1,0,0:0:0:0:
448,128,423959,1,2,0:0:0:0:
416,160,424062,1,2,0:0:0:0:
416,128,424166,1,2,0:0:0:0:
416,160,424269,1,2,0:0:0:0:
480,128,424373,1,0,0:0:0:0:
448,160,424476,1,0,0:0:0:0:
384,192,424683,1,0,0:0:0:0:
448,160,424890,1,0,0:0:0:0:
416,192,425097,1,0,0:0:0:0:
416,160,425200,1,2,0:0:0:0:
416,160,425510,1,0,0:0:0:0:
416,192,425821,1,2,0:0:0:0:
384,128,426028,1,0,0:0:0:0:
416,128,426131,1,0,0:0:0:0:
416,128,426235,1,0,0:0:0:0:
416,160,426338,1,2,0:0:0:0:
384,160,426441,1,2,0:0:0:0:
448,160,426648,1,0,0:0:0:0:
416,160,426752,1,0,0:0:0:0:
448,160,426855,1,2,0:0:0:0:
416,192,426959,1,0,0:0:0:0:
416,192,427062,1,0,0:0:0:0:
416,160,427166,1,2,0:0:0:0:
384,192,427373,1,2,0:0:0:0:
384,192,427579,1,2,0:0:0:0:
416,192,427683,1,0,0:0:0:0:
480,128,427993,1,0,0:0:0:0:
416,192,428304,1,0,0:0:0:0:
448,160,428510,1,2,0:0:0:0:
480,160,428614,1,0,0:0:0:0:
448,160,428821,1,0,0:0:0:0:
352,160,429028,1,0,0:0:0:0:
288,160,429235,1,0,0:0:0:0:
320,160,429338,1,0,0:0:0:0:
416,160,429648,1,0,0:0:0:0:
352,224,429959,1,0,0:0:0:0:
416,192,430166,1,2,0:0:0:0:
448,160,430269,1,0,0:0:0:0:
416,128,430476,1,0,0:0:0:0:
416,160,430683,1,0,0:0:0:0:
448,160,430786,1,2,0:0:0:0:
416,160,430890,1,2,0:0:0:0:
416,160,430993,1,0,0:0:0:0:
448,192,431200,1,2,0:0:0:0:
448,160,431304,1,0,0:0:0:0:
416,160,431510,1,2,0:0:0:0:
448,160,431614,1,0,0:0:0:0:
384,192,431821,1,2,0:0:0:0:
480,192,432131,1,0,0:0:0:0:
448,160,432441,1,2,0:0:0:0:
448,96,432648,1,0,0:0:0:0:
448,160,432855,1,2,0:0:0:0:
384,160,433062,1,0,0:0:0:0:
352,160,433166,1,0,0:0:0:0:
320,192,433269,1,0,0:0:0:0:
384,192,433476,1,2,0:0:0:0:
448,160,433683,1,0,0:0:0:0:
480,160,433786,1,2,0:0:0:0:
448,192,433890,1,0,0:0:0:0:
384,192,433993,1,0,0:0:0:0:
416,192,434200,1,2,0:0:0:0:
448,192,434304,1,0,0:0:0:0:
480,128,434510,1,2,0:0:0:0:
480,160,434717,1,0,0:0:0:0:
448,160,434821,1,0,0:0:0:0:
416,128,434924,1,0,0:0:0:0:
480,128,435028,1,2,0:0:0:0:
416,192,435131,1,0,0:0:0:0:
416,224,435235,1,0,0:0:0:0:
384,160,435441,1,0,0:0:0:0:
448,160,435648,1,2,0:0:0:0:
416,160,435752,1,0,0:0:0:0:
448,160,435959,1,2,0:0:0:0:
416,192,436166,1,2,0:0:0:0:
384,160,436373,1,0,0:0:0:0:
384,160,436476,1,0,0:0:0:0:
416,192,436683,1,0,0:0:0:0:
448,160,436786,1,2,0:0:0:0:
416,192,436993,1,2,0:0:0:0:
416,192,437097,1,2,0:0:0:0:
384,224,437200,1,2,0:0:0:0:
352,192,437304,1,0,0:0:0:0:
448,160,437407,1,0,0:0:0:0:
416,160,437510,1,0,0:0:0:0:
416,192,437614,1,0,0:0:0:0:
416,192,437717,1,0,0:0:0:0:
416,128,437924,1,2,0:0:0:0:
448,160,438131,1,0,0:0:0:0:
416,160,438235,1,0,0:0:0:0:
416,160,438338,1,0,0:0:0:0:
448,160,438441,1,2,0:0:0:0:
416,192,438545,1,0,0:0:0:0:
416,192,438752,1,2,0:0:0:0:
448,160,438959,1,0,0:0:0:0:
448,160,439062,1,2,0:0:0:0:
416,160,439166,1,0,0:0:0:0:
416,192,439269,1,0,0:0:0:0:
416,192,439476,1,2,0:0:0:0:
448,128,439683,1,0,0:0:0:0:
416,192,439890,1,0,0:0:0:0:
448,160,439993,1,2,0:0:0:0:
416,192,440097,1,0,0:0:0:0:
416,192,440200,1,0,0:0:0:0:
448,128,440407,1,2,0:0:0:0:
448,192,440614,1,2,0:0:0:0:
416,224,440717,1,2,0:0:0:0:
416,192,440821,1,0,0:0:0:0:
416,160,440924,1,0,0:0:0:0:
480,160,441131,1,2,0:0:0:0:
416,192,441338,1,0,0:0:0:0:
448,160,441441,1,2,0:0:0:0:
448,160,441545,1,0,0:0:0:0:
448,160,441648,1,0,0:0:0:0:
448,160,441752,1,2,0:0:0:0:
480,128,441959,1,0,0:0:0:0:
448,160,442062,1,0,0:0:0:0:
480,128,442166,1,2,0:0:0:0:
448,160,442269,1,0,0:0:0:0:
384,160,442476,1,0,0:0:0:0:
384,160,442579,1,0,0:0:0:0:
448,160,442786,1,2,0:0:0:0:
448,160,443097,1,0,0:0:0:0:
416,192,443200,1,0,0:0:0:0:
480,160,443407,1,2,0:0:0:0:
416,192,443510,1,0,0:0:0:0:
352,192,443717,1,0,0:0:0:0:
416,192,443924,1,0,0:0:0:0:
384,192,444028,1,0,0:0:0:0:
416,160,444235,1,0,0:0:0:0:
480,160,444545,1,2,0:0:0:0:
416,192,444752,1,0,0:0:0:0:
352,192,444959,1,0,0:0:0:0:
448,128,445062,1,2,0:0:0:0:
384,224,445166,1,0,0:0:0:0:
480,128,445373,1,2,0:0:0:0:
448,160,445579,1,0,0:0:0:0:
416,192,445683,1,0,0:0:0:0:
352,192,445890,1,0,0:0:0:0:
416,192,446097,1,2,0:0:0:0:
352,192,446304,1,0,0:0:0:0:
384,224,446407,1,0,0:0:0:0:
416,288,446614,1,0,0:0:0:0:
416,224,446821,1,0,0:0:0:0:
448,160,447028,1,2,0:0:0:0:
416,160,447131,1,2,0:0:0:0:
384,224,447235,1,0,0:0:0:0:
416,160,447441,1,0,0:0:0:0:
416,192,447545,1,0,0:0:0:0:
416,224,448373,1,2,0:0:0:0:
416,192,448993,1,2,0:0:0:0:
320,256,449614,1,2,0:0:0:0:
384,160,450441,1,2,0:0:0:0:
416,256,450855,1,2,0:0:0:0:
384,224,451062,1,0,0:0:0:0:
480,128,451476,1,2,0:0:0:0:
384,256,452097,1,0,0:0:0:0:
416,192,452304,1,0,0:0:0:0:
448,160,452510,1,2,0:0:0:0:
480,320,453131,1,0,0:0:0:0:
448,288,453338,1,0,0:0:0:0:
448,224,453545,1,2,0:0:0:0:
320,192,453959,1,0,0:0:0:0:
320,192,454166,1,0,0:0:0:0:
384,256,454579,1,2,0:0:0:0:
448,160,454993,1,0,0:0:0:0:
384,192,455200,1,0,0:0:0:0:
384,192,455407,1,0,0:0:0:0:
448,192,455614,1,2,0:0:0:0:
384,192,456235,1,0,0:0:0:0:
384,192,456441,1,0,0:0:0:0:
416,160,456648,1,2,0:0:0:0:
448,160,457062,1,0,0:0:0:0:
384,192,457269,1,0,0:0:0:0:
384,192,457476,1,0,0:0:0:0:
480,128,457683,1,2,0:0:0:0:
384,160,458097,1,2,0:0:0:0:
416,128,458304,1,0,0:0:0:0:
384,192,458510,1,0,0:0:0:0:
480,128,458717,1,2,0:0:0:0:
416,224,459131,1,2,0:0:0:0:
448,192,459338,1,0,0:0:0:0:
384,192,459545,1,0,0:0:0:0:
448,192,459752,1,2,0:0:0:0:
448,128,459959,1,2,0:0:0:0:
416,192,460166,1,2,0:0:0:0:
416,192,460373,1,2,0:0:0:0:
448,224,460579,5,6,0:0:0:0:
256,192,460631,12,6,473769,0:0:0:0:
