osu file format v14

[General]
AudioFilename: audio.mp3
AudioLeadIn: 0
PreviewTime: 45897
Countdown: 0
SampleSet: Soft
StackLeniency: 0.7
Mode: 0
LetterboxInBreaks: 0
WidescreenStoryboard: 1

[Editor]
Bookmarks: 11585,92335
DistanceSpacing: 1
BeatDivisor: 4
GridSize: 32
TimelineZoom: 4.099998

[Metadata]
Title:Life [Eris's "a Fate Encounter" mix]
TitleUnicode:Life [Eris's "a Fate Encounter" mix]
Artist:FELT
ArtistUnicode:FELT
Creator:- Sunflower -
Version:MiaoFUuU's Extra
Source:東方Project
Tags:Kanor _MiaoFuuu_ [kamiya] NAGI☆ ZUN 美歌 Parallel Cross ComicMarket90 東方緋想天 ~东方绯想天 ~ Scarlet Weather Rhapsody.~ Eris touhou toho
BeatmapID:1289422
BeatmapSetID:609821

[Difficulty]
HPDrainRate:6
CircleSize:4.1
OverallDifficulty:8
ApproachRate:9.3
SliderMultiplier:1.77
SliderTickRate:1

[Events]
//Background and Video events
0,0,"7c.jpg",0,0
//Break Periods
//Storyboard Layer 0 (Background)
//Storyboard Layer 1 (Fail)
//Storyboard Layer 2 (Pass)
//Storyboard Layer 3 (Foreground)
//Storyboard Sound Samples

[TimingPoints]
9071,359.281437125748,4,2,0,50,1,0
9071,-133.333333333333,4,2,0,50,0,0
32065,-200,4,2,1,50,0,0
34400,-100,4,2,1,50,0,0
34939,-200,4,2,1,50,0,0
35837,-83.3333333333333,4,2,1,50,0,0
36196,-133.333333333333,4,2,1,50,0,0
36735,-200,4,2,1,50,0,0
37813,-100,4,2,1,50,0,0
40687,-142.857142857143,4,2,1,50,0,0
41406,-125,4,2,1,50,0,0
42124,-111.111111111111,4,2,1,50,0,0
42843,-100,4,2,1,50,0,0
44639,-66.6666666666667,4,2,0,50,0,0
46076,-83.3333333333333,4,2,1,50,0,0
46436,-166.666666666667,4,2,1,70,0,1
47154,-66.6666666666667,4,2,1,70,0,1
48232,-80,4,2,1,70,0,1
48771,-100,4,2,1,70,0,1
49310,-166.666666666667,4,2,1,70,0,1
50029,-66.6666666666667,4,2,1,70,0,1
50568,-80,4,2,1,70,0,1
50927,-66.6666666666667,4,2,1,70,0,1
51645,-80,4,2,1,70,0,1
52184,-133.333333333333,4,2,1,70,0,1
52903,-66.6666666666667,4,2,1,70,0,1
55059,-133.333333333333,4,2,1,70,0,1
55777,-66.6666666666667,4,2,1,70,0,1
56316,-80,4,2,1,70,0,1
56675,-66.6666666666667,4,2,1,70,0,1
56855,-53.1914893617021,4,2,1,70,0,1
57214,-66.6666666666667,4,2,1,70,0,1
57933,-133.333333333333,4,2,1,70,0,1
58651,-66.6666666666667,4,2,1,70,0,1
59729,-80,4,2,1,70,0,1
60268,-100,4,2,1,70,0,1
60807,-133.333333333333,4,2,1,70,0,1
61526,-66.6666666666667,4,2,1,70,0,1
62065,-80,4,2,1,70,0,1
62424,-66.6666666666667,4,2,1,70,0,1
62603,-80,4,2,1,70,0,1
62963,-66.6666666666667,4,2,1,70,0,1
63322,-80,4,2,1,70,0,1
63681,-133.333333333333,4,2,1,70,0,1
64400,-66.6666666666667,4,2,1,70,0,1
66017,-80,4,2,1,70,0,1
66556,-83.3333333333333,4,2,1,70,0,1
67274,-66.6666666666667,4,2,1,70,0,1
67813,-71.4285714285714,4,2,1,70,0,1
68352,-66.6666666666667,4,2,1,70,0,1
69430,-66.6666666666667,4,2,1,70,0,0

[Colours]
Combo1 : 214,177,160
Combo2 : 169,92,111
Combo3 : 71,109,164
Combo4 : 125,172,218
Combo5 : 220,235,243

[HitObjects]
243,180,9070,5,2,0:0:0:0:
243,180,9430,2,0,P|273:168|306:165,1,66.3750025320054,2|0,0:0|0:0,0:0:0:0:
385,277,9789,1,2,0:0:0:0:
385,277,10148,1,2,0:0:0:0:
385,277,10328,2,0,P|414:290|465:296,1,66.3750025320054,2|0,0:0|0:0,0:0:0:0:
247,294,10867,5,2,0:0:0:0:
247,294,11047,2,0,P|218:309|185:313,1,66.3750025320054
385,277,11406,1,0,0:0:0:0:
385,277,11585,2,0,P|415:290|447:296,1,66.3750025320054,2|0,0:0|0:0,0:0:0:0:
308,233,11945,5,2,0:0:0:0:
47,210,12304,5,2,0:0:0:0:
120,145,12484,2,0,B|164:149|164:149|203:176|203:176|243:180,1,132.750005064011,0|2,0:0|0:0,0:0:0:0:
303,82,13023,2,0,L|238:96,1,66.3750025320054,2|2,0:0|0:0,0:0:0:0:
405,60,13382,1,0,0:0:0:0:
405,60,13741,5,2,0:0:0:0:
303,82,13921,2,0,L|234:97,1,66.3750025320054,2|0,0:0|0:0,0:0:0:0:
132,233,14280,2,0,L|68:248,2,66.3750025320054,2|0|2,0:0|0:0|0:0,0:0:0:0:
165,39,14819,5,2,0:0:0:0:
165,39,15178,5,2,0:0:0:0:
165,39,15358,2,0,P|149:67|148:117,1,66.3750025320054,2|0,0:0|0:0,0:0:0:0:
237,171,15717,2,0,P|252:142|253:92,1,66.3750025320054,0|2,0:0|0:0,0:0:0:0:
44,43,16076,1,0,0:0:0:0:
145,192,16256,1,0,0:0:0:0:
318,20,16615,5,2,0:0:0:0:
318,20,16795,2,0,L|328:113,1,66.3750025320054
346,269,17154,1,2,0:0:0:0:
346,269,17334,2,0,L|339:202,1,66.3750025320054
392,68,17693,6,0,B|361:86|326:86|326:86|285:136|285:136|252:131|222:145,1,199.125007596016,2|0,0:0|0:0,0:0:0:0:
175,221,18412,2,0,P|220:291|261:218,1,199.125007596016,2|0,0:0|0:0,0:0:0:0:
431,164,19130,6,0,B|370:139|297:140|297:140|329:157|346:184,1,199.125007596016,2|0,0:0|0:0,0:0:0:0:
219,289,19849,2,0,B|158:313|85:312|85:312|117:295|131:271,1,199.125007596016,2|0,0:0|0:0,0:0:0:0:
46,162,20568,5,2,0:0:0:0:
46,162,20927,6,0,L|52:229,1,66.3750025320054,2|0,0:0|0:0,0:0:0:0:
149,176,21286,1,2,0:0:0:0:
149,176,21645,2,0,L|155:110,1,66.3750025320054,2|2,0:0|0:0,0:0:0:0:
162,20,22005,1,0,0:0:0:0:
239,135,22364,5,2,0:0:0:0:
239,135,22544,2,0,P|269:122|305:119,1,66.3750025320054,2|0,0:0|0:0,0:0:0:0:
400,140,22903,5,2,0:0:0:0:
195,53,23082,1,0,0:0:0:0:
367,41,23262,1,2,0:0:0:0:
149,176,23442,5,2,0:0:0:0:
360,239,23801,5,2,0:0:0:0:
360,239,23981,2,0,P|329:230|296:228,1,66.3750025320054,2|0,0:0|0:0,0:0:0:0:
182,295,24340,5,2,0:0:0:0:
182,295,24520,1,0,0:0:0:0:
302,118,24699,1,2,0:0:0:0:
407,309,24879,1,0,0:0:0:0:
356,206,25238,5,2,0:0:0:0:
356,206,25418,2,0,P|327:222|294:228,1,66.3750025320054
161,72,25777,5,2,0:0:0:0:
34,229,25957,1,2,0:0:0:0:
245,155,26136,1,2,0:0:0:0:
45,108,26316,5,2,0:0:0:0:
152,203,26675,5,2,0:0:0:0:
152,203,26855,2,0,P|143:237|140:283,1,66.3750025320054,2|0,0:0|0:0,0:0:0:0:
249,175,27214,1,2,0:0:0:0:
249,175,27394,2,0,P|238:143|233:111,1,66.3750025320054,2|2,0:0|0:0,0:0:0:0:
350,147,27753,1,0,0:0:0:0:
232,110,28112,5,2,0:0:0:0:
353,263,28292,1,0,0:0:0:0:
350,147,28472,2,0,P|392:139|422:128,1,66.3750025320054,2|0,0:0|0:0,0:0:0:0:
250,306,28831,2,0,P|218:296|186:291,1,66.3750025320054,2|0,0:0|0:0,0:0:0:0:
137,208,29190,6,0,B|204:200|248:149|248:149|250:188|275:212,1,199.125007596016,2|0,0:0|0:0,0:0:0:0:
381,222,29909,2,0,B|415:163|388:95|388:95|379:133|350:148,1,199.125007596016,2|0,0:0|0:0,0:0:0:0:
297,275,30627,6,0,B|383:225|383:225|476:261,1,199.125007596016,2|0,0:0|0:0,0:0:0:0:
297,275,31346,2,0,L|305:201,1,66.3750025320054
478,146,31705,2,0,L|486:67,1,66.3750025320054,2|0,0:0|0:0,0:0:0:0:
248,48,32065,6,0,B|306:37|306:37|335:-1|335:-1|385:3|434:-7|434:-7|407:4|389:33,1,265.5,6|0,0:0|0:0,0:0:0:0:
512,104,33322,6,0,B|466:67|466:67|397:129|453:211,1,221.25,6|0,0:0|0:0,0:0:0:0:
457,199,34400,6,0,L|413:193,1,44.25,8|0,0:0|0:0,0:0:0:0:
332,264,34579,2,0,L|287:268,1,44.25,2|0,0:0|0:0,0:0:0:0:
158,172,34759,2,0,L|113:170,1,44.25,8|0,0:0|0:0,0:0:0:0:
332,264,34939,6,0,B|288:248|258:198|258:198|242:252|195:268,1,199.125,6|0,0:0|0:0,0:0:0:0:
195,267,35837,6,0,P|186:238|183:215,1,53.0999983795166,14|0,0:0|0:0,0:0:0:0:
20,116,36017,1,2,0:0:0:0:
99,314,36196,6,0,B|67:234|67:234|113:168,1,165.937506330014,6|0,0:0|0:0,0:0:0:0:
211,117,36735,6,0,B|253:125|297:99|297:99|323:136|323:136|362:123|362:123|382:144|422:150,1,243.375
423,151,37813,5,2,0:0:0:0:
377,242,38172,1,2,0:0:0:0:
321,60,38532,5,2,0:0:0:0:
274,251,38891,1,2,0:0:0:0:
200,31,39250,5,2,0:0:0:0:
178,286,39609,1,2,0:0:0:0:
64,34,39969,5,2,0:0:0:0:
74,323,40328,1,2,0:0:0:0:
435,122,40687,6,0,P|404:117|374:122,1,61.9499981094361,2|0,0:0|0:0,0:0:0:0:
278,174,41047,1,2,0:0:0:0:
278,174,41226,1,0,0:0:0:0:
333,40,41406,6,0,P|307:59|284:95,1,70.8,2|0,0:0|0:0,0:0:0:0:
299,259,41765,1,2,0:0:0:0:
299,259,41945,1,0,0:0:0:0:
181,60,42124,6,0,P|176:91|189:144,1,79.649997569275,2|0,0:0|0:0,0:0:0:0:
380,306,42484,1,2,0:0:0:0:
380,306,42663,1,0,0:0:0:0:
79,205,42843,6,0,P|105:239|145:257,1,88.5,2|0,0:0|0:0,0:0:0:0:
473,308,43202,1,2,0:0:0:0:
473,308,43382,1,0,0:0:0:0:
133,351,43562,5,2,0:0:0:0:
347,23,43741,1,2,0:0:0:0:
321,367,43921,5,2,0:0:0:0:
149,23,44100,1,2,0:0:0:0:
259,258,44280,5,2,0:0:0:0:
293,286,44369,1,2,0:0:0:0:
336,291,44459,1,2,0:0:0:0:
376,273,44549,1,2,0:0:0:0:
399,236,44639,2,0,L|389:181,5,44.2500016880036,2|2|2|2|2|2,0:0|0:0|0:0|0:0|0:0|0:0,0:0:0:0:
364,56,44999,5,2,0:0:0:0:
364,56,46076,6,0,B|294:92|294:92|201:65,1,159.29999513855
215,95,46436,6,0,B|262:80|308:96|308:96|351:110|401:95,1,185.849994328308,6|0,0:0|0:0,0:0:0:0:
485,94,47154,6,0,P|473:131|474:172,1,66.3750025320054,8|0,0:0|0:0,0:0:0:0:
149,138,47334,2,0,P|163:168|170:201,1,66.3750025320054
468,293,47514,6,0,P|434:287|405:268,1,66.3750025320054
184,308,47693,1,0,0:0:0:0:
184,308,47783,1,0,0:0:0:0:
184,308,47873,2,0,P|216:297|242:277,1,66.3750025320054
454,177,48053,6,0,P|421:179|390:190,1,66.3750025320054,2|0,0:0|0:0,0:0:0:0:
330,244,48232,2,0,P|388:192|464:216,1,165.9375,6|0,0:0|0:0,0:0:0:0:
428,321,48591,6,0,L|400:252,1,55.3125,8|0,0:0|0:0,0:0:0:0:
115,282,48771,2,0,B|145:300|180:298|180:298|203:335|203:335|236:336|265:356,1,177,2|0,0:0|0:0,0:0:0:0:
169,200,49310,6,0,B|202:78|202:78|246:117,1,185.849994328308,6|0,0:0|0:0,0:0:0:0:
251,131,50029,6,0,L|173:139,1,66.3750025320054,8|0,0:0|0:0,0:0:0:0:
255,222,50208,6,0,P|287:234|324:237,1,66.3750025320054
445,25,50388,2,0,P|412:29|381:42,1,66.3750025320054
410,275,50568,6,0,B|434:169|434:169|404:107,1,165.9375,6|0,0:0|0:0,0:0:0:0:
434,120,50927,6,0,L|505:133,1,66.3750025320054,2|0,0:0|0:0,0:0:0:0:
255,222,51106,2,0,L|263:308,1,66.3750025320054,2|0,0:0|0:0,0:0:0:0:
131,117,51286,2,0,L|143:51,1,66.3750025320054
50,350,51466,1,10,0:0:0:0:
37,194,51645,6,0,B|111:133|217:146|217:146|174:170|169:211,1,276.5625,2|0,0:0|0:0,0:0:0:0:
116,288,52184,6,0,B|175:311|227:282|227:282|277:255|340:276,1,232.312508862019,6|0,0:0|0:0,0:0:0:0:
340,276,52903,6,0,L|349:194,1,66.3750025320054,8|0,0:0|0:0,0:0:0:0:
402,140,53082,6,0,P|371:126|339:123,1,66.3750025320054
464,284,53262,2,0,P|451:253|448:221,1,66.3750025320054
232,279,53442,2,0,P|250:251|258:219,1,66.3750025320054
329,341,53621,5,0,0:0:0:0:
329,341,53711,1,0,0:0:0:0:
329,341,53801,2,0,L|342:260,1,66.3750025320054,2|0,0:0|0:0,0:0:0:0:
132,307,53981,2,0,B|117:173|117:173|136:202|168:210,1,199.125007596016,6|0,0:0|0:0,0:0:0:0:
257,117,54340,6,0,L|192:130,1,66.3750025320054,10|0,0:0|0:0,0:0:0:0:
19,161,54520,1,2,0:0:0:0:
19,161,54609,1,0,0:0:0:0:
19,161,54699,1,4,0:0:0:0:
429,73,55059,6,0,B|387:76|355:51|355:51|325:25|283:30|283:30|324:44|338:78,1,232.312508862019,6|0,0:0|0:0,0:0:0:0:
430,194,55777,6,0,B|396:190|396:190|365:202,1,66.3750025320054,10|0,0:0|0:0,0:0:0:0:
257,117,55957,2,0,B|224:121|224:121|192:110,1,66.3750025320054,2|0,0:0|0:0,0:0:0:0:
38,263,56136,1,2,0:0:0:0:
191,215,56316,6,0,B|135:203|135:203|100:164|100:164|46:151,1,165.9375,6|0,0:0|0:0,0:0:0:0:
267,270,56675,2,0,L|279:204,1,66.3750025320054,6|0,0:0|0:0,0:0:0:0:
53,141,56855,6,0,B|107:154|107:154|142:193|142:193|204:206,1,166.379997461243,6|0,0:0|0:0,0:0:0:0:
375,143,57124,1,0,0:0:0:0:
358,145,57214,2,0,P|361:179|369:213,1,66.3750025320054,10|0,0:0|0:0,0:0:0:0:
161,343,57394,1,2,0:0:0:0:
174,352,57484,6,0,L|174:300,2,33.1875012660027
343,4,57753,6,0,P|361:32|369:67,1,66.3750025320054,2|0,0:0|0:0,0:0:0:0:
368,210,57933,6,0,P|263:177|281:69,1,232.312508862019,6|0,0:0|0:0,0:0:0:0:
275,72,58651,6,0,P|245:86|212:92,1,66.3750025320054,8|0,0:0|0:0,0:0:0:0:
368,210,58831,2,0,P|402:222|440:222,1,66.3750025320054
368,63,59011,6,0,P|369:106|382:144,1,66.3750025320054
135,141,59190,1,0,0:0:0:0:
135,141,59280,1,0,0:0:0:0:
135,141,59370,2,0,P|133:174|123:207,1,66.3750025320054
275,73,59550,6,0,L|202:94,1,66.3750025320054,2|0,0:0|0:0,0:0:0:0:
129,14,59729,2,0,B|179:20|179:20|228:69|228:69|277:73,1,165.9375,6|0,0:0|0:0,0:0:0:0:
370,65,60088,6,0,P|361:39|358:12,1,55.3125,8|0,0:0|0:0,0:0:0:0:
415,236,60268,2,0,B|373:248|351:284|351:284|363:201|334:148,1,221.25,6|0,0:0|0:0,0:0:0:0:
424,138,60807,6,0,B|380:161|334:148|334:148|315:194|315:194|271:183|228:207,1,232.312508862019,6|0,0:0|0:0,0:0:0:0:
286,275,61526,6,0,P|315:299|351:312,1,66.3750025320054,8|0,0:0|0:0,0:0:0:0:
166,122,61705,6,0,P|171:90|188:51,1,66.3750025320054,2|0,0:0|0:0,0:0:0:0:
73,305,61885,6,0,P|49:326|19:342,1,66.3750025320054
254,75,62065,6,0,B|188:28|188:28|106:57,1,165.9375,6|0,0:0|0:0,0:0:0:0:
76,215,62424,6,0,L|172:205,1,66.3750025320054,2|0,0:0|0:0,0:0:0:0:
394,191,62603,2,0,L|217:207,1,165.9375,6|0,0:0|0:0,0:0:0:0:
341,110,62963,6,0,P|345:77|341:43,1,66.3750025320054,10|0,0:0|0:0,0:0:0:0:
443,280,63142,1,2,0:0:0:0:
443,280,63232,1,0,0:0:0:0:
443,280,63322,2,0,L|433:326,7,27.65625
448,254,63681,6,0,P|343:237|310:338,1,232.312508862019,6|0,0:0|0:0,0:0:0:0:
310,338,64400,2,0,P|275:335|242:321,1,66.3750025320054,8|0,0:0|0:0,0:0:0:0:
68,290,64579,2,0,P|107:282|153:253,1,66.3750025320054
256,48,64759,5,0,0:0:0:0:
82,103,64939,1,0,0:0:0:0:
82,103,65029,1,0,0:0:0:0:
83,103,65118,2,0,L|75:169,1,66.3750025320054,2|0,0:0|0:0,0:0:0:0:
293,187,65298,2,0,L|299:253,1,66.3750025320054,2|0,0:0|0:0,0:0:0:0:
256,48,65478,6,0,B|189:45|131:26|131:26|164:46|174:85,1,199.125007596016,6|0,0:0|0:0,0:0:0:0:
18,89,65837,2,0,P|48:100|81:103,1,66.3750025320054,8|0,0:0|0:0,0:0:0:0:
211,211,66017,6,0,B|276:132|379:166|379:166|331:161|287:192,1,276.5625,6|0,0:0|0:0,0:0:0:0:
210,210,66556,6,0,P|317:103|350:252,1,371.699988656617,6|0,0:0|0:0,0:0:0:0:
199,301,67274,6,0,P|232:296|263:285,1,66.3750025320054,2|0,0:0|0:0,0:0:0:0:
381,34,67454,6,0,P|410:50|443:56,1,66.3750025320054
129,67,67633,2,0,P|107:92|79:110,1,66.3750025320054
263,285,67813,6,0,B|231:209|275:121|275:121|271:164|289:195,1,247.799992437744,6|0,0:0|0:0,0:0:0:0:
418,294,68352,6,0,P|428:260|426:221,1,66.3750025320054,2|0,0:0|0:0,0:0:0:0:
370,74,68532,2,0,P|360:105|358:138,1,66.3750025320054
177,310,68711,5,8,0:0:0:0:
150,320,68801,1,0,0:0:0:0:
122,318,68890,1,2,0:0:0:0:
98,305,68981,1,0,0:0:0:0:
81,285,69070,2,0,L|93:207,1,66.3750025320054,8|0,0:0|0:0,0:0:0:0:
116,41,69250,1,0,0:0:0:0:
263,285,69429,5,6,0:0:0:0:
