osu file format v14

[General]
AudioFilename: audio.mp3
AudioLeadIn: 0
PreviewTime: 45897
Countdown: 0
SampleSet: Soft
StackLeniency: 0.7
Mode: 0
LetterboxInBreaks: 0
WidescreenStoryboard: 1

[Editor]
Bookmarks: 92335
DistanceSpacing: 0.6
BeatDivisor: 4
GridSize: 4
TimelineZoom: 2.4

[Metadata]
Title:Life [Eris's "a Fate Encounter" mix]
TitleUnicode:Life [Eris's "a Fate Encounter" mix]
Artist:FELT
ArtistUnicode:FELT
Creator:- Sunflower -
Version:Hard
Source:東方Project
Tags:Kanor _MiaoFuuu_ [kamiya] NAGI☆ ZUN 美歌 Parallel Cross ComicMarket90 東方緋想天 ~东方绯想天 ~ Scarlet Weather Rhapsody.~ Eris touhou toho
BeatmapID:1288499
BeatmapSetID:609821

[Difficulty]
HPDrainRate:5
CircleSize:4
OverallDifficulty:6
ApproachRate:7.5
SliderMultiplier:1.2
SliderTickRate:1

[Events]
//Background and Video events
0,0,"7c.jpg",0,0
//Break Periods
//Storyboard Layer 0 (Background)
//Storyboard Layer 1 (Fail)
//Storyboard Layer 2 (Pass)
//Storyboard Layer 3 (Foreground)
//Storyboard Sound Samples

[TimingPoints]
9071,359.281437125748,4,2,0,70,1,0
32065,-133.333333333333,4,2,0,70,0,0
37813,-100,4,2,0,70,0,0
46436,-83.3333333333333,4,2,0,85,0,1
69430,-83.3333333333333,4,2,0,85,0,0

[Colours]
Combo1 : 214,177,160
Combo2 : 169,92,111
Combo3 : 71,109,164
Combo4 : 125,172,218
Combo5 : 220,235,243

[HitObjects]
128,112,9070,5,4,0:0:0:0:
128,112,9430,6,0,L|120:200,1,60,2|0,0:0|0:0,0:0:0:0:
72,240,9789,2,0,P|136:216|200:216,1,120,2|0,0:0|0:0,0:0:0:0:
256,256,10328,1,0,0:0:0:0:
256,256,10508,2,0,L|248:336,1,60,2|0,0:0|0:0,0:0:0:0:
256,172,10867,6,0,L|268:88,1,60,2|0,0:0|0:0,0:0:0:0:
340,68,11226,2,0,L|336:4,1,60,2|0,0:0|0:0,0:0:0:0:
344,152,11585,2,0,P|408:164|424:160,1,60,2|0,0:0|0:0,0:0:0:0:
480,112,11945,1,4,0:0:0:0:
380,284,12304,5,2,0:0:0:0:
380,284,12484,2,0,P|332:276|296:276,1,60,0|2,0:0|0:0,0:0:0:0:
240,316,12843,2,0,L|244:380,2,60,0|2|0,0:0|0:0|0:0,0:0:0:0:
160,276,13382,1,2,0:0:0:0:
32,192,13741,6,0,P|36:244|52:276,1,60
96,128,14100,2,0,P|104:68|104:56,2,60,2|0|0,0:0|0:0|0:0,0:0:0:0:
28,24,14639,1,2,0:0:0:0:
192,52,14819,1,4,0:0:0:0:
404,88,15178,5,2,0:0:0:0:
464,148,15358,2,0,L|472:208,2,60,0|2|0,0:0|0:0|0:0,0:0:0:0:
408,276,15897,1,2,0:0:0:0:
408,276,16076,2,0,P|412:336|416:348,1,60,0|2,0:0|0:0,0:0:0:0:
208,292,16615,6,0,P|160:304|124:304,2,60,2|0|2,0:0|0:0|0:0,0:0:0:0:
68,272,17154,1,0,0:0:0:0:
68,272,17334,2,0,P|32:264|0:264,1,60,2|0,0:0|0:0,0:0:0:0:
140,228,17693,6,0,B|160:172|160:172|148:104,1,120,6|0,0:0|0:0,0:0:0:0:
96,52,18232,1,0,0:0:0:0:
149,112,18412,2,0,L|277:120,1,120,2|0,0:0|0:0,0:0:0:0:
408,188,19130,6,0,P|396:232|416:312,1,120,6|0,0:0|0:0,0:0:0:0:
496,240,19669,1,0,0:0:0:0:
480,136,19849,2,0,P|428:104|352:120,1,120,2|0,0:0|0:0,0:0:0:0:
296,164,20388,1,0,0:0:0:0:
236,104,20568,6,0,L|240:32,2,60,6|0|2,0:0|0:0|0:0,0:0:0:0:
156,160,21106,1,0,0:0:0:0:
156,160,21286,2,0,P|120:172|24:136,1,120,2|2,0:0|0:0,0:0:0:0:
144,68,21825,1,0,0:0:0:0:
240,188,22005,2,0,P|236:248|232:268,1,60,2|0,0:0|0:0,0:0:0:0:
160,308,22364,6,0,L|80:316,2,60,2|0|2,0:0|0:0|0:0,0:0:0:0:
236,247,22903,2,0,L|316:255,2,60,0|2|0,0:0|0:0|0:0,0:0:0:0:
168,184,23442,2,0,P|160:128|168:100,1,60,6|0,0:0|0:0,0:0:0:0:
216,56,23801,5,2,0:0:0:0:
252,140,23981,1,0,0:0:0:0:
160,125,24160,2,0,L|76:117,1,60,2|0,0:0|0:0,0:0:0:0:
216,56,24520,2,0,L|288:60,1,60,2|0,0:0|0:0,0:0:0:0:
360,100,24879,6,0,L|420:92,2,60,2|0|2,0:0|0:0|0:0,0:0:0:0:
276,152,25418,1,0,0:0:0:0:
276,152,25597,2,0,P|276:208|280:228,1,60,2|0,0:0|0:0,0:0:0:0:
328,348,25957,2,0,P|332:308|328:272,1,60,2|0,0:0|0:0,0:0:0:0:
236,292,26316,6,0,B|180:308|156:308|156:308,1,60,6|0,0:0|0:0,0:0:0:0:
92,264,26675,2,0,L|28:256,2,60,2|0|2,0:0|0:0|0:0,0:0:0:0:
168,212,27214,1,0,0:0:0:0:
168,212,27394,2,0,P|176:172|180:132,1,60,2|0,0:0|0:0,0:0:0:0:
112,28,27753,2,0,P|112:80|116:100,1,60,2|0,0:0|0:0,0:0:0:0:
256,116,28112,6,0,P|296:116|328:104,1,60,2|0,0:0|0:0,0:0:0:0:
468,68,28471,2,0,P|436:56|396:56,1,60,2|0,0:0|0:0,0:0:0:0:
404,168,28831,2,0,P|408:208|408:248,1,60,2|0,0:0|0:0,0:0:0:0:
323,306,29190,6,0,B|263:298|263:298|187:314,1,120,6|0,0:0|0:0,0:0:0:0:
127,282,29729,1,2,0:0:0:0:
127,282,29909,2,0,P|115:234|127:158,1,120,6|0,0:0|0:0,0:0:0:0:
160,96,30448,1,0,0:0:0:0:
208,160,30627,2,0,L|328:152,1,120,4|0,0:0|0:0,0:0:0:0:
440,280,31346,6,0,L|432:360,2,60,2|0|2,0:0|0:0|0:0,0:0:0:0:
400,200,31885,1,0,0:0:0:0:
344,276,32065,6,0,P|308:292|204:260,1,135.000005149841,10|0,0:0|0:0,0:0:0:0:
152,220,32783,2,0,L|56:232,1,90.0000034332277,2|2,0:0|0:0,0:0:0:0:
228,192,33322,1,0,0:0:0:0:
217,272,33502,6,0,L|213:332,1,45.0000017166138,2|0,0:0|0:0,0:0:0:0:
152,220,33861,1,2,0:0:0:0:
228,192,34041,1,0,0:0:0:0:
296,244,34220,2,0,L|340:252,1,45.0000017166138,2|0,0:0|0:0,0:0:0:0:
424,252,34579,2,0,L|468:244,1,45.0000017166138,2|0,0:0|0:0,0:0:0:0:
409,141,34939,6,0,L|274:131,1,135.000005149841,6|0,0:0|0:0,0:0:0:0:
142,127,35657,1,2,0:0:0:0:
206,176,35837,1,8,0:0:0:0:
251,53,36017,1,6,0:0:0:0:
171,52,36196,1,2,0:0:0:0:
274,131,36376,2,0,L|318:133,1,45.0000017166138,6|0,0:0|0:0,0:0:0:0:
340,57,36735,6,0,L|250:52,1,90.0000034332277,2|4,0:0|0:0,0:0:0:0:
176,40,37274,1,2,0:0:0:0:
176,40,37454,2,0,L|168:88,1,45.0000017166138,2|0,0:0|0:0,0:0:0:0:
200,226,37813,6,0,L|196:158,1,60,6|0,0:0|0:0,0:0:0:0:
260,304,38172,2,0,P|256:344|252:372,1,60,10|0,0:0|0:0,0:0:0:0:
168,312,38532,2,0,P|128:328|92:332,1,60,2|0,0:0|0:0,0:0:0:0:
292,216,38890,2,0,P|336:216|360:220,1,60,10|0,0:0|0:0,0:0:0:0:
420,284,39249,5,6,0:0:0:0:
336,308,39429,1,0,0:0:0:0:
428,196,39609,2,0,P|436:156|440:132,1,60,10|0,0:0|0:0,0:0:0:0:
336,308,39969,2,0,P|336:340|344:388,1,60,2|0,0:0|0:0,0:0:0:0:
292,216,40328,2,0,L|288:132,1,60,10|0,0:0|0:0,0:0:0:0:
240,96,40687,6,0,P|288:112|368:96,1,120,6|10,0:0|0:0,0:0:0:0:
416,44,41226,1,0,0:0:0:0:
456,120,41406,2,0,L|448:256,1,120,6|10,0:0|0:0,0:0:0:0:
444,360,41944,1,0,0:0:0:0:
496,300,42124,6,0,B|464:280|464:280|360:288,1,120,6|10,0:0|0:0,0:0:0:0:
300,328,42663,1,0,0:0:0:0:
300,328,42843,2,0,P|248:344|172:308,1,120,4|8,0:0|0:0,0:0:0:0:
128,260,43382,1,0,0:0:0:0:
128,260,43562,6,0,L|136:192,1,60,6|2,0:0|0:0,0:0:0:0:
116,52,43921,2,0,L|128:132,1,60,10|0,0:0|0:0,0:0:0:0:
208,144,44280,2,2,L|240:136,7,30
256,192,44999,12,2,46076,0:0:0:0:
320,180,46436,6,0,P|380:180|420:104,1,143.999995605469,6|2,0:0|0:0,0:0:0:0:
332,92,46975,1,0,0:0:0:0:
236,56,47154,2,0,P|240:104|260:144,1,71.9999978027344,10|0,0:0|0:0,0:0:0:0:
318,251,47514,2,0,P|324:215|320:180,1,71.9999978027344,2|0,0:0|0:0,0:0:0:0:
248,304,47873,6,0,B|200:304|200:304|152:328|152:328|84:328,1,143.999995605469,4|2,0:0|0:0,0:0:0:0:
32,280,48412,1,0,0:0:0:0:
32,280,48591,2,0,P|24:232|28:184,1,71.9999978027344,10|0,0:0|0:0,0:0:0:0:
94,73,48951,2,0,P|95:108|88:144,1,71.9999978027344,2|0,0:0|0:0,0:0:0:0:
112,228,49310,6,0,P|164:236|240:180,1,143.999995605469,4|2,0:0|0:0,0:0:0:0:
296,120,49849,1,0,0:0:0:0:
296,120,50029,2,0,L|300:36,1,71.9999978027344,10|0,0:0|0:0,0:0:0:0:
160,156,50388,2,0,L|168:248,1,71.9999978027344,2|0,0:0|0:0,0:0:0:0:
236,320,50747,6,0,P|308:328|372:264,1,143.999995605469,6|2,0:0|0:0,0:0:0:0:
400,204,51286,1,0,0:0:0:0:
452,280,51466,2,0,P|460:332|456:368,1,71.9999978027344,10|0,0:0|0:0,0:0:0:0:
308,216,51825,2,0,P|300:172|308:112,1,71.9999978027344,2|0,0:0|0:0,0:0:0:0:
352,76,52184,6,0,P|288:112|216:84,1,143.999995605469,6|2,0:0|0:0,0:0:0:0:
140,48,52723,1,0,0:0:0:0:
68,112,52903,2,0,P|60:164|60:196,1,71.9999978027344,10|0,0:0|0:0,0:0:0:0:
128,328,53262,2,0,P|128:280|116:240,1,71.9999978027344,2|0,0:0|0:0,0:0:0:0:
56,376,53621,6,0,L|216:356,1,143.999995605469,6|2,0:0|0:0,0:0:0:0:
272,304,54160,1,0,0:0:0:0:
272,304,54340,2,0,P|340:316|360:328,1,71.9999978027344,10|0,0:0|0:0,0:0:0:0:
412,264,54699,2,0,P|412:228|408:192,1,71.9999978027344,2|0,0:0|0:0,0:0:0:0:
472,128,55059,6,0,P|420:152|336:100,1,143.999995605469,6|2,0:0|0:0,0:0:0:0:
280,56,55597,1,0,0:0:0:0:
204,108,55777,2,0,P|168:108|124:120,1,71.9999978027344,10|0,0:0|0:0,0:0:0:0:
266,243,56136,2,0,P|276:208|272:172,1,71.9999978027344,2|0,0:0|0:0,0:0:0:0:
196,304,56496,6,0,B|244:288|276:300|276:300|304:316|344:296,1,143.999995605469,6|2,0:0|0:0,0:0:0:0:
416,244,57035,1,0,0:0:0:0:
416,244,57214,2,0,L|428:84,1,143.999995605469,6|0,0:0|0:0,0:0:0:0:
360,44,57753,1,0,0:0:0:0:
280,88,57933,6,0,B|236:84|208:64|208:64|156:72|124:64,1,143.999995605469,6|2,0:0|0:0,0:0:0:0:
64,108,58472,1,0,0:0:0:0:
144,156,58651,2,0,P|144:192|136:240,1,71.9999978027344,10|0,0:0|0:0,0:0:0:0:
68,356,59011,2,0,P|64:308|68:284,1,71.9999978027344,2|0,0:0|0:0,0:0:0:0:
152,312,59370,6,0,P|200:336|288:320,1,143.999995605469,6|2,0:0|0:0,0:0:0:0:
360,272,59909,1,0,0:0:0:0:
360,272,60088,2,0,P|408:276|444:292,1,71.9999978027344,10|0,0:0|0:0,0:0:0:0:
286,321,60448,2,0,P|278:277|284:224,1,71.9999978027344,2|0,0:0|0:0,0:0:0:0:
372,128,60807,6,0,L|360:289,1,143.999995605469,6|2,0:0|0:0,0:0:0:0:
278,249,61346,1,0,0:0:0:0:
278,249,61526,2,0,P|216:252|188:240,1,71.9999978027344,10|0,0:0|0:0,0:0:0:0:
56,220,61885,2,0,P|100:216|140:200,1,71.9999978027344,2|0,0:0|0:0,0:0:0:0:
200,160,62244,6,0,P|220:104|196:8,1,143.999995605469,6|2,0:0|0:0,0:0:0:0:
64,104,62783,1,0,0:0:0:0:
64,104,62963,2,0,L|152:84,1,71.9999978027344,10|0,0:0|0:0,0:0:0:0:
271,167,63322,2,0,L|199:159,1,71.9999978027344,2|0,0:0|0:0,0:0:0:0:
336,108,63681,6,0,P|360:172|304:252,2,143.999995605469,6|2|10,0:0|0:0|0:0,0:0:0:0:
200,160,64759,2,0,L|288:168,1,71.9999978027344,2|0,0:0|0:0,0:0:0:0:
336,108,65118,6,0,L|479:90,2,143.999995605469,6|2|10,0:0|0:0|0:0,0:0:0:0:
260,336,66196,2,0,L|264:244,1,71.9999978027344,2|0,0:0|0:0,0:0:0:0:
184,224,66556,6,0,B|144:208|104:232|104:232|60:248|32:200,1,143.999995605469,6|2,0:0|0:0,0:0:0:0:
148,304,67094,1,0,0:0:0:0:
263,264,67274,2,0,L|279:104,1,143.999995605469,6|2,0:0|0:0,0:0:0:0:
288,20,67813,1,0,0:0:0:0:
368,72,67993,6,0,P|420:72|448:64,1,71.9999978027344,6|0,0:0|0:0,0:0:0:0:
504,168,68352,2,0,P|452:168|424:176,1,71.9999978027344,6|0,0:0|0:0,0:0:0:0:
368,240,68711,5,10,0:0:0:0:
308,172,68891,2,0,L|311:114,2,35.9999989013672,2|0|10,0:0|0:0|0:0,0:0:0:0:
276,252,69250,1,0,0:0:0:0:
216,184,69430,5,14,0:0:0:0:
