osu file format v14

[General]
AudioFilename: lifeogg.ogg
AudioLeadIn: 0
PreviewTime: 45923
Countdown: 0
SampleSet: Drum
StackLeniency: 0.7
Mode: 3
LetterboxInBreaks: 0
SpecialStyle: 0
WidescreenStoryboard: 1

[Editor]
Bookmarks: 9006,32001,46372,69366,92360,115354,138348,152719,175713,198707,221701,244695,247569,270384
DistanceSpacing: 1
BeatDivisor: 8
GridSize: 32
TimelineZoom: 2.3

[Metadata]
Title:Life [Eris's "a Fate Encounter" mix]
TitleUnicode:Life [Eris's "a Fate Encounter" mix]
Artist:FELT
ArtistUnicode:FELT
Creator:[OSC]Amagai
Version:6K // Extra Stage
Source:東方緋想天 ~ Scarlet Weather Rhapsody
Tags:video game electronic japanese future base arrangement touhou toho 2hu Touhou Project touhou hisouten TH10.5 FELT020 FELT-020 Parallel Cross コミックマーケット90 Comiket 90 c90 comic market 90 コミケ90 U2 Akiyama Uni Twilight Frontier 黄昏フロンティア Tasogare Frontier Eastern Heaven of Scarlet Perception TFM-003 コミックマーケット74 Comiket 74 c74 comic market 74 コミケ74 上海アリス幻樂団 Team Shanghai Alice NAGI☆ NAGI* 伊藤賢 Itou Ken 赤髪 Akagami 美歌 Mika remix doujin marathon long notes ln
BeatmapID:2328418
BeatmapSetID:943788

[Difficulty]
HPDrainRate:8.2
CircleSize:6
OverallDifficulty:7.8
ApproachRate:5
SliderMultiplier:1.4
SliderTickRate:1

[Events]
//Background and Video events
0,0,"Felt Life.png",0,0
//Break Periods
//Storyboard Layer 0 (Background)
//Storyboard Layer 1 (Fail)
//Storyboard Layer 2 (Pass)
//Storyboard Layer 3 (Foreground)
//Storyboard Layer 4 (Overlay)
//Storyboard Sound Samples

[TimingPoints]
9007,359.281437125748,4,3,1,50,1,0
46372,-100,4,3,1,50,0,1
69366,-100,4,3,1,50,0,0
69725,-100,4,3,1,30,0,0
86611,-100,4,3,1,50,0,0
152719,-100,4,3,1,50,0,1
175713,-100,4,3,1,50,0,0
176072,-100,4,3,1,30,0,0
192959,-100,4,3,1,50,0,0
198707,-100,4,3,1,50,0,1
220983,-100,4,3,1,50,0,0
221701,-100,4,3,1,50,0,1
244695,-100,4,3,1,50,0,0
259066,-100,4,3,1,30,0,0

[HitObjects]
42,192,9006,128,0,11881:0:0:0:0:
128,192,9006,128,0,9096:0:0:0:0:
384,192,9006,1,0,0:0:0:0:
298,192,9186,1,0,0:0:0:0:
128,192,9366,1,0,0:0:0:0:
213,192,9366,128,0,9456:0:0:0:0:
384,192,9545,1,0,0:0:0:0:
298,192,9725,128,0,9815:0:0:0:0:
469,192,9725,1,0,0:0:0:0:
213,192,9905,1,0,0:0:0:0:
128,192,10084,1,0,0:0:0:0:
384,192,10084,128,0,10174:0:0:0:0:
298,192,10264,1,0,0:0:0:0:
384,192,10444,1,0,0:0:0:0:
469,192,10444,128,0,10533:0:0:0:0:
128,192,10623,1,0,0:0:0:0:
213,192,10803,1,0,0:0:0:0:
469,192,10803,128,0,10893:0:0:0:0:
298,192,10983,1,0,0:0:0:0:
128,192,11162,1,0,0:0:0:0:
384,192,11162,128,0,11252:0:0:0:0:
469,192,11342,1,0,0:0:0:0:
213,192,11521,1,0,0:0:0:0:
298,192,11521,128,0,11611:0:0:0:0:
128,192,11701,1,0,0:0:0:0:
298,192,11881,1,0,0:0:0:0:
384,192,11881,128,0,14755:0:0:0:0:
469,192,11881,128,0,11971:0:0:0:0:
213,192,12060,1,0,0:0:0:0:
42,192,12240,1,0,0:0:0:0:
128,192,12240,128,0,12330:0:0:0:0:
469,192,12420,1,0,0:0:0:0:
213,192,12599,128,0,12689:0:0:0:0:
298,192,12599,1,0,0:0:0:0:
128,192,12779,1,0,0:0:0:0:
213,192,12959,1,0,0:0:0:0:
469,192,12959,128,0,13048:0:0:0:0:
298,192,13138,1,0,0:0:0:0:
42,192,13318,128,0,13408:0:0:0:0:
128,192,13318,1,0,0:0:0:0:
213,192,13498,1,0,0:0:0:0:
128,192,13677,128,0,13767:0:0:0:0:
469,192,13677,1,0,0:0:0:0:
298,192,13857,1,0,0:0:0:0:
42,192,14036,1,0,0:0:0:0:
213,192,14036,128,0,14126:0:0:0:0:
128,192,14216,1,0,0:0:0:0:
42,192,14396,1,0,0:0:0:0:
469,192,14396,128,0,14486:0:0:0:0:
213,192,14575,1,0,0:0:0:0:
128,192,14755,128,0,17629:0:0:0:0:
298,192,14755,128,0,14845:0:0:0:0:
469,192,14755,1,0,0:0:0:0:
42,192,14935,1,0,0:0:0:0:
213,192,15114,1,0,0:0:0:0:
469,192,15114,128,0,15204:0:0:0:0:
384,192,15294,1,0,0:0:0:0:
213,192,15474,1,0,0:0:0:0:
298,192,15474,128,0,15563:0:0:0:0:
42,192,15653,1,0,0:0:0:0:
384,192,15833,1,0,0:0:0:0:
469,192,15833,128,0,15923:0:0:0:0:
213,192,16012,1,0,0:0:0:0:
42,192,16192,128,0,16282:0:0:0:0:
469,192,16192,1,0,0:0:0:0:
384,192,16372,1,0,0:0:0:0:
213,192,16551,1,0,0:0:0:0:
298,192,16551,128,0,16641:0:0:0:0:
384,192,16731,1,0,0:0:0:0:
42,192,16911,128,0,17001:0:0:0:0:
469,192,16911,1,0,0:0:0:0:
213,192,17090,1,0,0:0:0:0:
298,192,17270,128,0,17360:0:0:0:0:
384,192,17270,1,0,0:0:0:0:
469,192,17450,1,0,0:0:0:0:
213,192,17629,128,0,17719:0:0:0:0:
298,192,17629,128,0,17989:0:0:0:0:
384,192,17629,1,0,0:0:0:0:
42,192,17809,1,0,0:0:0:0:
128,192,17989,1,0,0:0:0:0:
469,192,17989,128,0,18078:0:0:0:0:
298,192,18168,1,0,0:0:0:0:
213,192,18348,128,0,18707:0:0:0:0:
469,192,18348,128,0,18438:0:0:0:0:
384,192,18527,1,0,0:0:0:0:
42,192,18707,1,0,0:0:0:0:
128,192,18707,128,0,18797:0:0:0:0:
298,192,18887,1,0,0:0:0:0:
213,192,19066,128,0,19156:0:0:0:0:
469,192,19066,128,0,19426:0:0:0:0:
298,192,19246,1,0,0:0:0:0:
42,192,19426,1,0,0:0:0:0:
384,192,19426,128,0,19515:0:0:0:0:
128,192,19605,1,0,0:0:0:0:
213,192,19785,128,0,20324:0:0:0:0:
384,192,19785,128,0,19875:0:0:0:0:
298,192,19965,1,0,0:0:0:0:
42,192,20144,128,0,20234:0:0:0:0:
469,192,20144,1,0,0:0:0:0:
128,192,20324,1,0,0:0:0:0:
42,192,20504,1,0,0:0:0:0:
298,192,20504,128,0,20593:0:0:0:0:
469,192,20504,128,0,23378:0:0:0:0:
213,192,20683,1,0,0:0:0:0:
42,192,20863,1,0,0:0:0:0:
128,192,20863,128,0,20953:0:0:0:0:
298,192,21042,1,0,0:0:0:0:
128,192,21222,1,0,0:0:0:0:
213,192,21222,128,0,21312:0:0:0:0:
384,192,21402,1,0,0:0:0:0:
213,192,21581,1,0,0:0:0:0:
298,192,21581,128,0,21671:0:0:0:0:
128,192,21761,1,0,0:0:0:0:
42,192,21941,128,0,22030:0:0:0:0:
384,192,21941,1,0,0:0:0:0:
298,192,22120,1,0,0:0:0:0:
42,192,22300,1,0,0:0:0:0:
213,192,22300,128,0,22390:0:0:0:0:
298,192,22480,1,0,0:0:0:0:
42,192,22659,1,0,0:0:0:0:
128,192,22659,128,0,22749:0:0:0:0:
213,192,22839,1,0,0:0:0:0:
128,192,23018,1,0,0:0:0:0:
384,192,23018,128,0,23108:0:0:0:0:
213,192,23198,1,0,0:0:0:0:
128,192,23378,128,0,26252:0:0:0:0:
298,192,23378,128,0,23468:0:0:0:0:
384,192,23378,1,0,0:0:0:0:
213,192,23557,1,0,0:0:0:0:
42,192,23737,128,0,23827:0:0:0:0:
469,192,23737,1,0,0:0:0:0:
384,192,23917,1,0,0:0:0:0:
298,192,24096,1,0,0:0:0:0:
469,192,24096,128,0,24186:0:0:0:0:
213,192,24276,1,0,0:0:0:0:
42,192,24456,1,0,0:0:0:0:
298,192,24456,128,0,24545:0:0:0:0:
384,192,24635,1,0,0:0:0:0:
213,192,24815,128,0,24905:0:0:0:0:
298,192,24815,1,0,0:0:0:0:
384,192,24995,1,0,0:0:0:0:
42,192,25174,128,0,25264:0:0:0:0:
469,192,25174,1,0,0:0:0:0:
213,192,25354,1,0,0:0:0:0:
298,192,25533,1,0,0:0:0:0:
469,192,25533,128,0,25623:0:0:0:0:
384,192,25713,1,0,0:0:0:0:
213,192,25893,128,0,25983:0:0:0:0:
469,192,25893,1,0,0:0:0:0:
42,192,26072,1,0,0:0:0:0:
213,192,26252,1,0,0:0:0:0:
298,192,26252,128,0,26342:0:0:0:0:
384,192,26252,128,0,29126:0:0:0:0:
128,192,26432,1,0,0:0:0:0:
42,192,26611,1,0,0:0:0:0:
469,192,26611,128,0,26701:0:0:0:0:
298,192,26791,1,0,0:0:0:0:
42,192,26971,1,0,0:0:0:0:
213,192,26971,128,0,27060:0:0:0:0:
298,192,27150,1,0,0:0:0:0:
128,192,27330,128,0,27420:0:0:0:0:
469,192,27330,1,0,0:0:0:0:
213,192,27509,1,0,0:0:0:0:
298,192,27689,128,0,27779:0:0:0:0:
469,192,27689,1,0,0:0:0:0:
42,192,27869,1,0,0:0:0:0:
128,192,28048,1,0,0:0:0:0:
213,192,28048,128,0,28138:0:0:0:0:
298,192,28228,1,0,0:0:0:0:
42,192,28408,128,0,28498:0:0:0:0:
128,192,28408,1,0,0:0:0:0:
213,192,28587,1,0,0:0:0:0:
298,192,28767,1,0,0:0:0:0:
469,192,28767,128,0,28857:0:0:0:0:
128,192,28947,1,0,0:0:0:0:
42,192,29126,1,0,0:0:0:0:
213,192,29126,128,0,29216:0:0:0:0:
298,192,29126,128,0,29486:0:0:0:0:
384,192,29306,1,0,0:0:0:0:
469,192,29306,1,0,0:0:0:0:
128,192,29486,128,0,29575:0:0:0:0:
213,192,29486,1,0,0:0:0:0:
384,192,29665,1,0,0:0:0:0:
42,192,29845,128,0,30204:0:0:0:0:
298,192,29845,128,0,29935:0:0:0:0:
213,192,30024,1,0,0:0:0:0:
128,192,30204,1,0,0:0:0:0:
469,192,30204,128,0,30294:0:0:0:0:
384,192,30384,1,0,0:0:0:0:
298,192,30563,128,0,30653:0:0:0:0:
469,192,30563,128,0,30923:0:0:0:0:
213,192,30743,1,0,0:0:0:0:
42,192,30923,128,0,31012:0:0:0:0:
128,192,30923,1,0,0:0:0:0:
213,192,31102,1,0,0:0:0:0:
42,192,31282,128,0,31462:0:0:0:0:
298,192,31282,128,0,31462:0:0:0:0:
469,192,31282,128,0,31372:0:0:0:0:
128,192,31462,128,0,31641:0:0:0:0:
384,192,31462,128,0,31641:0:0:0:0:
42,192,31641,128,0,31731:0:0:0:0:
213,192,31641,128,0,31821:0:0:0:0:
469,192,31641,128,0,31821:0:0:0:0:
128,192,31821,128,0,32001:0:0:0:0:
384,192,31821,128,0,32001:0:0:0:0:
42,192,32001,128,2,33078:0:0:0:0:
213,192,32001,128,4,32719:0:0:0:0:
298,192,32001,128,0,32719:0:0:0:0:
469,192,32001,128,0,33078:0:0:0:0:
298,192,33078,128,0,33258:0:0:0:0:
42,192,33258,128,2,34156:0:0:0:0:
128,192,33258,128,4,34156:0:0:0:0:
213,192,33258,128,0,34156:0:0:0:0:
469,192,33258,128,0,33438:0:0:0:0:
384,192,33438,128,0,33617:0:0:0:0:
469,192,33617,128,0,33797:0:0:0:0:
298,192,33797,128,0,33977:0:0:0:0:
384,192,33977,128,0,34156:0:0:0:0:
469,192,34156,128,0,34336:0:0:0:0:
128,192,34336,1,0,0:0:0:50:S1.wav
213,192,34336,1,0,0:0:0:0:
298,192,34336,1,0,0:0:0:0:
42,192,34515,128,0,34695:0:0:0:50:S1.wav
213,192,34515,1,0,0:0:0:0:
298,192,34515,1,0,0:0:0:0:
384,192,34515,1,0,0:0:0:0:
128,192,34695,128,2,34875:0:0:0:0:
298,192,34695,1,0,0:0:0:0:
384,192,34695,1,0,0:0:0:0:
469,192,34695,1,0,0:0:0:0:
42,192,34875,128,2,35593:0:0:0:0:
298,192,34875,128,4,35593:0:0:0:0:
384,192,34875,128,0,35593:0:0:0:0:
469,192,34875,128,0,35593:0:0:0:0:
128,192,35773,1,8,0:0:0:0:
213,192,35773,1,0,0:0:0:0:
384,192,35773,1,0,0:0:0:0:
469,192,35773,1,0,0:0:0:0:
42,192,35953,1,2,0:0:0:0:
298,192,35953,1,0,0:0:0:0:
469,192,35953,128,0,36132:0:0:0:0:
42,192,36132,128,2,37749:0:0:0:0:
128,192,36132,128,4,36671:0:0:0:0:
298,192,36132,128,0,37030:0:0:0:0:
384,192,36132,128,0,36312:0:0:0:0:
213,192,36312,128,0,36492:0:0:0:0:
384,192,36492,128,0,36671:0:0:0:0:
213,192,36671,128,0,37749:0:0:0:0:
469,192,36671,128,0,37030:0:0:0:0:
384,192,37030,128,0,37390:0:0:0:0:
128,192,37390,128,0,37569:0:0:0:0:
298,192,37569,128,0,37749:0:0:0:0:
128,192,37749,1,2,0:0:0:0:
384,192,37749,1,0,0:0:0:0:
469,192,37749,128,0,38468:0:0:0:0:
128,192,38108,1,2,0:0:0:0:
213,192,38108,1,0,0:0:0:0:
384,192,38108,1,0,0:0:0:0:
128,192,38468,1,2,0:0:0:0:
298,192,38468,1,0,0:0:0:0:
384,192,38468,1,0,0:0:0:0:
128,192,38827,1,2,0:0:0:0:
298,192,38827,128,0,39006:0:0:0:0:
469,192,38827,1,0,0:0:0:0:
213,192,39006,128,0,39186:0:0:0:0:
42,192,39186,1,2,0:0:0:0:
128,192,39186,128,0,39366:0:0:0:0:
384,192,39186,1,0,0:0:0:0:
469,192,39366,128,0,39545:0:0:0:0:
42,192,39545,1,2,0:0:0:0:
128,192,39545,1,0,0:0:0:0:
384,192,39545,128,0,39725:0:0:0:0:
298,192,39725,128,0,39905:0:0:0:0:
42,192,39905,128,2,40084:0:0:0:0:
384,192,39905,1,0,0:0:0:0:
469,192,39905,1,0,0:0:0:0:
213,192,40084,128,0,40264:0:0:0:0:
298,192,40264,1,2,0:0:0:0:
384,192,40264,128,0,40444:0:0:0:0:
469,192,40264,1,0,0:0:0:0:
128,192,40444,128,0,40623:0:0:0:0:
42,192,40623,1,2,0:0:0:0:
213,192,40623,1,0,0:0:0:0:
298,192,40623,128,0,40983:0:0:0:0:
42,192,40983,1,2,0:0:0:0:
128,192,40983,1,0,0:0:0:0:
384,192,40983,1,0,0:0:0:0:
213,192,41342,1,2,0:0:0:0:
298,192,41342,1,0,0:0:0:0:
469,192,41342,128,0,41701:0:0:0:0:
42,192,41701,1,2,0:0:0:0:
128,192,41701,1,0,0:0:0:0:
384,192,41701,1,0,0:0:0:0:
128,192,42060,1,2,0:0:0:0:
298,192,42060,128,0,42420:0:0:0:0:
469,192,42060,1,0,0:0:0:0:
42,192,42420,1,2,0:0:0:0:
384,192,42420,1,0,0:0:0:0:
469,192,42420,1,0,0:0:0:0:
128,192,42779,128,2,43138:0:0:0:0:
298,192,42779,1,0,0:0:0:0:
469,192,42779,1,0,0:0:0:0:
42,192,43138,1,2,0:0:0:0:
213,192,43138,1,0,0:0:0:0:
384,192,43138,1,0,0:0:0:0:
42,192,43498,1,2,0:0:0:0:
213,192,43498,1,0,0:0:0:0:
384,192,43498,1,0,0:0:0:0:
42,192,43677,1,2,0:0:0:0:
213,192,43677,1,0,0:0:0:0:
384,192,43677,1,0,0:0:0:0:
128,192,43857,1,2,0:0:0:0:
298,192,43857,1,0,0:0:0:0:
469,192,43857,1,0,0:0:0:0:
128,192,44036,1,2,0:0:0:0:
298,192,44036,1,0,0:0:0:0:
469,192,44036,1,0,0:0:0:0:
42,192,44216,1,2,0:0:0:0:
128,192,44216,1,0,0:0:0:0:
298,192,44216,1,0,0:0:0:0:
213,192,44306,1,2,0:0:0:0:
384,192,44306,1,0,0:0:0:0:
469,192,44306,1,0,0:0:0:0:
42,192,44396,1,2,0:0:0:0:
128,192,44396,1,0,0:0:0:0:
298,192,44396,1,0,0:0:0:0:
213,192,44486,1,2,0:0:0:0:
384,192,44486,1,0,0:0:0:0:
469,192,44486,1,0,0:0:0:0:
42,192,44575,1,2,0:0:0:0:
128,192,44575,1,0,0:0:0:0:
213,192,44635,1,2,0:0:0:0:
298,192,44635,1,0,0:0:0:0:
384,192,44695,1,2,0:0:0:0:
469,192,44695,1,0,0:0:0:0:
42,192,44755,1,2,0:0:0:0:
128,192,44755,1,0,0:0:0:0:
213,192,44815,1,2,0:0:0:0:
298,192,44815,1,0,0:0:0:0:
384,192,44875,1,2,0:0:0:0:
469,192,44875,1,0,0:0:0:0:
42,192,44935,1,2,0:0:0:0:
128,192,44935,1,0,0:0:0:0:
213,192,44935,1,0,0:0:0:0:
298,192,45474,128,0,46372:0:0:0:0:
469,192,45474,128,0,46372:0:0:0:0:
213,192,46012,128,0,46372:0:0:0:0:
42,192,46372,128,2,46551:0:0:0:0:
128,192,46372,128,4,46462:0:0:0:0:
384,192,46372,128,0,46641:0:0:0:0:
298,192,46462,128,0,46731:0:0:0:0:
213,192,46551,128,0,46821:0:0:0:0:
128,192,46641,128,0,46911:0:0:0:0:
469,192,46731,128,0,47001:0:0:0:0:
384,192,46821,128,0,47090:0:0:0:0:
298,192,46911,128,0,47090:0:0:0:0:
213,192,47001,128,0,47090:0:0:0:0:
42,192,47090,128,8,47180:0:0:0:0:
128,192,47090,128,0,47180:0:0:0:0:
469,192,47090,128,0,47180:0:0:0:0:
42,192,47270,128,0,47360:0:0:0:0:
128,192,47270,128,0,47360:0:0:0:0:
469,192,47270,128,0,47360:0:0:0:0:
213,192,47450,128,0,47539:0:0:0:0:
469,192,47539,128,0,47629:0:0:0:0:
213,192,47629,128,0,47719:0:0:0:0:
469,192,47719,128,0,47809:0:0:0:0:
213,192,47809,128,0,47989:0:0:0:0:
298,192,47869,128,0,47989:0:0:0:0:
384,192,47929,128,0,47989:0:0:0:0:
42,192,47989,1,2,0:0:0:0:
128,192,47989,1,0,0:0:0:0:
469,192,47989,1,0,0:0:0:0:
42,192,48168,128,2,48348:0:0:0:0:
128,192,48168,128,0,48258:0:0:0:0:
384,192,48168,128,0,48348:0:0:0:0:
298,192,48258,128,0,48438:0:0:0:0:
213,192,48348,128,0,48527:0:0:0:0:
128,192,48438,128,0,48527:0:0:0:0:
42,192,48527,1,8,0:0:0:0:
298,192,48527,1,0,0:0:0:0:
384,192,48527,1,0,0:0:0:0:
469,192,48527,1,0,0:0:0:0:
42,192,48707,128,2,49066:0:0:0:0:
128,192,48707,128,0,48977:0:0:0:0:
213,192,48707,128,0,48887:0:0:0:0:
298,192,48707,128,0,48797:0:0:0:0:
469,192,48797,128,0,49066:0:0:0:0:
384,192,48887,128,0,49066:0:0:0:0:
298,192,48977,128,0,49066:0:0:0:0:
42,192,49246,128,2,49426:0:0:0:0:
128,192,49246,128,0,49336:0:0:0:0:
384,192,49246,128,0,49515:0:0:0:0:
469,192,49246,1,0,0:0:0:0:
298,192,49336,128,0,49605:0:0:0:0:
213,192,49426,128,0,49695:0:0:0:0:
128,192,49515,128,0,49785:0:0:0:0:
42,192,49605,128,0,49875:0:0:0:0:
469,192,49695,128,0,49875:0:0:0:0:
384,192,49785,128,0,49965:0:0:0:0:
298,192,49875,128,0,49965:0:0:0:0:
42,192,49965,128,8,50054:0:0:0:0:
128,192,49965,128,0,50054:0:0:0:0:
213,192,49965,128,0,50054:0:0:0:0:
469,192,49965,1,0,0:0:0:0:
42,192,50144,128,0,50234:0:0:0:0:
128,192,50144,128,0,50234:0:0:0:0:
213,192,50144,128,0,50234:0:0:0:0:
42,192,50324,128,0,50414:0:0:0:0:
128,192,50324,128,0,50414:0:0:0:0:
213,192,50324,128,0,50414:0:0:0:0:
42,192,50504,1,2,0:0:0:0:
128,192,50504,128,0,50863:0:0:0:0:
384,192,50504,128,0,50683:0:0:0:0:
469,192,50504,128,0,50593:0:0:0:0:
298,192,50593,128,0,50773:0:0:0:0:
213,192,50683,128,0,50863:0:0:0:0:
42,192,50863,1,2,0:0:0:0:
384,192,50863,1,0,0:0:0:0:
469,192,50863,1,0,0:0:0:0:
42,192,51042,128,2,51222:0:0:0:0:
384,192,51042,1,0,0:0:0:0:
469,192,51042,1,0,0:0:0:0:
128,192,51132,128,0,51312:0:0:0:0:
213,192,51222,128,0,51402:0:0:0:0:
298,192,51312,128,0,51402:0:0:0:0:
42,192,51402,1,8,0:0:0:0:
128,192,51402,1,0,0:0:0:0:
384,192,51402,1,0,0:0:0:0:
469,192,51402,1,0,0:0:0:0:
42,192,51581,1,2,0:0:0:0:
128,192,51581,1,0,0:0:0:0:
469,192,51581,128,0,52030:0:0:0:0:
384,192,51671,128,0,51941:0:0:0:0:
42,192,51761,128,0,52030:0:0:0:0:
298,192,51761,128,0,51851:0:0:0:0:
128,192,51851,128,0,51941:0:0:0:0:
213,192,51941,128,0,52030:0:0:0:0:
298,192,52030,128,0,52120:0:0:0:0:
42,192,52120,128,2,52300:0:0:0:0:
128,192,52120,128,0,52390:0:0:0:0:
384,192,52120,128,0,52210:0:0:0:0:
469,192,52120,128,0,52480:0:0:0:0:
213,192,52210,128,0,52480:0:0:0:0:
298,192,52300,128,0,52569:0:0:0:0:
384,192,52390,128,0,52659:0:0:0:0:
42,192,52480,128,0,52659:0:0:0:0:
128,192,52569,128,0,52749:0:0:0:0:
213,192,52659,128,0,52839:0:0:0:0:
298,192,52749,128,0,52839:0:0:0:0:
42,192,52839,128,8,52929:0:0:0:0:
128,192,52839,128,0,52929:0:0:0:0:
384,192,52839,128,0,52929:0:0:0:0:
469,192,52839,128,0,52929:0:0:0:0:
128,192,53018,128,0,53108:0:0:0:0:
384,192,53018,128,0,53108:0:0:0:0:
469,192,53018,128,0,53108:0:0:0:0:
128,192,53198,128,0,53288:0:0:0:0:
384,192,53198,128,0,53288:0:0:0:0:
469,192,53198,128,0,53288:0:0:0:0:
298,192,53378,128,0,53468:0:0:0:0:
213,192,53468,128,0,53557:0:0:0:0:
42,192,53557,128,0,53647:0:0:0:0:
213,192,53647,128,0,53737:0:0:0:0:
42,192,53737,128,2,53827:0:0:0:0:
384,192,53737,1,0,0:0:0:0:
469,192,53737,1,0,0:0:0:0:
213,192,53827,128,0,53917:0:0:0:0:
42,192,53917,128,2,54006:0:0:0:0:
384,192,53917,128,0,54096:0:0:0:0:
469,192,53917,128,0,54006:0:0:0:0:
298,192,54006,128,0,54186:0:0:0:0:
213,192,54096,128,0,54276:0:0:0:0:
128,192,54186,128,0,54276:0:0:0:0:
42,192,54276,1,8,0:0:0:0:
298,192,54276,1,0,0:0:0:0:
384,192,54276,1,0,0:0:0:0:
469,192,54276,1,0,0:0:0:0:
213,192,54456,128,2,54545:0:0:0:0:
298,192,54456,128,0,54635:0:0:0:0:
384,192,54456,128,0,54725:0:0:0:0:
469,192,54456,128,0,54815:0:0:0:0:
42,192,54545,128,0,54815:0:0:0:0:
128,192,54635,128,0,54815:0:0:0:0:
213,192,54725,128,0,54815:0:0:0:0:
42,192,54995,128,2,55174:0:0:0:0:
298,192,54995,128,0,55084:0:0:0:0:
384,192,54995,128,0,55174:0:0:0:0:
469,192,54995,128,0,55264:0:0:0:0:
128,192,55084,128,0,55264:0:0:0:0:
213,192,55174,128,0,55354:0:0:0:0:
298,192,55264,128,0,55444:0:0:0:0:
42,192,55354,128,0,55623:0:0:0:0:
384,192,55354,128,0,55533:0:0:0:0:
128,192,55444,128,0,55623:0:0:0:0:
469,192,55444,128,0,55623:0:0:0:0:
213,192,55533,128,0,55623:0:0:0:0:
42,192,55713,128,8,55803:0:0:0:0:
128,192,55713,1,0,0:0:0:0:
213,192,55713,128,0,55803:0:0:0:0:
384,192,55713,128,0,55803:0:0:0:0:
42,192,55893,128,0,55983:0:0:0:0:
213,192,55893,128,0,55983:0:0:0:0:
384,192,55893,128,0,55983:0:0:0:0:
42,192,56072,128,0,56162:0:0:0:0:
213,192,56072,128,0,56162:0:0:0:0:
384,192,56072,128,0,56162:0:0:0:0:
42,192,56252,128,2,56521:0:0:0:0:
213,192,56252,128,0,56432:0:0:0:0:
384,192,56252,128,0,56342:0:0:0:0:
469,192,56342,128,0,56611:0:0:0:0:
298,192,56432,128,0,56611:0:0:0:0:
128,192,56521,128,0,56611:0:0:0:0:
42,192,56611,128,2,56791:0:0:0:0:
213,192,56611,128,0,56791:0:0:0:0:
384,192,56611,128,0,56791:0:0:0:0:
128,192,56791,128,2,56881:0:0:0:0:
298,192,56791,128,0,56971:0:0:0:0:
469,192,56791,128,0,57060:0:0:0:0:
42,192,56881,128,0,57060:0:0:0:0:
213,192,56971,128,0,57150:0:0:0:0:
384,192,57060,128,0,57150:0:0:0:0:
42,192,57150,1,8,0:0:0:0:
128,192,57150,1,0,0:0:0:0:
298,192,57150,1,0,0:0:0:0:
469,192,57150,1,0,0:0:0:0:
42,192,57330,1,2,0:0:0:0:
128,192,57330,1,4,0:0:0:0:
213,192,57330,128,0,57509:0:0:0:0:
384,192,57330,1,0,0:0:0:0:
469,192,57330,1,0,0:0:0:0:
298,192,57420,128,0,57599:0:0:0:0:
384,192,57509,128,0,57689:0:0:0:0:
469,192,57599,128,0,57779:0:0:0:0:
42,192,57689,1,8,0:0:0:0:
128,192,57689,1,0,0:0:0:0:
213,192,57689,1,0,0:0:0:0:
42,192,57869,1,2,0:0:0:0:
128,192,57869,128,4,58138:0:0:0:0:
384,192,57869,128,0,57959:0:0:0:0:
469,192,57869,128,0,58048:0:0:0:0:
213,192,57959,128,0,58228:0:0:0:0:
298,192,58048,128,0,58318:0:0:0:0:
384,192,58138,128,0,58408:0:0:0:0:
42,192,58228,128,0,58498:0:0:0:0:
128,192,58318,128,0,58498:0:0:0:0:
213,192,58408,128,0,58587:0:0:0:0:
298,192,58498,128,0,58587:0:0:0:0:
42,192,58587,128,8,58677:0:0:0:0:
128,192,58587,1,0,0:0:0:0:
384,192,58587,128,0,58677:0:0:0:0:
469,192,58587,128,0,58677:0:0:0:0:
42,192,58767,128,0,58857:0:0:0:0:
384,192,58767,128,0,58857:0:0:0:0:
469,192,58767,128,0,58857:0:0:0:0:
42,192,58947,128,0,59036:0:0:0:0:
298,192,59036,128,0,59126:0:0:0:0:
42,192,59126,128,0,59216:0:0:0:0:
298,192,59216,128,0,59306:0:0:0:0:
42,192,59306,128,0,59486:0:0:0:0:
128,192,59366,128,0,59486:0:0:0:0:
213,192,59426,128,0,59486:0:0:0:0:
298,192,59486,1,2,0:0:0:0:
384,192,59486,1,0,0:0:0:0:
469,192,59486,1,0,0:0:0:0:
298,192,59665,128,2,59935:0:0:0:0:
384,192,59665,1,0,0:0:0:0:
469,192,59665,1,0,0:0:0:0:
213,192,59755,128,0,59935:0:0:0:0:
128,192,59845,128,0,60024:0:0:0:0:
42,192,59935,128,0,60024:0:0:0:0:
213,192,60024,1,8,0:0:0:0:
298,192,60024,1,0,0:0:0:0:
384,192,60024,1,0,0:0:0:0:
469,192,60024,1,0,0:0:0:0:
42,192,60204,128,2,60563:0:0:0:0:
128,192,60204,128,0,60474:0:0:0:0:
213,192,60204,128,0,60384:0:0:0:0:
298,192,60204,128,0,60294:0:0:0:0:
469,192,60294,128,0,60563:0:0:0:0:
384,192,60384,128,0,60563:0:0:0:0:
298,192,60474,128,0,60563:0:0:0:0:
42,192,60743,1,2,0:0:0:0:
213,192,60743,128,0,60833:0:0:0:0:
298,192,60743,1,0,0:0:0:0:
469,192,60743,128,0,61012:0:0:0:0:
128,192,60833,128,0,60923:0:0:0:0:
384,192,60833,128,0,61102:0:0:0:0:
42,192,60923,128,0,61012:0:0:0:0:
298,192,60923,128,0,61192:0:0:0:0:
213,192,61012,128,0,61282:0:0:0:0:
128,192,61102,128,0,61372:0:0:0:0:
42,192,61192,128,0,61462:0:0:0:0:
469,192,61192,128,0,61282:0:0:0:0:
384,192,61282,128,0,61372:0:0:0:0:
298,192,61372,128,0,61462:0:0:0:0:
128,192,61462,1,8,0:0:0:0:
213,192,61462,128,0,61551:0:0:0:0:
384,192,61462,128,0,61551:0:0:0:0:
469,192,61462,128,0,61551:0:0:0:0:
213,192,61641,128,0,61731:0:0:0:0:
384,192,61641,128,0,61731:0:0:0:0:
469,192,61641,128,0,61731:0:0:0:0:
213,192,61821,128,0,61911:0:0:0:0:
384,192,61821,128,0,61911:0:0:0:0:
469,192,61821,128,0,61911:0:0:0:0:
42,192,62001,128,2,62270:0:0:0:0:
128,192,62001,128,0,62270:0:0:0:0:
384,192,62001,128,0,62090:0:0:0:0:
469,192,62001,128,0,62360:0:0:0:0:
213,192,62090,128,0,62270:0:0:0:0:
298,192,62180,128,0,62360:0:0:0:0:
384,192,62270,128,0,62360:0:0:0:0:
42,192,62360,1,2,0:0:0:0:
128,192,62360,1,0,0:0:0:0:
213,192,62360,1,0,0:0:0:0:
42,192,62539,128,2,62809:0:0:0:0:
128,192,62539,128,0,62899:0:0:0:0:
213,192,62539,128,0,62629:0:0:0:0:
469,192,62539,128,0,62809:0:0:0:0:
384,192,62629,128,0,62809:0:0:0:0:
298,192,62719,128,0,62809:0:0:0:0:
213,192,62809,128,0,62899:0:0:0:0:
42,192,62899,1,8,0:0:0:0:
298,192,62899,1,0,0:0:0:0:
384,192,62899,1,0,0:0:0:0:
469,192,62899,1,0,0:0:0:0:
42,192,63078,1,2,0:0:0:0:
128,192,63078,128,0,63168:0:0:0:0:
213,192,63078,128,0,63258:0:0:0:0:
298,192,63078,128,0,63348:0:0:0:0:
384,192,63168,128,0,63438:0:0:0:0:
42,192,63258,128,0,63527:0:0:0:0:
469,192,63258,128,0,63527:0:0:0:0:
128,192,63348,128,0,63527:0:0:0:0:
213,192,63438,128,0,63527:0:0:0:0:
298,192,63527,128,0,63617:0:0:0:0:
42,192,63617,128,2,63887:0:0:0:0:
128,192,63617,128,0,63797:0:0:0:0:
213,192,63617,128,0,63707:0:0:0:0:
469,192,63617,128,0,63887:0:0:0:0:
384,192,63707,128,0,63977:0:0:0:0:
298,192,63797,128,0,64066:0:0:0:0:
213,192,63887,128,0,64156:0:0:0:0:
128,192,63977,128,0,64246:0:0:0:0:
42,192,64066,128,0,64336:0:0:0:0:
469,192,64066,128,0,64156:0:0:0:0:
384,192,64156,128,0,64246:0:0:0:0:
298,192,64246,128,0,64336:0:0:0:0:
128,192,64336,128,8,64426:0:0:0:0:
213,192,64336,128,0,64426:0:0:0:0:
384,192,64336,1,0,0:0:0:0:
469,192,64336,128,0,64426:0:0:0:0:
128,192,64515,128,0,64605:0:0:0:0:
213,192,64515,128,0,64605:0:0:0:0:
469,192,64515,128,0,64605:0:0:0:0:
42,192,64695,128,0,64785:0:0:0:0:
298,192,64695,128,0,64785:0:0:0:0:
384,192,64695,128,0,64785:0:0:0:0:
128,192,64875,128,0,64965:0:0:0:0:
469,192,64965,128,0,65054:0:0:0:0:
128,192,65054,128,0,65144:0:0:0:0:
469,192,65144,128,0,65234:0:0:0:0:
42,192,65234,1,2,0:0:0:0:
128,192,65234,128,0,65324:0:0:0:0:
298,192,65234,1,0,0:0:0:0:
469,192,65324,128,0,65414:0:0:0:0:
42,192,65414,1,2,0:0:0:0:
128,192,65414,128,0,65683:0:0:0:0:
298,192,65414,1,0,0:0:0:0:
213,192,65504,128,0,65683:0:0:0:0:
298,192,65593,128,0,65773:0:0:0:0:
384,192,65683,128,0,65773:0:0:0:0:
42,192,65773,1,8,0:0:0:0:
128,192,65773,1,0,0:0:0:0:
213,192,65773,1,0,0:0:0:0:
469,192,65773,1,0,0:0:0:0:
42,192,65953,128,2,66222:0:0:0:0:
128,192,65953,128,0,66132:0:0:0:0:
213,192,65953,128,0,66042:0:0:0:0:
469,192,65953,128,0,66312:0:0:0:0:
384,192,66042,128,0,66312:0:0:0:0:
298,192,66132,128,0,66312:0:0:0:0:
213,192,66222,128,0,66312:0:0:0:0:
128,192,66312,128,0,66402:0:0:0:0:
42,192,66492,128,2,66581:0:0:0:0:
128,192,66492,128,0,66671:0:0:0:0:
213,192,66492,128,0,66761:0:0:0:0:
469,192,66492,128,0,67030:0:0:0:0:
384,192,66581,128,0,66941:0:0:0:0:
298,192,66671,128,0,66851:0:0:0:0:
42,192,66761,128,0,66941:0:0:0:0:
128,192,66851,128,0,67030:0:0:0:0:
213,192,66941,128,0,67120:0:0:0:0:
298,192,67030,128,0,67210:0:0:0:0:
384,192,67120,128,0,67300:0:0:0:0:
128,192,67210,128,8,67390:0:0:0:0:
213,192,67210,1,0,0:0:0:0:
469,192,67210,128,0,67390:0:0:0:0:
42,192,67300,128,0,67480:0:0:0:0:
298,192,67390,128,0,67569:0:0:0:0:
213,192,67480,128,0,67659:0:0:0:0:
469,192,67569,128,0,67749:0:0:0:0:
384,192,67659,128,0,67839:0:0:0:0:
42,192,67749,1,2,0:0:0:0:
128,192,67749,1,0,0:0:0:0:
298,192,67749,128,0,67929:0:0:0:0:
213,192,67839,128,0,68018:0:0:0:0:
128,192,67929,128,0,68108:0:0:0:0:
42,192,68018,128,0,68198:0:0:0:0:
213,192,68108,1,2,0:0:0:0:
298,192,68108,1,0,0:0:0:0:
469,192,68108,128,0,68557:0:0:0:0:
384,192,68198,128,0,68468:0:0:0:0:
42,192,68288,128,2,68468:0:0:0:0:
213,192,68288,1,0,0:0:0:0:
298,192,68288,128,0,68378:0:0:0:0:
128,192,68378,128,0,68557:0:0:0:0:
213,192,68468,128,0,68647:0:0:0:0:
298,192,68557,128,0,68647:0:0:0:0:
42,192,68647,1,8,0:0:0:0:
128,192,68647,1,0,0:0:0:0:
384,192,68647,1,0,0:0:0:0:
469,192,68647,1,0,0:0:0:0:
42,192,68827,1,0,0:0:0:50:S1.wav
128,192,68827,1,0,0:0:0:0:
469,192,68827,1,0,0:0:0:0:
213,192,68917,1,0,0:0:0:50:S1.wav
298,192,68917,1,0,0:0:0:0:
42,192,69006,1,0,0:0:0:50:S1.wav
128,192,69006,1,0,0:0:0:0:
384,192,69006,1,0,0:0:0:0:
469,192,69006,1,0,0:0:0:0:
128,192,69186,1,0,0:0:0:50:S1.wav
298,192,69186,1,0,0:0:0:0:
213,192,69366,1,2,0:0:0:0:
384,192,69366,1,4,0:0:0:0:
469,192,69366,1,0,0:0:0:0:
128,192,69411,1,0,0:0:0:0:
42,192,69456,1,0,0:0:0:0:
128,192,69725,1,8,0:0:0:0:
298,192,69725,1,0,0:0:0:0:
469,192,69905,1,0,0:0:0:0:
42,192,70264,1,2,0:0:0:0:
384,192,70444,1,8,0:0:0:0:
213,192,70803,1,0,0:0:0:0:
469,192,70803,1,0,0:0:0:0:
42,192,70983,1,2,0:0:0:0:
384,192,70983,1,0,0:0:0:0:
128,192,71162,1,8,0:0:0:0:
298,192,71162,1,0,0:0:0:0:
213,192,71342,1,0,0:0:0:0:
469,192,71342,1,0,0:0:0:0:
42,192,71701,1,2,0:0:0:0:
213,192,71881,1,8,0:0:0:0:
384,192,71881,1,0,0:0:0:0:
469,192,71881,1,0,0:0:0:0:
42,192,72240,1,2,0:0:0:0:
128,192,72240,1,0,0:0:0:0:
469,192,72240,1,0,0:0:0:0:
213,192,72285,1,0,0:0:0:0:
384,192,72330,1,0,0:0:0:0:
128,192,72420,1,0,0:0:0:0:
42,192,72599,1,8,0:0:0:0:
298,192,72599,1,0,0:0:0:0:
213,192,72779,1,0,0:0:0:0:
469,192,72779,1,0,0:0:0:0:
213,192,73138,1,2,0:0:0:0:
42,192,73318,1,8,0:0:0:0:
128,192,73318,1,0,0:0:0:0:
298,192,73318,1,0,0:0:0:0:
213,192,73498,1,0,0:0:0:0:
469,192,73498,1,0,0:0:0:0:
42,192,73677,1,0,0:0:0:0:
384,192,73677,1,0,0:0:0:0:
128,192,73857,1,2,0:0:0:0:
298,192,73857,1,0,0:0:0:0:
213,192,74036,1,8,0:0:0:0:
469,192,74036,1,0,0:0:0:0:
213,192,74575,1,2,0:0:0:0:
42,192,74755,1,8,0:0:0:0:
298,192,74755,1,0,0:0:0:0:
469,192,74755,1,0,0:0:0:0:
128,192,74935,1,2,0:0:0:0:
213,192,74935,1,0,0:0:0:0:
384,192,74935,1,0,0:0:0:0:
42,192,75114,1,2,0:0:0:0:
128,192,75114,1,0,0:0:0:0:
298,192,75114,1,0,0:0:0:0:
213,192,75294,1,0,0:0:0:0:
42,192,75474,1,8,0:0:0:0:
298,192,75474,1,0,0:0:0:0:
384,192,75653,1,0,0:0:0:0:
42,192,76012,1,2,0:0:0:0:
213,192,76012,1,0,0:0:0:0:
213,192,76192,1,8,0:0:0:0:
384,192,76192,1,0,0:0:0:0:
469,192,76192,1,0,0:0:0:0:
298,192,76372,1,0,0:0:0:0:
42,192,76551,1,0,0:0:0:0:
213,192,76551,1,0,0:0:0:0:
128,192,76731,1,2,0:0:0:0:
298,192,76731,1,0,0:0:0:0:
469,192,76731,1,0,0:0:0:0:
42,192,76911,1,8,0:0:0:0:
298,192,76911,1,0,0:0:0:0:
213,192,77090,1,0,0:0:0:0:
128,192,77270,1,0,0:0:0:0:
384,192,77270,1,0,0:0:0:0:
213,192,77450,1,2,0:0:0:0:
298,192,77629,1,8,0:0:0:0:
42,192,77989,1,2,0:0:0:0:
213,192,77989,1,0,0:0:0:0:
469,192,77989,1,0,0:0:0:0:
298,192,78168,1,0,0:0:0:0:
128,192,78348,1,8,0:0:0:0:
384,192,78348,1,0,0:0:0:0:
213,192,78527,1,0,0:0:0:0:
298,192,78527,1,0,0:0:0:0:
469,192,78527,1,0,0:0:0:0:
298,192,78887,1,2,0:0:0:0:
42,192,79021,1,0,0:0:0:0:
128,192,79066,1,8,0:0:0:0:
213,192,79066,1,0,0:0:0:0:
469,192,79066,1,0,0:0:0:0:
128,192,79605,1,2,0:0:0:0:
384,192,79785,1,8,0:0:0:0:
128,192,80324,1,2,0:0:0:0:
213,192,80504,1,8,0:0:0:0:
384,192,80504,1,0,0:0:0:0:
469,192,80504,1,0,0:0:0:0:
128,192,80683,1,2,0:0:0:0:
298,192,80683,1,0,0:0:0:0:
42,192,80863,1,2,0:0:0:0:
128,192,80863,1,0,0:0:0:0:
213,192,80863,1,0,0:0:0:0:
298,192,80908,1,0,0:0:0:0:
469,192,80953,1,0,0:0:0:0:
213,192,81042,1,0,0:0:0:0:
128,192,81222,1,8,0:0:0:0:
298,192,81222,1,0,0:0:0:0:
384,192,81402,1,0,0:0:0:0:
213,192,81761,1,2,0:0:0:0:
469,192,81941,1,8,0:0:0:0:
213,192,82300,1,0,0:0:0:0:
469,192,82300,1,0,0:0:0:0:
128,192,82480,1,2,0:0:0:0:
298,192,82480,1,0,0:0:0:0:
213,192,82659,1,8,0:0:0:0:
384,192,82659,1,0,0:0:0:0:
42,192,82839,1,0,0:0:0:0:
298,192,82839,1,0,0:0:0:0:
469,192,83198,1,2,0:0:0:0:
128,192,83378,1,8,0:0:0:0:
298,192,83378,1,0,0:0:0:0:
384,192,83378,1,0,0:0:0:0:
42,192,83737,1,2,0:0:0:0:
213,192,83737,1,0,0:0:0:0:
384,192,83737,1,0,0:0:0:0:
128,192,83782,1,0,0:0:0:0:
298,192,83827,1,0,0:0:0:0:
213,192,83917,1,0,0:0:0:0:
42,192,84096,1,8,0:0:0:0:
298,192,84096,1,0,0:0:0:0:
128,192,84276,1,0,0:0:0:0:
384,192,84276,1,0,0:0:0:0:
42,192,84635,1,2,0:0:0:0:
42,192,84815,1,8,0:0:0:0:
298,192,84815,1,0,0:0:0:0:
469,192,84815,1,0,0:0:0:0:
213,192,84995,1,0,0:0:0:0:
469,192,84995,1,0,0:0:0:0:
128,192,85174,1,0,0:0:0:0:
384,192,85174,1,0,0:0:0:0:
42,192,85354,1,2,0:0:0:0:
298,192,85354,1,0,0:0:0:0:
128,192,85533,1,8,0:0:0:0:
384,192,85533,1,0,0:0:0:0:
213,192,85713,1,0,0:0:0:0:
128,192,86072,1,2,0:0:0:0:
128,192,86252,1,8,0:0:0:0:
384,192,86252,1,0,0:0:0:0:
469,192,86252,1,0,0:0:0:0:
298,192,86432,1,2,0:0:0:0:
128,192,86611,1,2,0:0:0:0:
298,192,86611,1,0,0:0:0:0:
469,192,86611,1,0,0:0:0:0:
213,192,86791,1,0,0:0:0:0:
128,192,86971,1,8,0:0:0:0:
298,192,86971,1,0,0:0:0:0:
128,192,87150,1,0,0:0:0:0:
384,192,87150,1,0,0:0:0:0:
469,192,87150,1,0,0:0:0:0:
298,192,87330,1,0,0:0:0:0:
42,192,87509,1,2,0:0:0:0:
213,192,87689,1,8,0:0:0:0:
298,192,87689,1,0,0:0:0:0:
469,192,87689,1,0,0:0:0:0:
213,192,88048,1,0,0:0:0:0:
384,192,88048,1,0,0:0:0:0:
42,192,88228,1,2,0:0:0:0:
298,192,88228,1,0,0:0:0:0:
128,192,88408,1,8,0:0:0:0:
213,192,88587,1,0,0:0:0:0:
384,192,88587,1,0,0:0:0:0:
128,192,88947,1,2,0:0:0:0:
469,192,88947,1,0,0:0:0:0:
298,192,89126,1,8,0:0:0:0:
42,192,89486,1,8,0:0:0:0:
213,192,89486,1,0,0:0:0:0:
469,192,89486,1,0,0:0:0:0:
384,192,89575,1,0,0:0:0:0:
42,192,89665,1,2,0:0:0:0:
213,192,89665,1,0,0:0:0:0:
298,192,89755,1,0,0:0:0:0:
42,192,89845,1,8,0:0:0:0:
384,192,89845,1,0,0:0:0:0:
469,192,89845,1,0,0:0:0:0:
128,192,89935,1,0,0:0:0:0:
384,192,90024,1,2,0:0:0:0:
469,192,90024,1,0,0:0:0:0:
298,192,90114,1,0,0:0:0:0:
42,192,90204,1,8,0:0:0:0:
128,192,90204,1,0,0:0:0:0:
469,192,90204,1,0,0:0:0:0:
384,192,90294,1,0,0:0:0:0:
42,192,90384,1,2,0:0:0:0:
128,192,90384,1,0,0:0:0:0:
213,192,90474,1,0,0:0:0:0:
42,192,90563,1,8,0:0:0:0:
298,192,90563,1,0,0:0:0:0:
469,192,90563,1,0,0:0:0:0:
128,192,90653,1,0,0:0:0:0:
298,192,90743,1,8,0:0:0:0:
469,192,90743,1,0,0:0:0:0:
42,192,90923,1,2,0:0:0:0:
213,192,90923,1,4,0:0:0:0:
298,192,90923,1,0,0:0:0:50:S1.wav
469,192,90923,1,0,0:0:0:0:
384,192,91012,1,0,0:0:0:50:S1.wav
213,192,91102,1,0,0:0:0:50:S1.wav
469,192,91192,1,0,0:0:0:50:S1.wav
42,192,91282,1,0,0:0:0:50:S1.wav
128,192,91282,1,0,0:0:0:0:
384,192,91372,1,0,0:0:0:50:S1.wav
128,192,91462,1,0,0:0:0:50:S1.wav
213,192,91506,1,0,0:0:0:0:
298,192,91551,1,0,0:0:0:50:S1.wav
384,192,91596,1,0,0:0:0:0:
42,192,91641,128,0,92001:0:0:0:50:S1.wav
128,192,91641,128,0,92001:0:0:0:0:
469,192,91641,1,0,0:0:0:0:
213,192,91731,1,0,0:0:0:50:S1.wav
384,192,91821,1,0,0:0:0:50:S1.wav
298,192,91911,1,0,0:0:0:50:S1.wav
213,192,92001,1,0,0:0:0:70:S2.wav
384,192,92001,1,0,0:0:0:0:
469,192,92001,1,0,0:0:0:0:
42,192,92360,1,4,0:0:0:0:
298,192,92360,128,2,92539:0:0:0:0:
469,192,92360,1,0,0:0:0:0:
128,192,92450,1,0,0:0:0:0:
213,192,92539,128,0,92719:0:0:0:0:
384,192,92539,1,0,0:0:0:0:
469,192,92629,1,0,0:0:0:0:
42,192,92719,1,8,0:0:0:0:
128,192,92719,128,0,92899:0:0:0:0:
298,192,92719,1,0,0:0:0:0:
213,192,92899,1,0,0:0:0:0:
469,192,92899,128,0,93078:0:0:0:0:
128,192,93078,1,0,0:0:0:0:
384,192,93078,128,0,93258:0:0:0:0:
298,192,93258,128,2,93438:0:0:0:0:
469,192,93258,1,0,0:0:0:0:
42,192,93438,1,8,0:0:0:0:
128,192,93438,128,0,93617:0:0:0:0:
384,192,93438,1,0,0:0:0:0:
298,192,93527,1,0,0:0:0:0:
213,192,93617,128,0,93797:0:0:0:0:
469,192,93617,1,0,0:0:0:0:
384,192,93707,1,0,0:0:0:0:
42,192,93797,1,0,0:0:0:0:
298,192,93797,128,0,93977:0:0:0:0:
128,192,93977,1,2,0:0:0:0:
384,192,93977,128,0,94156:0:0:0:0:
213,192,94156,1,8,0:0:0:0:
298,192,94156,128,0,94336:0:0:0:0:
469,192,94156,1,0,0:0:0:0:
128,192,94246,1,0,0:0:0:0:
42,192,94336,128,0,94515:0:0:0:0:
384,192,94336,1,0,0:0:0:0:
298,192,94426,1,0,0:0:0:0:
128,192,94515,128,0,94695:0:0:0:0:
213,192,94515,1,0,0:0:0:0:
42,192,94695,1,2,0:0:0:0:
384,192,94695,128,0,94875:0:0:0:0:
128,192,94875,1,8,0:0:0:0:
298,192,94875,128,0,95054:0:0:0:0:
469,192,94875,1,0,0:0:0:0:
213,192,94965,1,0,0:0:0:0:
42,192,95054,128,0,95234:0:0:0:0:
384,192,95054,1,0,0:0:0:0:
298,192,95144,1,0,0:0:0:0:
213,192,95234,128,2,95414:0:0:0:0:
469,192,95234,1,0,0:0:0:0:
128,192,95414,128,0,95593:0:0:0:0:
384,192,95414,1,0,0:0:0:0:
42,192,95593,128,8,95773:0:0:0:0:
298,192,95593,1,0,0:0:0:0:
469,192,95593,1,0,0:0:0:0:
213,192,95683,1,0,0:0:0:0:
128,192,95773,1,0,0:0:0:0:
384,192,95773,128,0,95953:0:0:0:0:
298,192,95863,1,0,0:0:0:0:
42,192,95953,1,0,0:0:0:0:
213,192,95953,128,0,96132:0:0:0:0:
128,192,96132,128,2,96312:0:0:0:0:
384,192,96132,1,0,0:0:0:0:
213,192,96312,1,8,0:0:0:0:
298,192,96312,128,0,96492:0:0:0:0:
469,192,96312,1,0,0:0:0:0:
384,192,96402,1,0,0:0:0:0:
42,192,96492,128,0,96671:0:0:0:0:
128,192,96492,1,0,0:0:0:0:
213,192,96581,1,0,0:0:0:0:
298,192,96671,1,0,0:0:0:0:
469,192,96671,128,0,96851:0:0:0:0:
128,192,96851,1,2,0:0:0:0:
213,192,96851,128,0,97030:0:0:0:0:
298,192,97030,1,8,0:0:0:0:
384,192,97030,128,0,97210:0:0:0:0:
469,192,97030,1,0,0:0:0:0:
128,192,97120,1,0,0:0:0:0:
42,192,97210,128,0,97390:0:0:0:0:
213,192,97210,1,0,0:0:0:0:
298,192,97300,1,0,0:0:0:0:
384,192,97390,1,0,0:0:0:0:
469,192,97390,128,0,97569:0:0:0:0:
42,192,97569,1,2,0:0:0:0:
298,192,97569,128,0,97749:0:0:0:0:
128,192,97749,1,8,0:0:0:0:
384,192,97749,128,0,97929:0:0:0:0:
469,192,97749,1,0,0:0:0:0:
213,192,97839,1,0,0:0:0:0:
42,192,97929,128,2,98108:0:0:0:0:
298,192,97929,1,0,0:0:0:0:
128,192,98018,1,0,0:0:0:0:
213,192,98108,128,2,98288:0:0:0:0:
469,192,98108,1,0,0:0:0:0:
128,192,98288,1,0,0:0:0:0:
384,192,98288,128,0,98468:0:0:0:0:
42,192,98468,1,8,0:0:0:0:
213,192,98468,1,0,0:0:0:0:
298,192,98468,128,0,98647:0:0:0:0:
384,192,98557,1,0,0:0:0:0:
128,192,98647,1,0,0:0:0:0:
469,192,98647,128,0,98827:0:0:0:0:
213,192,98737,1,0,0:0:0:0:
42,192,98827,128,0,99006:0:0:0:0:
298,192,98827,1,0,0:0:0:0:
128,192,99006,1,2,0:0:0:0:
384,192,99006,128,0,99186:0:0:0:0:
213,192,99186,1,8,0:0:0:0:
298,192,99186,1,0,0:0:0:0:
469,192,99186,128,0,99366:0:0:0:0:
128,192,99276,1,0,0:0:0:0:
42,192,99366,1,0,0:0:0:0:
213,192,99366,128,0,99545:0:0:0:0:
298,192,99456,1,0,0:0:0:0:
128,192,99545,1,0,0:0:0:0:
384,192,99545,128,0,99725:0:0:0:0:
298,192,99725,128,2,99905:0:0:0:0:
469,192,99725,1,0,0:0:0:0:
128,192,99905,1,8,0:0:0:0:
213,192,99905,128,0,100084:0:0:0:0:
384,192,99905,1,0,0:0:0:0:
42,192,99995,1,0,0:0:0:0:
128,192,100084,1,0,0:0:0:0:
298,192,100084,128,0,100264:0:0:0:0:
213,192,100174,1,0,0:0:0:0:
384,192,100264,128,0,100444:0:0:0:0:
469,192,100264,1,0,0:0:0:0:
213,192,100444,1,2,0:0:0:0:
298,192,100444,128,0,100623:0:0:0:0:
42,192,100623,1,8,0:0:0:0:
128,192,100623,128,0,100803:0:0:0:0:
469,192,100623,1,0,0:0:0:0:
384,192,100713,1,0,0:0:0:0:
42,192,100803,1,0,0:0:0:0:
298,192,100803,128,0,100983:0:0:0:0:
213,192,100893,1,0,0:0:0:0:
128,192,100983,1,2,0:0:0:0:
469,192,100983,128,0,101162:0:0:0:0:
42,192,101162,128,0,101342:0:0:0:0:
298,192,101162,1,0,0:0:0:0:
128,192,101342,1,8,0:0:0:0:
384,192,101342,128,0,101521:0:0:0:0:
469,192,101342,1,0,0:0:0:0:
213,192,101432,1,0,0:0:0:0:
42,192,101521,1,0,0:0:0:0:
298,192,101521,128,0,101701:0:0:0:0:
128,192,101611,1,0,0:0:0:0:
213,192,101701,1,0,0:0:0:0:
469,192,101701,128,0,101881:0:0:0:0:
42,192,101881,1,2,0:0:0:0:
384,192,101881,128,0,102060:0:0:0:0:
128,192,102060,1,8,0:0:0:0:
213,192,102060,128,0,102240:0:0:0:0:
298,192,102060,1,0,0:0:0:0:
384,192,102150,1,0,0:0:0:0:
42,192,102240,128,0,102420:0:0:0:0:
469,192,102240,1,0,0:0:0:0:
128,192,102330,1,0,0:0:0:0:
213,192,102420,128,0,102599:0:0:0:0:
384,192,102420,1,0,0:0:0:0:
128,192,102599,1,2,0:0:0:0:
298,192,102599,128,0,102779:0:0:0:0:
42,192,102779,1,8,0:0:0:0:
213,192,102779,1,0,0:0:0:0:
469,192,102779,128,0,102959:0:0:0:0:
298,192,102869,1,0,0:0:0:0:
128,192,102959,128,0,103138:0:0:0:0:
384,192,102959,1,0,0:0:0:0:
213,192,103048,1,0,0:0:0:0:
298,192,103138,128,0,103318:0:0:0:0:
469,192,103138,1,0,0:0:0:0:
128,192,103318,1,2,0:0:0:0:
384,192,103318,128,0,103498:0:0:0:0:
298,192,103408,1,0,0:0:0:0:
42,192,103498,1,8,0:0:0:0:
213,192,103498,128,0,103677:0:0:0:0:
469,192,103498,1,0,0:0:0:0:
384,192,103587,1,0,0:0:0:0:
128,192,103677,1,2,0:0:0:0:
298,192,103677,128,0,103767:0:0:0:0:
384,192,103767,1,0,0:0:0:0:
42,192,103857,128,2,103902:0:0:0:0:
128,192,103857,128,4,103947:0:0:0:0:
213,192,103857,128,0,103992:0:0:0:0:
298,192,103902,128,0,104036:0:0:0:0:
384,192,103947,128,0,104081:0:0:0:0:
42,192,103992,128,0,104081:0:0:0:0:
469,192,103992,128,0,104126:0:0:0:0:
128,192,104036,128,0,104126:0:0:0:0:
213,192,104081,128,0,104171:0:0:0:0:
298,192,104126,128,0,104216:0:0:0:0:
384,192,104171,128,0,104216:0:0:0:0:
42,192,104216,128,8,104396:0:0:0:0:
128,192,104216,1,0,0:0:0:0:
469,192,104216,1,0,0:0:0:0:
213,192,104306,1,0,0:0:0:0:
298,192,104396,128,0,104575:0:0:0:0:
469,192,104396,1,0,0:0:0:0:
128,192,104486,1,0,0:0:0:0:
213,192,104575,128,0,104755:0:0:0:0:
384,192,104575,1,0,0:0:0:0:
469,192,104665,1,0,0:0:0:0:
42,192,104755,128,2,104935:0:0:0:0:
298,192,104755,1,0,0:0:0:0:
128,192,104845,1,0,0:0:0:0:
213,192,104935,1,8,0:0:0:0:
384,192,104935,1,0,0:0:0:0:
469,192,104935,128,0,105114:0:0:0:0:
128,192,105024,1,0,0:0:0:0:
42,192,105114,1,0,0:0:0:0:
298,192,105114,128,0,105294:0:0:0:0:
213,192,105204,1,0,0:0:0:0:
128,192,105294,128,0,105474:0:0:0:0:
469,192,105294,1,0,0:0:0:0:
42,192,105384,1,0,0:0:0:0:
298,192,105474,128,2,105653:0:0:0:0:
469,192,105474,1,0,0:0:0:0:
384,192,105563,1,0,0:0:0:0:
42,192,105653,1,8,0:0:0:0:
128,192,105653,1,0,0:0:0:0:
213,192,105653,128,0,105833:0:0:0:0:
298,192,105743,1,0,0:0:0:0:
128,192,105833,128,0,106012:0:0:0:0:
384,192,105833,1,0,0:0:0:0:
213,192,105923,1,0,0:0:0:0:
298,192,106012,128,0,106192:0:0:0:0:
469,192,106012,1,0,0:0:0:0:
128,192,106102,1,0,0:0:0:0:
42,192,106192,1,2,0:0:0:0:
384,192,106192,128,0,106372:0:0:0:0:
298,192,106282,1,0,0:0:0:0:
128,192,106372,128,8,106551:0:0:0:0:
213,192,106372,1,0,0:0:0:0:
469,192,106372,1,0,0:0:0:0:
384,192,106462,1,0,0:0:0:0:
42,192,106551,1,0,0:0:0:0:
298,192,106551,128,0,106731:0:0:0:0:
384,192,106641,1,0,0:0:0:0:
42,192,106731,1,2,0:0:0:0:
469,192,106731,1,0,0:0:0:0:
213,192,106821,1,0,0:0:0:0:
128,192,106911,1,0,0:0:0:0:
384,192,106911,128,0,107090:0:0:0:0:
298,192,107001,1,0,0:0:0:0:
42,192,107090,1,8,0:0:0:0:
213,192,107090,128,0,107270:0:0:0:0:
469,192,107090,1,0,0:0:0:0:
298,192,107180,1,0,0:0:0:0:
128,192,107270,128,0,107450:0:0:0:0:
384,192,107270,1,0,0:0:0:0:
213,192,107360,1,0,0:0:0:0:
42,192,107450,128,0,107629:0:0:0:0:
298,192,107450,1,0,0:0:0:0:
469,192,107539,1,0,0:0:0:0:
128,192,107629,1,2,0:0:0:0:
384,192,107629,128,0,107809:0:0:0:0:
298,192,107719,1,0,0:0:0:0:
42,192,107809,1,8,0:0:0:0:
128,192,107809,1,0,0:0:0:0:
469,192,107809,128,0,107989:0:0:0:0:
213,192,107899,1,0,0:0:0:0:
42,192,107989,1,0,0:0:0:0:
128,192,107989,128,0,108168:0:0:0:0:
384,192,108078,1,0,0:0:0:0:
298,192,108168,128,0,108348:0:0:0:0:
469,192,108168,1,0,0:0:0:0:
213,192,108258,1,0,0:0:0:0:
42,192,108348,1,2,0:0:0:0:
128,192,108348,128,0,108527:0:0:0:0:
298,192,108438,1,0,0:0:0:0:
213,192,108527,1,8,0:0:0:0:
384,192,108527,1,0,0:0:0:0:
469,192,108527,128,0,108707:0:0:0:0:
128,192,108617,1,0,0:0:0:0:
42,192,108707,128,0,108887:0:0:0:0:
298,192,108707,1,0,0:0:0:0:
384,192,108797,1,0,0:0:0:0:
213,192,108887,1,0,0:0:0:0:
469,192,108887,128,0,109066:0:0:0:0:
128,192,108977,1,0,0:0:0:0:
298,192,109066,128,2,109246:0:0:0:0:
384,192,109066,1,0,0:0:0:0:
128,192,109156,1,0,0:0:0:0:
42,192,109246,1,8,0:0:0:0:
213,192,109246,128,0,109426:0:0:0:0:
469,192,109246,1,0,0:0:0:0:
298,192,109336,1,0,0:0:0:0:
128,192,109426,128,2,109605:0:0:0:0:
384,192,109426,1,0,0:0:0:0:
42,192,109515,1,0,0:0:0:0:
213,192,109605,128,2,109785:0:0:0:0:
298,192,109605,1,0,0:0:0:0:
469,192,109605,1,0,0:0:0:0:
128,192,109785,128,2,109965:0:0:0:0:
384,192,109785,1,0,0:0:0:0:
469,192,109785,1,0,0:0:0:0:
42,192,109965,128,2,110144:0:0:0:0:
298,192,109965,1,0,0:0:0:0:
384,192,109965,1,0,0:0:0:0:
128,192,110144,128,2,110324:0:0:0:0:
213,192,110144,1,0,0:0:0:0:
298,192,110144,1,0,0:0:0:0:
213,192,110324,1,2,0:0:0:0:
384,192,110324,1,0,0:0:0:0:
469,192,110324,128,0,110504:0:0:0:0:
42,192,110504,1,2,0:0:0:0:
128,192,110504,1,0,0:0:0:0:
384,192,110504,128,0,110683:0:0:0:0:
213,192,110683,1,2,0:0:0:0:
298,192,110683,128,0,110863:0:0:0:0:
469,192,110683,1,0,0:0:0:0:
42,192,110863,1,2,0:0:0:0:
213,192,110863,128,0,111042:0:0:0:0:
384,192,110863,1,0,0:0:0:0:
128,192,111042,1,2,0:0:0:0:
298,192,111042,128,0,111222:0:0:0:0:
469,192,111042,1,0,0:0:0:0:
42,192,111222,1,2,0:0:0:0:
213,192,111222,128,0,111402:0:0:0:0:
384,192,111222,1,0,0:0:0:0:
128,192,111402,128,2,111581:0:0:0:0:
298,192,111402,1,0,0:0:0:0:
469,192,111402,1,0,0:0:0:0:
42,192,111581,128,2,111761:0:0:0:0:
213,192,111581,1,0,0:0:0:0:
384,192,111581,1,0,0:0:0:0:
128,192,111761,1,2,0:0:0:0:
298,192,111761,128,0,111941:0:0:0:0:
469,192,111761,1,0,0:0:0:0:
42,192,111941,1,2,0:0:0:0:
213,192,111941,128,0,112120:0:0:0:0:
384,192,111941,1,0,0:0:0:0:
128,192,112120,128,2,112300:0:0:0:0:
384,192,112120,1,0,0:0:0:0:
469,192,112120,1,0,0:0:0:0:
42,192,112300,1,2,0:0:0:0:
213,192,112300,1,0,0:0:0:0:
298,192,112300,128,0,112480:0:0:0:0:
128,192,112480,1,2,0:0:0:0:
384,192,112480,1,0,0:0:0:0:
42,192,112569,1,2,0:0:0:0:
469,192,112569,1,0,0:0:0:0:
213,192,112659,1,2,0:0:0:0:
298,192,112659,1,0,0:0:0:0:
42,192,112749,1,2,0:0:0:0:
469,192,112749,1,0,0:0:0:0:
128,192,112839,1,2,0:0:0:0:
384,192,112839,1,0,0:0:0:0:
213,192,112929,1,2,0:0:0:0:
298,192,112929,1,0,0:0:0:0:
128,192,113018,1,2,0:0:0:0:
384,192,113018,1,0,0:0:0:0:
213,192,113108,1,2,0:0:0:0:
298,192,113108,1,0,0:0:0:0:
384,192,113198,1,2,0:0:0:0:
469,192,113198,1,0,0:0:0:0:
42,192,113288,1,2,0:0:0:0:
128,192,113288,1,0,0:0:0:0:
298,192,113378,1,2,0:0:0:0:
384,192,113378,1,0,0:0:0:0:
128,192,113468,1,2,0:0:0:0:
213,192,113468,1,0,0:0:0:0:
298,192,113557,1,2,0:0:0:0:
469,192,113557,1,0,0:0:0:0:
42,192,113647,1,2,0:0:0:0:
213,192,113647,1,0,0:0:0:0:
298,192,113737,1,2,0:0:0:0:
469,192,113737,1,0,0:0:0:0:
42,192,113827,1,2,0:0:0:0:
213,192,113827,1,0,0:0:0:0:
469,192,113917,1,2,0:0:0:0:
384,192,113962,1,2,0:0:0:0:
298,192,114006,1,2,0:0:0:0:
42,192,114096,1,2,0:0:0:0:
469,192,114186,1,2,0:0:0:0:
42,192,114276,1,2,0:0:0:0:
469,192,114366,1,2,0:0:0:0:
42,192,114456,1,2,0:0:0:0:
469,192,114545,1,2,0:0:0:0:
298,192,114635,128,2,114815:0:0:0:0:
42,192,114815,1,0,0:0:0:0:
128,192,114860,1,0,0:0:0:0:
213,192,114905,1,0,0:0:0:0:
298,192,114950,1,0,0:0:0:0:
42,192,114995,1,0,0:0:0:0:
128,192,115039,1,0,0:0:0:0:
213,192,115084,1,0,0:0:0:0:
469,192,115129,1,0,0:0:0:0:
384,192,115174,1,0,0:0:0:0:
298,192,115219,1,0,0:0:0:0:
213,192,115264,1,0,0:0:0:0:
469,192,115309,1,0,0:0:0:0:
42,192,115354,1,2,0:0:0:0:
128,192,115354,1,4,0:0:0:0:
298,192,115354,1,0,0:0:0:0:
384,192,115354,1,0,0:0:0:0:
213,192,115444,1,0,0:0:0:0:
298,192,115533,1,0,0:0:0:0:
384,192,115533,1,0,0:0:0:0:
128,192,115623,1,0,0:0:0:0:
42,192,115713,1,8,0:0:0:0:
213,192,115713,1,0,0:0:0:0:
298,192,115713,1,0,0:0:0:0:
469,192,115713,1,0,0:0:0:0:
384,192,115803,1,0,0:0:0:0:
128,192,115893,1,0,0:0:0:0:
298,192,115893,1,0,0:0:0:0:
213,192,115983,1,0,0:0:0:0:
42,192,116072,128,0,116252:0:0:0:0:
384,192,116072,1,0,0:0:0:0:
128,192,116162,1,0,0:0:0:0:
213,192,116252,1,2,0:0:0:0:
384,192,116252,1,0,0:0:0:0:
469,192,116252,1,0,0:0:0:0:
298,192,116342,1,0,0:0:0:0:
42,192,116432,1,8,0:0:0:0:
128,192,116432,1,0,0:0:0:0:
213,192,116432,1,0,0:0:0:0:
469,192,116432,1,0,0:0:0:0:
384,192,116521,1,0,0:0:0:0:
42,192,116611,1,0,0:0:0:0:
298,192,116611,1,0,0:0:0:0:
384,192,116701,1,0,0:0:0:0:
128,192,116791,128,0,116971:0:0:0:0:
469,192,116791,1,0,0:0:0:0:
213,192,116881,1,0,0:0:0:0:
42,192,116971,1,2,0:0:0:0:
298,192,116971,1,0,0:0:0:0:
384,192,116971,1,0,0:0:0:0:
128,192,117060,1,0,0:0:0:0:
213,192,117150,1,8,0:0:0:0:
298,192,117150,1,0,0:0:0:0:
384,192,117150,1,0,0:0:0:0:
469,192,117150,1,0,0:0:0:0:
128,192,117240,1,0,0:0:0:0:
42,192,117330,1,0,0:0:0:0:
384,192,117330,1,0,0:0:0:0:
298,192,117420,1,0,0:0:0:0:
213,192,117509,1,0,0:0:0:0:
469,192,117509,128,0,117689:0:0:0:0:
128,192,117599,1,0,0:0:0:0:
42,192,117689,1,2,0:0:0:0:
213,192,117689,1,0,0:0:0:0:
384,192,117689,1,0,0:0:0:0:
298,192,117779,1,0,0:0:0:0:
42,192,117869,1,8,0:0:0:0:
128,192,117869,1,0,0:0:0:0:
384,192,117869,1,0,0:0:0:0:
469,192,117869,1,0,0:0:0:0:
213,192,117959,1,0,0:0:0:0:
42,192,118048,128,0,118228:0:0:0:0:
298,192,118048,1,0,0:0:0:0:
384,192,118138,1,0,0:0:0:0:
213,192,118228,1,2,0:0:0:0:
298,192,118228,1,0,0:0:0:0:
469,192,118228,128,0,118408:0:0:0:0:
128,192,118318,1,0,0:0:0:0:
42,192,118408,1,0,0:0:0:0:
298,192,118408,1,0,0:0:0:0:
213,192,118498,1,0,0:0:0:0:
42,192,118587,1,8,0:0:0:0:
298,192,118587,1,0,0:0:0:0:
384,192,118587,1,0,0:0:0:0:
469,192,118587,1,0,0:0:0:0:
128,192,118677,1,0,0:0:0:0:
213,192,118767,1,0,0:0:0:0:
469,192,118767,1,0,0:0:0:0:
384,192,118857,1,0,0:0:0:0:
42,192,118947,128,0,119126:0:0:0:0:
298,192,118947,1,0,0:0:0:0:
213,192,119036,1,0,0:0:0:0:
298,192,119126,1,2,0:0:0:0:
384,192,119126,1,0,0:0:0:0:
469,192,119126,1,0,0:0:0:0:
213,192,119216,1,0,0:0:0:0:
42,192,119306,1,8,0:0:0:0:
128,192,119306,1,0,0:0:0:0:
384,192,119306,1,0,0:0:0:0:
469,192,119306,1,0,0:0:0:0:
298,192,119396,1,0,0:0:0:0:
128,192,119486,1,0,0:0:0:0:
384,192,119486,1,0,0:0:0:0:
469,192,119575,1,0,0:0:0:0:
42,192,119665,1,0,0:0:0:0:
213,192,119665,128,0,119845:0:0:0:0:
298,192,119755,1,0,0:0:0:0:
42,192,119845,1,2,0:0:0:0:
128,192,119845,1,0,0:0:0:0:
384,192,119845,1,0,0:0:0:0:
213,192,119935,1,0,0:0:0:0:
128,192,120024,1,8,0:0:0:0:
298,192,120024,1,0,0:0:0:0:
384,192,120024,1,0,0:0:0:0:
469,192,120024,1,0,0:0:0:0:
42,192,120114,1,0,0:0:0:0:
213,192,120204,1,0,0:0:0:0:
469,192,120204,1,0,0:0:0:0:
384,192,120294,1,0,0:0:0:0:
128,192,120384,1,0,0:0:0:0:
298,192,120384,128,0,120563:0:0:0:0:
384,192,120474,1,0,0:0:0:0:
42,192,120563,1,2,0:0:0:0:
213,192,120563,1,0,0:0:0:0:
469,192,120563,1,0,0:0:0:0:
128,192,120653,1,0,0:0:0:0:
213,192,120743,1,8,0:0:0:0:
298,192,120743,1,0,0:0:0:0:
384,192,120743,1,0,0:0:0:0:
469,192,120743,1,0,0:0:0:0:
128,192,120923,128,2,121102:0:0:0:0:
213,192,120923,1,0,0:0:0:0:
298,192,120923,1,0,0:0:0:0:
213,192,121102,128,2,121282:0:0:0:0:
298,192,121102,1,0,0:0:0:0:
384,192,121102,1,0,0:0:0:0:
469,192,121192,1,0,0:0:0:0:
298,192,121282,1,0,0:0:0:0:
384,192,121372,1,0,0:0:0:0:
42,192,121462,1,8,0:0:0:0:
128,192,121462,1,0,0:0:0:0:
213,192,121462,1,0,0:0:0:0:
298,192,121462,1,0,0:0:0:0:
469,192,121551,1,0,0:0:0:0:
42,192,121641,1,0,0:0:0:0:
384,192,121641,1,0,0:0:0:0:
213,192,121731,1,0,0:0:0:0:
128,192,121821,128,0,122001:0:0:0:0:
298,192,121821,1,0,0:0:0:0:
384,192,121911,1,0,0:0:0:0:
42,192,122001,1,2,0:0:0:0:
298,192,122001,1,0,0:0:0:0:
469,192,122001,1,0,0:0:0:0:
213,192,122090,1,0,0:0:0:0:
42,192,122180,1,8,0:0:0:0:
128,192,122180,1,0,0:0:0:0:
298,192,122180,1,0,0:0:0:0:
384,192,122180,1,0,0:0:0:0:
469,192,122270,1,0,0:0:0:0:
213,192,122360,1,0,0:0:0:0:
298,192,122450,1,0,0:0:0:0:
42,192,122539,128,0,122719:0:0:0:0:
384,192,122539,1,0,0:0:0:0:
469,192,122629,1,0,0:0:0:0:
213,192,122719,1,2,0:0:0:0:
298,192,122719,1,0,0:0:0:0:
384,192,122719,1,0,0:0:0:0:
42,192,122809,1,0,0:0:0:0:
128,192,122899,1,8,0:0:0:0:
298,192,122899,1,0,0:0:0:0:
384,192,122899,1,0,0:0:0:0:
469,192,122899,1,0,0:0:0:0:
213,192,122989,1,0,0:0:0:0:
298,192,123078,1,0,0:0:0:0:
384,192,123078,1,0,0:0:0:0:
213,192,123168,1,0,0:0:0:0:
128,192,123258,1,0,0:0:0:0:
469,192,123258,128,0,123438:0:0:0:0:
42,192,123348,1,0,0:0:0:0:
213,192,123438,1,2,0:0:0:0:
298,192,123438,1,0,0:0:0:0:
384,192,123438,1,0,0:0:0:0:
128,192,123527,1,0,0:0:0:0:
42,192,123617,1,8,0:0:0:0:
213,192,123617,1,0,0:0:0:0:
298,192,123617,1,0,0:0:0:0:
469,192,123617,1,0,0:0:0:0:
384,192,123707,1,0,0:0:0:0:
42,192,123797,128,0,123977:0:0:0:0:
298,192,123797,1,0,0:0:0:0:
213,192,123887,1,0,0:0:0:0:
298,192,123977,1,2,0:0:0:0:
384,192,123977,1,0,0:0:0:0:
469,192,123977,128,0,124156:0:0:0:0:
128,192,124066,1,0,0:0:0:0:
213,192,124156,1,0,0:0:0:0:
298,192,124246,1,0,0:0:0:0:
42,192,124336,1,8,0:0:0:0:
128,192,124336,1,0,0:0:0:0:
213,192,124336,1,0,0:0:0:0:
384,192,124336,1,0,0:0:0:0:
469,192,124426,1,0,0:0:0:0:
42,192,124515,1,0,0:0:0:0:
298,192,124515,1,0,0:0:0:0:
213,192,124605,1,0,0:0:0:0:
128,192,124695,1,0,0:0:0:0:
298,192,124695,128,0,124875:0:0:0:0:
213,192,124785,1,0,0:0:0:0:
42,192,124875,1,2,0:0:0:0:
128,192,124875,1,0,0:0:0:0:
384,192,124875,1,0,0:0:0:0:
298,192,124965,1,0,0:0:0:0:
128,192,125054,1,8,0:0:0:0:
213,192,125054,1,0,0:0:0:0:
384,192,125054,1,0,0:0:0:0:
469,192,125054,1,0,0:0:0:0:
298,192,125144,1,0,0:0:0:0:
384,192,125234,1,0,0:0:0:0:
213,192,125324,1,0,0:0:0:0:
128,192,125414,1,0,0:0:0:0:
384,192,125414,128,0,125593:0:0:0:0:
42,192,125504,1,0,0:0:0:0:
128,192,125593,1,2,0:0:0:0:
213,192,125593,1,0,0:0:0:0:
298,192,125593,1,0,0:0:0:0:
42,192,125683,1,0,0:0:0:0:
213,192,125773,1,8,0:0:0:0:
298,192,125773,1,0,0:0:0:0:
384,192,125773,1,0,0:0:0:0:
469,192,125773,1,0,0:0:0:0:
128,192,125863,1,0,0:0:0:0:
42,192,125953,1,0,0:0:0:0:
384,192,125953,1,0,0:0:0:0:
128,192,126042,1,0,0:0:0:0:
213,192,126132,128,0,126312:0:0:0:0:
298,192,126222,1,0,0:0:0:0:
42,192,126312,1,2,0:0:0:0:
384,192,126312,1,0,0:0:0:0:
469,192,126312,1,0,0:0:0:0:
128,192,126402,1,0,0:0:0:0:
213,192,126492,1,8,0:0:0:0:
298,192,126492,1,0,0:0:0:0:
384,192,126492,1,0,0:0:0:0:
469,192,126492,1,0,0:0:0:0:
128,192,126581,1,0,0:0:0:0:
42,192,126671,1,2,0:0:0:0:
213,192,126671,128,0,126851:0:0:0:0:
384,192,126671,1,0,0:0:0:0:
42,192,126851,1,2,0:0:0:0:
128,192,126851,128,4,127030:0:0:0:0:
298,192,126851,1,0,0:0:0:0:
384,192,126851,1,0,0:0:0:0:
469,192,126851,1,0,0:0:0:0:
213,192,126941,1,0,0:0:0:0:
298,192,127030,1,0,0:0:0:0:
384,192,127120,1,0,0:0:0:0:
128,192,127210,1,8,0:0:0:0:
213,192,127210,1,0,0:0:0:0:
298,192,127210,1,0,0:0:0:0:
469,192,127210,1,0,0:0:0:0:
42,192,127300,1,0,0:0:0:0:
213,192,127390,1,0,0:0:0:0:
298,192,127480,1,0,0:0:0:0:
42,192,127569,128,0,127749:0:0:0:0:
128,192,127569,1,0,0:0:0:0:
384,192,127659,1,0,0:0:0:0:
213,192,127749,1,2,0:0:0:0:
298,192,127749,1,0,0:0:0:0:
469,192,127749,1,0,0:0:0:0:
128,192,127839,1,0,0:0:0:0:
42,192,127929,1,8,0:0:0:0:
213,192,127929,1,0,0:0:0:0:
298,192,127929,1,0,0:0:0:0:
469,192,127929,1,0,0:0:0:0:
384,192,128018,1,0,0:0:0:0:
128,192,128108,1,0,0:0:0:0:
298,192,128108,1,0,0:0:0:0:
42,192,128198,1,0,0:0:0:0:
128,192,128288,128,0,128468:0:0:0:0:
213,192,128288,1,0,0:0:0:0:
298,192,128378,1,0,0:0:0:0:
42,192,128468,1,2,0:0:0:0:
384,192,128468,1,0,0:0:0:0:
469,192,128468,1,0,0:0:0:0:
128,192,128557,1,0,0:0:0:0:
213,192,128647,1,8,0:0:0:0:
298,192,128647,1,0,0:0:0:0:
384,192,128647,1,0,0:0:0:0:
469,192,128647,1,0,0:0:0:0:
128,192,128737,1,0,0:0:0:0:
42,192,128827,1,0,0:0:0:0:
298,192,128827,1,0,0:0:0:0:
469,192,128917,1,0,0:0:0:0:
384,192,129006,128,0,129186:0:0:0:0:
298,192,129096,1,0,0:0:0:0:
42,192,129186,1,2,0:0:0:0:
128,192,129186,1,0,0:0:0:0:
213,192,129186,1,0,0:0:0:0:
298,192,129276,1,0,0:0:0:0:
42,192,129366,1,8,0:0:0:0:
128,192,129366,1,0,0:0:0:0:
384,192,129366,1,0,0:0:0:0:
469,192,129366,1,0,0:0:0:0:
213,192,129456,1,0,0:0:0:0:
42,192,129545,128,0,129725:0:0:0:0:
298,192,129545,1,0,0:0:0:0:
384,192,129635,1,0,0:0:0:0:
128,192,129725,1,2,0:0:0:0:
213,192,129725,128,0,129905:0:0:0:0:
469,192,129725,1,0,0:0:0:0:
298,192,129815,1,0,0:0:0:0:
384,192,129905,1,0,0:0:0:0:
298,192,129995,1,0,0:0:0:0:
42,192,130084,1,8,0:0:0:0:
128,192,130084,1,0,0:0:0:0:
213,192,130084,1,0,0:0:0:0:
384,192,130084,1,0,0:0:0:0:
469,192,130174,1,0,0:0:0:0:
213,192,130264,1,0,0:0:0:0:
298,192,130264,1,0,0:0:0:0:
384,192,130354,1,0,0:0:0:0:
128,192,130444,1,0,0:0:0:0:
213,192,130444,128,0,130623:0:0:0:0:
469,192,130444,1,0,0:0:0:0:
42,192,130623,1,2,0:0:0:0:
128,192,130623,1,0,0:0:0:0:
298,192,130623,1,0,0:0:0:0:
384,192,130713,1,0,0:0:0:0:
42,192,130803,1,8,0:0:0:0:
128,192,130803,1,0,0:0:0:0:
213,192,130803,1,0,0:0:0:0:
298,192,130803,1,0,0:0:0:0:
384,192,130893,1,0,0:0:0:0:
42,192,130983,1,0,0:0:0:0:
469,192,130983,1,0,0:0:0:0:
298,192,131072,1,0,0:0:0:0:
213,192,131162,1,0,0:0:0:0:
469,192,131162,128,0,131342:0:0:0:0:
128,192,131252,1,0,0:0:0:0:
42,192,131342,1,2,0:0:0:0:
298,192,131342,1,0,0:0:0:0:
384,192,131342,1,0,0:0:0:0:
213,192,131432,1,0,0:0:0:0:
42,192,131521,1,8,0:0:0:0:
128,192,131521,1,0,0:0:0:0:
298,192,131521,1,0,0:0:0:0:
384,192,131521,1,0,0:0:0:0:
213,192,131611,1,0,0:0:0:0:
128,192,131701,128,0,131881:0:0:0:0:
298,192,131701,1,0,0:0:0:0:
384,192,131791,1,0,0:0:0:0:
42,192,131881,1,0,0:0:0:0:
469,192,131881,1,0,0:0:0:0:
128,192,131971,1,0,0:0:0:0:
213,192,132060,1,2,0:0:0:0:
298,192,132060,1,0,0:0:0:0:
469,192,132060,1,0,0:0:0:0:
384,192,132150,1,0,0:0:0:0:
42,192,132240,1,8,0:0:0:0:
128,192,132240,1,0,0:0:0:0:
213,192,132240,1,0,0:0:0:0:
298,192,132240,1,0,0:0:0:0:
384,192,132330,1,0,0:0:0:0:
42,192,132420,1,2,0:0:0:0:
128,192,132420,1,0,0:0:0:0:
469,192,132420,128,0,132599:0:0:0:0:
42,192,132599,1,2,0:0:0:0:
128,192,132599,1,0,0:0:0:0:
213,192,132599,128,0,132779:0:0:0:0:
298,192,132689,1,0,0:0:0:0:
384,192,132779,1,0,0:0:0:0:
298,192,132869,1,0,0:0:0:0:
128,192,132959,1,8,0:0:0:0:
213,192,132959,1,0,0:0:0:0:
384,192,132959,1,0,0:0:0:0:
469,192,132959,1,0,0:0:0:0:
42,192,133048,1,0,0:0:0:0:
298,192,133138,1,0,0:0:0:0:
469,192,133138,1,0,0:0:0:0:
213,192,133228,1,0,0:0:0:0:
128,192,133318,1,0,0:0:0:0:
298,192,133318,128,0,133498:0:0:0:0:
42,192,133408,1,0,0:0:0:0:
213,192,133498,1,2,0:0:0:0:
384,192,133498,1,0,0:0:0:0:
469,192,133498,1,0,0:0:0:0:
128,192,133587,1,0,0:0:0:0:
42,192,133677,1,8,0:0:0:0:
298,192,133677,1,0,0:0:0:0:
384,192,133677,1,0,0:0:0:0:
469,192,133677,1,0,0:0:0:0:
213,192,133767,1,0,0:0:0:0:
128,192,133857,1,0,0:0:0:0:
384,192,133857,1,0,0:0:0:0:
213,192,133947,1,0,0:0:0:0:
298,192,134036,1,0,0:0:0:0:
469,192,134036,128,0,134216:0:0:0:0:
384,192,134126,1,0,0:0:0:0:
42,192,134216,1,2,0:0:0:0:
128,192,134216,1,0,0:0:0:0:
213,192,134216,1,0,0:0:0:0:
298,192,134306,1,0,0:0:0:0:
128,192,134396,1,8,0:0:0:0:
213,192,134396,1,0,0:0:0:0:
384,192,134396,1,0,0:0:0:0:
469,192,134396,1,0,0:0:0:0:
298,192,134486,1,0,0:0:0:0:
42,192,134575,1,0,0:0:0:0:
384,192,134575,1,0,0:0:0:0:
469,192,134665,1,0,0:0:0:0:
128,192,134755,1,0,0:0:0:0:
298,192,134755,128,0,134935:0:0:0:0:
213,192,134845,1,0,0:0:0:0:
42,192,134935,1,2,0:0:0:0:
128,192,134935,1,0,0:0:0:0:
384,192,134935,1,0,0:0:0:0:
298,192,135024,1,0,0:0:0:0:
128,192,135114,1,8,0:0:0:0:
213,192,135114,1,0,0:0:0:0:
384,192,135114,1,0,0:0:0:0:
469,192,135114,1,0,0:0:0:0:
42,192,135204,1,0,0:0:0:0:
213,192,135294,1,0,0:0:0:0:
298,192,135294,1,0,0:0:0:0:
384,192,135384,1,0,0:0:0:0:
42,192,135474,128,2,135653:0:0:0:0:
213,192,135474,1,0,0:0:0:10:S1.wav
469,192,135474,1,0,0:0:0:0:
298,192,135563,1,0,0:0:0:10:S1.wav
213,192,135653,1,0,0:0:0:10:S1.wav
384,192,135653,1,0,0:0:0:0:
128,192,135743,1,0,0:0:0:10:S1.wav
213,192,135833,1,8,0:0:0:0:
298,192,135833,1,0,0:0:0:10:S1.wav
384,192,135833,1,0,0:0:0:0:
469,192,135833,1,0,0:0:0:0:
128,192,135923,1,0,0:0:0:10:S1.wav
42,192,136012,1,0,0:0:0:20:S1.wav
384,192,136012,1,0,0:0:0:0:
213,192,136102,1,0,0:0:0:20:S1.wav
128,192,136192,1,0,0:0:0:20:S1.wav
298,192,136192,128,0,136372:0:0:0:0:
213,192,136282,1,0,0:0:0:20:S1.wav
42,192,136372,1,2,0:0:0:0:
384,192,136372,1,0,0:0:0:20:S1.wav
469,192,136372,1,0,0:0:0:0:
213,192,136462,1,0,0:0:0:20:S1.wav
128,192,136551,1,8,0:0:0:0:
298,192,136551,1,0,0:0:0:30:S1.wav
384,192,136551,1,0,0:0:0:0:
469,192,136551,1,0,0:0:0:0:
213,192,136641,1,0,0:0:0:30:S1.wav
128,192,136731,1,0,0:0:0:30:S1.wav
469,192,136731,1,0,0:0:0:0:
42,192,136821,1,0,0:0:0:30:S1.wav
128,192,136911,128,0,137090:0:0:0:30:S1.wav
298,192,136911,1,0,0:0:0:0:
384,192,137001,1,0,0:0:0:30:S1.wav
213,192,137090,1,2,0:0:0:0:
298,192,137090,1,0,0:0:0:40:S1.wav
469,192,137090,1,0,0:0:0:0:
384,192,137180,1,0,0:0:0:40:S1.wav
42,192,137270,1,8,0:0:0:0:
128,192,137270,1,0,0:0:0:40:S1.wav
213,192,137270,1,0,0:0:0:0:
298,192,137270,1,0,0:0:0:0:
469,192,137360,1,0,0:0:0:40:S1.wav
42,192,137450,1,0,0:0:0:40:S1.wav
384,192,137450,1,0,0:0:0:0:
298,192,137539,1,0,0:0:0:40:S1.wav
213,192,137629,1,0,0:0:0:50:S1.wav
469,192,137629,1,0,0:0:0:0:
128,192,137719,1,0,0:0:0:50:S1.wav
42,192,137809,1,2,0:0:0:0:
298,192,137809,1,0,0:0:0:50:S1.wav
384,192,137809,1,0,0:0:0:0:
213,192,137899,1,0,0:0:0:50:S1.wav
42,192,137989,1,8,0:0:0:0:
298,192,137989,1,0,0:0:0:50:S1.wav
384,192,137989,1,0,0:0:0:0:
469,192,137989,1,0,0:0:0:0:
128,192,138078,1,0,0:0:0:50:S1.wav
213,192,138168,1,2,0:0:0:0:
469,192,138168,1,0,0:0:0:50:S1.wav
298,192,138258,1,0,0:0:0:50:S1.wav
42,192,138348,128,2,139426:0:0:0:0:
128,192,138348,128,4,139066:0:0:0:0:
384,192,138348,128,0,139426:0:0:0:0:
469,192,138348,128,0,139066:0:0:0:0:
298,192,139426,128,0,139605:0:0:0:0:
42,192,139605,128,2,140504:0:0:0:0:
128,192,139605,128,4,140504:0:0:0:0:
213,192,139605,128,0,139785:0:0:0:0:
384,192,139605,128,0,140504:0:0:0:0:
469,192,139785,128,0,139965:0:0:0:0:
213,192,139965,128,0,140144:0:0:0:0:
298,192,140144,128,0,140324:0:0:0:0:
469,192,140324,128,0,140504:0:0:0:0:
213,192,140504,128,0,140683:0:0:0:0:
42,192,140683,1,8,0:0:0:0:
298,192,140683,1,0,0:0:0:0:
384,192,140683,1,0,0:0:0:0:
42,192,140863,128,8,141042:0:0:0:0:
213,192,140863,1,0,0:0:0:50:S1.wav
298,192,140863,1,0,0:0:0:0:
469,192,140863,1,0,0:0:0:0:
128,192,141042,128,2,141222:0:0:0:0:
298,192,141042,1,0,0:0:0:0:
384,192,141042,1,0,0:0:0:0:
469,192,141042,1,0,0:0:0:0:
213,192,141222,128,4,141941:0:0:0:0:
298,192,141222,128,2,141941:0:0:0:0:
384,192,141222,128,0,141941:0:0:0:0:
469,192,141222,128,0,141941:0:0:0:0:
42,192,142120,1,8,0:0:0:0:
128,192,142120,1,0,0:0:0:0:
213,192,142120,1,0,0:0:0:0:
384,192,142120,1,0,0:0:0:0:
298,192,142300,128,2,142480:0:0:0:0:
384,192,142300,1,0,0:0:0:0:
469,192,142300,1,0,0:0:0:0:
42,192,142480,128,2,144096:0:0:0:0:
213,192,142480,128,4,142659:0:0:0:0:
384,192,142480,128,0,143737:0:0:0:0:
469,192,142480,128,0,143018:0:0:0:0:
298,192,142659,128,0,142839:0:0:0:0:
128,192,142839,128,0,143018:0:0:0:0:
213,192,143018,128,0,143557:0:0:0:0:
298,192,143018,128,0,143737:0:0:0:0:
128,192,143378,128,0,144096:0:0:0:0:
213,192,143737,128,0,143917:0:0:0:0:
469,192,143737,128,0,144096:0:0:0:0:
384,192,143917,128,0,144096:0:0:0:0:
213,192,144096,1,2,0:0:0:0:
298,192,144096,128,0,144815:0:0:0:0:
42,192,144456,1,2,0:0:0:0:
128,192,144456,1,0,0:0:0:0:
384,192,144456,1,0,0:0:0:0:
128,192,144815,1,2,0:0:0:0:
384,192,144815,1,0,0:0:0:0:
469,192,144815,1,0,0:0:0:0:
42,192,145174,1,2,0:0:0:0:
213,192,145174,128,0,145354:0:0:0:0:
469,192,145174,1,0,0:0:0:0:
384,192,145354,128,0,145533:0:0:0:0:
42,192,145533,1,2,0:0:0:0:
128,192,145533,128,0,145713:0:0:0:0:
298,192,145533,1,0,0:0:0:0:
469,192,145713,128,0,145893:0:0:0:0:
42,192,145893,128,2,146072:0:0:0:0:
213,192,145893,1,0,0:0:0:0:
298,192,145893,1,0,0:0:0:0:
384,192,146072,128,0,146252:0:0:0:0:
42,192,146252,1,2,0:0:0:0:
213,192,146252,128,0,146432:0:0:0:0:
469,192,146252,1,0,0:0:0:0:
298,192,146432,128,0,146611:0:0:0:0:
42,192,146611,1,2,0:0:0:0:
128,192,146611,1,0,0:0:0:0:
384,192,146611,128,0,146791:0:0:0:0:
469,192,146791,128,0,146971:0:0:0:0:
128,192,146971,128,2,147330:0:0:0:0:
213,192,146971,1,0,0:0:0:0:
384,192,146971,1,0,0:0:0:0:
42,192,147330,1,2,0:0:0:0:
298,192,147330,1,0,0:0:0:0:
469,192,147330,1,0,0:0:0:0:
128,192,147689,1,2,0:0:0:0:
213,192,147689,128,0,148048:0:0:0:0:
384,192,147689,1,0,0:0:0:0:
42,192,148048,1,2,0:0:0:0:
298,192,148048,1,0,0:0:0:0:
469,192,148048,1,0,0:0:0:0:
128,192,148408,1,2,0:0:0:0:
298,192,148408,128,0,148767:0:0:0:0:
384,192,148408,1,0,0:0:0:0:
42,192,148767,1,2,0:0:0:0:
213,192,148767,1,0,0:0:0:0:
384,192,148767,1,0,0:0:0:0:
128,192,149126,1,2,0:0:0:0:
298,192,149126,1,0,0:0:0:0:
384,192,149126,128,0,149486:0:0:0:0:
42,192,149486,1,2,0:0:0:0:
213,192,149486,1,0,0:0:0:0:
469,192,149486,1,0,0:0:0:0:
469,192,149665,128,0,149845:0:0:0:0:
42,192,149845,1,2,0:0:0:0:
298,192,149845,1,0,0:0:0:0:
384,192,149845,1,0,0:0:0:0:
42,192,150024,1,2,0:0:0:0:
298,192,150024,1,0,0:0:0:0:
384,192,150024,1,0,0:0:0:0:
128,192,150204,1,2,0:0:0:0:
213,192,150204,1,0,0:0:0:0:
469,192,150204,1,0,0:0:0:0:
128,192,150384,1,2,0:0:0:0:
213,192,150384,1,0,0:0:0:0:
469,192,150384,1,0,0:0:0:0:
213,192,150563,1,2,0:0:0:0:
384,192,150563,1,0,0:0:0:0:
469,192,150563,1,0,0:0:0:0:
42,192,150653,1,2,0:0:0:0:
128,192,150653,1,0,0:0:0:0:
298,192,150653,1,0,0:0:0:0:
213,192,150743,1,2,0:0:0:0:
384,192,150743,1,0,0:0:0:0:
469,192,150743,1,0,0:0:0:0:
42,192,150833,1,2,0:0:0:0:
128,192,150833,1,0,0:0:0:0:
298,192,150833,1,0,0:0:0:0:
384,192,150923,1,2,0:0:0:0:
469,192,150923,1,0,0:0:0:0:
213,192,150983,1,2,0:0:0:0:
298,192,150983,1,0,0:0:0:0:
42,192,151042,1,2,0:0:0:0:
128,192,151042,1,0,0:0:0:0:
384,192,151102,1,2,0:0:0:0:
469,192,151102,1,0,0:0:0:0:
213,192,151162,1,2,0:0:0:0:
298,192,151162,1,0,0:0:0:0:
42,192,151222,1,2,0:0:0:0:
128,192,151222,1,0,0:0:0:0:
298,192,151282,1,2,0:0:0:0:
384,192,151282,1,0,0:0:0:0:
469,192,151282,1,0,0:0:0:0:
128,192,151372,1,0,0:0:0:0:
384,192,151462,1,0,0:0:0:0:
384,192,151551,1,0,0:0:0:0:
213,192,151641,128,0,151731:0:0:0:0:
298,192,151686,128,0,151776:0:0:0:0:
469,192,151731,128,0,151821:0:0:0:0:
128,192,151776,128,0,151866:0:0:0:0:
213,192,151821,128,0,151911:0:0:0:0:
384,192,151866,128,0,151956:0:0:0:0:
213,192,152001,1,0,0:0:0:0:
128,192,152045,1,0,0:0:0:0:
42,192,152090,1,0,0:0:0:0:
469,192,152180,128,0,152270:0:0:0:0:
213,192,152225,128,0,152315:0:0:0:0:
42,192,152270,128,0,152360:0:0:0:0:
298,192,152360,128,0,152719:0:0:0:0:
384,192,152360,128,0,152450:0:0:0:0:
213,192,152405,128,0,152495:0:0:0:0:
128,192,152450,128,0,152539:0:0:0:0:
42,192,152719,128,2,152989:0:0:0:0:
128,192,152719,128,4,152899:0:0:0:0:
213,192,152719,128,0,152809:0:0:0:0:
469,192,152719,128,0,152989:0:0:0:0:
384,192,152809,128,0,153078:0:0:0:0:
298,192,152899,128,0,153168:0:0:0:0:
213,192,152989,128,0,153258:0:0:0:0:
128,192,153078,128,0,153348:0:0:0:0:
42,192,153168,128,0,153438:0:0:0:0:
469,192,153168,128,0,153348:0:0:0:0:
384,192,153258,128,0,153348:0:0:0:0:
298,192,153348,128,0,153438:0:0:0:0:
128,192,153438,128,8,153527:0:0:0:0:
213,192,153438,128,0,153527:0:0:0:0:
384,192,153438,128,0,153527:0:0:0:0:
469,192,153438,1,0,0:0:0:0:
128,192,153617,128,0,153707:0:0:0:0:
213,192,153617,128,0,153707:0:0:0:0:
384,192,153617,128,0,153707:0:0:0:0:
384,192,153797,128,0,153887:0:0:0:0:
128,192,153887,128,0,153977:0:0:0:0:
384,192,153977,128,0,154066:0:0:0:0:
128,192,154066,128,0,154156:0:0:0:0:
384,192,154156,128,0,154336:0:0:0:0:
298,192,154216,128,0,154336:0:0:0:0:
213,192,154276,128,0,154336:0:0:0:0:
42,192,154336,1,2,0:0:0:0:
128,192,154336,1,0,0:0:0:0:
42,192,154515,128,2,154605:0:0:0:0:
128,192,154515,128,0,154695:0:0:0:0:
213,192,154515,128,0,154785:0:0:0:0:
469,192,154515,128,0,154605:0:0:0:0:
298,192,154605,128,0,154785:0:0:0:0:
384,192,154695,128,0,154785:0:0:0:0:
469,192,154785,128,0,154875:0:0:0:0:
42,192,154875,1,8,0:0:0:0:
213,192,154875,1,0,0:0:0:0:
298,192,154875,1,0,0:0:0:0:
384,192,154875,1,0,0:0:0:0:
42,192,155054,128,2,155414:0:0:0:0:
128,192,155054,128,0,155324:0:0:0:0:
213,192,155054,128,0,155234:0:0:0:0:
298,192,155054,128,0,155144:0:0:0:0:
469,192,155144,128,0,155414:0:0:0:0:
384,192,155234,128,0,155414:0:0:0:0:
298,192,155324,128,0,155414:0:0:0:0:
42,192,155593,128,4,155773:0:0:0:0:
128,192,155593,128,2,155863:0:0:0:0:
384,192,155593,128,0,155683:0:0:0:0:
469,192,155593,128,0,155773:0:0:0:0:
213,192,155683,128,0,155953:0:0:0:0:
298,192,155773,128,0,156042:0:0:0:0:
384,192,155863,128,0,156132:0:0:0:0:
42,192,155953,128,0,156222:0:0:0:0:
469,192,155953,128,0,156222:0:0:0:0:
128,192,156042,128,0,156222:0:0:0:0:
213,192,156132,128,0,156312:0:0:0:0:
298,192,156222,128,0,156312:0:0:0:0:
42,192,156312,128,8,156402:0:0:0:0:
128,192,156312,128,0,156402:0:0:0:0:
384,192,156312,1,0,0:0:0:0:
469,192,156312,128,0,156402:0:0:0:0:
42,192,156492,128,0,156581:0:0:0:0:
128,192,156492,128,0,156581:0:0:0:0:
469,192,156492,128,0,156581:0:0:0:0:
42,192,156671,128,0,156761:0:0:0:0:
128,192,156671,128,0,156761:0:0:0:0:
469,192,156671,128,0,156761:0:0:0:0:
42,192,156851,128,2,157210:0:0:0:0:
128,192,156851,128,0,157120:0:0:0:0:
213,192,156851,128,0,157030:0:0:0:0:
298,192,156851,128,0,156941:0:0:0:0:
469,192,156941,128,0,157120:0:0:0:0:
384,192,157030,128,0,157210:0:0:0:0:
298,192,157120,128,0,157210:0:0:0:0:
128,192,157210,1,2,0:0:0:0:
213,192,157210,1,0,0:0:0:0:
469,192,157210,1,0,0:0:0:0:
128,192,157390,128,2,157480:0:0:0:0:
213,192,157390,128,0,157569:0:0:0:0:
469,192,157390,128,0,157659:0:0:0:0:
384,192,157480,128,0,157659:0:0:0:0:
42,192,157569,128,0,157749:0:0:0:0:
298,192,157569,128,0,157659:0:0:0:0:
128,192,157659,128,0,157749:0:0:0:0:
213,192,157749,1,8,0:0:0:0:
298,192,157749,1,0,0:0:0:0:
384,192,157749,1,0,0:0:0:0:
469,192,157749,1,0,0:0:0:0:
128,192,157929,128,2,158108:0:0:0:0:
213,192,157929,128,0,158198:0:0:0:0:
298,192,157929,128,0,158378:0:0:0:0:
469,192,158018,128,0,158378:0:0:0:0:
42,192,158198,128,0,158378:0:0:0:0:
384,192,158198,128,0,158378:0:0:0:0:
128,192,158288,128,0,158468:0:0:0:0:
213,192,158378,128,0,158557:0:0:0:0:
42,192,158468,128,2,158737:0:0:0:0:
298,192,158468,128,4,158647:0:0:0:0:
384,192,158468,128,0,158737:0:0:0:0:
469,192,158468,128,0,158827:0:0:0:0:
128,192,158557,128,0,158827:0:0:0:0:
213,192,158647,128,0,158917:0:0:0:0:
298,192,158737,128,0,159006:0:0:0:0:
384,192,158827,128,0,159096:0:0:0:0:
42,192,158917,128,0,159096:0:0:0:0:
469,192,158917,128,0,159186:0:0:0:0:
128,192,159006,128,0,159096:0:0:0:0:
213,192,159096,128,0,159186:0:0:0:0:
42,192,159186,128,8,159276:0:0:0:0:
128,192,159186,128,0,159276:0:0:0:0:
298,192,159186,1,0,0:0:0:0:
384,192,159186,128,0,159276:0:0:0:0:
42,192,159366,128,0,159456:0:0:0:0:
128,192,159366,128,0,159456:0:0:0:0:
384,192,159366,128,0,159456:0:0:0:0:
42,192,159545,128,0,159635:0:0:0:0:
128,192,159545,128,0,159635:0:0:0:0:
384,192,159545,128,0,159635:0:0:0:0:
469,192,159725,128,0,159815:0:0:0:0:
213,192,159815,128,0,159905:0:0:0:0:
469,192,159905,128,0,159995:0:0:0:0:
213,192,159995,128,0,160084:0:0:0:0:
42,192,160084,1,2,0:0:0:0:
298,192,160084,1,0,0:0:0:0:
469,192,160084,128,0,160174:0:0:0:0:
213,192,160174,128,0,160264:0:0:0:0:
42,192,160264,128,2,160623:0:0:0:0:
298,192,160264,1,0,0:0:0:0:
469,192,160264,128,0,160533:0:0:0:0:
384,192,160354,128,0,160533:0:0:0:0:
298,192,160444,128,0,160533:0:0:0:0:
128,192,160623,1,8,0:0:0:0:
298,192,160623,1,0,0:0:0:0:
384,192,160623,1,0,0:0:0:0:
469,192,160623,1,0,0:0:0:0:
213,192,160803,128,2,160893:0:0:0:0:
298,192,160803,128,0,160983:0:0:0:0:
384,192,160803,128,0,161072:0:0:0:0:
469,192,160803,128,0,161162:0:0:0:0:
42,192,160893,128,0,161162:0:0:0:0:
128,192,160983,128,0,161162:0:0:0:0:
213,192,161072,128,0,161162:0:0:0:0:
42,192,161342,128,2,161521:0:0:0:0:
128,192,161342,128,4,161432:0:0:0:0:
384,192,161342,128,0,161611:0:0:0:0:
469,192,161342,128,0,161521:0:0:0:0:
298,192,161432,128,0,161701:0:0:0:0:
213,192,161521,128,0,161791:0:0:0:0:
128,192,161611,128,0,161881:0:0:0:0:
42,192,161701,128,0,161971:0:0:0:0:
469,192,161791,128,0,161971:0:0:0:0:
384,192,161881,128,0,162060:0:0:0:0:
298,192,161971,128,0,162060:0:0:0:0:
42,192,162060,128,8,162150:0:0:0:0:
128,192,162060,128,0,162150:0:0:0:0:
213,192,162060,128,0,162150:0:0:0:0:
469,192,162060,1,0,0:0:0:0:
42,192,162240,128,0,162330:0:0:0:0:
128,192,162240,128,0,162330:0:0:0:0:
213,192,162240,128,0,162330:0:0:0:0:
42,192,162420,128,0,162509:0:0:0:0:
128,192,162420,128,0,162509:0:0:0:0:
213,192,162420,128,0,162509:0:0:0:0:
42,192,162599,1,2,0:0:0:0:
128,192,162599,1,0,0:0:0:0:
384,192,162599,128,0,163048:0:0:0:0:
469,192,162599,128,0,162869:0:0:0:0:
298,192,162689,128,0,163048:0:0:0:0:
213,192,162779,128,0,162869:0:0:0:0:
128,192,162869,128,0,163228:0:0:0:0:
42,192,162959,128,2,163408:0:0:0:0:
213,192,162959,128,0,163138:0:0:0:0:
469,192,162959,128,0,163408:0:0:0:0:
298,192,163138,128,2,163318:0:0:0:0:
384,192,163138,128,0,163408:0:0:0:0:
213,192,163228,128,0,163498:0:0:0:0:
128,192,163318,128,0,163408:0:0:0:0:
298,192,163408,128,0,163498:0:0:0:0:
42,192,163498,128,8,163587:0:0:0:0:
128,192,163498,128,0,163587:0:0:0:0:
384,192,163498,128,0,163587:0:0:0:0:
469,192,163498,128,0,163587:0:0:0:0:
42,192,163677,128,2,163947:0:0:0:0:
298,192,163677,128,0,163767:0:0:0:0:
384,192,163677,128,0,163857:0:0:0:0:
469,192,163677,128,0,163947:0:0:0:0:
128,192,163767,128,0,163947:0:0:0:0:
213,192,163857,128,0,164036:0:0:0:0:
298,192,163947,128,0,164036:0:0:0:0:
42,192,164036,1,8,0:0:0:0:
128,192,164036,1,0,0:0:0:0:
384,192,164036,1,0,0:0:0:0:
469,192,164036,1,0,0:0:0:0:
42,192,164216,128,2,164396:0:0:0:0:
128,192,164216,128,4,164306:0:0:0:0:
384,192,164216,128,0,164486:0:0:0:0:
469,192,164216,128,0,164396:0:0:0:0:
298,192,164306,128,0,164575:0:0:0:0:
213,192,164396,128,0,164665:0:0:0:0:
128,192,164486,128,0,164755:0:0:0:0:
42,192,164575,128,0,164845:0:0:0:0:
469,192,164665,128,0,164845:0:0:0:0:
384,192,164755,128,0,164935:0:0:0:0:
298,192,164845,128,0,164935:0:0:0:0:
42,192,164935,128,8,165024:0:0:0:0:
128,192,164935,128,0,165024:0:0:0:0:
213,192,164935,128,0,165024:0:0:0:0:
469,192,164935,1,0,0:0:0:0:
42,192,165114,128,0,165204:0:0:0:0:
128,192,165114,128,0,165204:0:0:0:0:
213,192,165114,128,0,165204:0:0:0:0:
384,192,165294,128,0,165384:0:0:0:0:
213,192,165384,128,0,165474:0:0:0:0:
384,192,165474,128,0,165563:0:0:0:0:
213,192,165563,128,0,165653:0:0:0:0:
384,192,165653,128,0,165833:0:0:0:0:
298,192,165713,128,0,165833:0:0:0:0:
213,192,165773,128,0,165833:0:0:0:0:
42,192,165833,1,2,0:0:0:0:
128,192,165833,1,0,0:0:0:0:
469,192,165833,1,0,0:0:0:0:
42,192,166012,128,2,166282:0:0:0:0:
128,192,166012,128,0,166282:0:0:0:0:
384,192,166012,128,0,166192:0:0:0:0:
469,192,166012,128,0,166102:0:0:0:0:
213,192,166102,128,0,166282:0:0:0:0:
298,192,166192,128,0,166372:0:0:0:0:
384,192,166282,128,0,166372:0:0:0:0:
42,192,166372,1,8,0:0:0:0:
128,192,166372,1,0,0:0:0:0:
213,192,166372,1,0,0:0:0:0:
469,192,166372,1,0,0:0:0:0:
42,192,166551,128,2,166911:0:0:0:0:
128,192,166551,128,0,166821:0:0:0:0:
213,192,166551,128,0,166731:0:0:0:0:
298,192,166551,128,0,166641:0:0:0:0:
469,192,166641,128,0,166911:0:0:0:0:
384,192,166731,128,0,166911:0:0:0:0:
298,192,166821,128,0,166911:0:0:0:0:
42,192,167090,128,2,167270:0:0:0:0:
298,192,167090,128,4,167360:0:0:0:0:
384,192,167090,128,0,167270:0:0:0:0:
469,192,167090,128,0,167180:0:0:0:0:
128,192,167180,128,0,167360:0:0:0:0:
213,192,167270,128,0,167450:0:0:0:0:
469,192,167360,128,0,167809:0:0:0:0:
42,192,167450,128,0,167719:0:0:0:0:
384,192,167450,128,0,167809:0:0:0:0:
128,192,167539,128,0,167719:0:0:0:0:
298,192,167539,128,0,167719:0:0:0:0:
213,192,167629,128,0,167719:0:0:0:0:
42,192,167809,128,8,167899:0:0:0:0:
128,192,167809,1,0,0:0:0:0:
213,192,167809,128,0,167899:0:0:0:0:
298,192,167809,128,0,167899:0:0:0:0:
42,192,167989,128,0,168078:0:0:0:0:
213,192,167989,128,0,168078:0:0:0:0:
298,192,167989,128,0,168078:0:0:0:0:
42,192,168168,128,0,168258:0:0:0:0:
213,192,168168,128,0,168258:0:0:0:0:
298,192,168168,128,0,168258:0:0:0:0:
42,192,168348,128,2,168617:0:0:0:0:
298,192,168348,128,0,168438:0:0:0:0:
384,192,168348,128,0,168617:0:0:0:0:
469,192,168348,128,0,168617:0:0:0:0:
128,192,168438,128,0,168707:0:0:0:0:
213,192,168527,128,0,168797:0:0:0:0:
298,192,168617,128,0,168797:0:0:0:0:
384,192,168707,128,2,168797:0:0:0:0:
469,192,168707,128,0,168797:0:0:0:0:
42,192,168887,128,2,169156:0:0:0:0:
128,192,168887,128,0,169156:0:0:0:0:
213,192,168887,128,0,168977:0:0:0:0:
469,192,168887,128,0,169156:0:0:0:0:
384,192,168977,128,0,169156:0:0:0:0:
298,192,169066,128,0,169246:0:0:0:0:
213,192,169156,128,0,169246:0:0:0:0:
42,192,169246,1,8,0:0:0:0:
128,192,169246,1,0,0:0:0:0:
384,192,169246,1,0,0:0:0:0:
469,192,169246,1,0,0:0:0:0:
42,192,169426,1,2,0:0:0:0:
128,192,169426,1,0,0:0:0:0:
298,192,169426,1,0,0:0:0:0:
384,192,169426,128,0,169695:0:0:0:0:
213,192,169515,128,0,169785:0:0:0:0:
42,192,169605,128,0,169875:0:0:0:0:
469,192,169695,128,0,169875:0:0:0:0:
298,192,169785,128,0,169965:0:0:0:0:
128,192,169875,128,0,169965:0:0:0:0:
42,192,169965,128,4,170234:0:0:0:0:
213,192,169965,128,2,170054:0:0:0:0:
384,192,169965,128,0,170234:0:0:0:0:
469,192,169965,128,0,170144:0:0:0:0:
298,192,170054,128,0,170324:0:0:0:0:
213,192,170144,128,0,170414:0:0:0:0:
128,192,170234,128,0,170504:0:0:0:0:
42,192,170324,128,0,170593:0:0:0:0:
469,192,170324,128,0,170593:0:0:0:0:
384,192,170414,128,0,170593:0:0:0:0:
298,192,170504,128,0,170593:0:0:0:0:
213,192,170593,128,0,170683:0:0:0:0:
128,192,170683,1,8,0:0:0:0:
298,192,170683,128,0,170773:0:0:0:0:
384,192,170683,128,0,170773:0:0:0:0:
469,192,170683,128,0,170773:0:0:0:0:
298,192,170863,128,0,170953:0:0:0:0:
384,192,170863,128,0,170953:0:0:0:0:
469,192,170863,128,0,170953:0:0:0:0:
298,192,171042,128,0,171132:0:0:0:0:
384,192,171042,128,0,171132:0:0:0:0:
469,192,171042,128,0,171132:0:0:0:0:
128,192,171222,128,0,171312:0:0:0:0:
469,192,171312,128,0,171402:0:0:0:0:
128,192,171402,128,0,171492:0:0:0:0:
469,192,171492,128,0,171581:0:0:0:0:
42,192,171581,1,2,0:0:0:0:
128,192,171581,128,0,171671:0:0:0:0:
298,192,171581,1,0,0:0:0:0:
469,192,171671,128,0,171761:0:0:0:0:
42,192,171761,128,2,172030:0:0:0:0:
128,192,171761,128,0,172030:0:0:0:0:
298,192,171761,128,0,171851:0:0:0:0:
384,192,171761,128,0,171941:0:0:0:0:
213,192,171851,128,0,172030:0:0:0:0:
298,192,171941,128,0,172120:0:0:0:0:
384,192,172030,128,0,172120:0:0:0:0:
42,192,172120,1,8,0:0:0:0:
128,192,172120,1,0,0:0:0:0:
213,192,172120,1,0,0:0:0:0:
469,192,172120,1,0,0:0:0:0:
213,192,172300,128,2,172390:0:0:0:0:
298,192,172300,128,0,172480:0:0:0:0:
384,192,172300,128,0,172569:0:0:0:0:
469,192,172300,128,0,172659:0:0:0:0:
42,192,172390,128,0,172659:0:0:0:0:
128,192,172480,128,0,172659:0:0:0:0:
213,192,172569,128,0,172659:0:0:0:0:
298,192,172659,1,0,0:0:0:0:
42,192,172839,128,4,173378:0:0:0:0:
298,192,172839,128,2,173108:0:0:0:0:
384,192,172839,128,0,173018:0:0:0:0:
469,192,172839,128,0,172974:0:0:0:0:
128,192,172929,128,0,173288:0:0:0:0:
213,192,173018,128,0,173198:0:0:0:0:
469,192,173108,128,0,173288:0:0:0:0:
384,192,173198,128,0,173378:0:0:0:0:
298,192,173288,128,0,173468:0:0:0:0:
213,192,173378,128,0,173557:0:0:0:0:
128,192,173468,128,0,173647:0:0:0:0:
42,192,173557,128,8,173737:0:0:0:0:
298,192,173557,1,0,0:0:0:0:
384,192,173557,128,0,173737:0:0:0:0:
469,192,173647,128,0,173827:0:0:0:0:
213,192,173737,128,0,173917:0:0:0:0:
298,192,173827,128,0,174006:0:0:0:0:
42,192,173917,128,0,174096:0:0:0:0:
128,192,174006,128,0,174186:0:0:0:0:
213,192,174096,128,2,174276:0:0:0:0:
384,192,174096,1,0,0:0:0:0:
469,192,174096,1,0,0:0:0:0:
298,192,174186,128,0,174366:0:0:0:0:
384,192,174276,128,0,174456:0:0:0:0:
469,192,174366,128,0,174545:0:0:0:0:
42,192,174456,128,2,174905:0:0:0:0:
213,192,174456,1,0,0:0:0:0:
298,192,174456,1,0,0:0:0:0:
128,192,174545,128,0,174815:0:0:0:0:
213,192,174635,128,2,174725:0:0:0:0:
298,192,174635,1,0,0:0:0:0:
469,192,174635,128,0,174815:0:0:0:0:
384,192,174725,128,0,174905:0:0:0:0:
298,192,174815,128,0,174995:0:0:0:0:
213,192,174905,128,0,174995:0:0:0:0:
42,192,174995,1,8,0:0:0:0:
128,192,174995,1,0,0:0:0:0:
384,192,174995,1,0,0:0:0:0:
469,192,174995,1,0,0:0:0:0:
42,192,175174,1,0,0:0:0:50:S1.wav
213,192,175174,1,0,0:0:0:0:
469,192,175174,1,0,0:0:0:0:
128,192,175264,1,0,0:0:0:50:S1.wav
384,192,175264,1,0,0:0:0:0:
42,192,175354,1,0,0:0:0:50:S1.wav
213,192,175354,1,0,0:0:0:0:
298,192,175354,1,0,0:0:0:0:
469,192,175354,1,0,0:0:0:0:
128,192,175533,1,0,0:0:0:50:S1.wav
384,192,175533,1,0,0:0:0:0:
42,192,175713,1,2,0:0:0:0:
128,192,175713,1,4,0:0:0:0:
298,192,175713,1,0,0:0:0:0:
384,192,175758,1,0,0:0:0:0:
469,192,175803,1,0,0:0:0:0:
213,192,176072,1,8,0:0:0:0:
384,192,176072,1,0,0:0:0:0:
42,192,176252,1,0,0:0:0:0:
469,192,176611,1,2,0:0:0:0:
128,192,176791,1,8,0:0:0:0:
42,192,177150,1,0,0:0:0:0:
298,192,177150,1,0,0:0:0:0:
128,192,177330,1,2,0:0:0:0:
469,192,177330,1,0,0:0:0:0:
213,192,177509,1,8,0:0:0:0:
384,192,177509,1,0,0:0:0:0:
42,192,177689,1,0,0:0:0:0:
298,192,177689,1,0,0:0:0:0:
469,192,178048,1,2,0:0:0:0:
42,192,178228,1,8,0:0:0:0:
128,192,178228,1,0,0:0:0:0:
298,192,178228,1,0,0:0:0:0:
42,192,178587,1,2,0:0:0:0:
384,192,178587,1,0,0:0:0:0:
469,192,178587,1,0,0:0:0:0:
298,192,178632,1,0,0:0:0:0:
128,192,178677,1,0,0:0:0:0:
384,192,178767,1,0,0:0:0:0:
213,192,178947,1,8,0:0:0:0:
469,192,178947,1,0,0:0:0:0:
42,192,179126,1,0,0:0:0:0:
298,192,179126,1,0,0:0:0:0:
298,192,179486,1,2,0:0:0:0:
213,192,179665,1,8,0:0:0:0:
384,192,179665,1,0,0:0:0:0:
469,192,179665,1,0,0:0:0:0:
42,192,179845,1,0,0:0:0:0:
298,192,179845,1,0,0:0:0:0:
128,192,180024,1,0,0:0:0:0:
469,192,180024,1,0,0:0:0:0:
213,192,180204,1,2,0:0:0:0:
384,192,180204,1,0,0:0:0:0:
42,192,180384,1,8,0:0:0:0:
298,192,180384,1,0,0:0:0:0:
298,192,180923,1,2,0:0:0:0:
42,192,181102,1,8,0:0:0:0:
213,192,181102,1,0,0:0:0:0:
469,192,181102,1,0,0:0:0:0:
128,192,181282,1,2,0:0:0:0:
298,192,181282,1,0,0:0:0:0:
384,192,181282,1,0,0:0:0:0:
213,192,181462,1,2,0:0:0:0:
384,192,181462,1,0,0:0:0:0:
469,192,181462,1,0,0:0:0:0:
298,192,181641,1,0,0:0:0:0:
213,192,181821,1,8,0:0:0:0:
469,192,181821,1,0,0:0:0:0:
128,192,182001,1,0,0:0:0:0:
298,192,182360,1,2,0:0:0:0:
469,192,182360,1,0,0:0:0:0:
42,192,182539,1,8,0:0:0:0:
128,192,182539,1,0,0:0:0:0:
298,192,182539,1,0,0:0:0:0:
213,192,182719,1,0,0:0:0:0:
298,192,182899,1,0,0:0:0:0:
469,192,182899,1,0,0:0:0:0:
42,192,183078,1,2,0:0:0:0:
213,192,183078,1,0,0:0:0:0:
384,192,183078,1,0,0:0:0:0:
213,192,183258,1,8,0:0:0:0:
469,192,183258,1,0,0:0:0:0:
298,192,183438,1,0,0:0:0:0:
128,192,183617,1,0,0:0:0:0:
384,192,183617,1,0,0:0:0:0:
298,192,183797,1,2,0:0:0:0:
213,192,183977,1,8,0:0:0:0:
42,192,184336,1,2,0:0:0:0:
298,192,184336,1,0,0:0:0:0:
469,192,184336,1,0,0:0:0:0:
213,192,184515,1,0,0:0:0:0:
128,192,184695,1,8,0:0:0:0:
384,192,184695,1,0,0:0:0:0:
42,192,184875,1,0,0:0:0:0:
213,192,184875,1,0,0:0:0:0:
298,192,184875,1,0,0:0:0:0:
213,192,185234,1,2,0:0:0:0:
469,192,185369,1,0,0:0:0:0:
42,192,185414,1,8,0:0:0:0:
298,192,185414,1,0,0:0:0:0:
384,192,185414,1,0,0:0:0:0:
384,192,185953,1,2,0:0:0:0:
128,192,186132,1,8,0:0:0:0:
384,192,186671,1,2,0:0:0:0:
42,192,186851,1,8,0:0:0:0:
128,192,186851,1,0,0:0:0:0:
298,192,186851,1,0,0:0:0:0:
213,192,187030,1,2,0:0:0:0:
384,192,187030,1,0,0:0:0:0:
298,192,187210,1,2,0:0:0:0:
384,192,187210,1,0,0:0:0:0:
469,192,187210,1,0,0:0:0:0:
213,192,187255,1,0,0:0:0:0:
42,192,187300,1,0,0:0:0:0:
298,192,187390,1,0,0:0:0:0:
213,192,187569,1,8,0:0:0:0:
384,192,187569,1,0,0:0:0:0:
128,192,187749,1,0,0:0:0:0:
298,192,188108,1,2,0:0:0:0:
42,192,188288,1,8,0:0:0:0:
42,192,188647,1,0,0:0:0:0:
298,192,188647,1,0,0:0:0:0:
213,192,188827,1,2,0:0:0:0:
384,192,188827,1,0,0:0:0:0:
128,192,189006,1,8,0:0:0:0:
298,192,189006,1,0,0:0:0:0:
213,192,189186,1,0,0:0:0:0:
469,192,189186,1,0,0:0:0:0:
42,192,189545,1,2,0:0:0:0:
128,192,189725,1,8,0:0:0:0:
213,192,189725,1,0,0:0:0:0:
384,192,189725,1,0,0:0:0:0:
128,192,190084,1,2,0:0:0:0:
298,192,190084,1,0,0:0:0:0:
469,192,190084,1,0,0:0:0:0:
384,192,190129,1,0,0:0:0:0:
213,192,190174,1,0,0:0:0:0:
298,192,190264,1,0,0:0:0:0:
213,192,190444,1,8,0:0:0:0:
469,192,190444,1,0,0:0:0:0:
128,192,190623,1,0,0:0:0:0:
384,192,190623,1,0,0:0:0:0:
469,192,190983,1,2,0:0:0:0:
42,192,191162,1,8,0:0:0:0:
213,192,191162,1,0,0:0:0:0:
469,192,191162,1,0,0:0:0:0:
42,192,191342,1,0,0:0:0:0:
298,192,191342,1,0,0:0:0:0:
128,192,191521,1,0,0:0:0:0:
384,192,191521,1,0,0:0:0:0:
213,192,191701,1,2,0:0:0:0:
469,192,191701,1,0,0:0:0:0:
128,192,191881,1,8,0:0:0:0:
384,192,191881,1,0,0:0:0:0:
298,192,192060,1,0,0:0:0:0:
384,192,192420,1,2,0:0:0:0:
42,192,192599,1,8,0:0:0:0:
128,192,192599,1,0,0:0:0:0:
384,192,192599,1,0,0:0:0:0:
213,192,192779,1,2,0:0:0:0:
42,192,192959,1,2,0:0:0:0:
213,192,192959,1,0,0:0:0:0:
384,192,192959,1,0,0:0:0:0:
298,192,193138,1,0,0:0:0:0:
213,192,193318,1,8,0:0:0:0:
384,192,193318,1,0,0:0:0:0:
42,192,193498,1,0,0:0:0:0:
128,192,193498,1,0,0:0:0:0:
384,192,193498,1,0,0:0:0:0:
213,192,193677,1,0,0:0:0:0:
469,192,193857,1,2,0:0:0:0:
42,192,194036,1,8,0:0:0:0:
213,192,194036,1,0,0:0:0:0:
298,192,194036,1,0,0:0:0:0:
128,192,194396,1,0,0:0:0:0:
298,192,194396,1,0,0:0:0:0:
213,192,194575,1,2,0:0:0:0:
469,192,194575,1,0,0:0:0:0:
384,192,194755,1,8,0:0:0:0:
128,192,194935,1,0,0:0:0:0:
298,192,194935,1,0,0:0:0:0:
42,192,195294,1,2,0:0:0:0:
384,192,195294,1,0,0:0:0:0:
213,192,195474,1,8,0:0:0:0:
384,192,195833,1,8,0:0:0:0:
469,192,195833,1,0,0:0:0:0:
298,192,196012,1,2,0:0:0:0:
384,192,196012,1,0,0:0:0:0:
42,192,196192,1,8,0:0:0:0:
128,192,196192,1,0,0:0:0:0:
128,192,196372,1,2,0:0:0:0:
213,192,196372,1,0,0:0:0:0:
298,192,196551,1,8,0:0:0:0:
384,192,196551,1,0,0:0:0:0:
384,192,196731,1,2,0:0:0:0:
469,192,196731,1,0,0:0:0:0:
42,192,196911,1,8,0:0:0:0:
128,192,196911,1,0,0:0:0:0:
213,192,197090,1,8,0:0:0:0:
298,192,197090,1,0,0:0:0:0:
128,192,197270,1,2,0:0:0:0:
384,192,197270,1,0,0:0:0:50:S1.wav
469,192,197270,1,0,0:0:0:0:
42,192,197360,1,0,0:0:0:50:S1.wav
298,192,197360,1,0,0:0:0:0:
213,192,197450,1,0,0:0:0:50:S1.wav
469,192,197450,1,0,0:0:0:0:
128,192,197539,1,0,0:0:0:50:S1.wav
298,192,197539,1,0,0:0:0:0:
42,192,197629,128,0,197809:0:0:0:50:S1.wav
384,192,197629,1,0,0:0:0:0:
213,192,197719,1,0,0:0:0:50:S1.wav
298,192,197719,1,0,0:0:0:0:
128,192,197809,1,0,0:0:0:50:S1.wav
213,192,197854,1,0,0:0:0:0:
298,192,197899,1,0,0:0:0:50:S1.wav
384,192,197944,1,0,0:0:0:0:
42,192,197989,1,8,0:0:0:0:
128,192,197989,1,0,0:0:0:50:S1.wav
213,192,197989,1,0,0:0:0:0:
469,192,197989,1,0,0:0:0:0:
298,192,198078,1,0,0:0:0:50:S1.wav
128,192,198168,1,0,0:0:0:50:S1.wav
469,192,198168,1,0,0:0:0:0:
298,192,198258,1,0,0:0:0:50:S1.wav
384,192,198258,1,0,0:0:0:0:
42,192,198348,1,0,0:0:0:70:S2.wav
128,192,198348,1,0,0:0:0:0:
213,192,198348,1,0,0:0:0:0:
469,192,198348,128,0,198707:0:0:0:0:
42,192,198707,128,4,200144:0:0:0:0:
128,192,198707,128,2,198797:0:0:0:0:
298,192,198707,128,0,198797:0:0:0:0:
384,192,198707,128,0,198797:0:0:0:0:
213,192,198797,128,0,198887:0:0:0:0:
298,192,198887,128,0,198977:0:0:0:0:
384,192,198977,128,0,199066:0:0:0:0:
128,192,199066,128,8,199156:0:0:0:0:
213,192,199066,128,0,199156:0:0:0:0:
298,192,199066,128,0,199156:0:0:0:0:
469,192,199066,128,0,199156:0:0:0:0:
384,192,199156,128,0,199246:0:0:0:0:
469,192,199246,128,0,199336:0:0:0:0:
128,192,199336,128,0,199426:0:0:0:0:
213,192,199426,128,0,199515:0:0:0:0:
384,192,199515,128,0,199605:0:0:0:0:
128,192,199605,128,2,199695:0:0:0:0:
213,192,199605,128,0,199695:0:0:0:0:
469,192,199605,128,0,199695:0:0:0:0:
298,192,199695,128,0,199785:0:0:0:0:
128,192,199785,128,8,199875:0:0:0:0:
213,192,199785,128,0,199875:0:0:0:0:
384,192,199785,128,0,199875:0:0:0:0:
469,192,199785,128,0,199875:0:0:0:0:
298,192,199875,128,0,199965:0:0:0:0:
469,192,199965,128,0,200054:0:0:0:0:
213,192,200054,128,0,200144:0:0:0:0:
128,192,200144,128,0,200234:0:0:0:0:
384,192,200144,128,0,200683:0:0:0:0:
298,192,200234,128,0,200324:0:0:0:0:
42,192,200324,128,2,200414:0:0:0:0:
213,192,200324,128,0,200414:0:0:0:0:
469,192,200324,128,0,200414:0:0:0:0:
128,192,200414,128,0,200504:0:0:0:0:
42,192,200504,128,8,200593:0:0:0:0:
213,192,200504,128,0,200593:0:0:0:0:
298,192,200504,128,0,200593:0:0:0:0:
469,192,200504,128,0,200593:0:0:0:0:
128,192,200593,128,0,200683:0:0:0:0:
213,192,200683,128,0,201222:0:0:0:0:
469,192,200683,128,0,200773:0:0:0:0:
298,192,200773,128,0,200863:0:0:0:0:
384,192,200863,128,0,200953:0:0:0:0:
128,192,200953,128,0,201042:0:0:0:0:
42,192,201042,128,2,201132:0:0:0:0:
298,192,201042,128,0,201132:0:0:0:0:
469,192,201042,128,0,201132:0:0:0:0:
384,192,201132,128,0,201222:0:0:0:0:
42,192,201222,128,8,201312:0:0:0:0:
128,192,201222,128,0,201312:0:0:0:0:
298,192,201222,128,0,201312:0:0:0:0:
469,192,201222,128,0,201581:0:0:0:0:
384,192,201312,128,0,201402:0:0:0:0:
213,192,201402,128,0,201492:0:0:0:0:
128,192,201492,128,0,201581:0:0:0:0:
42,192,201581,128,2,201671:0:0:0:0:
298,192,201581,128,0,202120:0:0:0:0:
384,192,201581,128,0,201671:0:0:0:0:
213,192,201671,128,0,201761:0:0:0:0:
128,192,201761,128,0,201851:0:0:0:0:
42,192,201851,128,0,201941:0:0:0:0:
128,192,201941,128,8,202030:0:0:0:0:
213,192,201941,128,0,202030:0:0:0:0:
384,192,201941,128,0,202030:0:0:0:0:
469,192,201941,128,0,202030:0:0:0:0:
42,192,202030,128,0,202120:0:0:0:0:
213,192,202120,128,0,202659:0:0:0:0:
384,192,202120,128,0,202210:0:0:0:0:
469,192,202210,128,0,202300:0:0:0:0:
128,192,202300,128,0,202390:0:0:0:0:
384,192,202390,128,0,202480:0:0:0:0:
42,192,202480,128,2,202569:0:0:0:0:
298,192,202480,128,0,202569:0:0:0:0:
469,192,202480,128,0,202569:0:0:0:0:
128,192,202569,128,0,202659:0:0:0:0:
42,192,202659,128,8,202839:0:0:0:0:
298,192,202659,128,0,202749:0:0:0:0:
384,192,202659,128,0,202839:0:0:0:0:
469,192,202659,128,0,202749:0:0:0:0:
213,192,202749,128,0,202839:0:0:0:0:
128,192,202839,128,0,203018:0:0:0:0:
469,192,202839,128,0,203018:0:0:0:0:
213,192,202929,128,0,203018:0:0:0:0:
42,192,203018,128,0,203108:0:0:0:0:
298,192,203018,128,0,203737:0:0:0:0:
384,192,203108,128,0,203198:0:0:0:0:
42,192,203198,128,2,203288:0:0:0:0:
128,192,203198,128,0,203288:0:0:0:0:
469,192,203198,128,0,203288:0:0:0:0:
213,192,203288,128,0,203378:0:0:0:0:
42,192,203378,128,8,203468:0:0:0:0:
128,192,203378,128,0,203468:0:0:0:0:
384,192,203378,128,0,203468:0:0:0:0:
469,192,203378,128,0,203468:0:0:0:0:
213,192,203468,128,0,203557:0:0:0:0:
384,192,203557,128,0,203647:0:0:0:0:
469,192,203647,128,0,203737:0:0:0:0:
213,192,203737,128,0,203827:0:0:0:0:
128,192,203827,128,0,203917:0:0:0:0:
42,192,203917,128,2,204006:0:0:0:0:
213,192,203917,128,0,204006:0:0:0:0:
469,192,203917,128,0,204006:0:0:0:0:
298,192,204006,128,0,204096:0:0:0:0:
42,192,204096,128,8,204276:0:0:0:0:
213,192,204096,128,0,204276:0:0:0:0:
384,192,204096,128,0,204276:0:0:0:0:
469,192,204096,128,0,204186:0:0:0:0:
128,192,204276,128,2,204456:0:0:0:0:
298,192,204276,128,0,204456:0:0:0:0:
469,192,204276,128,0,204456:0:0:0:0:
42,192,204456,128,2,204545:0:0:0:0:
213,192,204456,128,0,204545:0:0:0:0:
384,192,204456,128,0,204995:0:0:0:0:
298,192,204545,128,0,204635:0:0:0:0:
42,192,204635,128,0,204725:0:0:0:0:
298,192,204725,128,0,204815:0:0:0:0:
42,192,204815,128,8,204905:0:0:0:0:
128,192,204815,128,0,204905:0:0:0:0:
213,192,204815,128,0,204905:0:0:0:0:
469,192,204815,128,0,204905:0:0:0:0:
298,192,204905,128,0,204995:0:0:0:0:
42,192,204995,128,0,205084:0:0:0:0:
213,192,204995,128,0,205533:0:0:0:0:
128,192,205084,128,0,205174:0:0:0:0:
42,192,205174,128,0,205264:0:0:0:0:
298,192,205264,128,0,205354:0:0:0:0:
128,192,205354,128,2,205444:0:0:0:0:
384,192,205354,128,0,205444:0:0:0:0:
469,192,205354,128,0,205444:0:0:0:0:
298,192,205444,128,0,205533:0:0:0:0:
42,192,205533,128,8,205713:0:0:0:0:
128,192,205533,128,0,205623:0:0:0:0:
384,192,205533,128,0,205623:0:0:0:0:
469,192,205533,128,0,205713:0:0:0:0:
298,192,205623,128,0,205713:0:0:0:0:
128,192,205713,128,0,205893:0:0:0:0:
384,192,205713,128,0,205893:0:0:0:0:
213,192,205803,128,0,205893:0:0:0:0:
298,192,205893,128,0,206432:0:0:0:0:
469,192,205893,128,0,205983:0:0:0:0:
42,192,205983,128,0,206072:0:0:0:0:
128,192,206072,128,2,206162:0:0:0:0:
213,192,206072,128,0,206162:0:0:0:0:
469,192,206072,128,0,206162:0:0:0:0:
384,192,206162,128,0,206252:0:0:0:0:
42,192,206252,128,8,206342:0:0:0:0:
128,192,206252,128,0,206342:0:0:0:0:
213,192,206252,128,0,206342:0:0:0:0:
469,192,206252,128,0,206342:0:0:0:0:
384,192,206342,128,0,206432:0:0:0:0:
42,192,206432,128,0,206521:0:0:0:0:
213,192,206432,128,0,206791:0:0:0:0:
128,192,206521,128,0,206611:0:0:0:0:
42,192,206611,128,0,206701:0:0:0:0:
384,192,206701,128,0,206791:0:0:0:0:
42,192,206791,128,2,206881:0:0:0:0:
298,192,206791,128,0,206881:0:0:0:0:
469,192,206791,128,0,206881:0:0:0:0:
128,192,206881,128,0,206971:0:0:0:0:
42,192,206971,128,8,207060:0:0:0:0:
213,192,206971,128,0,207060:0:0:0:0:
298,192,206971,128,0,207060:0:0:0:0:
469,192,206971,128,0,207330:0:0:0:0:
384,192,207060,128,0,207150:0:0:0:0:
213,192,207150,128,0,207240:0:0:0:0:
298,192,207240,128,0,207330:0:0:0:0:
42,192,207330,128,2,207420:0:0:0:0:
128,192,207330,128,0,207869:0:0:0:0:
384,192,207330,128,0,207420:0:0:0:0:
213,192,207420,128,0,207509:0:0:0:0:
384,192,207509,128,0,207599:0:0:0:0:
298,192,207599,128,0,207689:0:0:0:0:
42,192,207689,128,8,207779:0:0:0:0:
213,192,207689,128,0,207779:0:0:0:0:
384,192,207689,128,0,207779:0:0:0:0:
469,192,207689,128,0,207779:0:0:0:0:
298,192,207779,128,0,207869:0:0:0:0:
384,192,207869,128,0,208408:0:0:0:0:
469,192,207869,128,0,207959:0:0:0:0:
213,192,207959,128,0,208048:0:0:0:0:
42,192,208048,128,0,208138:0:0:0:0:
298,192,208138,128,0,208228:0:0:0:0:
42,192,208228,128,2,208318:0:0:0:0:
128,192,208228,128,0,208318:0:0:0:0:
213,192,208228,128,0,208318:0:0:0:0:
298,192,208318,128,0,208408:0:0:0:0:
42,192,208408,128,8,209486:0:0:0:0:
128,192,208408,128,0,208498:0:0:0:0:
213,192,208408,128,0,208498:0:0:0:0:
469,192,208408,128,0,208498:0:0:0:0:
298,192,208498,128,0,208587:0:0:0:0:
384,192,208587,128,0,208677:0:0:0:0:
213,192,208677,128,0,208767:0:0:0:0:
469,192,208677,128,0,208767:0:0:0:0:
298,192,208767,128,0,208857:0:0:0:0:
128,192,208857,128,0,208947:0:0:0:0:
213,192,208947,128,2,209036:0:0:0:0:
384,192,208947,128,0,209036:0:0:0:0:
469,192,208947,128,0,209036:0:0:0:0:
128,192,209036,128,0,209126:0:0:0:0:
213,192,209126,128,8,209216:0:0:0:0:
298,192,209126,128,0,209216:0:0:0:0:
384,192,209126,128,0,209216:0:0:0:0:
469,192,209126,128,0,209216:0:0:0:0:
128,192,209216,128,0,209306:0:0:0:0:
298,192,209306,128,0,209396:0:0:0:0:
384,192,209396,128,0,209486:0:0:0:0:
213,192,209486,128,0,209575:0:0:0:0:
469,192,209486,128,0,209575:0:0:0:0:
298,192,209575,128,0,209665:0:0:0:0:
42,192,209665,128,2,209755:0:0:0:0:
384,192,209665,128,0,209755:0:0:0:0:
469,192,209665,128,0,209755:0:0:0:0:
213,192,209755,128,0,209845:0:0:0:0:
128,192,209845,128,8,210204:0:0:0:0:
298,192,209845,128,0,209935:0:0:0:0:
384,192,209845,128,0,209935:0:0:0:0:
469,192,209845,128,0,209935:0:0:0:0:
213,192,209935,128,0,210024:0:0:0:0:
42,192,210024,128,2,210114:0:0:0:0:
298,192,210024,128,0,210114:0:0:0:0:
384,192,210024,128,0,210114:0:0:0:0:
42,192,210204,1,2,0:0:0:0:
298,192,210204,128,4,210339:0:0:0:0:
384,192,210204,128,0,210294:0:0:0:0:
469,192,210204,128,0,210249:0:0:0:0:
213,192,210249,128,0,210384:0:0:0:0:
128,192,210294,128,0,210429:0:0:0:0:
42,192,210339,128,0,210474:0:0:0:0:
469,192,210339,128,0,210429:0:0:0:0:
384,192,210384,128,0,210474:0:0:0:0:
298,192,210429,128,0,210518:0:0:0:0:
213,192,210474,128,0,210563:0:0:0:0:
128,192,210518,128,0,210608:0:0:0:0:
42,192,210563,128,8,210653:0:0:0:0:
298,192,210563,128,0,210653:0:0:0:0:
384,192,210563,128,0,211462:0:0:0:0:
469,192,210563,128,0,210653:0:0:0:0:
213,192,210653,128,0,210743:0:0:0:0:
128,192,210743,128,0,210833:0:0:0:0:
42,192,210833,128,0,210923:0:0:0:0:
213,192,210923,128,0,211012:0:0:0:0:
298,192,211012,128,0,211102:0:0:0:0:
42,192,211102,128,2,211192:0:0:0:0:
128,192,211102,128,0,211192:0:0:0:0:
469,192,211102,128,0,211192:0:0:0:0:
213,192,211192,128,0,211282:0:0:0:0:
42,192,211282,128,8,211372:0:0:0:0:
128,192,211282,128,0,211372:0:0:0:0:
298,192,211282,128,0,211372:0:0:0:0:
469,192,211282,128,0,211372:0:0:0:0:
213,192,211372,128,0,211462:0:0:0:0:
42,192,211462,128,0,211641:0:0:0:0:
469,192,211462,128,0,211641:0:0:0:0:
298,192,211551,128,0,211641:0:0:0:0:
128,192,211641,128,0,212180:0:0:0:0:
384,192,211641,128,0,211731:0:0:0:0:
213,192,211731,128,0,211821:0:0:0:0:
298,192,211821,128,2,211911:0:0:0:0:
384,192,211821,128,0,211911:0:0:0:0:
469,192,211821,128,0,211911:0:0:0:0:
42,192,211911,128,0,212001:0:0:0:0:
213,192,212001,128,8,212090:0:0:0:0:
298,192,212001,128,0,212090:0:0:0:0:
384,192,212001,128,0,212090:0:0:0:0:
469,192,212001,128,0,212090:0:0:0:0:
42,192,212090,128,0,212180:0:0:0:0:
298,192,212180,128,0,212719:0:0:0:0:
469,192,212180,128,0,212270:0:0:0:0:
213,192,212270,128,0,212360:0:0:0:0:
128,192,212360,128,0,212450:0:0:0:0:
42,192,212450,128,0,212539:0:0:0:0:
213,192,212539,128,2,212629:0:0:0:0:
384,192,212539,128,0,212629:0:0:0:0:
469,192,212539,128,0,212629:0:0:0:0:
128,192,212629,128,0,212719:0:0:0:0:
42,192,212719,128,8,212809:0:0:0:0:
213,192,212719,128,0,212809:0:0:0:0:
384,192,212719,128,0,212809:0:0:0:0:
469,192,212719,128,0,213078:0:0:0:0:
128,192,212809,128,0,212899:0:0:0:0:
42,192,212899,128,0,212989:0:0:0:0:
298,192,212989,128,0,213078:0:0:0:0:
42,192,213078,128,2,213617:0:0:0:0:
213,192,213078,128,0,213168:0:0:0:0:
384,192,213078,128,0,213168:0:0:0:0:
128,192,213168,128,0,213258:0:0:0:0:
384,192,213258,128,0,213348:0:0:0:0:
298,192,213348,128,0,213438:0:0:0:0:
128,192,213438,128,8,213527:0:0:0:0:
213,192,213438,128,0,213527:0:0:0:0:
384,192,213438,128,0,213527:0:0:0:0:
469,192,213438,128,0,213527:0:0:0:0:
298,192,213527,128,0,213617:0:0:0:0:
213,192,213617,128,0,213707:0:0:0:0:
384,192,213617,128,0,214156:0:0:0:0:
128,192,213707,128,0,213797:0:0:0:0:
42,192,213797,128,0,213887:0:0:0:0:
298,192,213887,128,0,213977:0:0:0:0:
42,192,213977,128,2,214066:0:0:0:0:
128,192,213977,128,0,214066:0:0:0:0:
213,192,213977,128,0,214066:0:0:0:0:
469,192,214066,128,0,214156:0:0:0:0:
42,192,214156,128,8,214246:0:0:0:0:
128,192,214156,128,0,214246:0:0:0:0:
213,192,214156,128,0,214246:0:0:0:0:
298,192,214156,128,0,214336:0:0:0:0:
384,192,214246,128,0,214336:0:0:0:0:
213,192,214336,128,0,214515:0:0:0:0:
469,192,214336,128,0,214426:0:0:0:0:
42,192,214426,128,0,214515:0:0:0:0:
128,192,214515,128,0,215054:0:0:0:0:
384,192,214515,128,0,214605:0:0:0:0:
298,192,214605,128,0,214695:0:0:0:0:
42,192,214695,128,2,214785:0:0:0:0:
213,192,214695,128,0,214785:0:0:0:0:
469,192,214695,128,0,214785:0:0:0:0:
298,192,214785,128,0,214875:0:0:0:0:
42,192,214875,128,8,214965:0:0:0:0:
213,192,214875,128,0,214965:0:0:0:0:
384,192,214875,128,0,214965:0:0:0:0:
469,192,214875,128,0,214965:0:0:0:0:
298,192,214965,128,0,215054:0:0:0:0:
469,192,215054,128,0,215144:0:0:0:0:
384,192,215144,128,0,215234:0:0:0:0:
298,192,215234,128,0,215324:0:0:0:0:
213,192,215324,128,0,215414:0:0:0:0:
42,192,215414,128,2,215504:0:0:0:0:
128,192,215414,128,0,215504:0:0:0:0:
384,192,215414,128,0,215504:0:0:0:0:
298,192,215504,128,0,215593:0:0:0:0:
42,192,215593,128,8,215683:0:0:0:0:
128,192,215593,128,0,215953:0:0:0:0:
213,192,215593,128,0,215683:0:0:0:0:
384,192,215593,128,0,215683:0:0:0:0:
469,192,215593,128,0,215683:0:0:0:0:
298,192,215773,128,2,215863:0:0:0:0:
384,192,215773,128,0,215863:0:0:0:0:
469,192,215773,128,0,215863:0:0:0:0:
42,192,215953,1,2,0:0:0:0:
213,192,215953,1,0,0:0:0:0:
384,192,215953,1,0,0:0:0:0:
42,192,216132,1,2,0:0:0:0:
213,192,216132,1,0,0:0:0:0:
384,192,216132,1,0,0:0:0:0:
128,192,216312,1,2,0:0:0:0:
298,192,216312,1,0,0:0:0:0:
469,192,216312,1,0,0:0:0:0:
128,192,216492,1,2,0:0:0:0:
298,192,216492,1,0,0:0:0:0:
469,192,216492,1,0,0:0:0:0:
213,192,216671,1,2,0:0:0:0:
384,192,216671,1,0,0:0:0:0:
469,192,216671,1,0,0:0:0:0:
213,192,216851,1,2,0:0:0:0:
384,192,216851,1,0,0:0:0:0:
469,192,216851,1,0,0:0:0:0:
42,192,217030,1,2,0:0:0:0:
128,192,217030,1,0,0:0:0:0:
298,192,217030,1,0,0:0:0:0:
42,192,217210,1,2,0:0:0:0:
128,192,217210,1,0,0:0:0:0:
298,192,217210,1,0,0:0:0:0:
128,192,217390,1,2,0:0:0:0:
213,192,217390,1,0,0:0:0:0:
298,192,217390,1,0,0:0:0:0:
128,192,217569,1,2,0:0:0:0:
213,192,217569,1,0,0:0:0:0:
298,192,217569,1,0,0:0:0:0:
213,192,217749,1,2,0:0:0:0:
298,192,217749,1,0,0:0:0:0:
384,192,217749,1,0,0:0:0:0:
213,192,217929,1,2,0:0:0:0:
298,192,217929,1,0,0:0:0:0:
384,192,217929,1,0,0:0:0:0:
42,192,218108,1,2,0:0:0:0:
128,192,218108,1,0,0:0:0:0:
469,192,218108,1,0,0:0:0:0:
42,192,218288,1,2,0:0:0:0:
128,192,218288,1,0,0:0:0:0:
469,192,218288,1,0,0:0:0:0:
42,192,218468,1,2,0:0:0:0:
384,192,218468,1,0,0:0:0:0:
469,192,218468,1,0,0:0:0:0:
42,192,218647,1,2,0:0:0:0:
384,192,218647,1,0,0:0:0:0:
469,192,218647,1,0,0:0:0:0:
213,192,218827,1,2,0:0:0:0:
384,192,218827,1,0,0:0:0:0:
469,192,218827,1,0,0:0:0:0:
42,192,218917,1,2,0:0:0:0:
128,192,218917,1,0,0:0:0:0:
298,192,218917,1,0,0:0:0:0:
213,192,219006,1,2,0:0:0:0:
384,192,219006,1,0,0:0:0:0:
42,192,219096,1,2,0:0:0:0:
298,192,219096,1,0,0:0:0:0:
128,192,219186,1,2,0:0:0:0:
213,192,219186,1,0,0:0:0:0:
469,192,219186,1,0,0:0:0:0:
42,192,219276,1,2,0:0:0:0:
298,192,219276,1,0,0:0:0:0:
384,192,219276,1,0,0:0:0:0:
128,192,219366,1,2,0:0:0:0:
469,192,219366,1,0,0:0:0:0:
213,192,219456,1,2,0:0:0:0:
384,192,219456,1,0,0:0:0:0:
42,192,219545,1,2,0:0:0:0:
128,192,219545,1,0,0:0:0:0:
298,192,219545,1,0,0:0:0:0:
213,192,219635,1,2,0:0:0:0:
384,192,219635,1,0,0:0:0:0:
469,192,219635,1,0,0:0:0:0:
42,192,219725,1,2,0:0:0:0:
298,192,219725,1,0,0:0:0:0:
128,192,219815,1,2,0:0:0:0:
469,192,219815,1,0,0:0:0:0:
42,192,219905,1,2,0:0:0:0:
213,192,219905,1,0,0:0:0:0:
298,192,219905,1,0,0:0:0:0:
128,192,219995,1,2,0:0:0:0:
384,192,219995,1,0,0:0:0:0:
469,192,219995,1,0,0:0:0:0:
213,192,220084,1,2,0:0:0:0:
298,192,220084,1,0,0:0:0:0:
42,192,220174,1,2,0:0:0:0:
128,192,220174,1,0,0:0:0:0:
384,192,220264,1,2,0:0:0:0:
469,192,220264,1,0,0:0:0:0:
298,192,220309,128,2,220623:0:0:0:0:
213,192,220354,128,2,220533:0:0:0:0:
128,192,220399,1,0,0:0:0:0:
42,192,220444,128,2,220713:0:0:0:0:
384,192,220444,128,0,220533:0:0:0:0:
128,192,220533,128,2,220758:0:0:0:0:
469,192,220533,128,0,220893:0:0:0:0:
213,192,220623,128,2,220803:0:0:0:0:
384,192,220623,128,0,220893:0:0:0:0:
298,192,220713,128,2,220848:0:0:0:0:
42,192,220803,128,2,220893:0:0:0:0:
128,192,220848,128,0,220938:0:0:0:0:
213,192,220893,128,2,220983:0:0:0:0:
298,192,220938,128,0,221027:0:0:0:0:
42,192,220983,1,2,0:0:0:0:
384,192,220983,128,4,221072:0:0:0:0:
469,192,220983,128,0,221162:0:0:0:0:
128,192,221162,1,0,0:0:0:50:S1.wav
213,192,221162,1,0,0:0:0:0:
298,192,221252,1,0,0:0:0:50:S1.wav
384,192,221252,1,0,0:0:0:0:
42,192,221342,128,0,221521:0:0:0:0:
128,192,221342,1,0,0:0:0:0:
213,192,221342,1,0,0:0:0:0:
469,192,221342,1,0,0:0:0:0:
298,192,221521,1,0,0:0:0:0:
384,192,221566,1,0,0:0:0:0:
128,192,221611,1,0,0:0:0:0:
213,192,221656,1,0,0:0:0:0:
42,192,221701,128,2,221791:0:0:0:0:
298,192,221701,128,4,221791:0:0:0:0:
384,192,221701,128,0,221791:0:0:0:0:
469,192,221701,128,0,223138:0:0:0:0:
128,192,221791,128,0,221881:0:0:0:0:
213,192,221881,128,0,221971:0:0:0:0:
384,192,221881,128,0,221971:0:0:0:0:
42,192,221971,128,0,222060:0:0:0:0:
128,192,222060,128,8,222150:0:0:0:0:
213,192,222060,128,0,222150:0:0:0:0:
298,192,222060,128,0,222150:0:0:0:0:
384,192,222060,128,0,222150:0:0:0:0:
42,192,222150,128,0,222240:0:0:0:0:
298,192,222240,128,0,222330:0:0:0:0:
384,192,222240,128,0,222330:0:0:0:0:
213,192,222330,128,0,222420:0:0:0:0:
42,192,222420,128,0,222509:0:0:0:0:
128,192,222420,128,0,222509:0:0:0:0:
298,192,222509,128,0,222599:0:0:0:0:
42,192,222599,128,2,222689:0:0:0:0:
213,192,222599,128,0,222689:0:0:0:0:
384,192,222599,128,0,222689:0:0:0:0:
42,192,222779,128,8,222869:0:0:0:0:
128,192,222779,128,0,222869:0:0:0:0:
298,192,222779,128,0,222869:0:0:0:0:
384,192,222779,128,0,222869:0:0:0:0:
213,192,222869,128,0,222959:0:0:0:0:
128,192,222959,128,0,223048:0:0:0:0:
298,192,222959,128,0,223048:0:0:0:0:
42,192,223048,128,0,223138:0:0:0:0:
213,192,223138,128,0,223677:0:0:0:0:
384,192,223138,128,0,223228:0:0:0:0:
298,192,223228,128,0,223318:0:0:0:0:
42,192,223318,128,2,223408:0:0:0:0:
128,192,223318,128,0,223408:0:0:0:0:
469,192,223318,128,0,223408:0:0:0:0:
42,192,223498,128,8,223587:0:0:0:0:
128,192,223498,128,0,223587:0:0:0:0:
298,192,223498,128,0,223587:0:0:0:0:
384,192,223498,128,0,223587:0:0:0:0:
469,192,223587,128,0,223677:0:0:0:0:
42,192,223677,128,0,224216:0:0:0:0:
384,192,223677,128,0,223767:0:0:0:0:
128,192,223767,128,0,223857:0:0:0:0:
213,192,223857,128,0,223947:0:0:0:0:
469,192,223857,128,0,223947:0:0:0:0:
298,192,223947,128,0,224036:0:0:0:0:
128,192,224036,128,2,224126:0:0:0:0:
384,192,224036,128,0,224126:0:0:0:0:
469,192,224036,128,0,224126:0:0:0:0:
213,192,224216,128,8,224306:0:0:0:0:
298,192,224216,128,0,224306:0:0:0:0:
384,192,224216,128,0,224306:0:0:0:0:
469,192,224216,128,0,224575:0:0:0:0:
128,192,224306,128,0,224396:0:0:0:0:
42,192,224396,128,0,224486:0:0:0:0:
384,192,224396,128,0,224486:0:0:0:0:
213,192,224486,128,0,224575:0:0:0:0:
128,192,224575,128,2,224665:0:0:0:0:
298,192,224575,128,0,225114:0:0:0:0:
384,192,224575,128,0,224665:0:0:0:0:
42,192,224665,128,0,224755:0:0:0:0:
213,192,224755,128,0,224845:0:0:0:0:
384,192,224755,128,0,224845:0:0:0:0:
128,192,224845,128,0,224935:0:0:0:0:
42,192,224935,128,8,225024:0:0:0:0:
213,192,224935,128,0,225024:0:0:0:0:
384,192,224935,128,0,225024:0:0:0:0:
469,192,224935,128,0,225024:0:0:0:0:
128,192,225024,128,0,225114:0:0:0:0:
42,192,225114,128,0,225204:0:0:0:0:
384,192,225114,128,0,225653:0:0:0:0:
213,192,225204,128,0,225294:0:0:0:0:
298,192,225294,128,0,225384:0:0:0:0:
469,192,225294,128,0,225384:0:0:0:0:
128,192,225384,128,0,225474:0:0:0:0:
42,192,225474,128,2,225563:0:0:0:0:
213,192,225474,128,0,225653:0:0:0:0:
298,192,225474,128,0,225563:0:0:0:0:
42,192,225653,128,8,225743:0:0:0:0:
128,192,225653,128,0,225833:0:0:0:0:
298,192,225653,128,0,225833:0:0:0:0:
469,192,225653,128,0,225743:0:0:0:0:
384,192,225743,128,0,225833:0:0:0:0:
42,192,225833,128,0,226012:0:0:0:0:
213,192,225833,128,0,226012:0:0:0:0:
469,192,225833,128,0,225923:0:0:0:0:
384,192,225923,128,0,226012:0:0:0:0:
128,192,226012,128,0,226731:0:0:0:0:
298,192,226012,128,0,226102:0:0:0:0:
469,192,226012,128,0,226102:0:0:0:0:
213,192,226102,128,0,226192:0:0:0:0:
42,192,226192,128,2,226282:0:0:0:0:
384,192,226192,128,0,226282:0:0:0:0:
469,192,226192,128,0,226282:0:0:0:0:
42,192,226372,128,8,226462:0:0:0:0:
213,192,226372,128,0,226462:0:0:0:0:
298,192,226372,128,0,226462:0:0:0:0:
469,192,226372,128,0,226462:0:0:0:0:
384,192,226462,128,0,226551:0:0:0:0:
213,192,226551,128,0,226641:0:0:0:0:
298,192,226551,128,0,226641:0:0:0:0:
469,192,226641,128,0,226731:0:0:0:0:
42,192,226731,128,0,226821:0:0:0:0:
384,192,226731,128,0,226821:0:0:0:0:
213,192,226821,128,0,226911:0:0:0:0:
42,192,226911,128,2,227001:0:0:0:0:
298,192,226911,128,0,227001:0:0:0:0:
469,192,226911,128,0,227001:0:0:0:0:
42,192,227090,128,8,227270:0:0:0:0:
128,192,227090,1,0,0:0:0:0:
213,192,227090,128,0,227270:0:0:0:0:
384,192,227090,128,0,227270:0:0:0:0:
128,192,227270,128,2,227450:0:0:0:0:
298,192,227270,128,0,227450:0:0:0:0:
469,192,227270,128,0,227450:0:0:0:0:
42,192,227450,128,2,227539:0:0:0:0:
213,192,227450,128,0,227539:0:0:0:0:
384,192,227450,128,0,227989:0:0:0:0:
298,192,227539,128,0,227629:0:0:0:0:
42,192,227629,128,0,227719:0:0:0:0:
128,192,227629,128,0,227719:0:0:0:0:
42,192,227809,128,8,227899:0:0:0:0:
128,192,227809,128,0,227899:0:0:0:0:
298,192,227809,128,0,227899:0:0:0:0:
469,192,227809,128,0,227899:0:0:0:0:
213,192,227899,128,0,227989:0:0:0:0:
128,192,227989,128,0,228527:0:0:0:0:
298,192,227989,128,0,228078:0:0:0:0:
469,192,228078,128,0,228168:0:0:0:0:
213,192,228168,128,0,228258:0:0:0:0:
384,192,228168,128,0,228258:0:0:0:0:
298,192,228258,128,0,228348:0:0:0:0:
42,192,228348,128,2,228438:0:0:0:0:
213,192,228348,128,0,228438:0:0:0:0:
469,192,228348,128,0,228438:0:0:0:0:
384,192,228438,128,0,228527:0:0:0:0:
42,192,228527,128,8,228707:0:0:0:0:
213,192,228527,128,0,228617:0:0:0:0:
298,192,228527,128,0,228617:0:0:0:0:
469,192,228527,128,0,228707:0:0:0:0:
384,192,228617,128,0,228707:0:0:0:0:
128,192,228707,128,0,228887:0:0:0:0:
213,192,228707,128,0,228887:0:0:0:0:
298,192,228707,128,0,228887:0:0:0:0:
384,192,228797,128,0,228887:0:0:0:0:
42,192,228887,128,0,228977:0:0:0:0:
469,192,228887,128,0,229426:0:0:0:0:
384,192,228977,128,0,229066:0:0:0:0:
42,192,229066,128,2,229156:0:0:0:0:
128,192,229066,128,0,229156:0:0:0:0:
298,192,229066,128,0,229156:0:0:0:0:
213,192,229156,128,0,229246:0:0:0:0:
42,192,229246,128,8,229336:0:0:0:0:
128,192,229246,128,0,229336:0:0:0:0:
298,192,229246,128,0,229336:0:0:0:0:
384,192,229246,128,0,229336:0:0:0:0:
213,192,229336,128,0,229426:0:0:0:0:
128,192,229426,128,0,229965:0:0:0:0:
384,192,229426,128,0,229515:0:0:0:0:
298,192,229515,128,0,229605:0:0:0:0:
42,192,229605,128,0,229695:0:0:0:0:
469,192,229605,128,0,229695:0:0:0:0:
384,192,229695,128,0,229785:0:0:0:0:
42,192,229785,128,2,229875:0:0:0:0:
213,192,229785,128,0,229875:0:0:0:0:
298,192,229785,128,0,229875:0:0:0:0:
42,192,229965,128,8,230324:0:0:0:0:
213,192,229965,128,0,230054:0:0:0:0:
384,192,229965,128,0,230054:0:0:0:0:
469,192,229965,128,0,230054:0:0:0:0:
298,192,230054,128,0,230144:0:0:0:0:
128,192,230144,128,0,230234:0:0:0:0:
469,192,230144,128,0,230234:0:0:0:0:
213,192,230234,128,0,230324:0:0:0:0:
298,192,230324,128,2,230414:0:0:0:0:
384,192,230324,128,0,230863:0:0:0:0:
469,192,230324,128,0,230414:0:0:0:0:
213,192,230414,128,0,230504:0:0:0:0:
42,192,230504,128,0,230593:0:0:0:0:
128,192,230504,128,0,230593:0:0:0:0:
298,192,230593,128,0,230683:0:0:0:0:
42,192,230683,128,8,230773:0:0:0:0:
128,192,230683,128,0,230773:0:0:0:0:
213,192,230683,128,0,230773:0:0:0:0:
469,192,230683,128,0,230773:0:0:0:0:
298,192,230773,128,0,230863:0:0:0:0:
42,192,230863,128,0,230953:0:0:0:0:
213,192,230863,128,0,231402:0:0:0:0:
128,192,230953,128,0,231042:0:0:0:0:
384,192,231042,128,0,231132:0:0:0:0:
469,192,231042,128,0,231132:0:0:0:0:
298,192,231132,128,0,231222:0:0:0:0:
128,192,231222,128,2,231312:0:0:0:0:
384,192,231222,128,0,231312:0:0:0:0:
469,192,231222,128,0,231312:0:0:0:0:
42,192,231402,128,8,231492:0:0:0:0:
298,192,231402,128,0,231492:0:0:0:0:
384,192,231402,128,0,231492:0:0:0:0:
469,192,231402,128,0,232120:0:0:0:0:
213,192,231492,128,0,231581:0:0:0:0:
42,192,231581,128,0,231671:0:0:0:0:
298,192,231581,128,0,231671:0:0:0:0:
128,192,231671,128,0,231761:0:0:0:0:
42,192,231761,128,0,231851:0:0:0:0:
213,192,231761,128,0,231851:0:0:0:0:
298,192,231851,128,0,231941:0:0:0:0:
42,192,231941,128,2,232030:0:0:0:0:
128,192,231941,128,0,232030:0:0:0:0:
384,192,231941,128,0,232030:0:0:0:0:
42,192,232120,128,8,232210:0:0:0:0:
213,192,232120,128,0,232210:0:0:0:0:
298,192,232120,128,0,232210:0:0:0:0:
384,192,232120,128,0,232210:0:0:0:0:
128,192,232210,128,0,232300:0:0:0:0:
42,192,232300,128,0,232390:0:0:0:0:
469,192,232300,128,0,232390:0:0:0:0:
298,192,232390,128,0,232480:0:0:0:0:
128,192,232480,128,0,232569:0:0:0:0:
384,192,232480,128,0,232569:0:0:0:0:
213,192,232569,128,0,232659:0:0:0:0:
42,192,232659,128,2,232749:0:0:0:0:
384,192,232659,128,0,232749:0:0:0:0:
469,192,232659,128,0,232749:0:0:0:0:
42,192,232839,128,8,232929:0:0:0:0:
128,192,232839,128,0,232929:0:0:0:0:
213,192,232839,128,0,232929:0:0:0:0:
384,192,232839,128,0,233198:0:0:0:0:
42,192,233018,128,2,233108:0:0:0:0:
128,192,233018,128,0,233108:0:0:0:0:
298,192,233018,128,0,233108:0:0:0:0:
42,192,233198,128,2,233243:0:0:0:0:
128,192,233198,128,4,233288:0:0:0:0:
213,192,233198,128,0,233333:0:0:0:0:
469,192,233198,1,0,0:0:0:0:
298,192,233243,128,0,233378:0:0:0:0:
384,192,233288,128,0,233423:0:0:0:0:
42,192,233333,128,0,233423:0:0:0:0:
469,192,233333,128,0,233468:0:0:0:0:
128,192,233378,128,0,233468:0:0:0:0:
213,192,233423,128,0,233512:0:0:0:0:
298,192,233468,128,0,233557:0:0:0:0:
384,192,233512,128,0,233602:0:0:0:0:
42,192,233557,128,8,234635:0:0:0:0:
128,192,233557,128,0,233647:0:0:0:0:
213,192,233557,128,0,233647:0:0:0:0:
469,192,233557,128,0,233647:0:0:0:0:
298,192,233647,128,0,233737:0:0:0:0:
128,192,233737,128,0,233827:0:0:0:0:
384,192,233737,128,0,233827:0:0:0:0:
213,192,233827,128,0,233917:0:0:0:0:
298,192,233917,128,0,234006:0:0:0:0:
469,192,233917,128,0,234006:0:0:0:0:
384,192,234006,128,0,234096:0:0:0:0:
128,192,234096,128,2,234186:0:0:0:0:
213,192,234096,128,0,234186:0:0:0:0:
469,192,234096,128,0,234186:0:0:0:0:
213,192,234276,128,8,234366:0:0:0:0:
298,192,234276,128,0,234366:0:0:0:0:
384,192,234276,128,0,234366:0:0:0:0:
469,192,234276,128,0,234366:0:0:0:0:
128,192,234366,128,0,234456:0:0:0:0:
213,192,234456,128,0,234545:0:0:0:0:
469,192,234456,128,0,234545:0:0:0:0:
384,192,234545,128,0,234635:0:0:0:0:
213,192,234635,128,0,235174:0:0:0:0:
298,192,234635,128,0,234725:0:0:0:0:
128,192,234725,128,0,234815:0:0:0:0:
42,192,234815,128,2,234905:0:0:0:0:
384,192,234815,128,0,234905:0:0:0:0:
469,192,234815,128,0,234905:0:0:0:0:
128,192,234995,128,8,235084:0:0:0:0:
298,192,234995,128,0,235084:0:0:0:0:
384,192,234995,128,0,235084:0:0:0:0:
469,192,234995,128,0,235084:0:0:0:0:
42,192,235084,128,0,235174:0:0:0:0:
298,192,235174,128,0,235713:0:0:0:0:
469,192,235174,128,0,235264:0:0:0:0:
213,192,235264,128,0,235354:0:0:0:0:
128,192,235354,128,0,235444:0:0:0:0:
384,192,235354,128,0,235444:0:0:0:0:
42,192,235444,128,0,235533:0:0:0:0:
128,192,235533,128,2,235623:0:0:0:0:
213,192,235533,128,0,235623:0:0:0:0:
469,192,235533,128,0,235623:0:0:0:0:
42,192,235713,128,8,235803:0:0:0:0:
128,192,235713,128,0,235803:0:0:0:0:
384,192,235713,128,0,235803:0:0:0:0:
469,192,235713,128,0,236162:0:0:0:0:
213,192,235803,128,0,235893:0:0:0:0:
298,192,235893,128,0,235983:0:0:0:0:
384,192,235893,128,0,235983:0:0:0:0:
128,192,235983,128,0,236072:0:0:0:0:
42,192,236072,128,2,236611:0:0:0:0:
213,192,236072,128,0,236162:0:0:0:0:
298,192,236072,128,0,236162:0:0:0:0:
384,192,236162,128,0,236252:0:0:0:0:
128,192,236252,128,0,236342:0:0:0:0:
469,192,236252,128,0,236342:0:0:0:0:
298,192,236342,128,0,236432:0:0:0:0:
128,192,236432,128,8,236521:0:0:0:0:
213,192,236432,128,0,236521:0:0:0:0:
384,192,236432,128,0,236521:0:0:0:0:
469,192,236432,128,0,236521:0:0:0:0:
298,192,236521,128,0,236611:0:0:0:0:
128,192,236611,128,0,236701:0:0:0:0:
213,192,236611,128,0,237150:0:0:0:0:
384,192,236701,128,0,236791:0:0:0:0:
42,192,236791,128,0,236881:0:0:0:0:
298,192,236791,128,0,236881:0:0:0:0:
384,192,236881,128,0,236971:0:0:0:0:
128,192,236971,128,2,237060:0:0:0:0:
298,192,236971,128,0,237060:0:0:0:0:
469,192,236971,128,0,237060:0:0:0:0:
42,192,237150,128,8,237330:0:0:0:0:
298,192,237150,128,0,237240:0:0:0:0:
384,192,237150,128,0,237330:0:0:0:0:
469,192,237150,128,0,237240:0:0:0:0:
213,192,237240,128,0,237330:0:0:0:0:
128,192,237330,128,0,237509:0:0:0:0:
469,192,237330,128,0,237509:0:0:0:0:
298,192,237420,128,0,237509:0:0:0:0:
42,192,237509,128,0,237599:0:0:0:0:
213,192,237509,128,0,237599:0:0:0:0:
384,192,237509,128,0,238228:0:0:0:0:
298,192,237599,128,0,237689:0:0:0:0:
42,192,237689,128,2,237779:0:0:0:0:
128,192,237689,128,0,237779:0:0:0:0:
469,192,237689,128,0,237779:0:0:0:0:
42,192,237869,128,8,237959:0:0:0:0:
213,192,237869,128,0,237959:0:0:0:0:
298,192,237869,128,0,237959:0:0:0:0:
469,192,237869,128,0,237959:0:0:0:0:
128,192,237959,128,0,238048:0:0:0:0:
213,192,238048,128,0,238138:0:0:0:0:
298,192,238048,128,0,238138:0:0:0:0:
42,192,238138,128,0,238228:0:0:0:0:
128,192,238228,128,0,238318:0:0:0:0:
469,192,238228,128,0,238318:0:0:0:0:
298,192,238318,128,0,238408:0:0:0:0:
42,192,238408,128,2,238498:0:0:0:0:
213,192,238408,128,0,238498:0:0:0:0:
469,192,238408,128,0,238498:0:0:0:0:
128,192,238587,128,8,238767:0:0:0:0:
298,192,238587,128,0,238767:0:0:0:0:
384,192,238587,1,0,0:0:0:0:
469,192,238587,128,0,238767:0:0:0:0:
42,192,238767,128,2,238947:0:0:0:0:
213,192,238767,128,0,238947:0:0:0:0:
384,192,238767,128,0,238947:0:0:0:0:
128,192,238947,1,2,0:0:0:0:
298,192,238947,1,0,0:0:0:0:
469,192,238947,1,0,0:0:0:0:
42,192,239126,1,2,0:0:0:0:
128,192,239126,1,0,0:0:0:0:
213,192,239126,1,0,0:0:0:0:
128,192,239306,1,2,0:0:0:0:
213,192,239306,1,0,0:0:0:0:
298,192,239306,1,0,0:0:0:0:
128,192,239486,1,2,0:0:0:0:
213,192,239486,1,0,0:0:0:0:
298,192,239486,1,0,0:0:0:0:
213,192,239665,1,2,0:0:0:0:
298,192,239665,1,0,0:0:0:0:
384,192,239665,1,0,0:0:0:0:
213,192,239845,1,2,0:0:0:0:
298,192,239845,1,0,0:0:0:0:
384,192,239845,1,0,0:0:0:0:
298,192,240024,1,2,0:0:0:0:
384,192,240024,1,0,0:0:0:0:
469,192,240024,1,0,0:0:0:0:
298,192,240204,1,2,0:0:0:0:
384,192,240204,1,0,0:0:0:0:
469,192,240204,1,0,0:0:0:0:
128,192,240384,1,2,0:0:0:0:
298,192,240384,1,0,0:0:0:0:
469,192,240384,1,0,0:0:0:0:
128,192,240563,1,2,0:0:0:0:
298,192,240563,1,0,0:0:0:0:
469,192,240563,1,0,0:0:0:0:
42,192,240743,1,2,0:0:0:0:
213,192,240743,1,0,0:0:0:0:
384,192,240743,1,0,0:0:0:0:
42,192,240923,1,2,0:0:0:0:
213,192,240923,1,0,0:0:0:0:
384,192,240923,1,0,0:0:0:0:
42,192,241102,1,2,0:0:0:0:
298,192,241102,1,0,0:0:0:0:
469,192,241102,1,0,0:0:0:0:
42,192,241282,1,2,0:0:0:0:
298,192,241282,1,0,0:0:0:0:
469,192,241282,1,0,0:0:0:0:
42,192,241462,1,2,0:0:0:0:
213,192,241462,1,0,0:0:0:0:
469,192,241462,1,0,0:0:0:0:
42,192,241641,1,2,0:0:0:0:
213,192,241641,1,0,0:0:0:0:
469,192,241641,1,0,0:0:0:0:
213,192,241821,1,2,0:0:0:0:
384,192,241821,1,0,0:0:0:0:
469,192,241821,1,0,0:0:0:0:
42,192,241911,1,2,0:0:0:0:
128,192,241911,1,0,0:0:0:0:
298,192,241911,1,0,0:0:0:0:
213,192,242001,1,2,0:0:0:0:
384,192,242001,1,0,0:0:0:0:
469,192,242001,1,0,0:0:0:0:
42,192,242090,1,2,0:0:0:0:
128,192,242090,1,0,0:0:0:0:
298,192,242090,1,0,0:0:0:0:
213,192,242180,1,2,0:0:0:0:
469,192,242180,1,0,0:0:0:0:
42,192,242270,1,2,0:0:0:0:
128,192,242270,1,0,0:0:0:0:
298,192,242270,1,0,0:0:0:0:
384,192,242270,1,0,0:0:0:0:
213,192,242360,1,2,0:0:0:0:
469,192,242360,1,0,0:0:0:0:
42,192,242450,1,2,0:0:0:0:
128,192,242450,1,0,0:0:0:0:
213,192,242539,1,2,0:0:0:0:
469,192,242539,1,0,0:0:0:0:
42,192,242629,1,2,0:0:0:0:
128,192,242629,1,0,0:0:0:0:
298,192,242629,1,0,0:0:0:0:
213,192,242719,1,2,0:0:0:0:
384,192,242719,1,0,0:0:0:0:
469,192,242719,1,0,0:0:0:0:
42,192,242809,1,2,0:0:0:0:
128,192,242809,1,0,0:0:0:0:
298,192,242809,1,0,0:0:0:0:
213,192,242899,1,2,0:0:0:0:
384,192,242899,1,0,0:0:0:0:
42,192,242989,1,2,0:0:0:0:
128,192,242989,1,0,0:0:0:0:
298,192,242989,1,0,0:0:0:0:
469,192,242989,1,0,0:0:0:0:
213,192,243078,1,2,0:0:0:0:
384,192,243078,1,0,0:0:0:0:
42,192,243168,1,2,0:0:0:0:
128,192,243168,1,0,0:0:0:0:
298,192,243168,1,0,0:0:0:0:
213,192,243258,1,2,0:0:0:0:
469,192,243258,1,0,0:0:0:0:
384,192,243303,1,2,0:0:0:0:
128,192,243348,1,2,0:0:0:0:
298,192,243348,1,0,0:0:0:0:
42,192,243438,128,2,244381:0:0:0:0:
213,192,243438,1,0,0:0:0:0:
384,192,243527,1,2,0:0:0:0:
469,192,243527,1,0,0:0:0:0:
128,192,243617,128,2,244336:0:0:0:0:
298,192,243617,1,0,0:0:0:0:
384,192,243707,1,2,0:0:0:0:
469,192,243707,1,0,0:0:0:0:
213,192,243797,128,2,244291:0:0:0:0:
298,192,243797,1,0,0:0:0:0:
384,192,243887,1,2,0:0:0:0:
298,192,243977,128,2,244246:0:0:0:0:
469,192,244066,1,0,0:0:0:0:
384,192,244156,128,0,244336:0:0:0:0:
298,192,244336,128,0,244426:0:0:0:0:
469,192,244336,128,0,244605:0:0:0:0:
213,192,244381,128,0,244471:0:0:0:0:
128,192,244426,128,0,244515:0:0:0:0:
42,192,244471,128,0,244560:0:0:0:0:
384,192,244471,128,0,244560:0:0:0:0:
298,192,244515,128,0,244605:0:0:0:0:
213,192,244560,128,0,244650:0:0:0:0:
128,192,244605,128,0,244695:0:0:0:0:
42,192,244650,128,0,244740:0:0:0:0:
298,192,244695,1,2,0:0:0:0:
384,192,244695,128,4,245054:0:0:0:0:
469,192,244695,128,0,245054:0:0:0:0:
42,192,245054,128,0,245234:0:0:0:0:
213,192,245054,128,0,245234:0:0:0:0:
128,192,245234,128,0,245504:0:0:0:0:
298,192,245234,128,0,245504:0:0:0:0:
384,192,245773,128,0,246132:0:0:0:0:
42,192,246132,1,4,0:0:0:0:
128,192,246132,1,0,0:0:0:50:S1.wav
213,192,246132,128,0,246492:0:0:0:0:
298,192,246132,1,0,0:0:0:0:
298,192,246492,1,0,0:0:0:50:S1.wav
384,192,246492,128,0,246671:0:0:0:0:
469,192,246492,1,0,0:0:0:0:
42,192,246671,128,0,247030:0:0:0:50:S1.wav
128,192,246671,1,0,0:0:0:0:
469,192,246671,1,0,0:0:0:0:
213,192,246716,1,0,0:0:0:50:S1.wav
298,192,246761,1,0,0:0:0:50:S1.wav
384,192,246806,1,0,0:0:0:50:S1.wav
128,192,246851,1,4,0:0:0:0:
213,192,246851,1,8,0:0:0:0:
469,192,246851,1,0,0:0:0:50:S1.wav
213,192,247030,128,0,247569:0:0:0:50:S1.wav
298,192,247030,1,0,0:0:0:0:
384,192,247120,1,0,0:0:0:50:S1.wav
469,192,247120,1,0,0:0:0:0:
42,192,247210,1,0,0:0:0:70:S2.wav
298,192,247210,1,0,0:0:0:50:S1.wav
42,192,247569,128,2,247749:0:0:0:0:
128,192,247569,1,4,0:0:0:0:
298,192,247569,128,0,247749:0:0:0:0:
469,192,247569,1,0,0:0:0:0:
213,192,247749,128,0,247929:0:0:0:0:
469,192,247749,128,0,247929:0:0:0:0:
42,192,247929,128,8,248108:0:0:0:0:
128,192,247929,128,0,248108:0:0:0:0:
298,192,247929,1,0,0:0:0:0:
384,192,248018,1,0,0:0:0:0:
213,192,248108,128,0,248288:0:0:0:0:
469,192,248108,128,0,248288:0:0:0:0:
298,192,248198,1,0,0:0:0:0:
128,192,248288,128,0,248468:0:0:0:0:
384,192,248288,128,0,248468:0:0:0:0:
298,192,248468,128,2,248647:0:0:0:0:
469,192,248468,128,0,248647:0:0:0:0:
42,192,248647,128,8,248827:0:0:0:0:
128,192,248647,128,0,248827:0:0:0:0:
384,192,248647,1,0,0:0:0:0:
298,192,248737,1,0,0:0:0:0:
213,192,248827,128,0,249006:0:0:0:0:
469,192,248827,128,0,249006:0:0:0:0:
384,192,248917,1,0,0:0:0:0:
42,192,249006,128,0,249186:0:0:0:0:
298,192,249006,128,0,249186:0:0:0:0:
128,192,249186,128,2,249366:0:0:0:0:
384,192,249186,128,0,249366:0:0:0:0:
213,192,249366,128,8,249545:0:0:0:0:
298,192,249366,128,0,249545:0:0:0:0:
469,192,249366,1,0,0:0:0:0:
128,192,249456,1,0,0:0:0:0:
42,192,249545,128,0,249725:0:0:0:0:
384,192,249545,128,0,249725:0:0:0:0:
298,192,249635,1,0,0:0:0:0:
128,192,249725,128,0,249905:0:0:0:0:
213,192,249725,128,0,249905:0:0:0:0:
42,192,249905,128,2,250084:0:0:0:0:
384,192,249905,128,0,250084:0:0:0:0:
128,192,250084,1,8,0:0:0:0:
298,192,250084,128,0,250264:0:0:0:0:
469,192,250084,128,0,250264:0:0:0:0:
213,192,250174,1,0,0:0:0:0:
42,192,250264,128,0,250444:0:0:0:0:
384,192,250264,128,0,250444:0:0:0:0:
298,192,250354,1,0,0:0:0:0:
213,192,250444,128,2,250623:0:0:0:0:
469,192,250444,128,0,250623:0:0:0:0:
128,192,250623,128,0,250803:0:0:0:0:
384,192,250623,128,0,250803:0:0:0:0:
42,192,250803,128,8,250983:0:0:0:0:
298,192,250803,128,0,250983:0:0:0:0:
469,192,250803,1,0,0:0:0:0:
213,192,250893,1,0,0:0:0:0:
128,192,250983,128,0,251162:0:0:0:0:
384,192,250983,128,0,251162:0:0:0:0:
298,192,251072,1,0,0:0:0:0:
42,192,251162,128,0,251342:0:0:0:0:
213,192,251162,128,0,251342:0:0:0:0:
128,192,251342,128,2,251521:0:0:0:0:
384,192,251342,128,0,251521:0:0:0:0:
213,192,251521,1,8,0:0:0:0:
298,192,251521,128,0,251701:0:0:0:0:
469,192,251521,128,0,251701:0:0:0:0:
384,192,251611,1,0,0:0:0:0:
42,192,251701,128,0,251881:0:0:0:0:
128,192,251701,128,0,251881:0:0:0:0:
213,192,251791,1,0,0:0:0:0:
298,192,251881,128,0,252060:0:0:0:0:
469,192,251881,128,0,252060:0:0:0:0:
128,192,252060,128,2,252240:0:0:0:0:
213,192,252060,128,0,252240:0:0:0:0:
298,192,252240,1,8,0:0:0:0:
384,192,252240,128,0,252420:0:0:0:0:
469,192,252240,128,0,252420:0:0:0:0:
128,192,252330,1,0,0:0:0:0:
42,192,252420,128,0,252599:0:0:0:0:
213,192,252420,128,0,252599:0:0:0:0:
298,192,252509,1,0,0:0:0:0:
128,192,252599,128,0,252779:0:0:0:0:
469,192,252599,128,0,252779:0:0:0:0:
42,192,252779,128,2,252959:0:0:0:0:
298,192,252779,128,0,252959:0:0:0:0:
128,192,252959,1,8,0:0:0:0:
384,192,252959,128,0,253138:0:0:0:0:
469,192,252959,128,0,253138:0:0:0:0:
213,192,253048,1,0,0:0:0:0:
42,192,253138,128,2,253318:0:0:0:0:
298,192,253138,128,0,253318:0:0:0:0:
128,192,253228,1,0,0:0:0:0:
213,192,253318,1,2,0:0:0:0:
469,192,253318,128,0,253498:0:0:0:0:
128,192,253498,1,0,0:0:0:0:
384,192,253498,128,0,253677:0:0:0:0:
42,192,253677,1,8,0:0:0:0:
213,192,253677,128,0,253857:0:0:0:0:
298,192,253677,1,0,0:0:0:0:
384,192,253767,1,0,0:0:0:0:
128,192,253857,128,0,254036:0:0:0:0:
469,192,253857,1,0,0:0:0:0:
213,192,253947,1,0,0:0:0:0:
42,192,254036,128,0,254216:0:0:0:0:
298,192,254036,1,0,0:0:0:0:
128,192,254216,1,2,0:0:0:0:
384,192,254216,128,0,254396:0:0:0:0:
213,192,254396,1,8,0:0:0:0:
298,192,254396,1,0,0:0:0:0:
469,192,254396,128,0,254575:0:0:0:0:
128,192,254486,1,0,0:0:0:0:
42,192,254575,1,0,0:0:0:0:
213,192,254575,128,0,254755:0:0:0:0:
298,192,254665,1,0,0:0:0:0:
128,192,254755,1,0,0:0:0:0:
384,192,254755,128,0,254935:0:0:0:0:
298,192,254935,128,2,255114:0:0:0:0:
469,192,254935,1,0,0:0:0:0:
42,192,255114,1,8,0:0:0:0:
213,192,255114,1,0,0:0:0:0:
384,192,255114,1,0,0:0:0:0:
128,192,255204,1,0,0:0:0:0:
298,192,255294,128,0,255474:0:0:0:0:
384,192,255294,1,0,0:0:0:0:
42,192,255384,1,0,0:0:0:0:
128,192,255474,128,0,255653:0:0:0:0:
469,192,255474,1,0,0:0:0:0:
213,192,255653,1,2,0:0:0:0:
298,192,255653,128,0,255833:0:0:0:0:
42,192,255833,128,8,256012:0:0:0:0:
128,192,255833,1,0,0:0:0:0:
469,192,255833,1,0,0:0:0:0:
213,192,255923,1,0,0:0:0:0:
298,192,256012,1,0,0:0:0:0:
384,192,256012,128,0,256192:0:0:0:0:
128,192,256102,1,0,0:0:0:0:
213,192,256192,1,2,0:0:0:0:
469,192,256192,128,0,256372:0:0:0:0:
42,192,256372,128,0,256551:0:0:0:0:
298,192,256372,1,0,0:0:0:0:
128,192,256551,1,8,0:0:0:0:
384,192,256551,128,0,256731:0:0:0:0:
469,192,256551,1,0,0:0:0:0:
213,192,256641,1,0,0:0:0:0:
42,192,256731,1,0,0:0:0:0:
298,192,256731,128,0,256911:0:0:0:0:
128,192,256821,1,0,0:0:0:0:
42,192,256911,128,0,257090:0:0:0:0:
213,192,256911,1,0,0:0:0:0:
469,192,256911,128,0,257090:0:0:0:0:
298,192,257090,1,2,0:0:0:0:
384,192,257090,128,0,257270:0:0:0:0:
128,192,257270,1,8,0:0:0:0:
213,192,257270,128,0,257450:0:0:0:0:
469,192,257270,1,0,0:0:0:0:
298,192,257360,1,0,0:0:0:0:
42,192,257450,128,0,257629:0:0:0:0:
384,192,257450,1,0,0:0:0:0:
128,192,257539,1,0,0:0:0:0:
213,192,257629,1,0,0:0:0:0:
298,192,257629,128,0,257809:0:0:0:0:
128,192,257809,128,2,257989:0:0:0:0:
469,192,257809,1,0,0:0:0:0:
42,192,257989,1,8,0:0:0:0:
298,192,257989,1,0,0:0:0:0:
384,192,257989,128,0,258168:0:0:0:0:
128,192,258078,1,0,0:0:0:0:
213,192,258168,128,0,258348:0:0:0:0:
298,192,258168,1,0,0:0:0:0:
384,192,258258,1,0,0:0:0:0:
128,192,258348,1,0,0:0:0:0:
469,192,258348,128,0,258527:0:0:0:0:
42,192,258527,128,2,258707:0:0:0:0:
298,192,258527,1,0,0:0:0:0:
213,192,258707,1,8,0:0:0:0:
384,192,258707,128,0,258887:0:0:0:0:
469,192,258707,1,0,0:0:0:0:
298,192,258797,1,0,0:0:0:0:
42,192,258887,1,2,0:0:0:0:
128,192,258887,128,0,259066:0:0:0:0:
469,192,258977,1,0,0:0:0:0:
213,192,259066,128,2,259426:0:0:0:0:
298,192,259066,128,4,259246:0:0:0:0:
469,192,259246,128,0,259426:0:0:0:0:
42,192,259426,1,8,0:0:0:0:
384,192,259426,128,0,259605:0:0:0:0:
128,192,259515,1,0,0:0:0:0:
213,192,259605,1,0,0:0:0:0:
298,192,259605,128,0,259785:0:0:0:0:
128,192,259695,1,0,0:0:0:0:
42,192,259785,128,0,259965:0:0:0:0:
384,192,259785,1,0,0:0:0:0:
128,192,259965,128,2,260144:0:0:0:0:
469,192,259965,1,0,0:0:0:0:
213,192,260144,128,8,260324:0:0:0:0:
298,192,260144,1,0,0:0:0:0:
469,192,260144,1,0,0:0:0:0:
384,192,260234,1,0,0:0:0:0:
42,192,260324,1,0,0:0:0:0:
298,192,260324,128,0,260504:0:0:0:0:
128,192,260414,1,0,0:0:0:0:
213,192,260504,128,0,260683:0:0:0:0:
42,192,260683,1,2,0:0:0:0:
384,192,260683,128,0,260863:0:0:0:0:
128,192,260863,1,8,0:0:0:0:
469,192,260863,128,0,261042:0:0:0:0:
213,192,260953,1,0,0:0:0:0:
42,192,261042,1,0,0:0:0:0:
298,192,261042,128,0,261222:0:0:0:0:
128,192,261132,1,0,0:0:0:0:
213,192,261222,128,0,261402:0:0:0:0:
469,192,261222,1,0,0:0:0:0:
42,192,261402,128,2,261581:0:0:0:0:
384,192,261402,1,0,0:0:0:0:
128,192,261581,128,8,261761:0:0:0:0:
469,192,261581,1,0,0:0:0:0:
384,192,261671,1,0,0:0:0:0:
42,192,261761,1,0,0:0:0:0:
298,192,261761,128,0,261941:0:0:0:0:
128,192,261851,1,0,0:0:0:0:
213,192,261941,1,2,0:0:0:0:
469,192,261941,128,0,262120:0:0:0:0:
42,192,262120,128,0,262300:0:0:0:0:
384,192,262120,1,0,0:0:0:0:
128,192,262300,128,8,262480:0:0:0:0:
469,192,262300,1,0,0:0:0:0:
298,192,262390,1,0,0:0:0:0:
213,192,262480,1,0,0:0:0:0:
469,192,262480,128,0,262659:0:0:0:0:
384,192,262569,1,0,0:0:0:0:
42,192,262659,1,0,0:0:0:0:
213,192,262659,128,0,262839:0:0:0:0:
128,192,262839,1,2,0:0:0:0:
298,192,262839,128,0,263018:0:0:0:0:
42,192,263018,1,8,0:0:0:0:
384,192,263018,128,0,263198:0:0:0:0:
213,192,263108,1,0,0:0:0:0:
128,192,263198,1,0,0:0:0:0:
298,192,263198,128,0,263378:0:0:0:0:
384,192,263288,1,0,0:0:0:0:
42,192,263378,1,0,0:0:0:0:
213,192,263378,128,0,263557:0:0:0:0:
469,192,263378,1,0,0:0:0:0:
128,192,263557,128,2,263737:0:0:0:0:
384,192,263557,1,0,0:0:0:0:
42,192,263737,1,8,0:0:0:0:
298,192,263737,128,0,263917:0:0:0:0:
469,192,263737,1,0,0:0:0:0:
42,192,263917,128,0,264096:0:0:0:0:
384,192,264096,128,0,264276:0:0:0:0:
128,192,264276,128,2,264456:0:0:0:0:
213,192,264276,1,0,0:0:0:0:
298,192,264456,1,8,0:0:0:0:
384,192,264456,1,0,0:0:0:0:
469,192,264456,128,0,264635:0:0:0:0:
42,192,264635,1,2,0:0:0:0:
213,192,264635,128,0,264815:0:0:0:0:
128,192,264815,1,2,0:0:0:0:
384,192,264815,128,0,264995:0:0:0:0:
128,192,264995,128,0,265174:0:0:0:0:
213,192,265174,1,8,0:0:0:0:
298,192,265174,128,0,265354:0:0:0:0:
469,192,265174,1,0,0:0:0:0:
42,192,265354,128,0,265533:0:0:0:0:
469,192,265533,128,0,265713:0:0:0:0:
42,192,265713,1,2,0:0:0:0:
298,192,265713,128,0,265893:0:0:0:0:
128,192,265893,128,8,266072:0:0:0:0:
213,192,265893,1,0,0:0:0:30:S1.wav
469,192,265893,1,0,0:0:0:0:
384,192,266072,128,0,266252:0:0:0:0:
42,192,266252,1,0,0:0:0:20:S1.wav
298,192,266252,1,0,0:0:0:0:
128,192,266342,1,0,0:0:0:20:S1.wav
213,192,266432,1,2,0:0:0:0:
469,192,266432,1,0,0:0:0:20:S1.wav
384,192,266521,1,0,0:0:0:20:S1.wav
42,192,266611,1,8,0:0:0:0:
298,192,266611,1,0,0:0:0:20:S1.wav
469,192,266701,1,0,0:0:0:20:S1.wav
213,192,266791,1,0,0:0:0:20:S1.wav
128,192,266881,1,0,0:0:0:20:S1.wav
42,192,266971,1,0,0:0:0:20:S1.wav
213,192,267060,1,0,0:0:0:20:S1.wav
128,192,267150,1,2,0:0:0:0:
384,192,267150,1,0,0:0:0:20:S1.wav
298,192,267240,1,0,0:0:0:20:S1.wav
213,192,267330,1,8,0:0:0:0:
469,192,267330,1,0,0:0:0:20:S1.wav
42,192,267420,1,0,0:0:0:20:S1.wav
298,192,267509,1,0,0:0:0:20:S1.wav
213,192,267599,1,0,0:0:0:20:S1.wav
42,192,267689,1,2,0:0:0:0:
128,192,267689,1,0,0:0:0:10:S1.wav
298,192,267779,1,0,0:0:0:10:S1.wav
213,192,267869,1,0,0:0:0:10:S1.wav
128,192,267959,1,0,0:0:0:10:S1.wav
298,192,268048,1,8,0:0:0:0:
469,192,268048,1,0,0:0:0:10:S1.wav
213,192,268138,1,0,0:0:0:10:S1.wav
128,192,268228,1,0,0:0:0:10:S1.wav
298,192,268318,1,0,0:0:0:10:S1.wav
384,192,268408,1,0,0:0:0:10:S1.wav
213,192,268498,1,0,0:0:0:10:S1.wav
128,192,268587,1,2,0:0:0:0:
298,192,268587,1,0,0:0:0:10:S1.wav
384,192,268677,1,0,0:0:0:10:S1.wav
42,192,268767,1,8,0:0:0:0:
213,192,268767,1,0,0:0:0:10:S1.wav
298,192,268857,1,0,0:0:0:10:S1.wav
384,192,268947,1,0,0:0:0:10:S1.wav
128,192,269036,1,0,0:0:0:10:S1.wav
213,192,269126,1,0,0:0:0:5:S1.wav
298,192,269216,1,0,0:0:0:5:S1.wav
128,192,269306,1,2,0:0:0:0:
384,192,269306,1,0,0:0:0:5:S1.wav
213,192,269396,1,0,0:0:0:5:S1.wav
42,192,269486,1,8,0:0:0:0:
469,192,269486,1,0,0:0:0:5:S1.wav
128,192,269575,1,0,0:0:0:5:S1.wav
384,192,269665,1,0,0:0:0:5:S1.wav
298,192,269755,1,0,0:0:0:5:S1.wav
128,192,269845,1,0,0:0:0:5:S1.wav
213,192,269935,1,0,0:0:0:5:S1.wav
42,192,270024,1,2,0:0:0:0:
298,192,270024,1,0,0:0:0:5:S1.wav
128,192,270114,1,0,0:0:0:5:S1.wav
384,192,270204,1,8,0:0:0:0:
469,192,270204,1,0,0:0:0:5:S1.wav
213,192,270294,1,0,0:0:0:5:S1.wav
42,192,270384,128,2,270563:0:0:0:0:
298,192,270384,128,0,270563:0:0:0:5:S1.wav
469,192,270384,128,0,270563:0:0:0:0:
