osu file format v14

[General]
AudioFilename: FELT - Lies in Reality.mp3
AudioLeadIn: 0
PreviewTime: 159808
Countdown: 0
SampleSet: Soft
StackLeniency: 0.7
Mode: 0
LetterboxInBreaks: 1
WidescreenStoryboard: 0

[Editor]
DistanceSpacing: 0.7
BeatDivisor: 4
GridSize: 8
TimelineZoom: 2.4

[Metadata]
Title:Lies in Reality
TitleUnicode:Lies in Reality
Artist:FELT
ArtistUnicode:FELT
Creator:captin1
Version:Deception
Source:東方Project
Tags:Vivienne Renko Maurits 禅 Cornelis W.nova Abyss nova c84 大神神話伝 Legend of the Great Gods 東方神霊廟 Ten Desires stage 5 Mononobe no Futo th13 Touhou ZUN azer
BeatmapID:894409
BeatmapSetID:412270

[Difficulty]
HPDrainRate:7
CircleSize:4.2
OverallDifficulty:9
ApproachRate:9.3
SliderMultiplier:1.8
SliderTickRate:2

[Events]
//Background and Video events
0,0,"lies+bg.png",0,0
//Break Periods
2,81920,88665
2,183978,193665
2,240595,249252
//Storyboard Layer 0 (Background)
//Storyboard Layer 1 (Fail)
//Storyboard Layer 2 (Pass)
//Storyboard Layer 3 (Foreground)
//Storyboard Sound Samples

[TimingPoints]
20693,294.117647058824,4,2,1,60,1,0
23045,-100,4,2,2,60,0,0
23193,-100,4,2,1,60,0,0
25398,-100,4,2,2,60,0,0
25545,-100,4,2,1,60,0,0
27751,-100,4,2,2,60,0,0
27898,-100,4,2,1,60,0,0
32457,-100,4,2,2,60,0,0
32604,-100,4,2,1,60,0,0
34810,-100,4,2,2,60,0,0
34957,-100,4,2,1,60,0,0
37163,-100,4,2,2,60,0,0
37310,-100,4,2,1,60,0,0
39369,-133.333333333333,4,2,1,60,0,0
44222,294.117647058824,5,2,1,60,1,0
44295,-100,5,2,1,30,0,0
44369,-100,5,2,1,50,0,0
44442,-100,5,2,1,30,0,0
44516,-100,5,2,1,50,0,0
44663,-100,5,2,1,70,0,0
45472,-100,5,2,1,40,0,0
46133,-100,5,2,1,70,0,0
46427,-100,5,2,1,50,0,0
47163,-100,5,2,1,70,0,0
47236,-100,5,2,1,50,0,0
47604,-100,5,2,1,70,0,0
47751,-100,5,2,1,50,0,0
48633,-100,5,2,1,70,0,0
48707,-100,5,2,1,50,0,0
49074,-100,5,2,1,70,0,0
49810,-100,5,2,1,50,0,0
50104,-100,5,2,1,70,0,0
50177,-100,5,2,1,50,0,0
50545,-100,5,2,1,70,0,0
51354,-100,5,2,1,50,0,0
51574,-100,5,2,1,70,0,0
51648,-100,5,2,1,50,0,0
52016,-100,5,2,1,70,0,0
52604,-100,5,2,1,50,0,0
53045,-100,5,2,1,70,0,0
53119,-100,5,2,1,50,0,0
53486,-100,5,2,1,70,0,0
54074,-100,5,2,1,50,0,0
54516,-100,5,2,1,70,0,0
54589,-100,5,2,1,50,0,0
54957,-100,5,2,1,70,0,0
78045,294.117647058824,6,2,1,60,1,0
79809,294.117647058824,7,2,1,60,1,0
81867,294.117647058824,7,2,1,60,1,0
90102,-133.333333333333,7,2,1,60,0,0
98337,-166.666666666667,7,2,1,50,0,0
114808,-111.111111111111,7,2,1,60,0,0
123043,-166.666666666666,7,2,1,50,0,0
138631,-111.111111111111,7,2,1,60,0,0
147749,-142.857142857143,7,2,1,60,0,0
153484,-142.857142857143,7,2,3,60,0,0
153631,-142.857142857143,7,2,1,60,0,0
155396,-142.857142857143,7,2,4,60,0,0
155543,-142.857142857143,7,2,1,60,0,0
155984,-111.111111111111,7,2,1,60,0,0
157308,-111.111111111111,7,2,3,60,0,0
157455,-111.111111111111,7,2,1,60,0,0
158044,294.117647058824,4,2,1,60,1,0
159073,-166.666666666667,4,2,1,60,0,0
159808,-100,4,2,1,60,0,0
160396,294.117647058824,4,2,1,60,1,1
160397,-100,4,2,1,60,0,1
162748,-100,4,2,2,60,0,1
162896,-100,4,2,1,60,0,1
165101,-100,4,2,2,60,0,1
165248,-100,4,2,1,60,0,1
167454,-100,4,2,2,60,0,1
167601,-100,4,2,1,60,0,1
169807,-100,4,2,2,60,0,1
169954,-100,4,2,1,60,0,1
172160,-100,4,2,2,60,0,1
172307,-100,4,2,1,60,0,1
174513,-100,4,2,2,60,0,1
174660,-100,4,2,1,60,0,1
175690,-100,4,2,2,60,0,1
175837,-100,4,2,1,60,0,1
176866,-100,4,2,2,60,0,1
177013,-100,4,2,1,60,0,1
179072,-111.111111111111,4,2,1,60,0,1
183778,-111.111111111111,4,2,1,60,0,0
183925,294.117647058824,5,2,1,60,1,0
194219,-125,5,2,1,50,0,0
195689,-125,5,2,1,60,0,0
207454,294.117647058824,7,2,1,50,1,0
207454,-111.111111111111,7,2,1,50,0,0
216424,-111.111111111111,7,2,4,50,0,0
216571,-111.111111111111,7,2,1,50,0,0
222748,-111.111111111111,7,2,4,50,0,0
222821,-111.111111111111,7,2,1,20,0,0
222895,-111.111111111111,7,2,1,50,0,0
240395,294.117647058824,4,2,1,60,1,0
249806,-125,4,2,1,60,0,0
252895,-125,4,2,1,40,0,0
253189,-125,4,2,1,60,0,0
259218,-100,4,2,1,60,0,1
265100,-100,4,2,5,60,0,1
265247,-100,4,2,1,60,0,1
274512,-100,4,2,2,60,0,1
274659,-100,4,2,1,60,0,1
282600,-100,4,2,1,60,0,0
282747,294.117647058824,7,2,1,60,1,0
282747,-125,7,2,1,60,0,0
288923,294.117647058824,4,2,1,60,1,0
288923,-125,4,2,1,60,0,0
290099,294.117647058824,3,2,1,60,1,0
292746,294.117647058824,7,2,1,60,1,0
292746,-142.857142857143,7,2,1,60,0,0
300981,-111.111111111111,7,2,1,60,0,0
302157,-111.111111111111,7,2,4,60,0,0
302304,-111.111111111111,7,2,1,60,0,0
303040,294.117647058824,4,2,1,60,1,0
307745,-100,4,2,1,60,0,1
310098,-100,4,2,2,60,0,1
310245,-100,4,2,1,60,0,1
312451,-100,4,2,2,60,0,1
312598,-100,4,2,1,60,0,1
313628,-100,4,2,5,60,0,1
313775,-100,4,2,1,60,0,1
314804,-100,4,2,2,60,0,1
314951,-100,4,2,1,60,0,1
317157,-100,4,2,2,60,0,1
317304,-100,4,2,1,60,0,1
319510,-100,4,2,2,60,0,1
319657,-100,4,2,1,60,0,1
321863,-100,4,2,2,60,0,1
322010,-100,4,2,1,60,0,1
323040,-100,4,2,5,60,0,1
323187,-100,4,2,1,60,0,1
324216,-100,4,2,2,60,0,1
324363,-100,4,2,1,60,0,1
326422,-100,4,2,1,60,0,0
326863,-100,4,2,1,60,0,1
328922,-100,4,2,2,60,0,1
329069,-100,4,2,1,60,0,1
331275,-100,4,2,2,60,0,1
331422,-100,4,2,1,60,0,1
332451,-100,4,2,5,60,0,1
332598,-100,4,2,1,60,0,1
333628,-100,4,2,2,60,0,1
333775,-100,4,2,1,60,0,1
335834,-166.666666666667,4,2,1,60,0,1
345245,-100,4,2,1,60,0,1
348922,-100,4,2,1,60,0,0
349657,-100,4,2,1,40,0,0
349951,-100,4,2,1,60,0,1
350025,-100,4,2,1,60,0,0
352451,-100,4,2,2,60,0,0
352598,-100,4,2,1,60,0,0
354804,-100,4,2,2,60,0,0
354951,-100,4,2,1,60,0,0
357157,-100,4,2,2,60,0,0
357304,-100,4,2,1,60,0,0
359363,-133.333333333333,4,2,1,60,0,0
359510,-133.333333333333,4,2,2,60,0,0
359657,-133.333333333333,4,2,1,60,0,0
359731,-100,4,2,1,60,0,0
361863,-100,4,2,2,60,0,0
362010,-100,4,2,1,60,0,0
364216,-100,4,2,2,60,0,0
364363,-100,4,2,1,60,0,0
366569,-100,4,2,2,60,0,0
366716,-100,4,2,1,60,0,0
368775,-125,4,2,1,60,0,0
368922,294.117647058824,6,2,1,60,1,0
368922,-125,6,2,1,60,0,0
370686,294.117647058824,5,2,1,60,1,0
370686,-125,5,2,1,60,0,0
373627,294.117647058824,5,2,1,60,1,0
373700,-100,5,2,1,40,0,0
374068,-100,5,2,1,60,0,0
374215,-100,5,2,1,40,0,0
374509,-100,5,2,1,60,0,0
374656,-100,5,2,1,40,0,0
374803,-100,5,2,1,60,0,0
374877,-100,5,2,1,40,0,0
375097,-100,5,2,1,60,0,0
375171,-100,5,2,1,40,0,0
375538,-100,5,2,1,60,0,0
375685,-100,5,2,1,40,0,0
375979,-100,5,2,1,60,0,0
376127,-100,5,2,1,40,0,0
376274,-100,5,2,1,60,0,0
376347,-100,5,2,1,40,0,0
376568,-100,5,2,1,60,0,0
376641,-100,5,2,1,40,0,0
377009,-100,5,2,1,60,0,0
377156,-100,5,2,1,40,0,0
377450,-100,5,2,1,60,0,0
377597,-100,5,2,1,40,0,0
377744,-100,5,2,1,60,0,0
377818,-100,5,2,1,40,0,0
378038,-100,5,2,1,60,0,0
378112,-100,5,2,1,40,0,0
378479,-100,5,2,1,60,0,0
378627,-100,5,2,1,40,0,0
378921,-100,5,2,1,60,0,0
379068,-100,5,2,1,40,0,0
379215,-100,5,2,1,60,0,0

[Colours]
Combo1 : 0,0,255
Combo2 : 0,255,0
Combo3 : 0,255,255
Combo4 : 192,192,192

[HitObjects]
52,193,19221,5,4,1:0:0:0:
224,257,19369,1,4,1:0:0:0:
224,257,19442,1,0,1:0:0:0:
224,257,19516,2,0,P|177:285|123:302,1,90,8|0,0:1|1:0,3:0:0:0:
254,117,19810,2,0,P|295:133|334:157,1,90,8|0,1:0|1:0,0:0:0:0:
320,352,20104,1,4,3:0:0:0:
254,224,20251,1,2,3:0:0:0:
455,314,20398,1,8,3:0:0:0:
218,321,20545,6,0,B|119:286|135:343|41:321,1,180,4|0,1:0|1:0,0:0:0:0:
71,126,20987,2,0,L|81:232,1,90,10|0,0:1|0:0,0:0:0:0:
213,351,21281,1,2,1:0:0:0:
240,182,21428,1,2,1:2:0:0:
409,273,21575,2,0,P|360:271|313:260,1,90,10|0,0:1|0:0,0:0:0:0:
207,90,21869,5,2,1:0:0:0:
240,270,22016,1,0,1:0:0:0:
240,270,22090,1,0,1:0:0:0:
240,270,22163,2,0,L|224:362,1,90,10|0,0:1|0:0,0:0:0:0:
487,284,22457,1,2,1:0:0:0:
486,261,22531,1,0,1:0:0:0:
480,240,22604,1,0,1:0:0:0:
468,221,22677,1,0,1:0:0:0:
451,206,22751,1,10,0:1:0:0:
330,173,22898,6,0,B|324:294|324:294|357:359,1,180,2|0,1:2|1:0,0:0:0:0:
229,215,23340,2,0,P|212:167|201:111,1,90,10|0,0:1|0:0,0:0:0:0:
405,133,23634,1,2,1:0:0:0:
207,90,23781,1,2,1:2:0:0:
134,200,23928,2,0,B|126:244|126:244|149:299,1,90,10|0,0:1|0:0,0:0:0:0:
272,227,24222,5,2,1:0:0:0:
123,108,24369,1,0,1:0:0:0:
123,108,24443,1,0,1:0:0:0:
123,108,24516,2,0,L|20:116,1,90,10|0,0:1|0:0,0:0:0:0:
275,34,24810,1,2,1:0:0:0:
278,56,24884,1,0,1:0:0:0:
281,78,24957,1,0,1:0:0:0:
284,100,25031,1,0,1:0:0:0:
287,122,25104,1,10,0:1:0:0:
364,315,25251,6,0,P|442:270|482:191,1,180,2|0,1:2|1:0,0:0:0:0:
260,246,25693,2,0,L|153:232,1,90,10|0,0:1|0:0,0:0:0:0:
383,159,25987,1,2,1:0:0:0:
194,155,26134,1,2,1:2:0:0:
306,312,26281,2,0,B|332:291|332:291|339:220,1,90,10|0,0:1|0:0,0:0:0:0:
110,176,26575,6,0,L|100:78,1,90,2|0,1:0|1:0,0:0:0:0:
71,283,26869,1,10,0:1:0:0:
190,100,27016,1,0,0:0:0:0:
184,345,27163,1,2,1:0:0:0:
203,356,27237,1,0,1:0:0:0:
221,367,27310,1,0,1:0:0:0:
243,364,27384,1,0,1:0:0:0:
265,361,27457,1,10,0:1:0:0:
481,249,27604,6,0,P|424:233|317:295,1,180,2|0,1:2|1:0,0:0:0:0:
183,142,28045,2,0,P|232:155|283:184,1,90,10|0,0:1|0:0,0:0:0:0:
136,267,28340,1,2,1:0:0:0:
156,54,28487,1,2,1:2:0:0:
344,158,28634,2,0,L|323:253,1,90,10|0,0:1|0:0,0:0:0:0:
152,351,28928,6,0,B|106:349|106:349|65:317,1,90,2|0,1:0|1:0,0:0:0:0:
14,262,29148,1,0,1:0:0:0:
20,231,29222,1,10,0:1:0:0:
183,142,29369,2,0,L|173:208,1,45,0|0,1:0|1:0,0:0:0:0:
209,283,29516,1,10,1:0:0:0:
241,299,29590,1,0,1:0:0:0:
276,296,29663,1,0,1:0:0:0:
308,280,29737,1,0,1:0:0:0:
331,253,29810,1,10,0:1:0:0:
468,147,29957,6,0,B|340:139|340:139|287:173,1,180,4|0,1:0|1:0,0:0:0:0:
131,57,30398,2,0,L|229:67,1,90,10|0,0:1|0:0,0:0:0:0:
29,174,30693,1,2,1:0:0:0:
215,150,30840,1,2,1:2:0:0:
60,322,30987,2,0,P|81:277|99:216,1,90,10|0,0:1|0:0,0:0:0:0:
55,37,31281,5,2,1:0:0:0:
183,231,31428,1,0,1:0:0:0:
183,231,31501,1,0,1:0:0:0:
183,231,31575,2,0,L|278:225,1,90,10|0,0:1|0:0,0:0:0:0:
468,206,31869,2,0,L|423:199,1,45,2|0,1:0|1:0,0:0:0:0:
302,125,32016,2,0,L|347:118,1,45,0|0,1:0|1:0,1:0:0:0:
411,311,32163,1,10,0:1:0:0:
234,280,32310,6,0,L|220:100,1,180,2|0,1:2|1:0,0:0:0:0:
8,163,32751,2,0,P|64:183|102:190,1,90,10|0,0:1|0:0,0:0:0:0:
205,70,33045,1,2,1:0:0:0:
138,276,33193,1,2,1:2:0:0:
303,183,33340,2,0,L|395:195,1,90,10|0,0:1|0:0,0:0:0:0:
486,335,33634,5,2,1:0:0:0:
440,122,33781,1,0,1:0:0:0:
440,122,33854,1,0,1:0:0:0:
440,122,33928,2,0,P|426:166|417:228,1,90,10|0,0:1|0:0,0:0:0:0:
306,320,34222,1,2,1:0:0:0:
270,325,34295,1,0,1:0:0:0:
234,330,34369,1,0,1:0:0:0:
201,313,34443,1,0,1:0:0:0:
169,296,34516,1,10,0:1:0:0:
183,65,34663,6,0,B|220:106|220:106|231:237,1,180,2|0,1:2|1:0,0:0:0:0:
109,157,35104,2,0,P|63:147|11:130,1,90,10|0,0:1|0:0,0:0:0:0:
303,113,35398,2,0,P|345:99|389:90,1,90,2|2,1:0|1:2,0:0:0:0:
484,267,35693,1,10,0:1:0:0:
266,213,35840,1,0,0:0:0:0:
396,165,35987,6,0,L|403:278,1,90,2|0,1:0|1:0,0:0:0:0:
358,325,36207,1,0,1:0:0:0:
358,325,36281,1,10,0:1:0:0:
480,119,36428,1,0,0:0:0:0:
272,236,36575,1,2,1:0:0:0:
236,235,36648,1,0,1:0:0:0:
202,221,36722,1,0,1:0:0:0:
176,196,36795,1,0,1:0:0:0:
161,162,36869,1,10,0:1:0:0:
22,273,37016,6,0,B|112:277|112:277|202:338,1,180,2|0,1:2|1:0,0:0:0:0:
350,192,37457,2,0,P|303:213|261:245,1,90,10|0,0:1|0:0,0:0:0:0:
80,82,37751,2,0,P|127:103|169:135,1,90,2|2,1:0|1:2,0:0:0:0:
116,339,38045,1,10,0:1:0:0:
84,172,38193,1,0,0:0:0:0:
226,324,38340,5,2,1:0:0:0:
309,144,38487,1,0,1:0:0:0:
309,144,38560,1,0,1:0:0:0:
309,144,38634,2,0,L|297:33,1,90,10|0,0:1|0:0,0:0:0:0:
455,178,38928,1,2,1:0:0:0:
451,213,39001,1,0,1:0:0:0:
448,249,39075,1,0,1:0:0:0:
445,284,39148,1,0,1:0:0:0:
421,311,39222,1,10,0:1:0:0:
306,241,39369,6,0,L|171:258,1,135.000005149842,4|2,1:0|0:0,0:0:0:0:
70,232,39810,2,0,P|58:279|51:311,1,67.5000025749208,0|2,1:0|0:0,0:0:0:0:
236,297,40104,2,0,P|248:344|255:376,1,67.5000025749208,0|2,1:0|0:0,0:0:0:0:
394,228,40398,2,0,P|401:195|410:162,1,67.5000025749208,0|0,1:0|0:0,0:0:0:0:
230,167,40693,6,0,L|254:190|278:213,1,67.5000025749208,0|2,1:0|0:0,0:0:0:0:
364,56,40987,2,0,P|331:65|299:74,1,67.5000025749208,0|2,1:0|0:0,0:0:0:0:
130,148,41281,2,0,P|85:133|54:119,1,67.5000025749208,0|2,1:0|0:0,0:0:0:0:
32,298,41575,2,0,P|63:285|95:275,1,67.5000025749208,0|2,1:0|0:0,0:0:0:0:
232,315,41869,6,0,P|217:360|203:391,1,67.5000025749208,0|2,1:0|0:0,0:0:0:0:
383,305,42163,2,0,P|370:273|360:241,1,67.5000025749208,0|2,1:0|0:0,0:0:0:0:
453,55,42457,2,0,P|438:100|424:131,1,67.5000025749208,0|2,1:0|0:0,0:0:0:0:
258,203,42751,2,0,P|226:215|194:225,1,67.5000025749208,0|0,1:0|0:0,0:0:0:0:
124,67,43045,6,0,P|155:54|187:44,1,67.5000025749208,2|2,1:2|0:0,0:0:0:0:
93,210,43340,2,0,P|80:178|70:146,1,67.5000025749208,2|2,1:2|0:0,0:0:0:0:
289,66,43634,2,0,P|301:97|311:129,1,67.5000025749208,0|2,1:0|0:0,0:0:0:0:
236,245,43928,2,0,L|246:372,1,101.250003862381,8|0,0:1|2:0,0:0:0:0:
264,365,44222,6,0,L|201:349,1,45,2|8,1:2|0:0,0:0:0:0:
153,297,44369,2,0,L|90:313,1,45,8|8,0:0|0:0,0:0:0:0:
37,364,44516,1,0,1:0:0:0:
37,364,44589,1,8,0:0:0:0:
37,364,44663,2,0,L|25:257,1,90,10|0,0:0|0:0,0:0:0:0:
115,110,44957,1,8,0:0:0:0:
115,110,45030,1,8,0:0:0:0:
115,110,45104,2,0,L|103:217,1,90,8|0,0:3|0:0,0:0:0:0:
234,210,45398,1,10,0:0:0:0:
265,228,45472,1,8,0:0:0:0:
300,229,45545,1,8,0:0:0:0:
334,219,45619,1,8,0:0:0:0:
358,193,45692,6,0,L|366:135,1,45,10|8,1:2|0:0,0:0:0:0:
317,29,45839,2,0,L|325:87,1,45,8|8,0:0|0:0,0:0:0:0:
455,149,45986,1,0,1:0:0:0:
455,149,46060,1,8,0:0:0:0:
455,149,46133,2,0,L|466:245,1,90,10|0,0:0|0:0,0:0:0:0:
296,269,46427,1,8,0:0:0:0:
296,269,46501,1,8,0:0:0:0:
296,269,46574,2,0,L|285:365,1,90,8|0,1:2|0:0,0:0:0:0:
155,235,46869,1,10,0:0:0:0:
150,199,46942,1,8,0:0:0:0:
146,162,47016,1,8,0:0:0:0:
142,126,47089,1,8,0:0:0:0:
116,100,47163,6,0,L|105:165,1,45,10|8,1:2|0:0,0:0:0:0:
83,293,47310,2,0,L|70:230,1,45,8|8,0:0|0:0,0:0:0:0:
228,150,47457,1,8,0:0:0:0:
228,150,47530,1,8,0:0:0:0:
228,150,47604,2,0,P|279:136|332:131,1,90,10|0,0:0|0:0,0:0:0:0:
478,309,47898,1,8,0:0:0:0:
478,309,47971,1,8,0:0:0:0:
478,309,48045,2,0,P|427:323|374:328,1,90,10|0,1:2|0:0,0:0:0:0:
296,269,48339,1,10,0:0:0:0:
261,278,48413,1,8,0:0:0:0:
226,287,48486,1,8,0:0:0:0:
191,275,48560,1,8,0:0:0:0:
157,263,48633,6,0,L|91:277,1,45,10|8,1:2|0:0,0:0:0:0:
34,166,48780,2,8,L|100:180,1,45
160,100,48927,1,8,0:0:0:0:
160,100,49001,1,8,0:0:0:0:
160,100,49074,2,0,P|182:63|197:7,1,90,10|0,0:0|0:0,0:0:0:0:
340,166,49369,1,8,0:0:0:0:
340,166,49443,1,8,0:0:0:0:
340,166,49516,2,0,P|362:202|377:259,1,90,10|0,1:2|0:0,0:0:0:0:
198,357,49810,5,10,0:0:0:0:
159,334,49883,1,8,0:0:0:0:
145,290,49957,1,8,0:0:0:0:
156,246,50030,1,8,0:0:0:0:
190,216,50104,6,8,L|254:224,1,45,10|8,1:2|0:0,0:0:0:0:
299,323,50251,2,8,L|363:315,1,45
441,244,50398,1,8,0:0:0:0:
441,244,50472,1,8,0:0:0:0:
441,244,50545,2,0,L|451:127,1,90,10|0,0:0|0:0,0:0:0:0:
305,24,50839,1,8,0:0:0:0:
305,24,50913,1,8,0:0:0:0:
305,24,50986,2,0,L|315:141,1,90,10|0,1:2|0:0,0:0:0:0:
221,235,51280,1,10,0:0:0:0:
190,216,51354,1,8,0:0:0:0:
154,211,51427,1,8,0:0:0:0:
118,217,51501,1,8,0:0:0:0:
87,235,51574,6,8,L|92:282,1,45,10|8,1:2|0:0,0:0:0:0:
6,156,51722,2,8,L|11:109,1,45
96,39,51869,1,8,0:0:0:0:
96,39,51942,1,8,0:0:0:0:
96,39,52016,2,0,L|209:46,1,90,10|0,0:0|0:0,0:0:0:0:
318,218,52310,1,8,0:0:0:0:
318,218,52383,1,8,0:0:0:0:
318,218,52457,2,10,L|431:211,1,90,10|2,1:2|0:0,1:2:0:0:
442,16,52751,1,10,0:0:0:0:
407,25,52824,1,8,0:0:0:0:
379,48,52898,1,10,0:0:0:0:
361,79,52972,1,8,0:0:0:0:
356,114,53045,6,8,L|362:163,1,45,10|8,1:2|0:0,0:0:0:0:
241,298,53192,2,8,L|246:253,1,45
182,98,53339,1,8,0:0:0:0:
182,98,53413,1,8,0:0:0:0:
182,98,53486,2,0,P|172:47|168:5,1,90,10|0,0:0|0:0,0:0:0:0:
343,200,53780,1,8,0:0:0:0:
343,200,53854,1,8,0:0:0:0:
343,200,53927,2,0,P|352:250|357:293,1,90,10|0,1:2|0:0,0:0:0:0:
174,369,54222,1,10,0:0:0:0:
159,341,54295,1,8,0:0:0:0:
156,309,54369,1,8,0:0:0:0:
166,279,54442,1,8,0:0:0:0:
187,256,54516,6,8,L|261:261,1,45,10|8,1:2|0:0,0:0:0:0:
403,329,54663,2,8,L|329:334,1,45
242,172,54810,1,8,1:2:0:0:
242,172,54883,1,8,0:0:0:0:
242,172,54957,2,0,P|260:115|266:71,1,90,10|0,0:0|0:0,0:0:0:0:
94,221,55251,1,8,0:0:0:0:
94,221,55324,1,8,0:0:0:0:
94,221,55398,1,8,0:1:0:0:
262,280,55545,1,8,0:1:0:0:
177,110,55692,1,0,1:0:0:0:
191,325,55839,1,8,0:0:0:0:
347,191,55986,5,4,1:0:0:0:
488,255,56133,2,0,L|332:273,1,135,0|0,1:0|2:0,0:0:0:0:
331,297,56427,1,0,1:0:0:0:
399,116,56574,1,8,0:1:0:0:
266,210,56722,2,0,L|159:197,1,90,0|2,1:0|2:0,0:0:0:0:
19,300,57016,2,0,L|126:287,1,90,0|0,1:0|2:0,0:0:0:0:
236,118,57310,1,0,1:0:0:0:
236,118,57383,1,0,1:0:0:0:
236,118,57457,1,0,1:0:0:0:
359,200,57604,6,0,P|357:250|347:311,1,90,0|2,1:0|2:0,0:0:0:0:
470,159,57898,1,0,1:0:0:0:
333,70,58045,1,8,0:1:0:0:
279,256,58192,1,2,0:0:0:0:
389,128,58339,1,0,0:0:0:0:
283,181,58486,1,2,1:2:0:0:
366,302,58633,1,8,0:1:0:0:
413,51,58780,1,2,1:2:0:0:
196,184,58927,5,4,1:0:0:0:
263,12,59074,2,0,B|297:65|297:65|282:190,1,180,0|0,1:0|1:0,0:0:0:0:
122,358,59516,2,0,P|112:301|112:260,1,90,8|0,0:1|1:0,0:0:0:0:
51,75,59810,1,0,2:0:0:0:
51,75,59957,2,0,P|105:94|140:115,1,90,2|0,1:2|0:0,0:0:0:0:
207,305,60251,1,0,1:0:0:0:
207,305,60324,1,0,1:0:0:0:
207,305,60398,1,0,1:0:0:0:
397,209,60545,6,0,L|287:219,1,90,0|2,1:0|2:0,0:0:0:0:
423,123,60839,1,0,1:0:0:0:
285,289,60986,1,8,0:1:0:0:
342,122,61133,2,0,L|328:17,1,90,0|2,1:0|2:0,0:0:0:0:
367,255,61427,1,0,1:0:0:0:
218,38,61574,1,8,0:1:0:0:
257,286,61722,1,8,0:1:0:0:
108,69,61869,5,4,1:0:0:0:
187,148,62016,2,0,L|171:311,1,135,0|0,1:0|2:0,0:0:0:0:
147,317,62310,1,0,1:0:0:0:
290,232,62457,1,8,0:1:0:0:
97,200,62604,2,0,P|49:212|9:226,1,90,0|2,1:0|2:0,0:0:0:0:
216,93,62898,2,0,P|173:78|129:67,1,90,0|2,1:0|2:0,0:0:0:0:
245,316,63192,1,0,1:0:0:0:
245,316,63266,1,0,1:0:0:0:
245,316,63339,1,2,1:2:0:0:
374,226,63486,6,0,L|381:127,1,90,0|2,1:0|1:2,0:0:0:0:
298,73,63780,1,0,1:0:0:0:
455,269,63927,1,8,0:1:0:0:
289,175,64074,1,0,1:0:0:0:
453,78,64222,1,2,0:0:0:0:
377,319,64369,1,0,1:0:0:0:
206,132,64516,1,2,1:2:0:0:
455,269,64663,1,8,0:1:0:0:
320,63,64810,5,4,1:0:0:0:
387,226,64957,1,8,1:2:0:0:
304,105,65104,1,8,1:2:0:0:
371,268,65251,1,8,1:2:0:0:
371,268,65545,5,0,1:2:0:0:
191,225,65692,1,10,1:2:0:0:
341,285,65839,1,8,1:2:0:0:
161,242,65986,1,8,1:2:0:0:
380,173,66133,5,0,1:2:0:0:
380,173,66207,1,0,1:2:0:0:
380,173,66280,1,10,1:2:0:0:
214,77,66427,1,8,1:2:0:0:
303,241,66574,1,8,1:2:0:0:
298,17,66722,1,8,1:2:0:0:
380,173,67016,5,8,0:0:0:0:
214,77,67163,1,10,0:0:0:0:
303,241,67310,1,8,0:0:0:0:
298,17,67458,1,10,0:0:0:0:
380,173,67751,5,4,1:0:0:0:
204,107,67898,2,0,P|156:93|114:74,1,90,2|0,1:3|1:0,0:0:0:0:
392,150,68192,1,8,1:3:0:0:
231,185,68339,2,0,P|183:200|137:207,1,90,2|0,1:2|1:0,1:0:0:0:
329,37,68633,1,8,3:1:0:0:
326,270,68780,1,0,1:0:0:0:
326,270,68854,1,0,1:0:0:0:
326,270,68927,1,8,3:1:0:0:
408,180,69074,1,0,1:0:0:0:
255,42,69222,5,2,1:2:0:0:
414,210,69369,2,0,P|475:211|511:205,1,90,2|0,1:3|1:0,1:0:0:0:
289,42,69663,1,8,1:3:0:0:
326,270,69810,2,0,P|376:304|409:320,1,90,2|0,1:2|1:0,1:0:0:0:
321,32,70104,1,8,3:1:0:0:
146,82,70251,1,0,1:0:0:0:
146,82,70324,1,0,1:0:0:0:
146,82,70398,1,8,3:1:0:0:
283,106,70545,1,0,1:0:0:0:
86,185,70692,6,0,P|40:170|-6:146,1,90,4|2,1:0|1:3,1:0:0:0:
169,115,70986,1,0,1:0:0:0:
245,329,71133,2,0,P|291:314|337:290,1,90,8|2,1:3|1:2,1:0:0:0:
162,259,71427,1,0,1:0:0:0:
382,347,71574,1,8,3:1:0:0:
309,196,71722,1,0,1:0:0:0:
309,196,71795,1,0,1:0:0:0:
309,196,71869,1,8,3:1:0:0:
245,351,72016,1,0,1:0:0:0:
408,215,72163,6,0,P|463:222|504:231,1,90,2|2,1:2|1:3,1:0:0:0:
294,279,72457,1,0,1:0:0:0:
356,53,72604,2,0,P|370:117|373:164,1,90,8|2,1:3|1:2,1:0:0:0:
265,297,72898,1,0,1:0:0:0:
164,198,73045,1,8,3:1:0:0:
342,237,73192,1,0,1:0:0:0:
342,237,73266,1,0,1:0:0:0:
342,237,73339,1,8,3:1:0:0:
146,276,73486,1,8,1:1:0:0:
283,111,73633,5,4,1:0:0:0:
208,332,73780,2,0,P|135:355|94:356,1,90,2|0,1:3|1:0,1:0:0:0:
308,125,74074,1,8,1:3:0:0:
312,355,74222,2,0,P|329:309|340:260,1,90,2|0,1:2|1:0,1:0:0:0:
337,54,74516,1,8,3:1:0:0:
410,246,74663,1,0,1:0:0:0:
410,246,74736,1,0,1:0:0:0:
410,246,74810,1,8,3:1:0:0:
274,166,74957,1,0,0:0:0:0:
382,343,75104,5,2,1:2:0:0:
169,284,75251,2,0,P|220:265|268:256,1,90,2|0,1:3|1:0,1:0:0:0:
340,357,75545,1,8,1:3:0:0:
242,109,75692,2,0,P|273:152|296:205,1,90,2|0,1:2|1:0,1:0:0:0:
191,364,75986,1,10,3:1:0:0:
209,103,76133,1,0,1:0:0:0:
209,103,76207,1,0,1:0:0:0:
209,103,76280,1,10,3:1:0:0:
126,294,76427,1,0,0:0:0:0:
334,232,76574,6,0,P|278:212|245:206,1,90,12|2,1:0|1:3,1:0:0:0:
329,349,76869,1,0,1:0:0:0:
390,149,77016,2,0,P|358:90|339:65,1,90,8|2,1:3|1:2,1:0:0:0:
362,336,77310,1,0,1:0:0:0:
285,155,77457,1,12,0:1:0:0:
422,227,77604,1,0,1:0:0:0:
238,322,77751,1,12,0:1:0:0:
229,84,77898,1,0,1:0:0:0:
229,84,77972,1,0,1:0:0:0:
229,84,78045,6,0,B|167:72|167:72|131:102|131:102|115:144|140:181,1,180,12|0,0:1|2:0,0:0:0:0:
379,222,78486,6,0,B|391:160|391:160|360:124|360:124|319:108|282:133,1,180,4|0,1:0|2:0,0:0:0:0:
217,349,78927,6,0,B|279:361|279:361|314:330|314:330|331:289|306:252,1,180,4|0,1:0|2:0,0:0:0:0:
71,205,79368,6,0,B|59:267|59:267|89:302|89:302|131:319|168:294,1,180,4|0,1:0|0:0,0:0:0:0:
256,192,79809,12,4,81720,1:0:0:0:
253,221,89219,5,8,0:0:0:0:
288,122,89367,1,0,1:0:0:0:
323,295,89514,1,8,0:0:0:0:
155,238,89661,1,0,1:0:0:0:
155,238,89734,1,0,1:0:0:0:
155,238,89808,2,0,L|58:248,1,90,2|8,0:3|0:3,0:0:0:0:
176,86,90102,6,0,P|190:126|197:162,1,67.5000025749208,4|0,1:0|2:0,0:0:0:0:
223,355,90396,2,0,P|230:322|242:290,1,67.5000025749208,0|0,1:0|2:0,0:0:0:0:
436,215,90690,2,0,B|377:246|364:192|305:219,1,135.000005149842,8|0,3:1|2:0,0:0:0:0:
486,121,91131,1,0,1:0:0:0:
506,298,91278,1,2,1:2:0:0:
369,248,91425,2,0,L|292:258,1,67.5000025749208,0|0,1:0|2:0,0:0:0:0:
174,218,91719,1,2,0:0:0:0:
260,154,91867,1,8,0:1:0:0:
285,341,92014,1,2,0:0:0:0:
449,247,92161,6,0,P|454:209|454:174,1,67.5000025749208,4|0,1:0|2:0,0:0:0:0:
353,22,92455,2,0,P|353:55|358:89,1,67.5000025749208,0|0,1:0|2:0,0:0:0:0:
380,281,92749,2,0,P|430:322|494:308,1,135.000005149842,8|0,3:1|2:0,0:0:0:0:
410,184,93190,1,0,1:0:0:0:
410,184,93264,1,0,1:0:0:0:
410,184,93337,1,2,1:2:0:0:
224,210,93484,1,0,1:0:0:0:
362,253,93631,2,0,L|272:246,1,67.5000025749208,2|0,0:0|1:0,0:0:0:0:
191,81,93925,1,8,0:1:0:0:
99,311,94072,1,2,0:0:0:0:
247,191,94219,6,0,L|256:111,1,67.5000025749208,4|0,1:0|2:0,0:0:0:0:
340,332,94514,2,0,L|331:252,1,67.5000025749208,0|0,1:0|2:0,0:0:0:0:
72,225,94808,2,0,P|135:231|188:299,1,135.000005149842,8|0,3:1|2:0,0:0:0:0:
99,311,95249,1,0,1:0:0:0:
48,134,95396,1,2,1:2:0:0:
83,341,95543,2,0,L|153:356,1,67.5000025749208,0|0,1:0|2:0,0:0:0:0:
317,238,95837,1,2,0:0:0:0:
182,280,95984,1,8,0:1:0:0:
340,332,96131,1,2,0:0:0:0:
410,163,96278,6,0,L|403:91,1,67.5000025749208,4|0,1:0|2:0,0:0:0:0:
261,26,96572,2,0,L|254:98,1,67.5000025749208,0|0,1:0|2:0,0:0:0:0:
404,250,96867,2,0,B|435:216|435:216|425:119,1,135.000005149842,8|0,3:1|2:0,0:0:0:0:
232,134,97308,1,0,1:0:0:0:
232,134,97381,1,0,1:0:0:0:
232,134,97455,1,2,1:2:0:0:
351,64,97602,1,0,1:0:0:0:
404,250,97749,2,0,L|482:266,1,67.5000025749208,8|0,0:1|1:0,0:0:0:0:
284,274,98043,1,8,0:1:0:0:
485,231,98190,1,8,0:1:0:0:
363,338,98337,6,0,P|328:327|295:321,1,53.9999983520508,4|0,1:0|2:0,0:0:0:0:
213,269,98631,2,0,P|178:280|149:285,1,53.9999983520508,0|2,1:0|2:0,0:0:0:0:
90,361,98925,2,0,L|75:188,1,161.999995056153,8|0,0:0|1:0,0:0:0:0:
145,147,99514,1,2,1:2:0:0:
104,71,99661,2,0,L|39:68,1,53.9999983520508,0|0,1:0|2:0,0:0:0:0:
157,166,99955,1,2,1:2:0:0:
232,124,100102,2,0,L|297:127,1,53.9999983520508,8|0,0:0|0:0,0:0:0:0:
390,187,100396,6,0,P|377:150|364:66,1,107.999996704102,2|0,1:0|1:0,0:0:0:0:
476,219,100984,2,0,B|449:275|449:275|350:299,1,161.999995056153,8|0,0:0|1:0,0:0:0:0:
351,298,101499,1,0,1:0:0:0:
351,298,101572,1,2,1:2:0:0:
260,236,101719,2,0,L|255:169,1,53.9999983520508,0|0,1:0|2:0,0:0:0:0:
186,321,102014,1,2,1:2:0:0:
186,321,102087,1,0,1:0:0:0:
186,321,102161,2,0,L|181:376,1,53.9999983520508,8|0,0:0|0:0,0:0:0:0:
96,259,102455,6,0,P|88:222|85:197,1,53.9999983520508,2|0,1:0|2:0,0:0:0:0:
24,148,102749,2,0,P|28:121|34:95,1,53.9999983520508,0|2,1:0|2:0,0:0:0:0:
158,158,103043,2,0,B|210:169|210:169|258:143|258:143|324:160,1,161.999995056153,8|0,0:0|1:0,0:0:0:0:
378,211,103631,1,2,1:2:0:0:
455,174,103778,2,0,L|458:115,1,53.9999983520508,0|0,1:0|2:0,0:0:0:0:
360,229,104072,1,0,1:0:0:0:
296,285,104219,2,0,L|239:278,1,53.9999983520508,8|8,0:0|0:0,0:0:0:0:
144,240,104514,6,0,B|126:269|126:269|136:355,1,107.999996704102,2|0,1:0|1:0,0:0:0:0:
47,220,105102,2,0,L|60:55,1,161.999995056153,8|0,0:0|1:0,0:0:0:0:
59,58,105617,1,0,1:0:0:0:
59,58,105690,1,0,1:0:0:0:
188,155,105837,2,0,P|226:152|248:147,1,53.9999983520508,0|0,1:0|2:0,0:0:0:0:
322,55,106131,1,0,1:0:0:0:
322,55,106205,1,0,1:0:0:0:
322,55,106278,1,8,0:0:0:0:
287,216,106425,1,0,1:0:0:0:
167,90,106572,6,0,L|160:155,1,53.9999983520508,2|0,1:0|2:0,0:0:0:0:
103,281,106867,2,0,L|96:216,1,53.9999983520508,0|2,1:0|2:0,0:0:0:0:
260,147,107161,2,0,B|244:254|244:254|264:309,1,161.999995056153,8|0,0:0|1:0,0:0:0:0:
344,274,107749,1,2,1:2:0:0:
415,324,107896,2,0,L|480:320,1,53.9999983520508,0|0,1:0|2:0,0:0:0:0:
331,245,108190,1,2,1:2:0:0:
393,187,108337,2,0,L|458:191,1,53.9999983520508,8|0,0:0|0:0,0:0:0:0:
351,107,108631,6,0,P|319:123|244:138,1,107.999996704102,2|0,1:0|1:0,0:0:0:0:
201,244,109219,2,0,B|214:189|214:189|194:141|196:81,1,161.999995056153,8|0,0:0|1:0,0:0:0:0:
195,85,109734,1,0,1:0:0:0:
195,85,109808,1,2,1:2:0:0:
114,227,109955,2,0,P|84:246|59:259,1,53.9999983520508,0|0,1:0|2:0,0:0:0:0:
248,173,110249,1,2,1:2:0:0:
248,173,110322,1,0,1:0:0:0:
248,173,110396,2,0,P|271:186|294:200,1,53.9999983520508,8|0,0:0|1:0,0:0:0:0:
352,346,110690,6,0,L|348:281,1,53.9999983520508,2|0,1:0|2:0,0:0:0:0:
430,234,110984,2,0,L|426:169,1,53.9999983520508,0|2,1:0|2:0,0:0:0:0:
376,61,111278,2,0,B|423:34|423:34|477:36|490:135,1,161.999995056153,8|0,0:0|1:0,0:0:0:0:
470,197,111867,1,2,1:2:0:0:
498,278,112014,2,0,L|492:332,1,53.9999983520508,0|0,1:0|2:0,0:0:0:0:
439,183,112308,1,2,1:2:0:0:
365,228,112455,2,0,L|311:224,1,53.9999983520508,8|8,0:0|0:0,0:0:0:0:
178,279,112749,6,0,B|249:272|249:272|287:307,1,107.999996704102,2|0,1:0|1:0,0:0:0:0:
105,369,113337,2,0,B|116:328|116:328|94:296|94:296|115:210,1,161.999995056153,8|0,0:0|1:0,0:0:0:0:
113,217,113852,1,0,1:0:0:0:
113,217,113925,1,10,1:2:0:0:
40,154,114072,1,0,1:0:0:0:
223,226,114219,1,8,0:0:0:0:
177,61,114367,1,2,1:2:0:0:
177,61,114440,1,0,1:0:0:0:
177,61,114514,1,8,0:0:0:0:
211,256,114661,1,8,0:0:0:0:
294,112,114808,6,0,L|375:121,1,80.9999975280763,4|0,1:0|0:0,0:0:0:0:
221,184,115102,1,2,1:2:0:0:
299,18,115249,1,0,0:0:0:0:
297,257,115396,1,8,3:1:0:0:
143,135,115543,2,0,P|92:111|-1:156,1,161.999995056153,2|0,0:0|1:0,0:0:0:0:
190,252,115984,2,0,L|281:239,1,80.9999975280763,2|0,1:2|1:0,0:0:0:0:
368,175,116278,1,0,0:0:0:0:
151,273,116425,2,0,L|241:287,1,80.9999975280763,2|8,1:2|0:0,0:0:0:0:
414,246,116719,1,0,0:0:0:0:
301,352,116867,6,0,L|221:360,1,80.9999975280763,4|0,1:0|0:0,0:0:0:0:
174,206,117161,1,2,1:2:0:0:
107,349,117308,1,0,0:0:0:0:
157,165,117455,1,8,3:1:0:0:
282,311,117602,2,0,P|340:301|434:233,1,161.999995056153,2|0,0:0|1:0,0:0:0:0:
373,32,118043,2,0,L|367:123,1,80.9999975280763,2|0,1:2|1:0,0:0:0:0:
474,212,118337,1,0,0:0:0:0:
445,79,118484,5,2,1:2:0:0:
270,147,118631,1,8,0:1:0:0:
500,241,118778,1,0,1:0:0:0:
369,137,118925,6,0,L|373:223,1,80.9999975280763,4|0,1:0|0:0,0:0:0:0:
484,315,119219,1,2,1:2:0:0:
280,248,119367,1,0,0:0:0:0:
453,340,119514,1,8,3:1:0:0:
454,107,119661,2,0,P|407:57|311:68,1,161.999995056153,2|0,0:0|1:0,0:0:0:0:
172,191,120102,2,0,L|77:180,1,80.9999975280763,2|0,1:2|1:0,0:0:0:0:
321,234,120396,1,0,0:0:0:0:
223,144,120543,2,0,L|128:155,1,80.9999975280763,2|8,1:2|0:1,0:0:0:0:
319,62,120837,1,0,1:0:0:0:
256,298,120984,6,0,P|238:251|229:212,1,80.9999975280763,4|0,1:0|0:0,0:0:0:0:
117,84,121278,1,2,1:2:0:0:
325,173,121425,1,0,0:0:0:0:
147,272,121572,1,8,3:1:0:0:
342,193,121719,2,0,P|409:195|476:286,1,161.999995056153,2|0,0:0|1:0,0:0:0:0:
439,333,122087,1,0,1:0:0:0:
439,333,122161,5,2,1:2:0:0:
381,94,122308,1,0,1:0:0:0:
314,272,122455,1,2,0:0:0:0:
231,150,122602,5,0,1:0:0:0:
442,189,122749,1,10,0:1:0:0:
304,358,122896,1,8,0:1:0:0:
319,191,123043,6,0,L|310:131,1,53.9999983520508,4|0,1:0|2:0,0:0:0:0:
234,75,123337,2,0,L|243:15,1,53.9999983520508,0|2,1:0|2:0,0:0:0:0:
151,135,123631,2,0,B|166:173|166:173|155:204|155:204|189:288,1,161.999995056153,8|0,0:2|1:0,0:0:0:0:
240,208,124219,1,2,1:2:0:0:
81,214,124367,2,0,P|45:202|22:191,1,53.9999983520508,0|0,1:0|2:0,0:0:0:0:
199,318,124661,1,2,1:2:0:0:
328,274,124808,2,0,P|301:278|276:286,1,53.9999983520508,8|0,0:0|0:0,0:0:0:0:
403,348,125102,6,0,L|411:216,1,107.999996704102,2|0,1:0|1:0,0:0:0:0:
345,123,125690,2,0,P|426:79|500:102,1,161.999995056153,8|0,0:0|1:0,0:0:0:0:
489,95,126205,1,0,1:0:0:0:
489,95,126278,1,2,1:2:0:0:
381,214,126425,2,0,L|313:206,1,53.9999983520508,0|0,1:0|2:0,0:0:0:0:
123,170,126719,1,2,1:2:0:0:
123,170,126793,1,0,1:0:0:0:
123,170,126867,2,0,L|191:162,1,53.9999983520508,8|0,0:0|1:0,0:0:0:0:
237,246,127161,6,0,L|228:312,1,53.9999983520508,2|0,1:0|2:0,0:0:0:0:
94,354,127455,2,0,L|85:288,1,53.9999983520508,0|2,1:0|2:0,0:0:0:0:
141,110,127749,2,0,B|172:155|172:154|172:154|153:281,1,161.999995056153,8|0,0:0|1:0,0:0:0:0:
259,184,128337,1,2,1:2:0:0:
314,301,128484,2,0,L|326:231,1,53.9999983520508,0|0,1:0|2:0,0:0:0:0:
172,187,128778,1,0,1:0:0:0:
323,247,128925,2,0,L|386:241,1,53.9999983520508,8|8,0:0|0:0,0:0:0:0:
468,108,129219,6,0,P|434:104|349:73,1,107.999996704102,2|0,1:0|1:0,0:0:0:0:
200,23,129808,2,0,B|219:95|219:95|207:120|207:120|225:184,1,161.999995056153,8|0,0:0|1:0,0:0:0:0:
223,177,130322,1,0,1:0:0:0:
223,177,130396,1,0,1:0:0:0:
88,149,130543,2,0,P|116:154|155:165,1,53.9999983520508,0|0,1:0|2:0,0:0:0:0:
272,280,130837,1,0,1:0:0:0:
272,280,130911,1,0,1:0:0:0:
272,280,130984,2,0,P|245:286|219:291,1,53.9999983520508,8|0,0:0|1:0,0:0:0:0:
239,131,131278,6,0,L|228:201,1,53.9999983520508,2|0,1:0|2:0,0:0:0:0:
321,84,131572,2,0,L|332:154,1,53.9999983520508,0|2,1:0|2:0,0:0:0:0:
334,298,131867,2,0,P|382:340|481:307,1,161.999995056153,8|0,0:0|1:0,0:0:0:0:
355,217,132455,1,2,1:2:0:0:
263,348,132602,2,0,L|201:334,1,53.9999983520508,0|0,1:0|2:0,0:0:0:0:
294,334,132896,1,2,1:2:0:0:
130,299,133043,2,0,L|68:313,1,53.9999983520508,8|0,0:0|0:0,0:0:0:0:
144,113,133337,6,0,P|158:154|168:222,1,107.999996704102,2|0,1:0|1:0,0:0:0:0:
336,167,133925,2,0,B|397:179|397:179|429:159|429:159|493:171,1,161.999995056153,8|0,0:0|1:0,0:0:0:0:
490,170,134440,1,0,1:0:0:0:
490,170,134514,1,2,1:2:0:0:
412,320,134661,2,0,P|406:289|404:257,1,53.9999983520508,0|0,1:0|2:0,0:0:0:0:
433,80,134955,1,2,1:2:0:0:
433,80,135028,1,0,1:0:0:0:
433,80,135102,2,0,L|374:89,1,53.9999983520508,8|0,0:0|0:0,0:0:0:0:
233,113,135396,6,0,P|202:91|183:69,1,53.9999983520508,2|2,1:0|2:0,0:0:0:0:
84,168,135690,2,0,P|115:146|134:124,1,53.9999983520508,0|2,1:0|2:0,0:0:0:0:
237,221,135984,2,0,L|224:384,1,161.999995056153,8|0,0:0|1:0,0:0:0:0:
135,306,136572,1,2,1:2:0:0:
307,298,136719,2,0,P|341:292|377:284,1,53.9999983520508,0|0,1:0|2:0,0:0:0:0:
407,193,137014,1,2,1:2:0:0:
494,362,137161,2,0,P|469:333|454:306,1,53.9999983520508,8|8,0:0|0:0,0:0:0:0:
276,155,137455,6,0,L|166:167,1,107.999996704102,2|0,1:0|1:0,0:0:0:0:
39,380,138043,2,0,P|117:369|169:309,1,161.999995056153,8|0,0:0|1:0,0:0:0:0:
118,243,138558,1,0,1:0:0:0:
118,243,138631,5,2,1:2:0:0:
276,302,138778,1,0,1:0:0:0:
169,167,138925,1,10,0:0:0:0:
279,342,139072,1,0,1:0:0:0:
279,342,139146,1,0,1:0:0:0:
279,342,139219,2,0,L|373:332,1,80.9999975280763,10|8,0:2|0:0,0:0:0:0:
425,137,139514,6,0,P|444:178|458:224,1,80.9999975280763,4|0,1:0|0:0,0:0:0:0:
311,113,139808,1,2,1:2:0:0:
472,55,139955,1,0,0:0:0:0:
341,221,140102,1,8,3:1:0:0:
196,56,140249,2,0,B|222:105|222:105|207:222,1,161.999995056153,2|0,0:0|1:0,0:0:0:0:
42,107,140690,2,0,L|128:125,1,80.9999975280763,2|0,1:2|1:0,0:0:0:0:
237,288,140984,1,0,0:0:0:0:
119,68,141131,2,0,L|141:170,1,80.9999975280763,2|8,1:2|0:1,0:0:0:0:
171,346,141425,1,0,0:0:0:0:
363,275,141572,6,0,P|317:274|274:277,1,80.9999975280763,4|0,1:0|0:0,0:0:0:0:
81,343,141867,1,2,1:2:0:0:
260,309,142014,1,0,0:0:0:0:
79,230,142161,1,8,3:1:0:0:
314,373,142308,2,0,P|344:331|300:233,1,161.999995056153,2|0,0:0|1:0,0:0:0:0:
4,227,142749,2,0,L|117:243,1,80.9999975280763,2|0,1:2|0:0,0:0:0:0:
218,180,143043,5,0,0:0:0:0:
97,47,143190,1,2,1:2:0:0:
97,47,143264,1,0,1:0:0:0:
97,47,143337,1,8,0:1:0:0:
139,313,143484,1,0,1:0:0:0:
255,169,143631,6,0,L|266:259,1,80.9999975280763,4|0,1:0|0:0,0:0:0:0:
408,201,143925,1,2,1:2:0:0:
264,367,144072,1,0,0:0:0:0:
287,152,144219,1,8,3:1:0:0:
290,334,144367,2,0,P|240:358|114:309,1,161.999995056153,2|0,0:0|1:0,0:0:0:0:
19,184,144808,2,0,L|116:178,1,80.9999975280763,2|0,1:2|1:0,0:0:0:0:
27,361,145102,1,0,0:0:0:0:
83,135,145249,2,0,L|169:155,1,80.9999975280763,2|8,1:2|0:1,0:0:0:0:
367,205,145543,1,8,0:0:0:0:
244,49,145690,6,0,P|248:93|257:149,1,80.9999975280763,4|0,1:0|0:0,0:0:0:0:
284,362,145984,1,2,1:2:0:0:
322,195,146131,1,0,0:0:0:0:
141,285,146278,1,8,3:1:0:0:
353,279,146425,2,0,P|406:235|391:138,1,161.999995056153,2|0,0:0|1:0,0:0:0:0:
384,141,146793,1,0,1:0:0:0:
369,134,146867,1,2,1:2:0:0:
441,321,147014,1,0,1:0:0:0:
235,210,147161,1,2,0:0:0:0:
426,235,147308,5,0,1:0:0:0:
241,300,147455,1,10,0:1:0:0:
273,101,147602,1,8,0:1:0:0:
349,303,147749,6,0,P|348:337|345:365,1,62.9999980773926,4|0,1:0|2:0,0:0:0:0:
204,211,148043,2,0,P|205:245|208:273,1,62.9999980773926,0|2,1:0|2:0,0:0:0:0:
384,241,148337,2,0,P|383:275|380:303,1,62.9999980773926,2|0,3:0|2:0,0:0:0:0:
115,295,148631,2,0,P|116:329|119:357,1,62.9999980773926,2|0,1:2|2:0,0:0:0:0:
301,185,148925,2,0,P|304:153|305:122,1,62.9999980773926,2|0,1:2|2:0,0:0:0:0:
140,119,149219,2,0,P|165:137|192:153,1,62.9999980773926,8|2,1:3|2:0,0:0:0:0:
275,11,149514,2,0,P|246:23|218:38,1,62.9999980773926,0|0,1:0|2:0,0:0:0:0:
118,201,149808,6,0,P|86:200|55:196,1,62.9999980773926,4|0,1:0|2:0,0:0:0:0:
243,286,150102,2,0,P|211:286|180:290,1,62.9999980773926,0|2,1:0|2:0,0:0:0:0:
368,201,150396,2,0,P|336:200|305:196,1,62.9999980773926,2|0,1:3|2:0,0:0:0:0:
493,286,150690,2,0,P|461:286|430:290,1,62.9999980773926,2|0,1:2|2:0,0:0:0:0:
247,112,150984,2,0,P|216:119|186:129,1,62.9999980773926,2|0,1:2|2:0,0:0:0:0:
352,191,151278,2,0,P|373:213|397:234,1,62.9999980773926,8|0,1:3|2:0,0:0:0:0:
360,61,151572,2,0,P|368:30|375:0,1,62.9999980773926,0|0,1:0|2:0,0:0:0:0:
269,231,151867,5,4,1:0:0:0:
269,231,152014,1,0,0:0:0:0:
110,156,152161,2,0,L|178:164,1,62.9999980773926,0|0,1:0|0:0,0:0:0:0:
335,264,152455,2,0,L|201:279,1,125.999996154785,10|2,0:0|0:0,0:0:0:0:
42,224,152896,1,0,1:0:0:0:
42,224,152969,1,0,1:0:0:0:
42,224,153043,2,0,P|34:256|25:285,1,62.9999980773926,2|0,1:2|1:0,0:0:0:0:
146,171,153337,2,0,L|129:22,1,125.999996154785,2|8,0:0|0:0,0:0:0:0:
121,197,153778,1,8,0:0:0:0:
239,91,153925,6,0,P|290:85|360:131,1,125.999996154785,4|2,1:0|1:2,0:0:0:0:
329,271,154367,1,0,0:0:0:0:
280,175,154514,2,0,L|287:309,1,125.999996154785,10|0,0:0|0:0,0:0:0:0:
379,360,154955,1,0,1:0:0:0:
379,360,155028,1,0,1:0:0:0:
379,360,155102,1,2,1:2:0:0:
264,288,155249,2,0,L|131:298,1,125.999996154785,0|0,1:0|1:0,0:0:0:0:
22,207,155690,1,0,0:0:0:0:
188,238,155837,1,0,1:0:0:0:
0,249,155984,6,0,P|48:236|91:218,1,80.9999975280763,4|0,1:0|1:0,0:0:0:0:
310,155,156278,2,0,P|272:140|232:130,1,80.9999975280763,8|2,0:0|0:0,0:0:0:0:
126,298,156572,1,0,1:0:0:0:
77,112,156719,1,0,1:0:0:0:
145,345,156867,2,0,L|157:244,1,80.9999975280763,10|0,0:0|1:0,0:0:0:0:
289,165,157161,2,0,B|345:194|345:194|467:170,1,161.999995056153,2|8,0:0|0:0,0:0:0:0:
288,67,157602,1,2,1:2:0:0:
272,260,157749,2,0,P|232:279|184:291,1,80.9999975280763,8|0,0:0|1:0,0:0:0:0:
20,112,158043,5,12,0:1:0:0:
205,207,158191,1,0,1:0:0:0:
205,207,158264,1,0,1:0:0:0:
205,207,158338,1,8,0:1:0:0:
60,272,158485,1,2,1:2:0:0:
189,43,158632,2,0,L|184:91,1,45,8|0,1:0|1:0,0:0:0:0:
300,150,158779,2,0,L|295:102,1,45,8|4,1:0|1:3,1:0:0:0:
394,33,158926,2,0,L|399:81,1,45,2|8,1:3|1:3,1:0:0:0:
336,260,159073,6,0,P|363:304|496:255,1,215.999993408203,4|0,1:0|1:0,0:0:0:0:
338,157,159808,5,8,1:0:0:0:
293,147,159882,1,0,1:0:0:0:
251,163,159955,1,8,1:3:0:0:
225,200,160029,1,0,1:0:0:0:
220,244,160102,1,8,1:0:0:0:
417,241,160249,6,0,B|390:151|435:154|414:62,1,180,4|0,1:0|1:0,1:0:0:0:
177,76,160616,1,0,1:0:0:0:
177,76,160690,2,0,P|220:124|340:110,1,180,12|2,0:1|1:0,0:0:0:0:
427,24,161131,1,2,1:2:0:0:
338,211,161278,2,0,L|347:301,1,90,10|2,0:1|0:0,0:0:0:0:
157,144,161572,5,2,1:0:0:0:
365,198,161719,1,0,1:0:0:0:
365,198,161793,1,0,1:0:0:0:
365,198,161866,2,0,L|464:174,1,90,10|2,0:1|0:0,0:0:0:0:
288,117,162160,1,2,1:0:0:0:
258,151,162234,1,0,1:0:0:0:
263,195,162307,1,0,1:0:0:0:
268,239,162381,1,0,1:0:0:0:
273,283,162454,1,10,0:1:0:0:
35,179,162601,6,0,P|104:159|196:233,1,180,0|0,1:0|1:0,0:0:0:0:
104,346,162969,1,0,1:0:0:0:
104,346,163043,2,0,L|97:248,1,90,10|0,0:1|0:0,0:0:0:0:
297,224,163337,1,2,1:0:0:0:
287,358,163484,1,2,1:2:0:0:
183,126,163631,2,0,L|189:215,1,90,10|2,0:1|0:0,0:0:0:0:
409,300,163925,5,2,1:0:0:0:
214,297,164072,2,0,L|171:308,2,45,0|0|10,1:0|1:0|0:1,0:0:0:0:
386,205,164366,1,2,0:0:0:0:
246,265,164513,1,2,1:0:0:0:
214,246,164587,1,0,1:0:0:0:
189,216,164660,1,0,1:0:0:0:
185,179,164734,1,0,1:0:0:0:
193,144,164807,1,10,0:1:0:0:
358,38,164954,6,0,P|350:125|279:177,1,180,0|0,1:0|1:0,0:0:0:0:
99,129,165322,1,0,1:0:0:0:
99,129,165396,2,0,P|55:140|8:154,1,90,10|0,0:1|0:0,0:0:0:0:
224,239,165690,1,2,1:0:0:0:
171,51,165837,2,0,P|127:38|84:27,1,90,2|10,1:2|0:1,0:0:0:0:
146,231,166131,1,2,0:0:0:0:
212,40,166278,5,2,1:0:0:0:
262,269,166425,1,0,1:0:0:0:
262,269,166498,1,0,1:0:0:0:
262,269,166572,2,0,L|251:374,1,90,10|2,0:1|0:0,0:0:0:0:
78,243,166866,1,2,1:0:0:0:
95,240,166940,1,0,1:0:0:0:
112,237,167013,1,0,1:0:0:0:
129,234,167087,1,0,1:0:0:0:
146,231,167160,1,10,0:1:0:0:
312,317,167307,6,0,P|351:261|321:145,1,180,0|0,1:0|1:0,0:0:0:0:
157,142,167675,1,0,1:0:0:0:
157,142,167748,2,0,P|202:156|247:164,1,90,10|0,0:1|0:0,0:0:0:0:
381,33,168043,1,2,1:0:0:0:
384,259,168190,1,0,1:0:0:0:
431,112,168337,1,10,0:1:0:0:
346,334,168484,1,0,0:0:0:0:
191,207,168631,6,0,L|245:203,1,45,2|0,1:0|1:0,0:0:0:0:
360,243,168778,2,0,L|306:239,1,45,0|0,1:0|1:0,0:0:0:0:
193,116,168925,1,10,0:1:0:0:
176,326,169072,1,2,0:0:0:0:
338,155,169219,1,2,1:0:0:0:
125,259,169366,1,0,1:0:0:0:
80,250,169440,1,0,1:0:0:0:
36,241,169513,1,10,0:1:0:0:
254,350,169660,6,0,B|313:317|346:349|377:378|430:344,1,180,0|0,1:0|1:0,0:0:0:0:
374,115,170028,1,0,1:0:0:0:
374,115,170101,2,0,P|347:172|397:281,1,180,12|2,0:1|1:0,0:0:0:0:
455,78,170543,1,0,1:0:0:0:
265,173,170690,2,0,L|171:154,1,90,10|0,0:1|0:0,0:0:0:0:
57,91,170984,5,2,1:0:0:0:
211,268,171131,1,0,1:0:0:0:
211,268,171204,1,0,1:0:0:0:
211,268,171278,2,0,P|200:318|195:372,1,90,10|2,0:1|0:0,0:0:0:0:
361,234,171572,1,2,1:0:0:0:
357,202,171646,1,0,1:0:0:0:
353,170,171719,1,0,1:0:0:0:
349,138,171793,1,0,1:0:0:0:
345,106,171866,1,10,0:1:0:0:
224,232,172013,6,0,B|219:305|255:349|255:349|286:297,1,180,0|0,1:0|1:0,0:0:0:0:
278,153,172381,1,0,1:0:0:0:
278,153,172454,2,0,L|168:141,1,90,10|0,0:1|0:0,0:0:0:0:
440,47,172748,1,2,1:0:0:0:
307,74,172896,1,0,1:0:0:0:
453,235,173043,2,0,L|343:247,1,90,10|0,0:1|0:0,0:0:0:0:
136,220,173337,5,2,1:0:0:0:
286,105,173484,1,0,1:0:0:0:
286,105,173557,1,0,1:0:0:0:
286,105,173631,2,0,P|285:157|279:199,1,90,10|0,0:1|0:0,0:0:0:0:
133,345,173925,1,2,1:0:0:0:
130,313,173998,1,0,1:0:0:0:
127,281,174072,1,0,1:0:0:0:
124,249,174146,1,0,1:0:0:0:
136,220,174219,1,10,0:1:0:0:
320,203,174366,6,0,P|303:158|176:140,1,180,0|0,1:0|1:0,0:0:0:0:
274,320,174734,1,0,1:0:0:0:
274,320,174807,2,0,L|375:340,1,90,10|0,0:1|0:0,0:0:0:0:
159,231,175101,1,2,1:0:0:0:
375,360,175248,2,0,P|402:313|418:274,1,90,0|10,1:0|0:1,0:0:0:0:
321,47,175543,6,0,B|299:165|299:165|324:226,1,180,0|0,1:0|1:0,0:0:0:0:
332,240,175910,1,0,1:0:0:0:
342,260,175984,1,10,0:1:0:0:
215,111,176131,1,2,0:0:0:0:
398,190,176278,1,2,1:0:0:0:
424,186,176351,1,0,1:0:0:0:
450,182,176425,1,0,1:0:0:0:
460,157,176498,1,0,1:0:0:0:
468,131,176572,1,10,0:1:0:0:
291,227,176719,6,0,B|304:358|304:358|342:310,1,180,0|0,1:0|1:0,0:0:0:0:
376,178,177087,1,0,1:0:0:0:
376,177,177160,2,0,L|367:87,1,90,10|2,0:1|0:0,0:0:0:0:
194,243,177454,1,2,1:0:0:0:
275,119,177601,1,2,1:2:0:0:
271,333,177748,2,0,P|236:354|169:368,1,90,10|2,0:1|0:0,0:0:0:0:
34,150,178043,6,0,P|77:161|116:183,1,90,2|2,1:0|1:2,0:0:0:0:
167,270,178263,1,0,1:0:0:0:
167,270,178337,1,10,0:1:0:0:
205,76,178484,1,2,0:0:0:0:
242,316,178630,1,2,1:0:0:0:
215,347,178704,1,0,1:0:0:0:
177,361,178777,1,2,1:2:0:0:
136,354,178851,1,0,1:0:0:0:
102,331,178924,1,10,0:1:0:0:
285,233,179072,6,0,L|456:239,1,161.999995056153,4|0,1:0|2:0,0:0:0:0:
494,120,179513,2,0,P|447:133|410:148,1,80.9999975280763,2|0,1:2|2:0,0:0:0:0:
340,351,179807,2,0,P|387:338|424:323,1,80.9999975280763,0|0,1:2|2:0,0:0:0:0:
262,153,180101,2,0,P|224:138|185:128,1,80.9999975280763,2|0,1:2|2:0,0:0:0:0:
28,244,180396,6,0,B|98:223|119:260|211:230,1,161.999995056153,0|2,1:2|1:2,0:0:0:0:
141,148,180837,1,0,2:0:0:0:
192,328,180984,2,0,P|261:292|278:215,1,161.999995056153,0|2,1:0|1:2,0:0:0:0:
114,179,181425,1,0,0:0:0:0:
286,325,181572,6,0,L|369:315,1,80.9999975280763,2|0,1:2|2:0,0:0:0:0:
480,194,181866,2,0,L|397:184,1,80.9999975280763,0|2,1:0|2:0,0:0:0:0:
247,97,182160,2,0,L|330:87,1,80.9999975280763,0|2,1:0|2:0,0:0:0:0:
198,237,182454,2,0,L|115:227,1,80.9999975280763,0|2,1:0|2:0,0:0:0:0:
256,192,182748,12,4,183778,1:0:0:0:
224,195,194219,6,0,L|131:184,1,72,2|0,1:2|0:0,0:0:0:0:
269,285,194513,1,0,1:0:0:0:
269,285,194586,1,0,0:0:0:0:
269,285,194660,2,0,L|419:263,1,144,10|8,0:0|0:0,0:0:0:0:
475,161,195101,1,8,0:0:0:0:
463,336,195248,1,8,0:0:0:0:
455,144,195395,1,0,1:0:0:0:
279,209,195542,1,8,0:0:0:0:
467,248,195689,6,0,L|377:231,2,72,4|0|0,1:0|1:0|0:0,0:0:0:0:
308,156,196130,1,2,1:2:0:0:
308,156,196277,2,0,L|320:242,1,72,8|0,0:0|1:0,0:0:0:0:
224,365,196572,2,0,L|231:293,1,72,2|0,0:0|1:0,0:0:0:0:
193,190,196866,1,2,0:0:0:0:
55,287,197013,1,0,1:0:0:0:
55,287,197086,1,0,1:0:0:0:
55,287,197160,6,0,L|145:280,2,72,2|0|0,1:2|1:0|0:0,0:0:0:0:
197,194,197601,1,2,1:2:0:0:
197,194,197748,2,0,L|209:103,1,72,8|0,0:0|1:0,0:0:0:0:
366,133,198042,2,0,P|335:156|289:166,1,72,2|0,0:0|1:0,0:0:0:0:
125,87,198336,1,10,0:0:0:0:
134,172,198483,1,0,1:0:0:0:
144,257,198630,6,0,L|133:338,2,72,6|0|0,1:2|1:0|0:0,0:0:0:0:
233,275,199072,1,2,1:2:0:0:
233,275,199219,2,0,P|280:262|318:255,1,72,8|0,0:0|1:0,0:0:0:0:
463,307,199513,2,0,L|383:296,1,72,2|0,0:0|1:0,0:0:0:0:
314,165,199807,1,2,0:2:0:0:
292,347,199954,1,0,1:0:0:0:
292,347,200027,1,0,1:0:0:0:
292,347,200101,6,0,L|205:360,2,72,2|0|0,1:2|1:0|0:0,0:0:0:0:
146,308,200542,1,2,1:2:0:0:
146,308,200689,2,0,P|147:270|151:227,1,72,8|0,0:0|1:0,0:0:0:0:
194,66,200983,2,0,L|204:141,1,72,2|0,0:0|1:0,0:0:0:0:
232,274,201277,1,10,0:0:0:0:
49,232,201425,1,8,0:0:0:0:
246,296,201572,6,0,L|325:283,1,72,4|0,1:2|0:0,0:0:0:0:
395,326,201866,1,0,0:0:0:0:
290,199,202013,1,2,1:2:0:0:
472,212,202160,2,0,P|469:249|462:290,1,72,8|0,0:0|1:0,0:0:0:0:
342,125,202454,2,0,P|336:89|333:53,1,72,2|0,0:0|1:0,0:0:0:0:
450,198,202748,1,2,0:0:0:0:
257,167,202895,1,0,1:0:0:0:
257,167,202969,1,0,1:0:0:0:
257,167,203042,6,0,L|177:172,1,72,2|0,1:2|0:0,0:0:0:0:
49,122,203336,1,0,0:0:0:0:
156,254,203483,1,2,1:2:0:0:
211,93,203630,2,0,L|131:98,1,72,8|0,0:0|1:0,0:0:0:0:
89,292,203925,2,0,L|83:363,1,72,2|0,0:0|1:0,0:0:0:0:
69,216,204219,1,2,1:2:0:0:
202,348,204366,1,8,0:0:0:0:
314,199,204513,5,4,1:2:0:0:
247,240,204660,1,0,1:0:0:0:
317,278,204807,1,0,1:0:0:0:
311,120,204954,1,4,1:0:0:0:
317,278,205248,5,0,1:0:0:0:
314,199,205395,1,4,1:2:0:0:
384,237,205542,1,0,1:0:0:0:
247,240,205689,1,4,1:1:0:0:
381,157,205836,5,0,1:0:0:0:
381,157,205910,1,0,1:0:0:0:
381,157,205983,1,4,1:2:0:0:
177,202,206130,1,0,1:0:0:0:
384,237,206277,1,0,1:0:0:0:
244,161,206425,1,4,1:1:0:0:
384,237,206719,5,8,0:0:0:0:
247,240,206866,1,10,0:0:0:0:
311,120,207013,1,8,0:0:0:0:
317,278,207160,1,10,0:0:0:0:
132,192,207454,6,0,L|142:18,1,161.999995056153,4|0,1:2|2:0,0:0:0:0:
41,229,207895,2,0,P|51:273|62:311,2,80.9999975280763,8|0|0,0:0|2:0|2:0,0:0:0:0:
216,229,208336,2,0,P|256:212|290:192,1,80.9999975280763,0|2,1:0|2:0,0:0:0:0:
391,77,208630,1,0,1:0:0:0:
391,77,208777,2,0,P|384:120|375:254,1,161.999995056153,2|8,2:0|0:0,0:0:0:0:
125,236,209218,6,0,P|200:243|255:317,1,161.999995056153,0|0,1:0|2:0,0:0:0:0:
50,294,209659,2,0,L|39:115,1,161.999995056153,8|2,0:0|2:0,0:0:0:0:
203,92,210101,2,0,P|158:117|120:132,1,80.9999975280763,0|2,1:0|2:0,0:0:0:0:
340,60,210395,2,0,P|295:35|257:20,2,80.9999975280763,0|2|2,1:0|2:0|2:0,0:0:0:0:
339,271,210836,1,8,0:0:0:0:
284,121,210983,2,0,L|294:205,1,80.9999975280763,0|0,1:0|2:0,0:0:0:0:
343,359,211277,1,0,2:0:0:0:
211,186,211424,1,10,0:0:0:0:
398,303,211571,6,0,P|345:324|253:269,1,161.999995056153,4|0,1:2|0:0,0:0:0:0:
167,161,212012,2,0,P|108:152|76:154,2,80.9999975280763,8|0|0,0:0|2:0|2:0,0:0:0:0:
307,109,212454,2,0,P|345:89|386:62,1,80.9999975280763,0|0,1:0|2:0,0:0:0:0:
183,129,212748,1,0,1:0:0:0:
183,129,212895,2,0,L|191:213,1,80.9999975280763,8|0,0:0|2:0,0:0:0:0:
146,298,213189,1,8,0:0:0:0:
290,186,213336,6,0,B|325:223|325:223|310:343,1,161.999995056153,2|0,1:2|2:0,0:0:0:0:
427,225,213777,2,0,L|410:57,1,161.999995056153,8|0,0:0|2:0,0:0:0:0:
253,107,214218,2,0,P|213:94|171:74,1,80.9999975280763,0|0,1:0|2:0,0:0:0:0:
326,37,214512,1,0,1:0:0:0:
271,222,214659,1,8,3:2:0:0:
244,21,214806,1,0,1:0:0:0:
308,236,214954,2,0,L|297:319,1,80.9999975280763,0|8,1:0|3:2,0:0:0:0:
211,158,215248,5,0,1:0:0:0:
403,139,215395,1,0,1:0:0:0:
356,247,215542,1,8,0:0:0:0:
282,100,215689,6,0,L|119:125,1,161.999995056153,4|2,1:2|2:0,0:0:0:0:
77,48,216130,1,0,2:0:0:0:
308,187,216277,2,0,P|350:157|350:31,1,161.999995056153,8|0,0:0|2:0,0:0:0:0:
223,148,216718,1,2,1:2:0:0:
223,148,216865,2,0,L|216:228,2,80.9999975280763,0|0|0,1:0|2:0|2:0,0:0:0:0:
308,187,217306,1,8,0:0:0:0:
215,312,217454,2,0,P|177:301|147:275,1,80.9999975280763,0|0,2:0|1:0,0:0:0:0:
37,138,217748,6,0,L|214:127,1,161.999995056153,0|0,1:0|0:0,0:0:0:0:
308,261,218189,1,2,2:0:0:0:
308,261,218336,2,0,P|354:244|388:225,1,80.9999975280763,8|2,0:0|2:0,0:0:0:0:
489,88,218630,2,0,P|453:69|414:55,1,80.9999975280763,2|2,0:0|1:2,0:0:0:0:
387,304,218924,2,0,B|417:252|417:252|419:146,1,161.999995056153,2|0,1:2|2:0,0:0:0:0:
260,37,219365,2,0,L|270:123,1,80.9999975280763,10|0,0:0|2:0,0:0:0:0:
158,228,219659,1,2,0:0:0:0:
18,74,219806,6,0,P|93:64|165:129,2,161.999995056153,6|0|8,1:2|2:0|0:0,0:0:0:0:
116,243,220542,2,0,L|119:335,1,80.9999975280763,0|2,0:0|2:0,0:0:0:0:
251,158,220836,1,0,1:0:0:0:
224,302,220983,1,2,1:2:0:0:
283,130,221130,1,8,3:2:0:0:
334,358,221277,1,2,1:2:0:0:
462,251,221424,2,0,L|376:267,1,80.9999975280763,8|0,3:2|1:0,0:0:0:0:
139,190,221718,1,2,1:2:0:0:
139,190,221792,1,0,1:0:0:0:
139,190,221865,2,0,L|230:207,1,80.9999975280763,12|0,3:2|0:0,0:0:0:0:
371,117,222159,5,10,0:0:0:0:
358,334,222306,1,0,1:0:0:0:
283,130,222454,1,0,1:0:0:0:
182,256,222601,2,0,B|134:270|84:272|84:272|59:250,1,121.499996292114,8|0,0:0|2:0,0:0:0:0:
0,145,222895,2,0,B|49:146|98:160|98:160|115:188,1,121.499996292114,8|0,0:0|2:0,0:0:0:0:
65,348,223189,1,0,1:0:0:0:
182,146,223336,1,8,0:0:0:0:
45,236,223483,1,2,0:3:0:0:
187,312,223630,1,8,0:3:0:0:
17,257,223777,1,0,1:0:0:0:
124,77,223924,6,0,P|227:72|268:137,2,161.999995056153,4|0|8,1:0|2:0|3:2,0:0:0:0:
224,208,224659,2,0,L|309:222,2,80.9999975280763,0|2|0,0:0|2:0|1:0,0:0:0:0:
379,277,225101,2,0,P|406:226|429:113,1,161.999995056153,2|2,1:2|0:0,0:0:0:0:
293,22,225542,2,0,L|303:113,1,80.9999975280763,8|2,0:0|2:0,0:0:0:0:
289,279,225836,1,0,0:0:0:0:
164,156,225983,5,0,1:0:0:0:
317,197,226130,1,0,0:0:0:0:
130,181,226277,2,0,P|92:185|45:194,1,80.9999975280763,2|0,0:0|0:0,0:0:0:0:
233,95,226571,1,10,0:2:0:0:
233,95,226718,2,0,P|199:77|155:58,1,80.9999975280763
182,262,227012,1,0,1:0:0:0:
368,184,227159,2,0,L|356:12,1,161.999995056153,2|0,1:2|0:0,0:0:0:0:
468,235,227601,2,0,P|458:285|449:313,1,80.9999975280763,8|0,3:2|0:0,0:0:0:0:
290,262,227895,1,0,0:0:0:0:
457,101,228042,6,0,B|490:149|490:149|481:262,1,161.999995056153,4|0,1:2|0:0,0:0:0:0:
186,352,228630,2,0,L|177:257,1,80.9999975280763,8|0,0:0|0:0,0:0:0:0:
230,195,228924,1,2,0:0:0:0:
57,163,229071,1,0,1:0:0:0:
275,277,229218,2,0,L|458:268,1,161.999995056153,0|8,1:0|0:3,0:0:0:0:
305,136,229659,2,0,P|348:145|393:165,1,80.9999975280763,8|0,0:0|0:0,0:0:0:0:
334,328,229954,1,0,1:0:0:0:
194,237,230101,6,0,P|165:210|155:80,2,161.999995056153,2|0|8,1:2|0:0|0:0,0:0:0:0:
323,171,230836,1,0,0:0:0:0:
323,171,230983,2,0,L|423:181,1,80.9999975280763,2|0,0:0|1:0,0:0:0:0:
480,94,231277,1,8,3:2:0:0:
369,262,231424,1,0,1:0:0:0:
455,105,231571,1,0,1:0:0:0:
267,258,231718,2,0,B|214:292|167:232|110:262,1,161.999995056153,8|0,3:2|1:0,0:0:0:0:
104,117,232086,1,0,1:0:0:0:
104,117,232159,6,0,P|163:121|231:194,1,161.999995056153,4|0,1:0|0:0,0:0:0:0:
140,357,232601,1,0,0:0:0:0:
140,357,232748,2,0,L|135:276,1,80.9999975280763,8|0,3:2|0:0,0:0:0:0:
342,316,233042,2,0,P|348:276|349:227,1,80.9999975280763,2|0,0:0|1:0,0:0:0:0:
276,118,233336,1,2,1:2:0:0:
461,77,233483,1,0,0:0:0:0:
264,140,233630,1,2,0:0:0:0:
442,181,233777,2,0,B|462:223|462:223|451:350,1,161.999995056153,8|0,0:0|0:0,0:0:0:0:
342,211,234218,6,0,L|241:216,1,80.9999975280763,0|0,1:0|0:0,0:0:0:0:
176,290,234512,2,0,L|75:285,1,80.9999975280763
13,186,234806,1,8,0:0:0:0:
190,92,234954,1,0,0:0:0:0:
190,92,235101,2,0,P|184:138|175:182,1,80.9999975280763,0|0,0:0|1:0,0:0:0:0:
287,360,235395,2,0,L|283:268,1,80.9999975280763,2|0,1:2|0:0,0:0:0:0:
435,156,235689,1,2,0:0:0:0:
422,355,235836,2,0,P|380:323|376:211,1,161.999995056153,8|0,0:0|0:0,0:0:0:0:
477,81,236277,6,0,B|449:118|449:118|404:125|367:113|367:113|342:123|316:127,1,161.999995056153,4|0,1:2|0:0,0:0:0:0:
18,242,236865,2,0,L|117:258,1,80.9999975280763,8|0,0:0|0:0,0:0:0:0:
308,302,237159,2,0,P|263:325|229:338,1,80.9999975280763,0|0,0:0|1:0,0:0:0:0:
133,142,237454,1,2,1:2:0:0:
143,341,237601,1,0,0:0:0:0:
202,201,237748,1,2,0:0:0:0:
109,354,237895,2,0,P|169:319|282:351,1,161.999995056153,8|0,0:0|0:0,0:0:0:0:
338,279,238336,6,0,L|357:342,2,53.9999983520508,0|2|2,1:0|0:0|0:0,0:0:0:0:
430,254,238630,2,0,L|491:266,2,53.9999983520508,0|2|0,0:0|0:0|0:0,0:0:0:0:
363,186,238924,1,10,0:0:0:0:
330,123,239022,1,2,0:0:0:0:
349,55,239120,1,2,0:0:0:0:
409,19,239218,2,0,L|487:14,2,53.9999983520508,2|0|0,0:0|0:0|1:0,0:0:0:0:
205,63,239512,5,12,0:0:0:0:
246,280,239659,1,0,1:0:0:0:
330,123,239806,1,0,1:0:0:0:
119,225,239954,2,0,P|96:300|131:371,1,161.999995056153,12|0,0:0|1:0,0:0:0:0:
216,347,240321,1,0,1:0:0:0:
216,347,240395,5,4,1:0:0:0:
155,272,249806,5,4,1:2:0:0:
182,263,249953,1,0,1:0:0:0:
182,263,250395,2,0,L|277:277,1,72,8|0,0:0|1:0,0:0:0:0:
243,311,250836,6,0,P|299:282|385:307,1,144,8|0,0:0|1:0,0:0:0:0:
507,192,251424,2,0,L|361:206,1,144,8|0,0:0|1:0,0:0:0:0:
341,187,251792,1,0,1:0:0:0:
319,168,251865,1,0,1:0:0:0:
220,153,252012,1,8,0:0:0:0:
168,237,252159,6,0,L|24:224,1,144,4|0,1:2|1:0,0:0:0:0:
179,268,252747,1,8,0:0:0:0:
239,180,252895,2,0,P|246:137|249:98,1,72,8|0,0:0|1:0,0:0:0:0:
333,18,253189,2,0,L|345:171,1,144,8|0,0:0|1:0,0:0:0:0:
464,345,253777,1,0,1:0:0:0:
464,345,253850,1,0,1:0:0:0:
464,345,253924,2,0,L|457:262,1,72,8|0,0:0|1:0,0:0:0:0:
408,130,254145,1,0,1:0:0:0:
408,130,254218,2,0,L|401:213,1,72,8|0,0:0|1:0,0:0:0:0:
312,338,254512,5,4,1:2:0:0:
251,267,254659,2,0,P|228:213|249:122,1,144
122,33,255100,1,8,0:0:0:0:
70,192,255247,2,0,P|73:228|84:263,1,72,0|0,1:0|0:0,0:0:0:0:
200,199,255542,6,0,L|353:188,2,144,10|0|8,0:0|1:0|0:0,0:0:0:0:
162,346,256424,1,0,1:0:0:0:
162,346,256497,1,0,1:0:0:0:
162,346,256571,2,0,P|181:302|195:267,1,72,2|0,1:2|1:0,1:0:0:0:
126,75,256865,6,0,L|132:149,1,72,12|0,0:0|1:0,0:0:0:0:
251,206,257159,2,0,L|239:352,1,144,8|0,0:0|0:0,0:0:0:0:
364,153,257600,1,2,0:3:0:0:
364,153,257747,2,0,L|358:81,1,72,0|8,0:0|0:3,0:0:0:0:
238,29,258042,5,2,0:0:0:0:
315,227,258189,1,0,1:0:0:0:
315,227,258262,1,0,1:0:0:0:
315,227,258336,2,0,L|227:217,1,72,10|0,0:0|0:0,0:0:0:0:
96,114,258630,2,0,L|99:169,1,36,8|8,0:0|0:0,0:0:0:0:
40,257,258777,2,0,L|76:247,1,36,0|0,1:0|1:0,0:0:0:0:
140,335,258924,2,0,P|162:305|183:259,1,72,8|0,0:0|0:0,0:0:0:0:
201,41,259218,5,4,1:0:0:0:
427,87,259365,1,0,0:0:0:0:
226,68,259512,2,0,L|232:164,1,90,10|0,0:1|0:0,0:0:0:0:
113,360,259806,2,0,P|103:311|105:257,1,90,2|0,1:0|1:0,0:0:0:0:
314,171,260100,1,10,0:1:0:0:
117,153,260247,1,0,0:0:0:0:
268,263,260395,5,2,1:0:0:0:
249,73,260542,1,0,1:0:0:0:
249,73,260615,1,0,1:0:0:0:
249,73,260689,2,0,L|358:65,1,90,10|0,0:1|0:0,0:0:0:0:
450,224,260983,1,2,1:0:0:0:
445,259,261056,1,0,1:0:0:0:
440,294,261130,1,0,1:0:0:0:
435,329,261203,1,0,1:0:0:0:
403,346,261277,2,0,L|304:353,1,90,10|0,0:1|0:0,0:0:0:0:
66,174,261571,5,2,1:0:0:0:
157,103,261718,1,0,1:0:0:0:
157,103,261792,1,0,1:0:0:0:
157,103,261865,2,0,P|178:146|179:192,1,90,10|0,0:1|0:0,0:0:0:0:
92,353,262159,2,0,L|96:294,1,45,2|0,1:0|1:0,0:0:0:0:
264,239,262306,2,0,L|268:298,1,45,0|0,1:0|1:0,0:0:0:0:
113,297,262453,2,0,P|96:253|87:209,1,90,10|0,0:1|0:0,0:0:0:0:
187,41,262747,5,2,1:0:0:0:
185,258,262895,1,0,1:0:0:0:
218,43,263042,2,0,L|318:37,1,90,10|0,0:1|0:0,0:0:0:0:
481,211,263336,1,2,1:0:0:0:
456,237,263409,1,0,1:0:0:0:
421,249,263483,1,0,1:0:0:0:
385,244,263556,1,0,1:0:0:0:
352,228,263630,1,10,0:1:0:0:
105,154,263777,1,0,1:0:0:0:
105,154,263850,1,0,1:0:0:0:
105,154,263924,6,0,B|179:174|211:121|296:151,1,180,2|10,1:0|0:1,0:0:0:0:
191,315,264365,1,0,0:0:0:0:
306,163,264512,2,0,L|300:63,1,90,2|0,1:0|1:0,0:0:0:0:
141,70,264806,1,10,0:1:0:0:
249,261,264953,6,0,P|319:273|411:189,1,180,2|0,0:0|1:0,0:0:0:0:
184,168,265395,2,0,P|138:181|97:197,1,90,10|0,0:1|0:0,0:0:0:0:
294,349,265689,1,2,1:0:0:0:
329,353,265762,1,0,1:0:0:0:
364,357,265836,1,0,1:0:0:0:
399,361,265909,1,0,1:0:0:0:
426,337,265983,1,10,0:1:0:0:
339,132,266130,1,0,1:0:0:0:
249,261,266277,6,0,B|309:290|365:279|365:279|396:225,1,180,2|10,1:0|0:1,0:0:0:0:
378,23,266718,1,0,0:0:0:0:
429,247,266865,1,2,1:0:0:0:
302,89,267012,1,0,1:0:0:0:
500,129,267159,2,0,L|408:143,1,90,10|0,0:1|0:0,0:0:0:0:
179,179,267453,5,2,1:0:0:0:
301,43,267600,1,0,1:0:0:0:
301,43,267674,1,0,1:0:0:0:
301,43,267747,2,0,L|291:135,1,90,10|0,0:1|0:0,0:0:0:0:
157,346,268042,1,2,1:0:0:0:
126,326,268115,1,0,1:0:0:0:
112,292,268189,1,0,1:0:0:0:
113,256,268262,1,0,1:0:0:0:
130,224,268336,1,10,0:1:0:0:
366,266,268483,6,0,B|297:280|297:280|265:266|265:266|184:276,1,180,4|0,1:2|1:0,0:0:0:0:
113,256,268850,1,0,1:0:0:0:
91,230,268924,2,0,L|102:122,1,90,10|0,0:1|0:0,0:0:0:0:
179,29,269218,1,2,1:0:0:0:
179,29,269292,1,0,1:0:0:0:
179,29,269365,1,2,1:2:0:0:
327,169,269512,2,0,P|269:160|212:139,1,90,10|0,0:1|0:0,0:0:0:0:
2,299,269806,6,0,P|72:256|196:265,1,180,2|10,1:0|0:1,0:0:0:0:
235,348,270247,1,0,0:0:0:0:
80,222,270395,1,2,1:0:0:0:
75,186,270468,1,0,1:0:0:0:
70,150,270542,1,0,1:0:0:0:
66,114,270615,1,0,1:0:0:0:
77,79,270689,1,10,0:1:0:0:
248,166,270836,1,0,1:0:0:0:
69,260,270983,6,0,L|77:155,1,90,2|0,0:1|1:0,0:0:0:0:
143,128,271203,1,0,1:0:0:0:
143,128,271277,1,10,0:1:0:0:
205,320,271424,1,0,0:0:0:0:
387,237,271571,2,0,L|285:248,1,90,2|0,1:0|1:0,0:0:0:0:
143,128,271865,2,0,P|196:140|242:157,1,90,10|0,0:1|0:0,0:0:0:0:
292,338,272159,5,2,1:0:0:0:
408,207,272306,1,0,1:0:0:0:
405,170,272380,1,0,1:0:0:0:
402,134,272453,1,10,0:1:0:0:
311,55,272600,1,0,0:0:0:0:
369,278,272747,1,2,1:0:0:0:
403,288,272821,1,0,1:0:0:0:
438,281,272895,1,0,1:0:0:0:
466,259,272968,1,0,1:0:0:0:
482,226,273042,1,10,0:1:0:0:
305,179,273189,1,2,0:0:0:0:
210,314,273336,6,0,L|7:288,1,180,2|10,1:0|0:1,0:0:0:0:
223,149,273777,1,0,0:0:0:0:
277,360,273924,2,0,L|372:341,1,90,2|0,1:0|1:0,0:0:0:0:
197,288,274218,1,10,0:1:0:0:
456,361,274365,6,0,P|483:327|483:174,1,180,2|0,1:2|1:0,0:0:0:0:
421,147,274733,1,0,1:0:0:0:
421,147,274806,2,0,L|316:153,1,90,10|0,0:1|0:0,0:0:0:0:
126,212,275100,2,0,L|179:224,1,45,2|0,1:0|1:0,1:0:0:0:
306,287,275247,2,0,L|253:299,1,45,0|2,1:0|1:2,1:0:0:0:
192,152,275395,2,0,P|177:104|173:58,1,90,10|2,0:1|1:2,0:0:0:0:
434,20,275689,5,12,0:1:0:0:
377,235,275836,1,0,1:0:0:0:
367,200,275909,1,0,1:0:0:0:
362,163,275983,2,0,L|368:72,1,90,10|0,0:1|1:0,0:0:0:0:
206,197,276277,1,12,0:1:0:0:
160,44,276424,1,0,1:0:0:0:
293,215,276571,2,0,P|293:247|281:284,3,45,10|0|0|0,0:1|0:0|1:0|0:0,0:0:0:0:
232,314,276865,5,12,0:1:0:0:
256,340,276939,1,0,1:0:0:0:
289,353,277012,1,0,1:0:0:0:
325,349,277086,1,0,1:0:0:0:
352,325,277159,1,8,0:1:0:0:
365,291,277233,1,0,1:0:0:0:
365,255,277306,1,0,1:0:0:0:
353,220,277380,1,0,1:0:0:0:
361,185,277453,1,8,0:1:0:0:
389,163,277527,1,0,1:0:0:0:
424,161,277600,1,0,1:0:0:0:
451,184,277674,1,0,1:0:0:0:
461,218,277747,2,0,P|456:273|449:316,1,90,8|4,0:1|1:0,0:0:0:0:
265,225,278042,6,0,P|234:234|203:246,3,45
174,153,278336,2,0,P|143:144|112:132,3,45,2|0|0|0,1:2|0:0|0:0|0:0,0:0:0:0:
46,187,278630,2,0,L|34:279,1,90,0|0,1:0|0:0,0:0:0:0:
234,250,278924,2,0,L|246:342,1,90,2|0,1:2|0:0,0:0:0:0:
405,172,279218,5,0,1:0:0:0:
312,52,279365,1,0,0:0:0:0:
312,52,279439,1,0,0:0:0:0:
312,52,279512,2,0,P|301:100|295:149,1,90,2|0,1:2|0:0,0:0:0:0:
353,268,279806,2,0,P|351:295|348:326,3,45,0|0|0|0,1:0|0:0|0:0|0:0,0:0:0:0:
272,285,280100,2,0,L|163:291,1,90,2|0,1:2|0:0,0:0:0:0:
95,186,280395,6,0,P|65:192|35:203,3,45,0|0|0|0,1:0|0:0|0:0|0:0,0:0:0:0:
167,141,280689,2,0,P|188:147|210:151,3,45,2|0|0|0,1:2|0:0|0:0|0:0,0:0:0:0:
119,62,280983,1,0,1:0:0:0:
142,48,281056,1,0,0:0:0:0:
168,41,281130,1,0,0:0:0:0:
194,39,281203,1,0,0:0:0:0:
219,48,281277,1,2,1:2:0:0:
240,63,281350,1,0,0:0:0:0:
258,82,281424,1,0,0:0:0:0:
267,106,281497,1,0,0:0:0:0:
275,131,281571,1,6,1:0:0:0:
256,192,281645,12,4,282600,1:2:0:0:
209,214,283041,5,0,1:0:0:0:
321,26,283335,2,0,L|303:190,1,144,8|0,3:2|0:0,0:0:0:0:
366,258,283776,1,0,1:0:0:0:
366,258,283849,1,0,1:0:0:0:
366,258,283923,1,2,1:2:0:0:
441,187,284070,2,0,L|512:181,1,72,2|0,1:2|0:0,0:0:0:0:
380,101,284364,1,2,1:2:0:0:
374,273,284511,1,8,0:0:0:0:
451,176,284658,1,2,0:0:0:0:
300,209,284805,6,0,L|144:190,1,144,4|0,1:2|1:0,0:0:0:0:
143,16,285394,2,0,P|98:60|110:162,1,144,8|0,3:2|0:0,0:0:0:0:
183,276,285835,1,0,1:0:0:0:
183,276,285908,1,0,1:0:0:0:
183,276,285982,2,0,L|190:358,2,72,2|0|0,1:2|0:0|1:0,0:0:0:0:
305,191,286423,1,2,1:2:0:0:
204,95,286570,1,8,0:0:0:0:
206,288,286717,1,8,0:0:0:0:
397,297,286864,6,0,P|432:236|424:166,1,144,4|0,1:2|1:0,0:0:0:0:
215,188,287452,2,0,L|70:199,1,144,8|0,3:2|0:0,0:0:0:0:
25,110,287894,1,0,1:0:0:0:
25,110,287967,1,0,1:0:0:0:
25,110,288041,1,2,1:2:0:0:
108,53,288188,2,0,P|144:68|176:85,1,72,2|0,1:2|0:0,0:0:0:0:
307,188,288482,1,2,1:2:0:0:
117,182,288629,1,8,0:0:0:0:
282,294,288776,1,2,0:0:0:0:
93,213,288923,6,0,L|100:364,1,144,4|0,1:2|1:0,0:0:0:0:
320,295,289511,2,0,P|284:268|179:280,1,144,8|0,3:2|0:0,0:0:0:0:
388,365,289952,1,0,1:0:0:0:
388,365,290025,1,0,1:0:0:0:
388,365,290099,6,0,B|404:277|404:277|361:195,1,180,4|0,1:2|2:0,0:0:0:0:
124,19,290540,2,0,B|108:107|108:107|151:189,1,180,4|0,1:2|2:0,0:0:0:0:
427,125,290981,6,0,B|327:113|327:113|247:60,1,180,4|0,1:2|2:0,0:0:0:0:
85,259,291422,2,0,B|185:271|185:271|265:324,1,180,4|0,1:2|2:0,0:0:0:0:
388,367,291863,6,0,P|410:282|357:214,1,180,4|0,1:2|2:0,0:0:0:0:
123,16,292304,2,0,P|101:101|154:169,1,180,4|0,1:2|2:0,0:0:0:0:
270,140,292746,6,0,P|274:107|276:77,1,62.9999980773926,4|0,1:0|2:0,0:0:0:0:
151,255,293040,2,0,P|147:222|145:192,1,62.9999980773926,0|2,1:0|2:0,0:0:0:0:
275,289,293334,2,0,P|279:256|281:226,1,62.9999980773926,0|0,1:0|2:0,0:0:0:0:
191,114,293628,2,0,P|187:81|185:51,1,62.9999980773926,2|0,1:2|2:0,0:0:0:0:
396,130,293922,2,0,P|427:127|458:124,1,62.9999980773926,2|0,1:2|2:0,0:0:0:0:
306,189,294216,2,0,P|292:217|279:246,1,62.9999980773926,0|2,1:0|2:0,0:0:0:0:
301,82,294510,2,0,P|283:55|264:30,1,62.9999980773926,0|0,1:0|2:0,0:0:0:0:
198,245,294804,6,0,P|200:276|203:307,1,62.9999980773926,4|0,1:2|2:0,0:0:0:0:
76,174,295098,2,0,P|73:205|70:236,1,62.9999980773926,0|2,1:0|2:0,0:0:0:0:
198,103,295393,2,0,P|200:134|203:165,1,62.9999980773926,0|0,1:0|2:0,0:0:0:0:
76,32,295687,2,0,P|73:63|70:94,1,62.9999980773926,2|0,1:2|2:0,0:0:0:0:
303,205,295981,2,0,P|329:187|354:168,1,62.9999980773926,2|0,1:2|2:0,0:0:0:0:
507,198,296275,2,0,P|478:184|449:171,1,62.9999980773926,0|2,1:0|2:2,0:0:0:0:
400,27,296569,2,0,P|402:58|405:89,1,62.9999980773926,0|0,1:0|2:0,0:0:0:0:
404,257,296863,5,4,1:2:0:0:
404,257,297010,1,0,0:0:0:0:
289,304,297157,2,0,L|212:293,1,62.9999980773926,0|0,1:0|0:0,0:0:0:0:
45,254,297451,2,0,P|85:219|178:232,1,125.999996154785,10|2,3:2|0:0,0:0:0:0:
129,371,297893,1,0,1:0:0:0:
129,371,297966,1,0,1:0:0:0:
129,371,298040,2,0,L|123:302,1,62.9999980773926,2|0,1:2|1:0,0:0:0:0:
211,142,298334,2,0,L|198:14,1,125.999996154785,2|8,0:0|0:0,0:0:0:0:
320,103,298775,1,8,0:0:0:0:
121,95,298922,6,0,P|97:134|116:230,1,125.999996154785,4|0,1:2|1:0,0:0:0:0:
258,251,299363,1,2,0:0:0:0:
246,98,299510,2,0,L|238:225,1,125.999996154785,8|0,3:2|0:0,0:0:0:0:
336,324,299951,1,0,1:0:0:0:
336,324,300025,1,0,1:0:0:0:
336,324,300098,1,2,1:2:0:0:
451,235,300246,2,0,B|419:220|419:220|323:230,1,125.999996154785,0|2,1:0|1:2,0:0:0:0:
191,300,300687,1,8,0:0:0:0:
415,309,300834,1,8,0:0:0:0:
289,154,300981,6,0,P|280:108|274:56,1,80.9999975280763,4|0,1:0|0:0,0:0:0:0:
454,202,301275,2,0,P|448:242|440:281,1,80.9999975280763,8|0,3:2|0:0,0:0:0:0:
209,208,301569,1,2,1:2:0:0:
386,137,301716,1,0,1:0:0:0:
346,327,301863,1,8,3:2:0:0:
267,142,302010,2,0,P|195:123|125:176,1,161.999995056153,0|0,1:0|1:0,0:0:0:0:
365,219,302451,2,0,P|423:214|453:208,1,80.9999975280763,8|0,3:2|1:0,0:0:0:0:
252,94,302746,2,0,P|291:100|332:103,1,80.9999975280763,8|0,0:0|1:0,0:0:0:0:
443,18,303040,5,12,0:0:0:0:
473,201,303187,1,0,1:0:0:0:
467,227,303260,1,0,1:0:0:0:
461,253,303334,2,0,L|469:310,1,45,10|0,3:2|1:0,0:0:0:0:
371,235,303481,1,0,1:0:0:0:
345,225,303554,1,0,1:0:0:0:
318,220,303628,2,0,L|258:223,1,45,10|0,3:2|0:0,0:0:0:0:
150,283,303775,1,0,1:0:0:0:
308,355,303922,1,8,0:0:0:0:
311,122,304069,5,4,1:2:0:0:
256,192,304216,12,0,306422,2:0:0:0:
212,110,306569,5,10,3:1:0:0:
257,344,306716,1,0,1:0:0:0:
311,178,306863,1,10,3:1:0:0:
243,373,307010,1,0,1:0:0:0:
297,88,307157,5,10,3:1:0:0:
342,84,307231,1,8,1:3:0:0:
381,104,307304,1,0,1:0:0:0:
401,144,307378,1,0,1:0:0:0:
398,188,307451,1,8,3:1:0:0:
208,149,307598,6,0,B|126:124|112:176|22:144,1,180,4|0,1:2|1:0,0:0:0:0:
133,374,307966,1,0,1:0:0:0:
133,374,308040,2,0,P|172:334|153:206,1,180,14|2,0:1|1:0,0:0:0:0:
39,65,308481,1,0,1:0:0:0:
34,348,308628,2,0,P|66:308|89:271,1,90,10|0,0:1|0:0,0:0:0:0:
175,118,308922,5,2,1:0:0:0:
197,328,309069,1,0,1:0:0:0:
197,328,309142,1,0,1:0:0:0:
197,328,309216,2,0,P|183:266|176:224,1,90,10|2,0:1|0:0,0:0:0:0:
329,195,309510,1,2,1:0:0:0:
323,239,309584,1,0,1:0:0:0:
317,283,309657,1,0,1:0:0:0:
309,327,309731,1,0,1:0:0:0:
324,368,309804,1,10,0:1:0:0:
423,172,309951,6,0,P|364:107|277:110,1,180,2|0,1:2|1:0,0:0:0:0:
116,216,310319,1,0,1:0:0:0:
116,216,310392,2,0,L|216:206,1,90,10|0,0:1|0:0,0:0:0:0:
329,280,310687,1,2,1:0:0:0:
176,124,310834,1,0,1:0:0:0:
164,357,310981,2,0,P|209:348|270:330,1,90,10|0,0:1|0:0,0:0:0:0:
376,167,311275,5,2,1:0:0:0:
200,232,311422,1,0,1:0:0:0:
200,232,311495,1,0,1:0:0:0:
200,232,311569,2,0,P|251:246|299:253,1,90,10|2,0:1|0:0,0:0:0:0:
434,160,311863,2,0,L|429:96,1,45,2|0,1:0|1:0,1:0:0:0:
330,31,312010,2,0,L|325:95,1,45,0|0,1:0|1:0,1:0:0:0:
228,157,312157,1,10,0:1:0:0:
65,75,312304,6,0,B|99:38|99:38|162:26|236:67,1,180,2|0,1:2|1:0,0:0:0:0:
290,287,312745,2,0,L|191:261,1,90,10|0,0:1|0:0,0:0:0:0:
34,351,313040,1,2,1:0:0:0:
132,165,313187,2,0,P|182:152|227:146,1,90,2|10,1:2|0:1,0:0:0:0:
440,304,313481,6,0,P|392:295|303:194,1,180,2|0,0:0|1:0,0:0:0:0:
350,120,313849,1,0,1:0:0:0:
350,120,313922,2,0,L|343:26,1,90,10|2,0:1|0:0,0:0:0:0:
146,23,314216,1,2,1:0:0:0:
149,68,314290,1,0,1:0:0:0:
153,112,314363,1,0,1:0:0:0:
157,157,314437,1,0,1:0:0:0:
187,189,314510,1,10,0:1:0:0:
95,348,314657,6,0,P|66:308|81:177,1,180,2|0,1:2|1:0,0:0:0:0:
243,147,315025,1,0,1:0:0:0:
243,147,315098,2,0,L|236:244,1,90,10|0,0:1|0:0,0:0:0:0:
361,283,315392,1,2,1:0:0:0:
164,290,315540,1,0,1:0:0:0:
390,263,315687,1,10,0:1:0:0:
246,358,315834,1,2,0:0:0:0:
289,137,315981,6,0,L|286:81,1,45,2|0,1:0|1:0,1:0:0:0:
167,245,316128,2,0,L|164:289,1,45,0|0,1:0|1:0,1:0:0:0:
365,179,316275,1,10,0:1:0:0:
196,120,316422,1,2,0:0:0:0:
222,334,316569,1,2,1:0:0:0:
364,96,316716,1,0,1:0:0:0:
377,52,316790,1,0,1:0:0:0:
383,7,316863,1,10,0:1:0:0:
256,127,317010,6,0,B|274:200|233:232|258:305,1,180,2|0,1:2|1:0,0:0:0:0:
22,191,317378,1,0,1:0:0:0:
22,191,317451,2,0,P|85:148|195:189,1,180,14|2,0:1|1:0,0:0:0:0:
59,298,317892,1,0,1:0:0:0:
203,152,318040,2,0,L|301:141,1,90,10|0,0:1|0:0,0:0:0:0:
472,101,318334,5,2,1:0:0:0:
390,286,318481,1,0,1:0:0:0:
390,286,318554,1,0,1:0:0:0:
390,286,318628,2,0,P|380:227|380:188,1,90,10|2,0:1|0:0,0:0:0:0:
448,71,318922,1,2,1:0:0:0:
407,51,318995,1,0,1:0:0:0:
361,50,319069,1,0,1:0:0:0:
319,66,319142,1,0,1:0:0:0:
286,97,319216,1,10,0:1:0:0:
132,229,319363,6,0,P|91:198|84:74,1,180,2|0,1:2|1:0,0:0:0:0:
230,193,319731,1,0,1:0:0:0:
230,193,319804,2,0,L|218:297,1,90,10|0,0:1|0:0,0:0:0:0:
380,102,320098,1,2,1:0:0:0:
414,262,320245,1,0,1:0:0:0:
246,109,320392,2,0,L|234:5,1,90,10|0,0:1|0:0,0:0:0:0:
139,303,320687,5,2,1:0:0:0:
344,208,320834,2,0,P|285:190|238:186,1,90,2|10,1:2|0:1,0:0:0:0:
65,227,321128,1,2,0:0:0:0:
224,270,321275,1,2,1:0:0:0:
248,232,321348,1,0,1:0:0:0:
257,187,321422,1,0,1:0:0:0:
239,145,321495,1,0,1:0:0:0:
206,113,321569,1,10,0:1:0:0:
169,339,321716,6,0,B|231:352|231:352|273:333|273:333|352:350,1,180,2|0,1:2|1:0,0:0:0:0:
489,227,322084,1,0,1:0:0:0:
489,227,322157,2,0,L|391:243,1,90,10|0,0:1|0:0,0:0:0:0:
312,174,322451,1,2,1:0:0:0:
392,21,322598,2,0,P|400:72|394:121,1,90,0|10,1:0|0:1,0:0:0:0:
212,213,322892,6,0,B|129:184|116:239|26:207,1,180,2|0,0:0|1:0,0:0:0:0:
185,354,323260,1,0,1:0:0:0:
185,354,323334,2,0,P|247:343|284:332,1,90,10|2,0:1|0:0,0:0:0:0:
391,207,323628,1,2,1:0:0:0:
426,234,323701,1,0,1:0:0:0:
442,276,323775,1,0,1:0:0:0:
435,320,323848,1,0,1:0:0:0:
410,358,323922,1,10,0:1:0:0:
282,192,324069,6,0,P|247:124|284:21,1,180,2|0,1:2|1:0,0:0:0:0:
458,99,324437,1,0,1:0:0:0:
458,99,324510,2,0,L|360:92,1,90,10|2,0:1|0:0,0:0:0:0:
168,61,324804,1,2,1:0:0:0:
243,257,324951,1,2,1:2:0:0:
369,93,325098,2,0,P|299:102|257:118,1,90,10|2,0:1|0:0,0:0:0:0:
144,300,325392,5,2,1:0:0:0:
91,86,325540,1,0,1:0:0:0:
26,335,325687,2,0,L|137:323,1,90,10|2,0:1|0:0,0:0:0:0:
342,188,325981,1,10,0:1:0:0:
386,191,326054,1,8,0:0:0:0:
426,211,326128,1,8,1:3:0:0:
449,249,326201,1,0,1:3:0:0:
418,282,326275,1,8,0:1:0:0:
375,295,326348,1,8,0:0:0:0:
330,287,326422,6,0,B|264:269|220:313|152:290,1,180,4|0,1:2|1:0,0:0:0:0:
176,50,326790,1,0,1:0:0:0:
176,50,326863,2,0,P|208:95|190:224,1,180,14|2,0:1|1:0,0:0:0:0:
91,73,327304,1,0,1:0:0:0:
301,108,327451,1,10,0:1:0:0:
115,171,327598,1,2,0:0:0:0:
306,68,327745,5,2,1:0:0:0:
273,290,327892,1,0,1:0:0:0:
273,290,327966,1,0,1:0:0:0:
273,290,328040,2,0,L|383:279,1,90,10|2,0:1|0:0,0:0:0:0:
482,122,328334,1,2,1:0:0:0:
438,110,328407,1,0,1:0:0:0:
394,121,328481,1,0,1:0:0:0:
366,156,328554,1,0,1:0:0:0:
352,199,328628,1,10,0:1:0:0:
265,364,328775,6,0,B|242:316|242:316|259:177,1,180,2|0,1:2|1:0,0:0:0:0:
118,110,329142,1,0,1:0:0:0:
118,110,329216,2,0,P|172:104|224:117,1,90,10|0,0:1|0:0,0:0:0:0:
338,303,329510,1,2,1:0:0:0:
163,199,329657,1,2,1:2:0:0:
372,218,329804,2,0,L|465:199,1,90,10|0,0:1|0:0,0:0:0:0:
503,52,330098,5,2,1:0:0:0:
267,103,330245,1,0,1:0:0:0:
267,103,330319,1,0,1:0:0:0:
267,103,330392,2,0,B|262:147|262:147|280:209,1,90,10|2,0:1|0:0,0:0:0:0:
386,305,330687,2,0,L|395:357,1,45,2|0,1:0|1:0,1:0:0:0:
261,319,330834,2,0,L|252:371,1,45,0|0,1:0|1:0,1:0:0:0:
171,237,330981,1,10,0:1:0:0:
363,212,331128,6,0,B|433:225|491:197|491:197|440:173,1,180,2|0,1:2|1:0,0:0:0:0:
274,172,331495,1,0,1:0:0:0:
274,172,331569,2,0,P|250:223|237:264,1,90,10|0,0:1|0:0,0:0:0:0:
315,359,331863,1,2,1:0:0:0:
118,263,332010,2,0,L|108:169,1,90,2|10,1:2|0:1,0:0:0:0:
33,55,332304,6,0,P|117:35|184:91,1,180,2|0,0:0|1:0,0:0:0:0:
156,249,332671,1,0,1:0:0:0:
156,249,332745,2,0,L|165:344,1,90,10|2,0:1|0:0,0:0:0:0:
98,123,333040,1,2,1:0:0:0:
142,127,333113,1,0,1:0:0:0:
187,131,333187,1,0,1:0:0:0:
231,135,333260,1,0,1:0:0:0:
259,170,333334,1,10,0:1:0:0:
294,320,333481,6,0,P|348:351|445:273,1,180,2|0,1:2|1:0,0:0:0:0:
228,253,333848,1,0,1:0:0:0:
228,253,333922,2,0,L|123:250,1,90,10|0,0:1|0:0,0:0:0:0:
46,169,334216,1,2,1:0:0:0:
124,337,334363,1,0,1:0:0:0:
216,176,334510,2,0,L|210:75,1,90,10|2,0:1|0:0,0:0:0:0:
112,245,334804,6,0,L|160:254,1,45,0|0,1:0|0:0,0:0:0:0:
327,218,334951,2,0,L|281:228,1,45,0|0,1:0|0:0,0:0:0:0:
97,136,335098,2,0,P|159:152|205:174,1,90,10|2,0:1|0:0,0:0:0:0:
227,345,335392,1,10,3:2:0:0:
259,92,335540,1,0,1:0:0:0:
193,353,335687,1,10,3:2:0:0:
360,176,335834,6,0,L|347:53,1,107.999996704102,4|0,1:2|2:0,0:0:0:0:
259,185,336275,2,0,P|250:216|245:243,1,53.9999983520508,2|0,1:0|2:0,0:0:0:0:
1,63,336569,2,0,P|47:36|119:36,1,107.999996704102,12|0,3:1|2:0,0:0:0:0:
257,261,337010,1,0,1:0:0:0:
130,116,337157,1,2,1:0:0:0:
273,127,337304,2,0,L|150:138,1,107.999996704102,2|0,0:2|1:0,0:0:0:0:
359,53,337745,2,0,P|399:73|470:93,1,107.999996704102,10|0,0:1|2:0,0:0:0:0:
455,338,338187,6,0,P|446:309|441:276,1,53.9999983520508,4|0,1:2|2:0,0:0:0:0:
282,88,338481,1,2,2:0:0:0:
367,84,338628,2,0,P|362:110|353:136,1,53.9999983520508,0|0,1:0|2:0,0:0:0:0:
218,287,338922,2,0,L|97:273,1,107.999996704102,12|2,3:1|0:0,0:0:0:0:
39,68,339363,1,0,1:0:0:0:
39,68,339437,1,0,1:0:0:0:
39,68,339510,1,2,1:0:0:0:
115,112,339657,2,0,L|181:101,1,53.9999983520508,2|0,1:2|2:0,0:0:0:0:
385,57,339951,2,0,L|438:62,1,53.9999983520508,0|10,1:0|0:1,0:0:0:0:
390,264,340245,1,0,0:0:0:0:
225,172,340392,1,0,0:0:0:0:
394,140,340540,6,0,L|406:263,1,107.999996704102,4|0,1:2|2:0,0:0:0:0:
184,255,340981,2,0,P|149:260|106:270,1,53.9999983520508,2|0,1:2|2:0,0:0:0:0:
9,112,341275,2,0,L|123:125,1,107.999996704102,12|0,3:1|2:0,0:0:0:0:
76,34,341716,1,2,0:0:0:0:
261,132,341863,2,0,L|269:197,1,53.9999983520508,2|0,1:0|1:0,0:0:0:0:
373,377,342157,2,0,L|379:323,1,53.9999983520508,2|0,2:0|1:0,0:0:0:0:
502,174,342451,2,0,P|474:150|398:154,1,107.999996704102,10|8,0:1|0:0,0:0:0:0:
227,338,342892,6,0,L|102:329,1,107.999996704102,8|0,0:0|1:0,0:0:0:0:
48,40,343334,2,0,P|44:84|40:106,1,53.9999983520508,2|0,1:0|2:0,0:0:0:0:
119,330,343628,2,0,L|109:206,1,107.999996704102,12|0,3:1|2:0,0:0:0:0:
275,88,344069,1,2,1:2:0:0:
275,88,344142,1,0,1:0:0:0:
275,88,344216,1,2,1:0:0:0:
326,162,344363,2,0,L|316:224,1,53.9999983520508,2|0,1:2|2:0,0:0:0:0:
265,286,344657,1,2,1:2:0:0:
416,192,344804,1,10,0:1:0:0:
211,123,344951,1,8,0:0:0:0:
254,319,345098,1,8,0:0:0:0:
368,127,345245,6,0,B|353:8|353:8|320:78,1,180,4|0,1:0|2:0,0:0:0:0:
288,198,345687,5,10,3:2:0:0:
81,147,345834,1,0,1:0:0:0:
231,90,345981,1,10,3:2:0:0:
238,309,346128,1,0,1:0:0:0:
89,190,346275,1,10,3:2:0:0:
306,170,346422,1,0,1:0:0:0:
127,85,346569,5,10,3:2:0:0:
147,292,346716,1,0,1:0:0:0:
245,83,346863,1,10,3:2:0:0:
238,309,347010,1,0,1:0:0:0:
351,93,347157,1,10,3:2:0:0:
341,309,347304,1,0,1:0:0:0:
341,309,347378,1,0,1:0:0:0:
341,309,347451,2,0,L|358:207,1,90,10|0,3:2|1:0,0:0:0:0:
258,43,347745,6,0,P|237:52|196:57,3,45,12|0|0|0,1:2|1:0|1:0|1:0,1:0:0:0:
142,27,348040,1,10,1:2:0:0:
109,57,348113,1,0,1:0:0:0:
100,101,348187,1,0,1:0:0:0:
113,143,348260,1,0,1:0:0:0:
147,171,348334,5,8,1:2:0:0:
191,167,348407,1,0,1:0:0:0:
225,137,348481,1,0,1:0:0:0:
267,122,348554,1,0,1:0:0:0:
310,135,348628,1,10,1:2:0:0:
339,168,348701,1,0,1:0:0:0:
344,212,348775,1,0,1:0:0:0:
323,251,348848,1,0,1:0:0:0:
281,269,348922,5,4,1:0:0:0:
256,192,348995,12,8,349657,3:3:0:0:
393,108,349951,6,0,L|407:296,1,180,4|0,1:2|1:0,0:0:0:0:
288,143,350392,2,0,P|242:126|191:103,1,90,12|0,0:1|0:0,0:0:0:0:
90,174,350687,1,2,1:0:0:0:
304,111,350834,1,2,1:2:0:0:
224,265,350981,2,0,P|228:316|236:360,1,90,10|0,0:1|0:0,0:0:0:0:
281,80,351275,5,2,1:0:0:0:
107,114,351422,1,0,1:0:0:0:
114,148,351495,1,0,1:0:0:0:
137,175,351569,2,0,L|236:155,1,90,10|0,0:1|0:0,0:0:0:0:
356,25,351863,1,2,1:0:0:0:
389,40,351936,1,0,1:0:0:0:
410,71,352010,1,0,1:0:0:0:
417,107,352083,1,0,1:0:0:0:
405,142,352157,1,10,0:1:0:0:
328,330,352304,6,0,B|300:291|300:291|284:234|321:162,1,180,2|0,1:2|1:0,0:0:0:0:
194,33,352672,1,0,1:0:0:0:
194,33,352745,2,0,L|212:132,1,90,10|0,0:1|0:0,0:0:0:0:
188,299,353040,1,2,1:0:0:0:
98,138,353187,1,2,1:2:0:0:
320,163,353334,2,0,L|427:154,1,90,10|0,0:1|0:0,0:0:0:0:
488,227,353628,5,2,1:0:0:0:
447,31,353775,1,0,1:0:0:0:
412,40,353848,1,0,1:0:0:0:
379,56,353922,1,10,0:1:0:0:
462,252,354069,1,0,0:0:0:0:
267,169,354216,1,2,1:0:0:0:
264,146,354290,1,0,1:0:0:0:
261,123,354363,1,0,1:0:0:0:
258,100,354437,1,0,1:0:0:0:
255,77,354510,1,10,0:1:0:0:
23,91,354657,6,0,P|66:132|187:128,1,180,2|0,1:2|1:0,0:0:0:0:
420,68,355098,2,0,P|368:43|327:37,1,90,10|0,0:1|0:0,0:0:0:0:
311,284,355392,1,2,1:0:0:0:
285,114,355540,1,2,1:2:0:0:
298,304,355687,2,0,L|399:291,1,90,10|0,0:1|0:0,0:0:0:0:
479,134,355981,6,0,L|382:144,1,90,2|0,1:0|1:0,0:0:0:0:
297,205,356275,1,10,0:1:0:0:
425,56,356422,1,2,0:0:0:0:
387,292,356569,1,2,1:0:0:0:
362,311,356642,1,0,1:0:0:0:
332,322,356716,1,2,1:2:0:0:
300,320,356790,1,0,1:0:0:0:
269,313,356863,1,10,0:1:0:0:
153,206,357010,6,0,L|175:16,1,180,2|0,1:2|1:0,0:0:0:0:
58,180,357378,1,0,1:0:0:0:
58,180,357451,2,0,P|62:245|71:278,1,90,10|0,0:1|0:0,0:0:0:0:
251,170,357745,1,2,1:0:0:0:
216,343,357892,1,2,1:2:0:0:
178,114,358040,2,0,P|228:86|280:78,1,90,10|0,0:1|0:0,0:0:0:0:
449,202,358334,6,0,L|439:297,1,90,2|0,1:0|1:0,0:0:0:0:
381,343,358554,1,0,1:0:0:0:
381,343,358628,1,10,0:1:0:0:
251,170,358775,2,0,L|310:185,1,45,2|0,1:2|1:0,0:0:0:0:
305,278,358922,1,10,0:1:0:0:
277,293,358995,1,0,1:0:0:0:
245,286,359069,1,2,1:2:0:0:
214,279,359142,1,0,1:0:0:0:
182,272,359216,1,10,0:1:0:0:
34,205,359363,6,0,P|94:168|159:182,1,135.000005149842,2|0,1:2|1:0,0:0:0:0:
133,359,359731,1,0,1:0:0:0:
133,359,359804,6,0,L|127:256,1,90,12|0,0:1|0:0,0:0:0:0:
334,93,360098,1,2,1:0:0:0:
181,109,360245,1,2,1:2:0:0:
366,66,360392,2,0,L|358:169,1,90,10|0,0:1|0:0,0:0:0:0:
276,309,360687,5,2,1:0:0:0:
474,242,360834,1,0,1:0:0:0:
474,242,360907,1,0,1:0:0:0:
474,242,360981,2,0,P|408:227|361:225,1,90,10|2,0:1|0:0,0:0:0:0:
203,258,361275,1,2,1:0:0:0:
188,230,361348,1,0,1:0:0:0:
186,198,361422,1,0,1:0:0:0:
196,168,361495,1,0,1:0:0:0:
218,145,361569,1,10,0:1:0:0:
307,320,361716,6,0,B|244:325|244:325|206:349|206:349|113:355,1,180,2|0,1:2|1:0,0:0:0:0:
62,267,362084,1,0,1:0:0:0:
62,267,362157,2,0,P|33:308|23:354,1,90,10|0,0:1|0:0,0:0:0:0:
235,352,362451,1,2,1:0:0:0:
150,184,362598,1,2,1:2:0:0:
145,374,362745,2,0,L|159:274,1,90,10|0,0:1|0:0,0:0:0:0:
250,28,363040,6,0,B|263:70|263:70|253:114,1,90,2|0,1:0|1:0,0:0:0:0:
149,77,363334,1,10,0:1:0:0:
353,53,363481,2,0,L|406:46,1,45,2|0,1:2|1:0,1:0:0:0:
463,126,363628,1,2,1:0:0:0:
459,156,363701,1,0,1:0:0:0:
455,187,363775,1,2,1:2:0:0:
450,217,363848,1,0,1:0:0:0:
445,248,363922,1,10,0:1:0:0:
307,324,364069,6,0,P|385:292|482:327,1,180,2|0,1:2|1:0,0:0:0:0:
279,228,364437,1,0,1:0:0:0:
279,228,364510,2,0,L|182:215,1,90,10|0,0:1|0:0,0:0:0:0:
40,184,364804,1,2,1:0:0:0:
211,136,364951,1,2,1:2:0:0:
142,358,365098,2,0,P|131:306|130:249,1,90,10|0,0:1|0:0,0:0:0:0:
203,45,365392,5,2,1:0:0:0:
375,179,365540,1,0,1:0:0:0:
375,179,365613,1,0,1:0:0:0:
375,179,365687,2,0,L|367:278,1,90,10|0,0:1|0:0,0:0:0:0:
192,315,365981,2,0,L|246:306,1,45,2|2,1:0|1:2,1:0:0:0:
292,185,366128,2,0,L|238:176,1,45,0|0,1:0|1:0,1:0:0:0:
183,74,366275,1,10,0:1:0:0:
400,98,366422,6,0,B|427:184|427:184|406:216|387:284,1,180,2|0,1:2|1:0,0:0:0:0:
268,180,366790,1,0,1:0:0:0:
268,180,366863,2,0,P|216:186|161:202,1,90,10|0,0:1|0:0,0:0:0:0:
92,329,367157,1,2,1:0:0:0:
66,137,367304,1,2,1:2:0:0:
68,358,367451,2,0,L|174:337,1,90,10|0,0:1|0:0,0:0:0:0:
351,223,367745,6,0,P|363:274|368:323,1,90,2|0,1:0|1:0,0:0:0:0:
309,370,367966,1,0,1:0:0:0:
309,370,368040,1,10,0:1:0:0:
404,151,368187,1,0,0:0:0:0:
235,296,368334,1,2,1:0:0:0:
204,289,368407,1,0,1:0:0:0:
173,282,368481,1,0,1:0:0:0:
142,275,368554,1,0,1:0:0:0:
115,292,368628,1,10,0:1:0:0:
219,195,368775,6,0,P|254:138|244:47,1,144,4|2,1:0|2:0,0:0:0:0:
116,108,369216,2,0,P|75:98|30:84,1,72,0|2,1:0|2:0,0:0:0:0:
1,264,369510,2,0,P|35:253|70:245,1,72,0|2,1:0|2:0,0:0:0:0:
219,195,369804,2,0,P|214:250|209:285,1,72,0|2,1:0|2:0,0:0:0:0:
353,356,370098,2,0,P|348:320|345:284,1,72,2|2,1:2|2:0,0:0:0:0:
470,171,370392,2,0,P|465:226|460:261,1,72,0|2,1:0|2:0,0:0:0:0:
315,85,370686,6,0,P|271:101|238:110,1,72,0|2,1:0|2:0,0:0:0:0:
75,55,370980,2,0,P|119:39|152:30,1,72,0|2,1:0|2:0,0:0:0:0:
296,129,371274,2,0,P|249:126|215:121,1,72,0|2,1:0|2:0,0:0:0:0:
86,7,371568,2,0,P|132:9|166:14,1,72,0|2,1:0|2:0,0:0:0:0:
93,153,371862,2,0,P|88:188|87:224,1,72,2|2,1:2|2:0,0:0:0:0:
242,296,372156,6,0,P|233:261|221:227,1,72,2|0,1:2|2:0,0:0:0:0:
318,60,372450,2,0,P|305:93|295:128,1,72,2|0,1:2|2:0,0:0:0:0:
450,163,372744,2,0,P|417:177|385:195,1,72,0|2,1:0|2:0,0:0:0:0:
409,323,373038,2,0,P|375:310|340:300,1,72,0|2,1:0|2:0,0:0:0:0:
198,242,373333,2,0,L|60:261,1,108,8|0,1:0|1:0,1:0:0:0:
71,282,373627,6,8,L|61:222,1,45,8|8,1:2|0:0,0:0:0:0:
115,168,373774,2,8,L|125:108,1,45
80,41,373921,1,8,0:0:0:0:
80,41,373994,1,8,0:0:0:0:
80,41,374068,2,8,L|190:31,1,90,10|0,1:2|0:0,0:0:0:0:
373,130,374362,1,8,0:0:0:0:
373,130,374435,1,8,0:0:0:0:
373,130,374509,2,8,L|263:120,1,90,10|0,1:2|0:0,0:0:0:0:
172,204,374803,1,10,0:0:0:0:
165,235,374877,1,8,0:0:0:0:
172,265,374950,1,8,0:0:0:0:
181,295,375024,1,8,0:0:0:0:
168,323,375097,6,8,L|229:329,1,45,10|8,1:2|0:0,0:0:0:0:
361,358,375244,2,8,L|300:364,1,45
268,233,375391,1,8,0:0:0:0:
268,233,375465,1,8,0:0:0:0:
268,233,375538,2,8,L|285:129,1,90,10|0,0:2|0:0,0:0:0:0:
89,268,375832,1,8,0:0:0:0:
89,268,375906,1,8,0:0:0:0:
89,268,375979,2,8,L|72:164,1,90,10|0,1:2|0:0,0:0:0:0:
189,45,376274,1,10,0:0:0:0:
220,48,376347,1,8,0:0:0:0:
251,52,376421,1,8,0:0:0:0:
282,55,376494,1,8,0:0:0:0:
313,59,376568,6,8,L|378:52,1,45,10|8,1:2|0:0,0:0:0:0:
431,149,376715,2,8,L|496:142,1,45
342,237,376862,1,8,0:0:0:0:
342,237,376935,1,8,0:0:0:0:
342,237,377009,2,8,P|299:228|241:224,1,90,10|0,0:2|0:0,0:0:0:0:
83,162,377303,1,8,0:0:0:0:
83,162,377376,1,8,0:0:0:0:
83,162,377450,2,8,P|126:161|184:153,1,90,10|0,1:2|0:0,0:0:0:0:
244,58,377744,1,10,0:0:0:0:
275,61,377818,1,8,0:0:0:0:
305,65,377891,1,8,0:0:0:0:
336,69,377965,1,8,0:0:0:0:
356,92,378038,6,8,L|359:141,1,45,10|8,1:2|0:0,0:0:0:0:
406,275,378185,2,8,L|409:226,1,45
278,185,378332,1,8,0:0:0:0:
278,185,378406,1,8,0:0:0:0:
278,185,378479,2,8,L|181:195,1,90,10|0,0:2|0:0,0:0:0:0:
330,357,378774,1,8,0:0:0:0:
330,357,378848,1,8,0:0:0:0:
330,357,378921,2,8,L|233:347,1,90,10|0,1:2|0:0,0:0:0:0:
91,258,379215,1,10,0:0:0:0:
89,226,379288,1,8,0:0:0:0:
87,194,379362,1,8,0:0:0:0:
85,162,379435,1,8,0:0:0:0:
83,130,379509,5,12,3:1:0:0:
23,329,379656,1,0,1:0:0:0:
178,221,379803,1,2,1:0:0:0:
20,184,379950,5,12,3:1:0:0:
251,293,380097,1,2,1:0:0:0:
226,128,380244,1,0,1:0:0:0:
168,341,380391,5,12,3:1:0:0:
320,178,380538,1,0,1:0:0:0:
89,209,380685,2,0,L|186:222,1,90,12|0,3:2|1:0,0:0:0:0:
318,74,380979,5,12,3:1:0:0:
333,313,381127,1,0,1:0:0:0:
395,130,381274,1,2,1:0:0:0:
252,270,381421,5,12,3:1:0:0:
417,303,381568,1,2,1:0:0:0:
298,98,381715,1,0,1:0:0:0:
439,212,381862,5,12,3:1:0:0:
167,117,382009,1,0,1:0:0:0:
395,130,382156,2,0,L|286:145,1,90,12|0,3:2|1:0,0:0:0:0:
167,175,382450,6,0,P|157:146|152:126,5,45,12|0|2|0|2|0,3:1|1:0|1:2|1:0|1:0|1:0,0:0:0:0:
96,222,382891,5,12,3:1:0:0:
72,255,382965,1,0,1:0:0:0:
69,295,383038,1,2,1:0:0:0:
88,330,383112,1,0,1:0:0:0:
122,350,383185,1,2,1:2:0:0:
161,338,383259,1,0,1:0:0:0:
191,312,383332,6,0,L|196:251,1,45,12|0,1:1|1:0,0:0:0:0:
260,118,383479,2,0,L|265:179,1,45,2|0,1:2|1:0,0:0:0:0:
344,254,383627,5,12,1:1:0:0:
383,247,383700,1,8,0:0:0:0:
423,240,383774,1,8,1:2:0:0:
462,233,383847,1,8,0:0:0:0:
477,195,383921,5,10,0:1:0:0:
462,152,383994,1,8,0:0:0:0:
424,126,384068,1,4,3:0:0:0:
380,136,384141,1,2,3:0:0:0:
346,166,384215,1,0,1:0:0:0:
301,159,384288,1,0,1:0:0:0:
261,136,384362,6,0,L|246:70,1,45,10|8,0:1|0:0,0:0:0:0:
183,21,384509,1,2,3:0:0:0:
146,53,384582,1,8,3:0:0:0:
130,100,384656,1,0,1:0:0:0:
146,146,384729,1,0,1:0:0:0:
183,178,384803,5,12,1:1:0:0:
328,85,384950,1,0,1:0:0:0:
286,352,385097,1,12,1:0:0:0:
