osu file format v14

[General]
AudioFilename: I LIED.mp3
AudioLeadIn: 0
PreviewTime: 307084
Countdown: 0
SampleSet: Normal
StackLeniency: 0.7
Mode: 1
LetterboxInBreaks: 0
WidescreenStoryboard: 0

[Editor]
DistanceSpacing: 0.7
BeatDivisor: 4
GridSize: 32
TimelineZoom: 2.5

[Metadata]
Title:Lies in Reality
TitleUnicode:Lies in Reality
Artist:FELT
ArtistUnicode:FELT
Creator:Surono
Version:Dissembler
Source:東方神霊廟 ~ Ten Desires.
Tags:Marathon Touhou Project Team Shanghai Alice Vivienne Renko Maurits 禅 Cornelis W.nova Abyss nova c84 大神神話伝 Legend of the Great Gods stage 5 Mononobe no Futo th13 ZUN
BeatmapID:1407618
BeatmapSetID:665069

[Difficulty]
HPDrainRate:4.5
CircleSize:2
OverallDifficulty:6.5
ApproachRate:10
SliderMultiplier:1.4
SliderTickRate:1

[Events]
//Background and Video events
0,0,"bege fakerono.jpg",0,110
//Break Periods
//Storyboard Layer 0 (Background)
//Storyboard Layer 1 (Fail)
//Storyboard Layer 2 (Pass)
//Storyboard Layer 3 (Foreground)
//Storyboard Sound Samples

[TimingPoints]
1869,294.117647058824,4,1,0,100,1,0
2163,-117.647058823529,4,1,0,100,0,0
18927,-111.111111111111,4,1,0,100,0,0
19883,-108.695652173913,4,1,0,100,0,0
20030,-106.382978723404,4,1,0,100,0,0
20177,-104.166666666667,4,1,0,100,0,0
20324,-103.092783505155,4,1,0,100,0,0
20398,-102.040816326531,4,1,0,100,0,0
20545,-100,4,1,0,100,0,0
30177,-111.111111111111,4,1,0,100,0,0
30471,-100,4,1,0,100,0,0
38266,-105.263157894737,4,1,0,100,0,0
38413,-107.52688172043,4,1,0,100,0,0
38707,-108.695652173913,4,1,0,100,0,0
38927,-111.111111111111,4,1,0,100,0,0
39001,-113.636363636364,4,1,0,100,0,0
39074,-116.279069767442,4,1,0,100,0,0
39148,-119.047619047619,4,1,0,100,0,0
39221,-121.951219512195,4,1,0,100,0,0
39295,-125,4,1,0,90,0,0
43854,-111.111111111111,4,1,0,90,0,0
44001,-105.263157894737,4,1,0,90,0,0
44221,-100,5,1,0,100,0,8
44222,294.117647058824,5,1,0,100,1,9
55986,-100,5,1,0,100,0,0
64737,-90.9090909090909,5,1,0,100,0,0
67678,-100,5,1,0,100,0,0
78045,294.117647058824,6,1,0,100,1,0
79809,294.117647058824,7,1,0,100,1,0
80103,-125,7,1,0,90,0,0
81867,294.117647058824,7,1,0,50,1,0
89146,-100,7,1,0,100,0,0
89587,-102.040816326531,7,1,0,100,0,0
89734,-104.166666666667,7,1,0,100,0,0
89808,-106.382978723404,7,1,0,100,0,0
89881,-108.695652173913,7,1,0,100,0,0
90028,-111.111111111111,7,1,0,100,0,0
90617,-90.9090909090909,7,1,0,100,0,0
90764,-111.111111111111,7,1,0,100,0,0
92675,-90.9090909090908,7,1,0,100,0,0
92822,-111.111111111111,7,1,0,100,0,0
94734,-90.9090909090909,7,1,0,100,0,0
94881,-111.111111111111,7,1,0,100,0,0
96793,-90.9090909090909,7,1,0,100,0,0
96940,-111.111111111111,7,1,0,100,0,0
97896,-113.636363636364,7,1,0,100,0,0
97969,-116.279069767442,7,1,0,100,0,0
98043,-119.047619047619,7,1,0,100,0,0
98117,-121.951219512195,7,1,0,100,0,0
98264,-125,7,1,0,95,0,0
114146,-105.263157894737,7,1,0,95,0,0
114734,-100,7,1,0,100,0,0
122014,-102.040816326531,7,1,0,100,0,0
122087,-104.166666666667,7,1,0,100,0,0
122161,-106.382978723404,7,1,0,100,0,0
122234,-108.695652173913,7,1,0,100,0,0
122308,-111.111111111111,7,1,0,100,0,0
122455,-113.636363636364,7,1,0,100,0,0
122528,-116.279069767442,7,1,0,100,0,0
122602,-119.047619047619,7,1,0,100,0,0
122675,-121.951219512195,7,1,0,100,0,0
122749,-125,7,1,0,95,0,0
138852,-105.263157894737,7,1,0,95,0,0
139440,-100,7,1,0,100,0,0
146719,-102.040816326531,7,1,0,100,0,0
146793,-104.166666666667,7,1,0,100,0,0
146867,-106.382978723404,7,1,0,100,0,0
146940,-108.695652173913,7,1,0,100,0,0
147014,-111.111111111111,7,1,0,100,0,0
147161,-113.636363636364,7,1,0,100,0,0
147234,-116.279069767442,7,1,0,100,0,0
147308,-119.047619047619,7,1,0,100,0,0
147381,-121.951219512195,7,1,0,100,0,0
147455,-125,7,1,0,100,0,0
153117,-123.456790123457,7,1,0,100,0,0
153264,-121.951219512195,7,1,0,100,0,0
153411,-119.047619047619,7,1,0,100,0,0
153558,-116.279069767442,7,1,0,100,0,0
153705,-113.636363636364,7,1,0,100,0,0
153852,-111.111111111111,7,1,0,100,0,0
154881,-109.89010989011,7,1,0,100,0,0
155175,-108.695652173913,7,1,0,100,0,0
155322,-106.382978723404,7,1,0,100,0,0
155469,-104.166666666667,7,1,0,100,0,0
155764,-102.040816326531,7,1,0,100,0,0
155911,-100,7,1,0,100,0,0
158044,294.117647058824,4,1,0,100,1,0
160249,-100,4,1,0,100,0,1
183779,-100,4,1,0,100,0,0
183925,294.117647058824,5,1,0,100,1,0
194880,-102.040816326531,5,1,0,100,0,0
195175,-104.166666666667,5,1,0,100,0,0
195322,-106.382978723404,5,1,0,100,0,0
195469,-108.695652173913,5,1,0,100,0,0
195616,-111.111111111111,5,1,0,100,0,0
204439,-99.9999999999999,5,1,0,100,0,0
207454,294.117647058824,7,1,0,100,1,0
207454,-111.111111111111,7,1,0,100,0,0
211498,-111.111111111111,7,2,0,100,0,0
211645,-111.111111111111,7,1,0,100,0,0
214145,-105.263157894737,7,1,0,100,0,0
214439,-99.9999999999999,7,1,0,100,0,0
215101,-102.040816326531,7,1,0,100,0,0
215248,-104.166666666667,7,1,0,100,0,0
215395,-106.382978723404,7,1,0,100,0,0
215542,-108.695652173913,7,1,0,100,0,0
215689,-111.111111111111,7,1,0,100,0,0
219218,-105.263157894737,7,1,0,100,0,0
219733,-105.263157894737,7,2,0,100,0,0
219880,-105.263157894737,7,1,0,100,0,0
220248,-100,7,1,0,100,0,0
223115,-100,7,1,0,100,0,0
223262,-102.040816326531,7,1,0,100,0,0
223409,-104.166666666667,7,1,0,100,0,0
223556,-106.382978723404,7,1,0,100,0,0
223704,-108.695652173913,7,1,0,100,0,0
223851,-111.111111111111,7,1,0,100,0,0
227895,-111.111111111111,7,2,0,90,0,0
228189,-111.111111111111,7,1,0,100,0,0
236204,-111.111111111111,7,2,0,90,0,0
236351,-111.111111111111,7,1,0,100,0,0
238189,-100,7,1,0,90,0,0
240395,294.117647058824,4,1,0,95,1,0
240615,-105.263157894737,4,1,0,95,0,0
240983,-111.111111111111,4,1,0,90,0,0
241865,-113.636363636364,4,1,0,90,0,0
242355,-116.279069767442,4,1,0,90,0,0
242895,-119.047619047619,4,1,0,90,0,0
243336,-121.951219512195,4,1,0,90,0,0
244218,-125,4,1,0,90,0,0
249733,-117.647058823529,4,1,0,95,0,0
258409,-114.285714285714,4,1,0,95,0,0
258556,-111.111111111111,4,1,0,100,0,0
258850,-108.108108108108,4,1,0,100,0,0
258997,-105.263157894737,4,1,0,100,0,0
259145,-100,4,1,0,100,0,0
278115,-100,4,1,0,80,0,0
279071,-105.263157894737,4,1,0,80,0,0
280247,-111.111111111111,4,1,0,80,0,0
282086,-111.111111111111,4,1,0,100,0,0
282747,294.117647058824,7,1,0,100,1,0
282747,-111.111111111111,7,1,0,100,0,0
283261,-90.9090909090908,7,1,0,100,0,0
283408,-111.111111111111,7,1,0,100,0,0
285320,-90.9090909090909,7,1,0,100,0,0
285467,-111.111111111111,7,1,0,100,0,0
287379,-90.9090909090909,7,1,0,100,0,0
287526,-111.111111111111,7,1,0,100,0,0
289438,-90.9090909090909,7,1,0,100,0,0
289805,-105.263157894737,7,1,0,100,0,0
290099,294.117647058824,3,1,0,100,1,0
290099,-105.263157894737,3,1,0,100,0,0
291275,-111.111111111111,3,1,0,100,0,0
292157,-117.647058823529,3,1,0,100,0,0
292746,294.117647058824,7,1,0,100,1,0
292746,-125,7,1,0,100,0,0
298113,-123.456790123457,7,1,0,100,0,0
298260,-121.951219512195,7,1,0,100,0,0
298407,-119.047619047619,7,1,0,100,0,0
298554,-116.279069767442,7,1,0,100,0,0
298701,-113.636363636364,7,1,0,100,0,0
298848,-111.111111111111,7,1,0,100,0,0
299878,-109.89010989011,7,1,0,100,0,0
300172,-108.695652173913,7,1,0,100,0,0
300319,-106.382978723404,7,1,0,100,0,0
300466,-104.166666666667,7,1,0,100,0,0
300760,-102.040816326531,7,1,0,100,0,0
300907,-100,7,1,0,100,0,0
303040,294.117647058824,4,1,0,100,1,0
307598,-100,4,1,0,100,0,1
349951,-100,4,1,0,100,0,0
359584,-111.111111111111,4,1,0,100,0,0
359951,-100,4,1,0,100,0,0
367672,-105.263157894737,4,1,0,100,0,0
367819,-107.52688172043,4,1,0,100,0,0
368113,-108.695652173913,4,1,0,100,0,0
368334,-111.111111111111,4,1,0,100,0,0
368407,-113.636363636364,4,1,0,100,0,0
368481,-116.279069767442,4,1,0,100,0,0
368554,-119.047619047619,4,1,0,100,0,0
368628,-121.951219512195,4,1,0,100,0,0
368701,-125,4,1,0,90,0,0
373260,-111.111111111111,4,1,0,90,0,0
373407,-105.263157894737,4,1,0,90,0,0
373627,294.117647058824,5,1,0,100,1,1
384803,-80,5,1,0,100,0,0
385024,-66.6666666666667,5,1,0,100,0,0

[HitObjects]
256,192,1133,5,0,0:0:0:0:
256,192,1207,1,0,0:0:0:0:
256,192,1280,1,8,0:0:0:0:
256,192,1427,1,0,0:0:0:0:
256,192,1574,1,8,0:0:0:0:
256,192,1721,5,4,0:0:0:0:
256,192,2310,1,8,0:0:0:0:
256,192,2457,1,0,0:0:0:0:
256,192,2751,1,8,0:0:0:0:
256,192,3045,5,0,0:0:0:0:
256,192,3192,1,8,0:0:0:0:
256,192,3633,1,8,0:0:0:0:
256,192,3927,1,0,0:0:0:0:
256,192,4074,1,0,0:0:0:0:
256,192,4369,1,0,0:0:0:0:
256,192,4516,1,0,0:0:0:0:
256,192,4810,1,8,0:0:0:0:
256,192,4957,1,0,0:0:0:0:
256,192,5251,1,0,0:0:0:0:
256,192,5398,1,8,0:0:0:0:
256,192,5839,1,0,0:0:0:0:
256,192,5986,1,0,0:0:0:0:
256,192,6280,1,0,0:0:0:0:
256,192,6427,1,8,0:0:0:0:
256,192,6721,1,8,0:0:0:0:
256,192,6869,1,8,0:0:0:0:
256,192,7163,1,0,0:0:0:0:
256,192,7383,1,8,0:0:0:0:
256,192,7604,1,8,0:0:0:0:
256,192,7751,1,0,0:0:0:0:
256,192,7971,1,0,0:0:0:0:
256,192,8045,1,0,0:0:0:0:
256,192,8192,1,0,0:0:0:0:
256,192,8339,1,8,0:0:0:0:
256,192,8633,1,0,0:0:0:0:
256,192,8780,1,0,0:0:0:0:
256,192,9074,1,0,0:0:0:0:
256,192,9221,1,0,0:0:0:0:
256,192,9516,1,8,0:0:0:0:
256,192,9663,1,0,0:0:0:0:
256,192,9736,1,0,0:0:0:0:
256,192,9810,1,0,0:0:0:0:
256,192,9883,1,8,0:0:0:0:
256,192,9957,1,8,0:0:0:0:
256,192,10030,1,0,0:0:0:0:
256,192,10104,1,8,0:0:0:0:
256,192,10202,1,0,0:0:0:0:
256,192,10300,1,0,0:0:0:0:
256,192,10398,1,8,0:0:0:0:
256,192,10545,1,0,0:0:0:0:
256,192,10692,1,8,0:0:0:0:
256,192,10839,1,8,0:0:0:0:
256,192,10913,1,0,0:0:0:0:
256,192,10986,1,0,0:0:0:0:
256,192,11133,1,4,0:0:0:0:
256,192,11427,1,8,0:0:0:0:
256,192,11574,1,4,0:0:0:0:
256,192,11869,1,8,0:0:0:0:
256,192,12163,1,4,0:0:0:0:
256,192,12457,1,8,0:0:0:0:
256,192,12751,1,4,0:0:0:0:
256,192,12898,1,8,0:0:0:0:
256,192,13339,1,4,0:0:0:0:
256,192,13486,1,4,0:0:0:0:
256,192,13927,1,12,0:0:0:0:
256,192,14516,1,12,0:0:0:0:
256,192,14663,1,0,0:0:0:0:
256,192,14810,1,0,0:0:0:0:
256,192,15104,1,12,0:0:0:0:
256,192,15251,1,0,0:0:0:0:
256,192,15349,1,8,0:0:0:0:
256,192,15398,1,8,0:0:0:0:
256,192,15545,1,0,0:0:0:0:
256,192,15692,1,4,0:0:0:0:
256,192,15839,1,12,0:0:0:0:
256,192,16133,1,12,0:0:0:0:
256,192,16280,1,4,0:0:0:0:
256,192,16721,1,0,0:0:0:0:
256,192,16869,1,12,0:0:0:0:
256,192,17163,1,0,0:0:0:0:
256,192,17457,1,12,0:0:0:0:
256,192,17751,1,0,0:0:0:0:
256,192,18045,1,12,0:0:0:0:
256,192,18192,1,4,0:0:0:0:
256,192,18633,1,12,0:0:0:0:
256,192,19074,1,0,0:0:0:0:
256,192,19148,1,0,0:0:0:0:
256,192,19221,1,8,0:0:0:0:
256,192,19295,1,0,0:0:0:0:
256,192,19369,1,0,0:0:0:0:
256,192,19442,1,8,0:0:0:0:
256,192,19516,1,8,0:0:0:0:
256,192,19589,1,8,0:0:0:0:
256,192,19663,1,0,0:0:0:0:
256,192,19810,1,8,0:0:0:0:
256,192,19957,1,0,0:0:0:0:
256,192,20104,1,8,0:0:0:0:
256,192,20251,1,0,0:0:0:0:
256,192,20324,1,8,0:0:0:0:
256,192,20398,1,8,0:0:0:0:
256,192,20545,1,4,0:0:0:0:
256,192,20839,1,0,0:0:0:0:
256,192,20986,1,12,0:0:0:0:
256,192,21280,1,0,0:0:0:0:
256,192,21427,1,8,0:0:0:0:
256,192,21501,1,0,0:0:0:0:
256,192,21574,1,8,0:0:0:0:
256,192,21869,1,8,0:0:0:0:
256,192,22016,1,0,0:0:0:0:
256,192,22089,1,0,0:0:0:0:
256,192,22163,1,8,0:0:0:0:
256,192,22310,1,0,0:0:0:0:
256,192,22457,1,8,0:0:0:0:
256,192,22530,1,8,0:0:0:0:
256,192,22604,1,0,0:0:0:0:
256,192,22677,1,0,0:0:0:0:
256,192,22751,1,8,0:0:0:0:
256,192,22898,1,8,0:0:0:0:
256,192,23045,1,0,0:0:0:0:
256,192,23192,1,0,0:0:0:0:
256,192,23266,1,0,0:0:0:0:
256,192,23339,1,8,0:0:0:0:
256,192,23633,1,0,0:0:0:0:
256,192,23780,1,8,0:0:0:0:
256,192,23854,1,0,0:0:0:0:
256,192,23927,1,8,0:0:0:0:
256,192,24221,1,8,0:0:0:0:
256,192,24369,1,0,0:0:0:0:
256,192,24442,1,0,0:0:0:0:
256,192,24516,1,8,0:0:0:0:
256,192,24663,1,0,0:0:0:0:
256,192,24810,1,8,0:0:0:0:
256,192,24883,1,0,0:0:0:0:
256,192,24957,1,0,0:0:0:0:
256,192,25030,1,0,0:0:0:0:
256,192,25104,1,8,0:0:0:0:
256,192,25251,1,8,0:0:0:0:
256,192,25398,1,0,0:0:0:0:
256,192,25545,1,0,0:0:0:0:
256,192,25619,1,0,0:0:0:0:
256,192,25692,1,8,0:0:0:0:
256,192,25986,1,0,0:0:0:0:
256,192,26133,1,8,0:0:0:0:
256,192,26207,1,0,0:0:0:0:
256,192,26280,1,8,0:0:0:0:
256,192,26574,1,8,0:0:0:0:
256,192,26721,1,0,0:0:0:0:
256,192,26795,1,0,0:0:0:0:
256,192,26869,1,8,0:0:0:0:
256,192,27016,1,8,0:0:0:0:
256,192,27163,1,0,0:0:0:0:
256,192,27236,1,8,0:0:0:0:
256,192,27310,1,8,0:0:0:0:
256,192,27383,1,0,0:0:0:0:
256,192,27457,1,8,0:0:0:0:
256,192,27604,1,8,0:0:0:0:
256,192,27751,1,0,0:0:0:0:
256,192,27898,1,0,0:0:0:0:
256,192,27971,1,0,0:0:0:0:
256,192,28045,1,8,0:0:0:0:
256,192,28339,1,0,0:0:0:0:
256,192,28486,1,8,0:0:0:0:
256,192,28560,1,0,0:0:0:0:
256,192,28633,1,8,0:0:0:0:
256,192,28927,1,8,0:0:0:0:
256,192,29074,1,0,0:0:0:0:
256,192,29148,1,0,0:0:0:0:
256,192,29221,1,8,0:0:0:0:
256,192,29369,1,0,0:0:0:0:
256,192,29442,1,0,0:0:0:0:
256,192,29516,1,8,0:0:0:0:
256,192,29589,1,8,0:0:0:0:
256,192,29663,1,0,0:0:0:0:
256,192,29736,1,8,0:0:0:0:
256,192,29810,1,8,0:0:0:0:
256,192,29957,1,4,0:0:0:0:
256,192,30251,1,0,0:0:0:0:
256,192,30398,1,12,0:0:0:0:
256,192,30692,1,0,0:0:0:0:
256,192,30839,1,8,0:0:0:0:
256,192,30913,1,0,0:0:0:0:
256,192,30986,1,8,0:0:0:0:
256,192,31280,1,8,0:0:0:0:
256,192,31427,1,0,0:0:0:0:
256,192,31501,1,0,0:0:0:0:
256,192,31574,1,8,0:0:0:0:
256,192,31721,1,0,0:0:0:0:
256,192,31869,1,0,0:0:0:0:
256,192,31942,1,8,0:0:0:0:
256,192,32016,1,0,0:0:0:0:
256,192,32089,1,0,0:0:0:0:
256,192,32163,1,8,0:0:0:0:
256,192,32310,1,8,0:0:0:0:
256,192,32457,1,0,0:0:0:0:
256,192,32604,1,0,0:0:0:0:
256,192,32677,1,0,0:0:0:0:
256,192,32751,1,8,0:0:0:0:
256,192,33045,1,0,0:0:0:0:
256,192,33192,1,8,0:0:0:0:
256,192,33266,1,0,0:0:0:0:
256,192,33339,1,8,0:0:0:0:
256,192,33633,1,8,0:0:0:0:
256,192,33780,1,0,0:0:0:0:
256,192,33854,1,0,0:0:0:0:
256,192,33927,1,8,0:0:0:0:
256,192,34074,1,8,0:0:0:0:
256,192,34148,1,8,0:0:0:0:
256,192,34221,1,0,0:0:0:0:
256,192,34295,1,8,0:0:0:0:
256,192,34369,1,0,0:0:0:0:
256,192,34442,1,0,0:0:0:0:
256,192,34516,1,8,0:0:0:0:
256,192,34663,1,8,0:0:0:0:
256,192,34810,1,0,0:0:0:0:
256,192,34957,1,0,0:0:0:0:
256,192,35030,1,0,0:0:0:0:
256,192,35104,1,8,0:0:0:0:
256,192,35398,1,0,0:0:0:0:
256,192,35545,1,8,0:0:0:0:
256,192,35619,1,0,0:0:0:0:
256,192,35692,1,8,0:0:0:0:
256,192,35986,1,8,0:0:0:0:
256,192,36133,1,0,0:0:0:0:
256,192,36207,1,0,0:0:0:0:
256,192,36280,1,8,0:0:0:0:
256,192,36427,1,0,0:0:0:0:
256,192,36574,1,0,0:0:0:0:
256,192,36648,1,0,0:0:0:0:
256,192,36721,1,0,0:0:0:0:
256,192,36795,1,0,0:0:0:0:
256,192,36869,1,8,0:0:0:0:
256,192,37016,1,8,0:0:0:0:
256,192,37163,1,0,0:0:0:0:
256,192,37310,1,0,0:0:0:0:
256,192,37383,1,0,0:0:0:0:
256,192,37457,1,8,0:0:0:0:
256,192,37751,1,0,0:0:0:0:
256,192,37898,1,8,0:0:0:0:
256,192,37971,1,0,0:0:0:0:
256,192,38045,1,8,0:0:0:0:
256,192,38339,1,8,0:0:0:0:
256,192,38486,1,0,0:0:0:0:
256,192,38560,1,0,0:0:0:0:
256,192,38633,1,8,0:0:0:0:
256,192,38780,1,0,0:0:0:0:
256,192,38927,1,0,0:0:0:0:
256,192,39001,1,0,0:0:0:0:
256,192,39074,1,8,0:0:0:0:
256,192,39148,1,0,0:0:0:0:
256,192,39221,1,8,0:0:0:0:
256,192,39369,1,4,0:0:0:0:
256,192,39516,1,0,0:0:0:0:
256,192,39663,1,8,0:0:0:0:
256,192,39810,1,8,0:0:0:0:
256,192,39957,1,0,0:0:0:0:
256,192,40104,1,8,0:0:0:0:
256,192,40398,1,0,0:0:0:0:
256,192,40545,1,8,0:0:0:0:
256,192,40692,1,8,0:0:0:0:
256,192,40839,1,0,0:0:0:0:
256,192,40986,1,0,0:0:0:0:
256,192,41133,1,8,0:0:0:0:
256,192,41280,1,0,0:0:0:0:
256,192,41574,1,0,0:0:0:0:
256,192,41721,1,8,0:0:0:0:
256,192,41869,1,0,0:0:0:0:
256,192,42016,1,8,0:0:0:0:
256,192,42163,1,8,0:0:0:0:
256,192,42310,1,0,0:0:0:0:
256,192,42457,1,0,0:0:0:0:
256,192,42751,1,8,0:0:0:0:
256,192,42898,1,0,0:0:0:0:
256,192,43045,1,8,0:0:0:0:
256,192,43192,1,0,0:0:0:0:
256,192,43339,1,0,0:0:0:0:
256,192,43486,1,8,0:0:0:0:
256,192,43633,1,8,0:0:0:0:
256,192,43927,1,12,0:0:0:0:
256,192,44074,1,0,0:0:0:0:
256,192,44222,1,8,0:0:0:0:
256,192,44295,1,8,0:0:0:0:
256,192,44369,1,8,0:0:0:0:
256,192,44442,1,8,0:0:0:0:
256,192,44516,1,0,0:0:0:0:
256,192,44589,1,0,0:0:0:0:
256,192,44663,1,8,0:0:0:0:
256,192,44810,1,0,0:0:0:0:
256,192,44957,1,8,0:0:0:0:
256,192,45030,1,8,0:0:0:0:
256,192,45104,1,0,0:0:0:0:
256,192,45251,1,0,0:0:0:0:
256,192,45324,1,0,0:0:0:0:
256,192,45398,1,8,0:0:0:0:
256,192,45545,1,0,0:0:0:0:
256,192,45619,1,0,0:0:0:0:
256,192,45692,1,8,0:0:0:0:
256,192,45766,1,8,0:0:0:0:
256,192,45839,1,8,0:0:0:0:
256,192,45913,1,8,0:0:0:0:
256,192,45986,1,0,0:0:0:0:
256,192,46060,1,0,0:0:0:0:
256,192,46133,1,8,0:0:0:0:
256,192,46280,1,0,0:0:0:0:
256,192,46427,1,8,0:0:0:0:
256,192,46501,1,0,0:0:0:0:
256,192,46574,1,0,0:0:0:0:
256,192,46722,1,0,0:0:0:0:
256,192,46795,1,8,0:0:0:0:
256,192,46869,1,8,0:0:0:0:
256,192,47016,1,0,0:0:0:0:
256,192,47089,1,0,0:0:0:0:
256,192,47163,1,8,0:0:0:0:
256,192,47236,1,0,0:0:0:0:
256,192,47310,1,8,0:0:0:0:
256,192,47383,1,8,0:0:0:0:
256,192,47457,1,0,0:0:0:0:
256,192,47530,1,0,0:0:0:0:
256,192,47604,1,8,0:0:0:0:
256,192,47751,1,0,0:0:0:0:
256,192,47898,1,8,0:0:0:0:
256,192,47972,1,8,0:0:0:0:
256,192,48045,1,0,0:0:0:0:
256,192,48192,1,0,0:0:0:0:
256,192,48266,1,0,0:0:0:0:
256,192,48339,1,8,0:0:0:0:
256,192,48486,1,0,0:0:0:0:
256,192,48560,1,8,0:0:0:0:
256,192,48633,1,8,0:0:0:0:
256,192,48780,1,0,0:0:0:0:
256,192,48854,1,8,0:0:0:0:
256,192,48927,1,0,0:0:0:0:
256,192,49001,1,0,0:0:0:0:
256,192,49074,1,8,0:0:0:0:
256,192,49222,1,0,0:0:0:0:
256,192,49369,1,0,0:0:0:0:
256,192,49442,1,8,0:0:0:0:
256,192,49516,1,0,0:0:0:0:
256,192,49663,1,0,0:0:0:0:
256,192,49736,1,0,0:0:0:0:
256,192,49810,1,8,0:0:0:0:
256,192,49957,1,8,0:0:0:0:
256,192,50030,1,8,0:0:0:0:
256,192,50104,1,8,0:0:0:0:
256,192,50251,1,0,0:0:0:0:
256,192,50324,1,0,0:0:0:0:
256,192,50398,1,0,0:0:0:0:
256,192,50545,1,8,0:0:0:0:
256,192,50692,1,0,0:0:0:0:
256,192,50839,1,8,0:0:0:0:
256,192,50913,1,8,0:0:0:0:
256,192,50986,1,0,0:0:0:0:
256,192,51133,1,0,0:0:0:0:
256,192,51207,1,0,0:0:0:0:
256,192,51280,1,8,0:0:0:0:
256,192,51427,1,0,0:0:0:0:
256,192,51501,1,0,0:0:0:0:
256,192,51574,1,8,0:0:0:0:
256,192,51648,1,8,0:0:0:0:
256,192,51722,1,8,0:0:0:0:
256,192,51795,1,8,0:0:0:0:
256,192,51869,1,0,0:0:0:0:
256,192,51942,1,0,0:0:0:0:
256,192,52016,1,8,0:0:0:0:
256,192,52163,1,0,0:0:0:0:
256,192,52310,1,8,0:0:0:0:
256,192,52383,1,0,0:0:0:0:
256,192,52457,1,0,0:0:0:0:
256,192,52604,1,0,0:0:0:0:
256,192,52677,1,8,0:0:0:0:
256,192,52751,1,8,0:0:0:0:
256,192,52898,1,0,0:0:0:0:
256,192,52972,1,0,0:0:0:0:
256,192,53045,1,8,0:0:0:0:
256,192,53119,1,0,0:0:0:0:
256,192,53192,1,8,0:0:0:0:
256,192,53266,1,8,0:0:0:0:
256,192,53339,1,0,0:0:0:0:
256,192,53413,1,0,0:0:0:0:
256,192,53486,1,8,0:0:0:0:
256,192,53633,1,0,0:0:0:0:
256,192,53780,1,8,0:0:0:0:
256,192,53854,1,8,0:0:0:0:
256,192,53927,1,0,0:0:0:0:
256,192,54074,1,0,0:0:0:0:
256,192,54148,1,0,0:0:0:0:
256,192,54222,1,8,0:0:0:0:
256,192,54369,1,0,0:0:0:0:
256,192,54442,1,8,0:0:0:0:
256,192,54516,1,8,0:0:0:0:
256,192,54663,1,0,0:0:0:0:
256,192,54736,1,8,0:0:0:0:
256,192,54810,1,0,0:0:0:0:
256,192,54883,1,0,0:0:0:0:
256,192,54957,1,8,0:0:0:0:
256,192,55104,1,8,0:0:0:0:
256,192,55251,1,0,0:0:0:0:
256,192,55324,1,8,0:0:0:0:
256,192,55398,1,0,0:0:0:0:
256,192,55545,1,0,0:0:0:0:
256,192,55619,1,0,0:0:0:0:
256,192,55692,1,8,0:0:0:0:
256,192,55839,1,8,0:0:0:0:
256,192,55913,1,8,0:0:0:0:
256,192,55986,1,8,0:0:0:0:
256,192,56133,1,0,0:0:0:0:
256,192,56427,1,0,0:0:0:0:
256,192,56574,1,8,0:0:0:0:
256,192,56722,1,0,0:0:0:0:
256,192,57016,1,0,0:0:0:0:
256,192,57310,1,0,0:0:0:0:
256,192,57383,1,0,0:0:0:0:
256,192,57457,1,0,0:0:0:0:
256,192,57604,1,0,0:0:0:0:
256,192,57751,1,8,0:0:0:0:
256,192,57898,1,0,0:0:0:0:
256,192,57972,1,0,0:0:0:0:
256,192,58045,1,8,0:0:0:0:
256,192,58192,1,0,0:0:0:0:
256,192,58486,1,0,0:0:0:0:
256,192,58633,1,8,0:0:0:0:
256,192,58707,1,0,0:0:0:0:
256,192,58780,1,0,0:0:0:0:
256,192,58927,1,12,0:0:0:0:
256,192,59074,1,0,0:0:0:0:
256,192,59369,1,0,0:0:0:0:
256,192,59516,1,8,0:0:0:0:
256,192,59663,1,0,0:0:0:0:
256,192,59957,1,0,0:0:0:0:
256,192,60251,1,0,0:0:0:0:
256,192,60324,1,0,0:0:0:0:
256,192,60398,1,0,0:0:0:0:
256,192,60545,1,8,0:0:0:0:
256,192,60692,1,0,0:0:0:0:
256,192,60839,1,0,0:0:0:0:
256,192,60986,1,8,0:0:0:0:
256,192,61133,1,0,0:0:0:0:
256,192,61280,1,8,0:0:0:0:
256,192,61427,1,0,0:0:0:0:
256,192,61574,1,8,0:0:0:0:
256,192,61722,1,8,0:0:0:0:
256,192,61869,1,4,0:0:0:0:
256,192,62016,1,0,0:0:0:0:
256,192,62310,1,0,0:0:0:0:
256,192,62457,1,8,0:0:0:0:
256,192,62604,1,0,0:0:0:0:
256,192,62898,1,0,0:0:0:0:
256,192,63045,1,0,0:0:0:0:
256,192,63192,1,8,0:0:0:0:
256,192,63266,1,8,0:0:0:0:
256,192,63339,1,0,0:0:0:0:
256,192,63486,1,0,0:0:0:0:
256,192,63633,1,8,0:0:0:0:
256,192,63780,1,0,0:0:0:0:
256,192,63854,1,0,0:0:0:0:
256,192,63927,1,8,0:0:0:0:
256,192,64074,1,8,0:0:0:0:
256,192,64222,1,0,0:0:0:0:
256,192,64369,1,0,0:0:0:0:
256,192,64442,1,8,0:0:0:0:
256,192,64516,1,0,0:0:0:0:
256,192,64663,1,8,0:0:0:0:
256,192,64810,1,4,0:0:0:0:
256,192,64957,1,0,0:0:0:0:
256,192,65104,1,0,0:0:0:0:
256,192,65251,1,4,0:0:0:0:
256,192,65545,1,0,0:0:0:0:
256,192,65692,1,12,0:0:0:0:
256,192,65839,1,0,0:0:0:0:
256,192,65986,1,12,0:0:0:0:
256,192,66133,1,0,0:0:0:0:
256,192,66207,1,0,0:0:0:0:
256,192,66280,1,8,0:0:0:0:
256,192,66427,1,8,0:0:0:0:
256,192,66574,1,0,0:0:0:0:
256,192,66722,1,4,0:0:0:0:
256,192,67016,1,8,0:0:0:0:
256,192,67163,1,0,0:0:0:0:
256,192,67310,1,8,0:0:0:0:
256,192,67457,1,8,0:0:0:0:
256,192,67751,1,12,0:0:0:0:
256,192,67898,1,0,0:0:0:0:
256,192,68045,1,0,0:0:0:0:
256,192,68192,1,8,0:0:0:0:
256,192,68339,1,0,0:0:0:0:
256,192,68486,1,0,0:0:0:0:
256,192,68633,1,8,0:0:0:0:
256,192,68731,1,8,0:0:0:0:
256,192,68829,1,0,0:0:0:0:
256,192,68927,1,8,0:0:0:0:
256,192,69025,1,0,0:0:0:0:
256,192,69123,1,0,0:0:0:0:
256,192,69222,1,8,0:0:0:0:
256,192,69369,1,8,0:0:0:0:
256,192,69516,1,0,0:0:0:0:
256,192,69663,1,8,0:0:0:0:
256,192,69810,1,0,0:0:0:0:
256,192,69957,1,0,0:0:0:0:
256,192,70104,1,8,0:0:0:0:
256,192,70202,1,0,0:0:0:0:
256,192,70300,1,0,0:0:0:0:
256,192,70398,1,8,0:0:0:0:
256,192,70496,1,0,0:0:0:0:
256,192,70594,1,0,0:0:0:0:
256,192,70692,1,12,0:0:0:0:
256,192,70839,1,0,0:0:0:0:
256,192,70986,1,0,0:0:0:0:
256,192,71133,1,8,0:0:0:0:
256,192,71280,1,8,0:0:0:0:
256,192,71427,1,0,0:0:0:0:
256,192,71574,1,8,0:0:0:0:
256,192,71672,1,0,0:0:0:0:
256,192,71771,1,0,0:0:0:0:
256,192,71869,1,8,0:0:0:0:
256,192,71967,1,8,0:0:0:0:
256,192,72065,1,0,0:0:0:0:
256,192,72163,1,8,0:0:0:0:
256,192,72310,1,8,0:0:0:0:
256,192,72457,1,0,0:0:0:0:
256,192,72604,1,8,0:0:0:0:
256,192,72751,1,8,0:0:0:0:
256,192,72898,1,0,0:0:0:0:
256,192,73045,1,8,0:0:0:0:
256,192,73143,1,0,0:0:0:0:
256,192,73241,1,0,0:0:0:0:
256,192,73339,1,8,0:0:0:0:
256,192,73437,1,0,0:0:0:0:
256,192,73535,1,0,0:0:0:0:
256,192,73633,1,12,0:0:0:0:
256,192,73780,1,0,0:0:0:0:
256,192,73927,1,0,0:0:0:0:
256,192,74074,1,8,0:0:0:0:
256,192,74222,1,0,0:0:0:0:
256,192,74369,1,0,0:0:0:0:
256,192,74516,1,8,0:0:0:0:
256,192,74614,1,8,0:0:0:0:
256,192,74712,1,0,0:0:0:0:
256,192,74810,1,8,0:0:0:0:
256,192,74908,1,0,0:0:0:0:
256,192,75006,1,0,0:0:0:0:
256,192,75104,1,8,0:0:0:0:
256,192,75251,1,8,0:0:0:0:
256,192,75398,1,0,0:0:0:0:
256,192,75545,1,8,0:0:0:0:
256,192,75692,1,8,0:0:0:0:
256,192,75839,1,0,0:0:0:0:
256,192,75986,1,8,0:0:0:0:
256,192,76133,1,0,0:0:0:0:
256,192,76207,1,0,0:0:0:0:
256,192,76280,1,8,0:0:0:0:
256,192,76427,1,8,0:0:0:0:
256,192,76501,1,0,0:0:0:0:
256,192,76574,1,8,0:0:0:0:
256,192,76722,1,0,0:0:0:0:
256,192,76869,1,0,0:0:0:0:
256,192,77016,1,8,0:0:0:0:
256,192,77163,1,0,0:0:0:0:
256,192,77310,1,0,0:0:0:0:
256,192,77457,1,8,0:0:0:0:
256,192,77555,1,0,0:0:0:0:
256,192,77653,1,0,0:0:0:0:
256,192,77751,1,8,0:0:0:0:
256,192,77849,1,0,0:0:0:0:
256,192,77947,1,0,0:0:0:0:
256,192,78045,1,12,0:0:0:0:
256,192,78192,1,12,0:0:0:0:
256,192,78486,1,4,0:0:0:0:
256,192,78927,1,12,0:0:0:0:
256,192,79368,1,8,0:0:0:0:
256,192,80691,1,0,0:0:0:0:
256,192,80985,1,0,0:0:0:0:
256,192,81279,1,0,0:0:0:0:
256,192,81573,1,0,0:0:0:0:
256,192,81720,1,4,0:0:0:0:
256,192,81867,12,0,89073,0:0:0:0:
256,192,89219,5,8,0:0:0:0:
256,192,89367,1,0,0:0:0:0:
256,192,89514,1,8,0:0:0:0:
256,192,89661,1,0,0:0:0:0:
256,192,89734,1,0,0:0:0:0:
256,192,89808,1,0,0:0:0:0:
256,192,89955,1,0,0:0:0:0:
256,192,90102,1,4,0:0:0:0:
256,192,90396,1,0,0:0:0:0:
256,192,90690,1,12,0:0:0:0:
256,192,91131,1,0,0:0:0:0:
256,192,91278,1,0,0:0:0:0:
256,192,91425,1,8,0:0:0:0:
256,192,91572,1,0,0:0:0:0:
256,192,91719,1,0,0:0:0:0:
256,192,91867,1,8,0:0:0:0:
256,192,92014,1,0,0:0:0:0:
256,192,92161,1,4,0:0:0:0:
256,192,92455,1,0,0:0:0:0:
256,192,92749,1,12,0:0:0:0:
256,192,93190,1,0,0:0:0:0:
256,192,93264,1,0,0:0:0:0:
256,192,93337,1,0,0:0:0:0:
256,192,93484,1,8,0:0:0:0:
256,192,93631,1,0,0:0:0:0:
256,192,93778,1,0,0:0:0:0:
256,192,93852,1,0,0:0:0:0:
256,192,93925,1,8,0:0:0:0:
256,192,94072,1,0,0:0:0:0:
256,192,94219,1,4,0:0:0:0:
256,192,94514,1,0,0:0:0:0:
256,192,94808,1,12,0:0:0:0:
256,192,95249,1,0,0:0:0:0:
256,192,95396,1,0,0:0:0:0:
256,192,95543,1,8,0:0:0:0:
256,192,95690,1,0,0:0:0:0:
256,192,95837,1,0,0:0:0:0:
256,192,95984,1,8,0:0:0:0:
256,192,96131,1,8,0:0:0:0:
256,192,96278,1,4,0:0:0:0:
256,192,96572,1,0,0:0:0:0:
256,192,96867,1,12,0:0:0:0:
256,192,97308,1,0,0:0:0:0:
256,192,97381,1,0,0:0:0:0:
256,192,97455,1,0,0:0:0:0:
256,192,97602,1,0,0:0:0:0:
256,192,97749,1,8,0:0:0:0:
256,192,97896,1,0,0:0:0:0:
256,192,97969,1,0,0:0:0:0:
256,192,98043,1,8,0:0:0:0:
256,192,98190,1,8,0:0:0:0:
256,192,98337,1,4,0:0:0:0:
256,192,98631,1,0,0:0:0:0:
256,192,98925,1,8,0:0:0:0:
256,192,99367,1,0,0:0:0:0:
256,192,99514,1,0,0:0:0:0:
256,192,99661,1,0,0:0:0:0:
256,192,99955,1,0,0:0:0:0:
256,192,100102,1,8,0:0:0:0:
256,192,100249,1,0,0:0:0:0:
256,192,100396,1,4,0:0:0:0:
256,192,100690,1,0,0:0:0:0:
256,192,100984,1,8,0:0:0:0:
256,192,101425,1,0,0:0:0:0:
256,192,101499,1,0,0:0:0:0:
256,192,101572,1,0,0:0:0:0:
256,192,101719,1,0,0:0:0:0:
256,192,102014,1,0,0:0:0:0:
256,192,102087,1,0,0:0:0:0:
256,192,102161,1,8,0:0:0:0:
256,192,102308,1,8,0:0:0:0:
256,192,102455,1,4,0:0:0:0:
256,192,102749,1,0,0:0:0:0:
256,192,103043,1,8,0:0:0:0:
256,192,103484,1,0,0:0:0:0:
256,192,103631,1,0,0:0:0:0:
256,192,103778,1,0,0:0:0:0:
256,192,104072,1,0,0:0:0:0:
256,192,104219,1,8,0:0:0:0:
256,192,104367,1,8,0:0:0:0:
256,192,104514,1,4,0:0:0:0:
256,192,104808,1,0,0:0:0:0:
256,192,105102,1,8,0:0:0:0:
256,192,105543,1,0,0:0:0:0:
256,192,105617,1,0,0:0:0:0:
256,192,105690,1,0,0:0:0:0:
256,192,105837,1,0,0:0:0:0:
256,192,106131,1,0,0:0:0:0:
256,192,106205,1,0,0:0:0:0:
256,192,106278,1,8,0:0:0:0:
256,192,106425,1,0,0:0:0:0:
256,192,106572,1,4,0:0:0:0:
256,192,106867,1,0,0:0:0:0:
256,192,107161,1,8,0:0:0:0:
256,192,107602,1,0,0:0:0:0:
256,192,107749,1,8,0:0:0:0:
256,192,107896,1,0,0:0:0:0:
256,192,108190,1,0,0:0:0:0:
256,192,108337,1,8,0:0:0:0:
256,192,108484,1,0,0:0:0:0:
256,192,108631,1,4,0:0:0:0:
256,192,108925,1,0,0:0:0:0:
256,192,109219,1,8,0:0:0:0:
256,192,109661,1,0,0:0:0:0:
256,192,109734,1,0,0:0:0:0:
256,192,109808,1,0,0:0:0:0:
256,192,109955,1,8,0:0:0:0:
256,192,110249,1,0,0:0:0:0:
256,192,110322,1,0,0:0:0:0:
256,192,110396,1,8,0:0:0:0:
256,192,110543,1,8,0:0:0:0:
256,192,110690,1,4,0:0:0:0:
256,192,110984,1,0,0:0:0:0:
256,192,111278,1,8,0:0:0:0:
256,192,111719,1,0,0:0:0:0:
256,192,111867,1,8,0:0:0:0:
256,192,112014,1,0,0:0:0:0:
256,192,112308,1,0,0:0:0:0:
256,192,112455,1,8,0:0:0:0:
256,192,112602,1,8,0:0:0:0:
256,192,112749,1,4,0:0:0:0:
256,192,113043,1,0,0:0:0:0:
256,192,113337,1,8,0:0:0:0:
256,192,113778,1,0,0:0:0:0:
256,192,113852,1,0,0:0:0:0:
256,192,113925,1,8,0:0:0:0:
256,192,114072,1,0,0:0:0:0:
256,192,114219,1,8,0:0:0:0:
256,192,114268,1,8,0:0:0:0:
256,192,114317,1,0,0:0:0:0:
256,192,114367,1,0,0:0:0:0:
256,192,114440,1,0,0:0:0:0:
256,192,114514,1,8,0:0:0:0:
256,192,114661,1,8,0:0:0:0:
256,192,114808,1,4,0:0:0:0:
256,192,115102,1,0,0:0:0:0:
256,192,115175,1,0,0:0:0:0:
256,192,115249,1,0,0:0:0:0:
256,192,115396,1,8,0:0:0:0:
256,192,115543,1,0,0:0:0:0:
256,192,115617,1,0,0:0:0:0:
256,192,115690,1,0,0:0:0:0:
256,192,115837,1,0,0:0:0:0:
256,192,115984,1,8,0:0:0:0:
256,192,116058,1,8,0:0:0:0:
256,192,116131,1,8,0:0:0:0:
256,192,116278,1,0,0:0:0:0:
256,192,116425,1,8,0:0:0:0:
256,192,116499,1,8,0:0:0:0:
256,192,116572,1,8,0:0:0:0:
256,192,116719,1,0,0:0:0:0:
256,192,116867,1,4,0:0:0:0:
256,192,117161,1,0,0:0:0:0:
256,192,117234,1,0,0:0:0:0:
256,192,117308,1,0,0:0:0:0:
256,192,117455,1,8,0:0:0:0:
256,192,117602,1,0,0:0:0:0:
256,192,117675,1,0,0:0:0:0:
256,192,117749,1,0,0:0:0:0:
256,192,117896,1,0,0:0:0:0:
256,192,118043,1,8,0:0:0:0:
256,192,118117,1,8,0:0:0:0:
256,192,118190,1,0,0:0:0:0:
256,192,118337,1,0,0:0:0:0:
256,192,118484,1,0,0:0:0:0:
256,192,118558,1,0,0:0:0:0:
256,192,118631,1,8,0:0:0:0:
256,192,118778,1,8,0:0:0:0:
256,192,118925,1,4,0:0:0:0:
256,192,119219,1,0,0:0:0:0:
256,192,119293,1,0,0:0:0:0:
256,192,119367,1,0,0:0:0:0:
256,192,119514,1,8,0:0:0:0:
256,192,119661,1,0,0:0:0:0:
256,192,119734,1,0,0:0:0:0:
256,192,119808,1,0,0:0:0:0:
256,192,119955,1,0,0:0:0:0:
256,192,120102,1,8,0:0:0:0:
256,192,120175,1,8,0:0:0:0:
256,192,120249,1,8,0:0:0:0:
256,192,120396,1,0,0:0:0:0:
256,192,120543,1,8,0:0:0:0:
256,192,120617,1,8,0:0:0:0:
256,192,120690,1,8,0:0:0:0:
256,192,120837,1,8,0:0:0:0:
256,192,120984,1,4,0:0:0:0:
256,192,121278,1,0,0:0:0:0:
256,192,121352,1,0,0:0:0:0:
256,192,121425,1,0,0:0:0:0:
256,192,121572,1,8,0:0:0:0:
256,192,121719,1,0,0:0:0:0:
256,192,121793,1,0,0:0:0:0:
256,192,121867,1,0,0:0:0:0:
256,192,122014,1,0,0:0:0:0:
256,192,122087,1,0,0:0:0:0:
256,192,122161,1,8,0:0:0:0:
256,192,122234,1,8,0:0:0:0:
256,192,122308,1,0,0:0:0:0:
256,192,122455,1,8,0:0:0:0:
256,192,122528,1,8,0:0:0:0:
256,192,122602,1,0,0:0:0:0:
256,192,122675,1,0,0:0:0:0:
256,192,122749,1,8,0:0:0:0:
256,192,122896,1,8,0:0:0:0:
256,192,123043,1,4,0:0:0:0:
256,192,123337,1,0,0:0:0:0:
256,192,123631,1,8,0:0:0:0:
256,192,123925,1,0,0:0:0:0:
256,192,124072,1,0,0:0:0:0:
256,192,124219,1,0,0:0:0:0:
256,192,124367,1,0,0:0:0:0:
256,192,124661,1,0,0:0:0:0:
256,192,124808,1,8,0:0:0:0:
256,192,124955,1,0,0:0:0:0:
256,192,125102,1,4,0:0:0:0:
256,192,125396,1,0,0:0:0:0:
256,192,125690,1,8,0:0:0:0:
256,192,125984,1,0,0:0:0:0:
256,192,126131,1,0,0:0:0:0:
256,192,126205,1,0,0:0:0:0:
256,192,126278,1,0,0:0:0:0:
256,192,126425,1,0,0:0:0:0:
256,192,126719,1,0,0:0:0:0:
256,192,126793,1,0,0:0:0:0:
256,192,126867,1,8,0:0:0:0:
256,192,127014,1,0,0:0:0:0:
256,192,127161,1,4,0:0:0:0:
256,192,127455,1,0,0:0:0:0:
256,192,127749,1,8,0:0:0:0:
256,192,128043,1,0,0:0:0:0:
256,192,128190,1,0,0:0:0:0:
256,192,128337,1,8,0:0:0:0:
256,192,128484,1,0,0:0:0:0:
256,192,128778,1,0,0:0:0:0:
256,192,128925,1,8,0:0:0:0:
256,192,129072,1,8,0:0:0:0:
256,192,129219,1,4,0:0:0:0:
256,192,129514,1,0,0:0:0:0:
256,192,129808,1,8,0:0:0:0:
256,192,130102,1,0,0:0:0:0:
256,192,130249,1,0,0:0:0:0:
256,192,130322,1,0,0:0:0:0:
256,192,130396,1,0,0:0:0:0:
256,192,130543,1,0,0:0:0:0:
256,192,130837,1,0,0:0:0:0:
256,192,130911,1,0,0:0:0:0:
256,192,130984,1,8,0:0:0:0:
256,192,131131,1,0,0:0:0:0:
256,192,131278,1,4,0:0:0:0:
256,192,131572,1,0,0:0:0:0:
256,192,131867,1,8,0:0:0:0:
256,192,132161,1,0,0:0:0:0:
256,192,132308,1,0,0:0:0:0:
256,192,132455,1,0,0:0:0:0:
256,192,132602,1,8,0:0:0:0:
256,192,132896,1,8,0:0:0:0:
256,192,133043,1,8,0:0:0:0:
256,192,133190,1,0,0:0:0:0:
256,192,133337,1,4,0:0:0:0:
256,192,133631,1,0,0:0:0:0:
256,192,133925,1,8,0:0:0:0:
256,192,134219,1,0,0:0:0:0:
256,192,134367,1,0,0:0:0:0:
256,192,134440,1,0,0:0:0:0:
256,192,134514,1,0,0:0:0:0:
256,192,134661,1,8,0:0:0:0:
256,192,134955,1,0,0:0:0:0:
256,192,135028,1,0,0:0:0:0:
256,192,135102,1,8,0:0:0:0:
256,192,135249,1,8,0:0:0:0:
256,192,135396,1,4,0:0:0:0:
256,192,135690,1,0,0:0:0:0:
256,192,135984,1,8,0:0:0:0:
256,192,136278,1,0,0:0:0:0:
256,192,136425,1,0,0:0:0:0:
256,192,136572,1,8,0:0:0:0:
256,192,136719,1,8,0:0:0:0:
256,192,137014,1,0,0:0:0:0:
256,192,137161,1,8,0:0:0:0:
256,192,137308,1,8,0:0:0:0:
256,192,137455,1,4,0:0:0:0:
256,192,137749,1,0,0:0:0:0:
256,192,138043,1,8,0:0:0:0:
256,192,138484,1,0,0:0:0:0:
256,192,138558,1,0,0:0:0:0:
256,192,138631,1,8,0:0:0:0:
256,192,138778,1,0,0:0:0:0:
256,192,138925,1,8,0:0:0:0:
256,192,138974,1,8,0:0:0:0:
256,192,139023,1,0,0:0:0:0:
256,192,139072,1,0,0:0:0:0:
256,192,139146,1,0,0:0:0:0:
256,192,139219,1,8,0:0:0:0:
256,192,139367,1,8,0:0:0:0:
256,192,139514,1,4,0:0:0:0:
256,192,139808,1,0,0:0:0:0:
256,192,139881,1,0,0:0:0:0:
256,192,139955,1,0,0:0:0:0:
256,192,140102,1,8,0:0:0:0:
256,192,140249,1,0,0:0:0:0:
256,192,140322,1,0,0:0:0:0:
256,192,140396,1,0,0:0:0:0:
256,192,140543,1,0,0:0:0:0:
256,192,140690,1,8,0:0:0:0:
256,192,140764,1,8,0:0:0:0:
256,192,140837,1,8,0:0:0:0:
256,192,140984,1,0,0:0:0:0:
256,192,141131,1,8,0:0:0:0:
256,192,141205,1,8,0:0:0:0:
256,192,141278,1,8,0:0:0:0:
256,192,141425,1,0,0:0:0:0:
256,192,141572,1,4,0:0:0:0:
256,192,141867,1,0,0:0:0:0:
256,192,141940,1,0,0:0:0:0:
256,192,142014,1,0,0:0:0:0:
256,192,142161,1,8,0:0:0:0:
256,192,142308,1,0,0:0:0:0:
256,192,142381,1,0,0:0:0:0:
256,192,142455,1,0,0:0:0:0:
256,192,142602,1,0,0:0:0:0:
256,192,142749,1,8,0:0:0:0:
256,192,142822,1,8,0:0:0:0:
256,192,142896,1,0,0:0:0:0:
256,192,143043,1,0,0:0:0:0:
256,192,143190,1,0,0:0:0:0:
256,192,143264,1,0,0:0:0:0:
256,192,143337,1,8,0:0:0:0:
256,192,143484,1,8,0:0:0:0:
256,192,143631,1,4,0:0:0:0:
256,192,143925,1,0,0:0:0:0:
256,192,143999,1,0,0:0:0:0:
256,192,144072,1,0,0:0:0:0:
256,192,144219,1,8,0:0:0:0:
256,192,144367,1,0,0:0:0:0:
256,192,144440,1,0,0:0:0:0:
256,192,144514,1,0,0:0:0:0:
256,192,144661,1,0,0:0:0:0:
256,192,144808,1,8,0:0:0:0:
256,192,144881,1,8,0:0:0:0:
256,192,144955,1,8,0:0:0:0:
256,192,145102,1,0,0:0:0:0:
256,192,145249,1,8,0:0:0:0:
256,192,145322,1,8,0:0:0:0:
256,192,145396,1,8,0:0:0:0:
256,192,145543,1,8,0:0:0:0:
256,192,145690,1,4,0:0:0:0:
256,192,145984,1,0,0:0:0:0:
256,192,146058,1,0,0:0:0:0:
256,192,146131,1,0,0:0:0:0:
256,192,146278,1,8,0:0:0:0:
256,192,146425,1,0,0:0:0:0:
256,192,146499,1,0,0:0:0:0:
256,192,146572,1,0,0:0:0:0:
256,192,146719,1,0,0:0:0:0:
256,192,146793,1,0,0:0:0:0:
256,192,146867,1,8,0:0:0:0:
256,192,146940,1,8,0:0:0:0:
256,192,147014,1,0,0:0:0:0:
256,192,147161,1,8,0:0:0:0:
256,192,147234,1,8,0:0:0:0:
256,192,147308,1,0,0:0:0:0:
256,192,147381,1,0,0:0:0:0:
256,192,147455,1,8,0:0:0:0:
256,192,147602,1,8,0:0:0:0:
256,192,147749,5,4,0:0:0:0:
256,192,148043,1,0,0:0:0:0:
256,192,148190,1,8,0:0:0:0:
256,192,148337,1,12,0:0:0:0:
256,192,148631,1,0,0:0:0:0:
256,192,148925,1,12,0:0:0:0:
256,192,149219,1,0,0:0:0:0:
256,192,149367,1,0,0:0:0:0:
256,192,149514,1,12,0:0:0:0:
256,192,149808,1,4,0:0:0:0:
256,192,150102,1,0,0:0:0:0:
256,192,150249,1,8,0:0:0:0:
256,192,150396,1,12,0:0:0:0:
256,192,150690,1,0,0:0:0:0:
256,192,150984,1,12,0:0:0:0:
256,192,151278,1,0,0:0:0:0:
256,192,151425,1,0,0:0:0:0:
256,192,151572,1,12,0:0:0:0:
256,192,151867,1,4,0:0:0:0:
256,192,152161,1,0,0:0:0:0:
256,192,152455,1,12,0:0:0:0:
256,192,152749,1,8,0:0:0:0:
256,192,152896,1,0,0:0:0:0:
256,192,153043,1,8,0:0:0:0:
256,192,153190,1,0,0:0:0:0:
256,192,153337,1,8,0:0:0:0:
256,192,153484,1,0,0:0:0:0:
256,192,153631,1,8,0:0:0:0:
256,192,153778,1,8,0:0:0:0:
256,192,153925,1,4,0:0:0:0:
256,192,154219,1,0,0:0:0:0:
256,192,154514,1,12,0:0:0:0:
256,192,154808,1,8,0:0:0:0:
256,192,154955,1,0,0:0:0:0:
256,192,155028,1,0,0:0:0:0:
256,192,155102,1,0,0:0:0:0:
256,192,155249,1,8,0:0:0:0:
256,192,155396,1,8,0:0:0:0:
256,192,155543,1,0,0:0:0:0:
256,192,155617,1,0,0:0:0:0:
256,192,155690,1,8,0:0:0:0:
256,192,155837,1,0,0:0:0:0:
256,192,155984,1,12,0:0:0:0:
256,192,156131,1,0,0:0:0:0:
256,192,156278,1,8,0:0:0:0:
256,192,156352,1,8,0:0:0:0:
256,192,156425,1,0,0:0:0:0:
256,192,156572,1,8,0:0:0:0:
256,192,156719,1,0,0:0:0:0:
256,192,156867,1,8,0:0:0:0:
256,192,156940,1,8,0:0:0:0:
256,192,157014,1,0,0:0:0:0:
256,192,157161,1,8,0:0:0:0:
256,192,157308,1,0,0:0:0:0:
256,192,157455,1,8,0:0:0:0:
256,192,157528,1,8,0:0:0:0:
256,192,157602,1,0,0:0:0:0:
256,192,157749,1,8,0:0:0:0:
256,192,157896,1,0,0:0:0:0:
256,192,158043,1,12,0:0:0:0:
256,192,158191,1,0,0:0:0:0:
256,192,158264,1,0,0:0:0:0:
256,192,158338,1,8,0:0:0:0:
256,192,158485,1,0,0:0:0:0:
256,192,158558,1,0,0:0:0:0:
256,192,158632,1,8,0:0:0:0:
256,192,158779,1,0,0:0:0:0:
256,192,158852,1,0,0:0:0:0:
256,192,158926,1,8,0:0:0:0:
256,192,159073,2,4,L|0:32,1,280
256,192,159808,1,8,0:0:0:0:
256,192,159857,1,8,0:0:0:0:
256,192,159906,1,8,0:0:0:0:
256,192,159955,1,0,0:0:0:0:
256,192,160029,1,0,0:0:0:0:
256,192,160102,1,8,0:0:0:0:
256,192,160249,1,4,0:0:0:0:
256,192,160544,1,0,0:0:0:0:
256,192,160691,1,12,0:0:0:0:
256,192,160838,1,0,0:0:0:0:
256,192,160985,1,8,0:0:0:0:
256,192,161132,1,0,0:0:0:0:
256,192,161205,1,0,0:0:0:0:
256,192,161279,1,8,0:0:0:0:
256,192,161352,1,0,0:0:0:0:
256,192,161426,1,8,0:0:0:0:
256,192,161499,1,8,0:0:0:0:
256,192,161573,1,0,0:0:0:0:
256,192,161720,1,0,0:0:0:0:
256,192,161794,1,0,0:0:0:0:
256,192,161867,1,8,0:0:0:0:
256,192,162014,1,8,0:0:0:0:
256,192,162161,1,0,0:0:0:0:
256,192,162235,1,0,0:0:0:0:
256,192,162308,1,0,0:0:0:0:
256,192,162382,1,0,0:0:0:0:
256,192,162455,1,8,0:0:0:0:
256,192,162602,1,0,0:0:0:0:
256,192,162749,1,0,0:0:0:0:
256,192,162896,1,0,0:0:0:0:
256,192,162970,1,0,0:0:0:0:
256,192,163044,1,8,0:0:0:0:
256,192,163191,1,8,0:0:0:0:
256,192,163338,1,8,0:0:0:0:
256,192,163485,1,0,0:0:0:0:
256,192,163558,1,0,0:0:0:0:
256,192,163632,1,8,0:0:0:0:
256,192,163779,1,0,0:0:0:0:
256,192,163926,1,8,0:0:0:0:
256,192,163999,1,8,0:0:0:0:
256,192,164073,1,0,0:0:0:0:
256,192,164146,1,8,0:0:0:0:
256,192,164220,1,8,0:0:0:0:
256,192,164367,1,8,0:0:0:0:
256,192,164514,1,0,0:0:0:0:
256,192,164588,1,0,0:0:0:0:
256,192,164661,1,0,0:0:0:0:
256,192,164735,1,0,0:0:0:0:
256,192,164808,1,8,0:0:0:0:
256,192,164955,1,8,0:0:0:0:
256,192,165102,1,0,0:0:0:0:
256,192,165249,1,0,0:0:0:0:
256,192,165323,1,0,0:0:0:0:
256,192,165396,1,8,0:0:0:0:
256,192,165544,1,0,0:0:0:0:
256,192,165691,1,8,0:0:0:0:
256,192,165838,1,0,0:0:0:0:
256,192,165911,1,0,0:0:0:0:
256,192,165985,1,8,0:0:0:0:
256,192,166132,1,8,0:0:0:0:
256,192,166205,1,0,0:0:0:0:
256,192,166279,1,8,0:0:0:0:
256,192,166426,1,0,0:0:0:0:
256,192,166499,1,0,0:0:0:0:
256,192,166573,1,8,0:0:0:0:
256,192,166720,1,0,0:0:0:0:
256,192,166867,1,0,0:0:0:0:
256,192,166941,1,8,0:0:0:0:
256,192,167014,1,0,0:0:0:0:
256,192,167088,1,0,0:0:0:0:
256,192,167161,1,8,0:0:0:0:
256,192,167308,1,8,0:0:0:0:
256,192,167455,1,0,0:0:0:0:
256,192,167602,1,0,0:0:0:0:
256,192,167676,1,0,0:0:0:0:
256,192,167749,1,8,0:0:0:0:
256,192,167823,1,8,0:0:0:0:
256,192,167896,1,0,0:0:0:0:
256,192,168044,1,0,0:0:0:0:
256,192,168191,1,0,0:0:0:0:
256,192,168264,1,0,0:0:0:0:
256,192,168338,1,8,0:0:0:0:
256,192,168485,1,0,0:0:0:0:
256,192,168632,1,8,0:0:0:0:
256,192,168705,1,0,0:0:0:0:
256,192,168779,1,0,0:0:0:0:
256,192,168852,1,0,0:0:0:0:
256,192,168926,1,8,0:0:0:0:
256,192,169073,1,8,0:0:0:0:
256,192,169220,1,0,0:0:0:0:
256,192,169294,1,0,0:0:0:0:
256,192,169367,1,0,0:0:0:0:
256,192,169441,1,0,0:0:0:0:
256,192,169514,1,8,0:0:0:0:
256,192,169661,1,0,0:0:0:0:
256,192,169955,1,0,0:0:0:0:
256,192,170102,1,12,0:0:0:0:
256,192,170249,1,0,0:0:0:0:
256,192,170396,1,0,0:0:0:0:
256,192,170544,1,8,0:0:0:0:
256,192,170617,1,8,0:0:0:0:
256,192,170691,1,8,0:0:0:0:
256,192,170764,1,8,0:0:0:0:
256,192,170838,1,0,0:0:0:0:
256,192,170985,1,8,0:0:0:0:
256,192,171058,1,8,0:0:0:0:
256,192,171132,1,0,0:0:0:0:
256,192,171205,1,0,0:0:0:0:
256,192,171279,1,8,0:0:0:0:
256,192,171426,1,8,0:0:0:0:
256,192,171573,1,0,0:0:0:0:
256,192,171646,1,0,0:0:0:0:
256,192,171720,1,0,0:0:0:0:
256,192,171794,1,0,0:0:0:0:
256,192,171867,1,8,0:0:0:0:
256,192,172014,1,8,0:0:0:0:
256,192,172161,1,0,0:0:0:0:
256,192,172308,1,0,0:0:0:0:
256,192,172382,1,0,0:0:0:0:
256,192,172455,1,8,0:0:0:0:
256,192,172529,1,0,0:0:0:0:
256,192,172602,1,0,0:0:0:0:
256,192,172749,1,8,0:0:0:0:
256,192,172896,1,0,0:0:0:0:
256,192,172970,1,0,0:0:0:0:
256,192,173044,1,8,0:0:0:0:
256,192,173191,1,0,0:0:0:0:
256,192,173338,1,8,0:0:0:0:
256,192,173411,1,8,0:0:0:0:
256,192,173485,1,0,0:0:0:0:
256,192,173558,1,8,0:0:0:0:
256,192,173632,1,8,0:0:0:0:
256,192,173779,1,8,0:0:0:0:
256,192,173926,1,0,0:0:0:0:
256,192,173999,1,0,0:0:0:0:
256,192,174073,1,0,0:0:0:0:
256,192,174146,1,0,0:0:0:0:
256,192,174220,1,8,0:0:0:0:
256,192,174367,1,8,0:0:0:0:
256,192,174514,1,0,0:0:0:0:
256,192,174661,1,0,0:0:0:0:
256,192,174735,1,0,0:0:0:0:
256,192,174808,1,8,0:0:0:0:
256,192,174955,1,8,0:0:0:0:
256,192,175102,1,0,0:0:0:0:
256,192,175249,1,0,0:0:0:0:
256,192,175323,1,0,0:0:0:0:
256,192,175396,1,8,0:0:0:0:
256,192,175544,1,8,0:0:0:0:
256,192,175617,1,8,0:0:0:0:
256,192,175691,1,0,0:0:0:0:
256,192,175838,1,0,0:0:0:0:
256,192,175911,1,0,0:0:0:0:
256,192,175985,1,8,0:0:0:0:
256,192,176132,1,0,0:0:0:0:
256,192,176279,1,8,0:0:0:0:
256,192,176352,1,0,0:0:0:0:
256,192,176426,1,0,0:0:0:0:
256,192,176499,1,0,0:0:0:0:
256,192,176573,1,8,0:0:0:0:
256,192,176720,1,8,0:0:0:0:
256,192,176867,1,0,0:0:0:0:
256,192,177014,1,0,0:0:0:0:
256,192,177088,1,0,0:0:0:0:
256,192,177161,1,8,0:0:0:0:
256,192,177308,1,0,0:0:0:0:
256,192,177382,1,8,0:0:0:0:
256,192,177455,1,0,0:0:0:0:
256,192,177529,1,8,0:0:0:0:
256,192,177602,1,0,0:0:0:0:
256,192,177676,1,0,0:0:0:0:
256,192,177749,1,8,0:0:0:0:
256,192,177896,1,8,0:0:0:0:
256,192,178044,1,8,0:0:0:0:
256,192,178117,1,8,0:0:0:0:
256,192,178191,1,0,0:0:0:0:
256,192,178264,1,0,0:0:0:0:
256,192,178338,1,8,0:0:0:0:
256,192,178485,1,0,0:0:0:0:
256,192,178632,1,0,0:0:0:0:
256,192,178705,1,8,0:0:0:0:
256,192,178779,1,0,0:0:0:0:
256,192,178852,1,0,0:0:0:0:
256,192,178926,1,8,0:0:0:0:
256,192,179073,1,4,0:0:0:0:
256,192,179514,1,0,0:0:0:0:
256,192,179808,1,0,0:0:0:0:
256,192,180102,1,0,0:0:0:0:
256,192,180249,1,0,0:0:0:0:
256,192,180396,1,0,0:0:0:0:
256,192,180691,1,0,0:0:0:0:
256,192,180985,1,0,0:0:0:0:
256,192,181279,1,0,0:0:0:0:
256,192,181426,1,0,0:0:0:0:
256,192,181573,1,8,0:0:0:0:
256,192,181867,1,0,0:0:0:0:
256,192,182161,1,0,0:0:0:0:
256,192,182455,1,0,0:0:0:0:
256,192,182749,2,0,L|64:96,1,210
256,192,183338,1,8,0:0:0:0:
256,192,183779,1,4,0:0:0:0:
256,192,183926,1,8,0:0:0:0:
256,192,183998,1,8,0:0:0:0:
256,192,184072,1,0,0:0:0:0:
256,192,184145,1,0,0:0:0:0:
256,192,184219,1,0,0:0:0:0:
256,192,184292,1,0,0:0:0:0:
256,192,184366,1,8,0:0:0:0:
256,192,184660,1,0,0:0:0:0:
256,192,184733,1,0,0:0:0:0:
256,192,184807,1,0,0:0:0:0:
256,192,184954,1,0,0:0:0:0:
256,192,185027,1,0,0:0:0:0:
256,192,185101,1,8,0:0:0:0:
256,192,185248,1,0,0:0:0:0:
256,192,185322,1,0,0:0:0:0:
256,192,185395,1,8,0:0:0:0:
256,192,185469,1,8,0:0:0:0:
256,192,185542,1,0,0:0:0:0:
256,192,185616,1,0,0:0:0:0:
256,192,185689,1,0,0:0:0:0:
256,192,185763,1,0,0:0:0:0:
256,192,185836,1,8,0:0:0:0:
256,192,186130,1,0,0:0:0:0:
256,192,186204,1,8,0:0:0:0:
256,192,186277,1,0,0:0:0:0:
256,192,186425,1,0,0:0:0:0:
256,192,186498,1,0,0:0:0:0:
256,192,186572,1,8,0:0:0:0:
256,192,186719,1,0,0:0:0:0:
256,192,186792,1,0,0:0:0:0:
256,192,186866,1,8,0:0:0:0:
256,192,186939,1,8,0:0:0:0:
256,192,187013,1,0,0:0:0:0:
256,192,187086,1,0,0:0:0:0:
256,192,187160,1,0,0:0:0:0:
256,192,187233,1,0,0:0:0:0:
256,192,187307,1,8,0:0:0:0:
256,192,187601,1,0,0:0:0:0:
256,192,187675,1,0,0:0:0:0:
256,192,187748,1,0,0:0:0:0:
256,192,187895,1,0,0:0:0:0:
256,192,187969,1,0,0:0:0:0:
256,192,188042,1,8,0:0:0:0:
256,192,188189,1,0,0:0:0:0:
256,192,188263,1,0,0:0:0:0:
256,192,188336,1,8,0:0:0:0:
256,192,188410,1,8,0:0:0:0:
256,192,188483,1,0,0:0:0:0:
256,192,188557,1,0,0:0:0:0:
256,192,188630,1,0,0:0:0:0:
256,192,188704,1,0,0:0:0:0:
256,192,188777,1,8,0:0:0:0:
256,192,189072,1,0,0:0:0:0:
256,192,189145,1,8,0:0:0:0:
256,192,189219,1,0,0:0:0:0:
256,192,189366,1,0,0:0:0:0:
256,192,189439,1,0,0:0:0:0:
256,192,189513,1,8,0:0:0:0:
256,192,189660,1,8,0:0:0:0:
256,192,189733,1,8,0:0:0:0:
256,192,189807,1,8,0:0:0:0:
256,192,189880,1,0,0:0:0:0:
256,192,189954,1,8,0:0:0:0:
256,192,190027,1,0,0:0:0:0:
256,192,190101,1,0,0:0:0:0:
256,192,190175,1,0,0:0:0:0:
256,192,190248,1,8,0:0:0:0:
256,192,190542,1,0,0:0:0:0:
256,192,190616,1,8,0:0:0:0:
256,192,190689,1,0,0:0:0:0:
256,192,190836,1,0,0:0:0:0:
256,192,190910,1,8,0:0:0:0:
256,192,190983,1,8,0:0:0:0:
256,192,191130,1,0,0:0:0:0:
256,192,191204,1,0,0:0:0:0:
256,192,191277,1,8,0:0:0:0:
256,192,191351,1,0,0:0:0:0:
256,192,191425,1,8,0:0:0:0:
256,192,191498,1,0,0:0:0:0:
256,192,191572,1,0,0:0:0:0:
256,192,191645,1,0,0:0:0:0:
256,192,191719,1,8,0:0:0:0:
256,192,192013,1,8,0:0:0:0:
256,192,192086,1,8,0:0:0:0:
256,192,192160,1,0,0:0:0:0:
256,192,192307,1,0,0:0:0:0:
256,192,192380,1,8,0:0:0:0:
256,192,192454,1,8,0:0:0:0:
256,192,192601,1,0,0:0:0:0:
256,192,192675,1,0,0:0:0:0:
256,192,192748,1,8,0:0:0:0:
256,192,192822,1,0,0:0:0:0:
256,192,192895,1,8,0:0:0:0:
256,192,192969,1,0,0:0:0:0:
256,192,193042,1,0,0:0:0:0:
256,192,193116,1,0,0:0:0:0:
256,192,193189,1,8,0:0:0:0:
256,192,193483,1,0,0:0:0:0:
256,192,193557,1,8,0:0:0:0:
256,192,193630,1,0,0:0:0:0:
256,192,193777,1,0,0:0:0:0:
256,192,193851,1,8,0:0:0:0:
256,192,193925,1,8,0:0:0:0:
256,192,194072,1,0,0:0:0:0:
256,192,194145,1,0,0:0:0:0:
256,192,194219,1,8,0:0:0:0:
256,192,194292,1,8,0:0:0:0:
256,192,194366,1,8,0:0:0:0:
256,192,194439,1,0,0:0:0:0:
256,192,194513,1,0,0:0:0:0:
256,192,194586,1,0,0:0:0:0:
256,192,194660,1,8,0:0:0:0:
256,192,194954,1,0,0:0:0:0:
256,192,195027,1,0,0:0:0:0:
256,192,195101,1,8,0:0:0:0:
256,192,195248,1,8,0:0:0:0:
256,192,195395,1,0,0:0:0:0:
256,192,195542,1,8,0:0:0:0:
256,192,195689,1,4,0:0:0:0:
256,192,195836,1,0,0:0:0:0:
256,192,195983,1,0,0:0:0:0:
256,192,196130,1,8,0:0:0:0:
256,192,196277,1,8,0:0:0:0:
256,192,196425,1,0,0:0:0:0:
256,192,196572,1,8,0:0:0:0:
256,192,196719,1,0,0:0:0:0:
256,192,196866,1,0,0:0:0:0:
256,192,197013,1,0,0:0:0:0:
256,192,197086,1,0,0:0:0:0:
256,192,197160,1,8,0:0:0:0:
256,192,197307,1,0,0:0:0:0:
256,192,197601,1,8,0:0:0:0:
256,192,197748,1,8,0:0:0:0:
256,192,197895,1,0,0:0:0:0:
256,192,198042,1,8,0:0:0:0:
256,192,198189,1,0,0:0:0:0:
256,192,198336,1,8,0:0:0:0:
256,192,198483,1,0,0:0:0:0:
256,192,198630,1,4,0:0:0:0:
256,192,198777,1,0,0:0:0:0:
256,192,198925,1,0,0:0:0:0:
256,192,199072,1,8,0:0:0:0:
256,192,199219,1,8,0:0:0:0:
256,192,199366,1,0,0:0:0:0:
256,192,199513,1,8,0:0:0:0:
256,192,199660,1,0,0:0:0:0:
256,192,199807,1,0,0:0:0:0:
256,192,199954,1,0,0:0:0:0:
256,192,200027,1,0,0:0:0:0:
256,192,200101,1,8,0:0:0:0:
256,192,200248,1,0,0:0:0:0:
256,192,200542,1,8,0:0:0:0:
256,192,200689,1,8,0:0:0:0:
256,192,200836,1,0,0:0:0:0:
256,192,200983,1,8,0:0:0:0:
256,192,201130,1,0,0:0:0:0:
256,192,201277,1,8,0:0:0:0:
256,192,201425,1,8,0:0:0:0:
256,192,201572,1,4,0:0:0:0:
256,192,201719,1,0,0:0:0:0:
256,192,201866,1,0,0:0:0:0:
256,192,202013,1,8,0:0:0:0:
256,192,202160,1,8,0:0:0:0:
256,192,202307,1,0,0:0:0:0:
256,192,202454,1,8,0:0:0:0:
256,192,202601,1,0,0:0:0:0:
256,192,202748,1,0,0:0:0:0:
256,192,202895,1,0,0:0:0:0:
256,192,202969,1,0,0:0:0:0:
256,192,203042,1,8,0:0:0:0:
256,192,203189,1,0,0:0:0:0:
256,192,203483,1,8,0:0:0:0:
256,192,203630,1,8,0:0:0:0:
256,192,203777,1,0,0:0:0:0:
256,192,203925,1,8,0:0:0:0:
256,192,204072,1,0,0:0:0:0:
256,192,204219,1,0,0:0:0:0:
256,192,204366,1,8,0:0:0:0:
256,192,204513,1,4,0:0:0:0:
256,192,204660,1,0,0:0:0:0:
256,192,204807,1,0,0:0:0:0:
256,192,204954,1,4,0:0:0:0:
256,192,205248,1,0,0:0:0:0:
256,192,205395,1,4,0:0:0:0:
256,192,205542,1,0,0:0:0:0:
256,192,205689,1,4,0:0:0:0:
256,192,205836,1,0,0:0:0:0:
256,192,205910,1,0,0:0:0:0:
256,192,205983,1,8,0:0:0:0:
256,192,206130,1,0,0:0:0:0:
256,192,206277,1,0,0:0:0:0:
256,192,206425,1,4,0:0:0:0:
256,192,206719,1,8,0:0:0:0:
256,192,206866,1,8,0:0:0:0:
256,192,207013,1,8,0:0:0:0:
256,192,207160,1,8,0:0:0:0:
256,192,207454,1,4,0:0:0:0:
256,192,207748,1,0,0:0:0:0:
256,192,207895,1,8,0:0:0:0:
256,192,208042,1,8,0:0:0:0:
256,192,208189,1,8,0:0:0:0:
256,192,208336,1,0,0:0:0:0:
256,192,208483,1,8,0:0:0:0:
256,192,208630,1,0,0:0:0:0:
256,192,208777,1,0,0:0:0:0:
256,192,209071,1,8,0:0:0:0:
256,192,209218,1,0,0:0:0:0:
256,192,209659,1,8,0:0:0:0:
256,192,209806,1,0,0:0:0:0:
256,192,209954,1,8,0:0:0:0:
256,192,210101,1,0,0:0:0:0:
256,192,210248,1,8,0:0:0:0:
256,192,210395,1,0,0:0:0:0:
256,192,210542,1,0,0:0:0:0:
256,192,210689,1,8,0:0:0:0:
256,192,210836,1,8,0:0:0:0:
256,192,210983,1,0,0:0:0:0:
256,192,211130,1,8,0:0:0:0:
256,192,211424,1,8,0:0:0:0:
256,192,211571,1,12,0:0:0:0:
256,192,212012,1,8,0:0:0:0:
256,192,212454,1,0,0:0:0:0:
256,192,212748,1,0,0:0:0:0:
256,192,212895,1,0,0:0:0:0:
256,192,213189,1,8,0:0:0:0:
256,192,213262,1,8,0:0:0:0:
256,192,213336,1,0,0:0:0:0:
256,192,213483,1,0,0:0:0:0:
256,192,213630,1,8,0:0:0:0:
256,192,213777,1,8,0:0:0:0:
256,192,214218,1,0,0:0:0:0:
256,192,214512,1,0,0:0:0:0:
256,192,214659,1,8,0:0:0:0:
256,192,214806,1,0,0:0:0:0:
256,192,214954,1,0,0:0:0:0:
256,192,215101,1,8,0:0:0:0:
256,192,215248,1,0,0:0:0:0:
256,192,215395,1,0,0:0:0:0:
256,192,215542,1,8,0:0:0:0:
256,192,215689,1,4,0:0:0:0:
256,192,215836,1,8,0:0:0:0:
256,192,216130,1,8,0:0:0:0:
256,192,216277,1,8,0:0:0:0:
256,192,216424,1,0,0:0:0:0:
256,192,216571,1,0,0:0:0:0:
256,192,216718,1,8,0:0:0:0:
256,192,216865,1,0,0:0:0:0:
256,192,217306,1,8,0:0:0:0:
256,192,217748,1,0,0:0:0:0:
256,192,217895,1,0,0:0:0:0:
256,192,218042,1,8,0:0:0:0:
256,192,218189,1,0,0:0:0:0:
256,192,218336,1,8,0:0:0:0:
256,192,218483,1,0,0:0:0:0:
256,192,218630,1,0,0:0:0:0:
256,192,218777,1,8,0:0:0:0:
256,192,218924,1,8,0:0:0:0:
256,192,219365,1,8,0:0:0:0:
256,192,219512,1,0,0:0:0:0:
256,192,219659,1,0,0:0:0:0:
256,192,219806,1,12,0:0:0:0:
256,192,220395,1,8,0:0:0:0:
256,192,220542,5,8,0:0:0:0:
256,192,220836,1,0,0:0:0:0:
256,192,220983,1,0,0:0:0:0:
256,192,221130,1,8,0:0:0:0:
256,192,221277,1,0,0:0:0:0:
256,192,221424,1,8,0:0:0:0:
256,192,221571,1,0,0:0:0:0:
256,192,221718,1,0,0:0:0:0:
256,192,221792,1,0,0:0:0:0:
256,192,221865,1,8,0:0:0:0:
256,192,222012,1,8,0:0:0:0:
256,192,222159,1,8,0:0:0:0:
256,192,222306,1,0,0:0:0:0:
256,192,222454,1,0,0:0:0:0:
256,192,222601,1,8,0:0:0:0:
256,192,222895,1,8,0:0:0:0:
256,192,223189,5,0,0:0:0:0:
256,192,223336,1,8,0:0:0:0:
256,192,223483,1,0,0:0:0:0:
256,192,223630,1,0,0:0:0:0:
256,192,223777,1,4,0:0:0:0:
256,192,223924,1,12,0:0:0:0:
256,192,224512,1,8,0:0:0:0:
256,192,224659,1,0,0:0:0:0:
256,192,224806,1,0,0:0:0:0:
256,192,224954,1,8,0:0:0:0:
256,192,225101,1,0,0:0:0:0:
256,192,225395,1,0,0:0:0:0:
256,192,225542,1,8,0:0:0:0:
256,192,225689,1,0,0:0:0:0:
256,192,225836,1,0,0:0:0:0:
256,192,225983,1,8,0:0:0:0:
256,192,226130,1,8,0:0:0:0:
256,192,226277,1,0,0:0:0:0:
256,192,226571,1,8,0:0:0:0:
256,192,226718,1,8,0:0:0:0:
256,192,226865,1,0,0:0:0:0:
256,192,227012,1,0,0:0:0:0:
256,192,227159,1,8,0:0:0:0:
256,192,227454,1,0,0:0:0:0:
256,192,227601,1,8,0:0:0:0:
256,192,227748,1,0,0:0:0:0:
256,192,228042,1,12,0:0:0:0:
256,192,228630,1,8,0:0:0:0:
256,192,228924,1,0,0:0:0:0:
256,192,229071,1,0,0:0:0:0:
256,192,229218,1,8,0:0:0:0:
256,192,229365,1,8,0:0:0:0:
256,192,229512,1,0,0:0:0:0:
256,192,229659,1,8,0:0:0:0:
256,192,229806,1,0,0:0:0:0:
256,192,229880,1,0,0:0:0:0:
256,192,229954,1,0,0:0:0:0:
256,192,230101,1,8,0:0:0:0:
256,192,230395,1,0,0:0:0:0:
256,192,230493,1,0,0:0:0:0:
256,192,230591,1,0,0:0:0:0:
256,192,230689,1,8,0:0:0:0:
256,192,230836,1,0,0:0:0:0:
256,192,230983,1,8,0:0:0:0:
256,192,231130,1,0,0:0:0:0:
256,192,231277,1,8,0:0:0:0:
256,192,231424,1,0,0:0:0:0:
256,192,231571,1,0,0:0:0:0:
256,192,231718,1,8,0:0:0:0:
256,192,231865,1,8,0:0:0:0:
256,192,232012,1,0,0:0:0:0:
256,192,232086,1,0,0:0:0:0:
256,192,232159,1,8,0:0:0:0:
256,192,232748,1,8,0:0:0:0:
256,192,232895,1,0,0:0:0:0:
256,192,233042,1,0,0:0:0:0:
256,192,233189,1,0,0:0:0:0:
256,192,233336,1,8,0:0:0:0:
256,192,233483,1,0,0:0:0:0:
256,192,233630,1,8,0:0:0:0:
256,192,233777,1,8,0:0:0:0:
256,192,234071,1,0,0:0:0:0:
256,192,234218,1,0,0:0:0:0:
256,192,234806,1,8,0:0:0:0:
256,192,235101,1,0,0:0:0:0:
256,192,235248,1,0,0:0:0:0:
256,192,235395,1,8,0:0:0:0:
256,192,235542,1,0,0:0:0:0:
256,192,235689,1,8,0:0:0:0:
256,192,235836,1,8,0:0:0:0:
256,192,236130,1,0,0:0:0:0:
256,192,236277,1,12,0:0:0:0:
256,192,236865,1,8,0:0:0:0:
256,192,237159,1,8,0:0:0:0:
256,192,237233,1,0,0:0:0:0:
256,192,237306,1,0,0:0:0:0:
256,192,237454,1,8,0:0:0:0:
256,192,237601,1,8,0:0:0:0:
256,192,237748,1,0,0:0:0:0:
256,192,237895,1,8,0:0:0:0:
256,192,238336,1,0,0:0:0:0:
256,192,238434,1,8,0:0:0:0:
256,192,238532,1,8,0:0:0:0:
256,192,238630,1,8,0:0:0:0:
256,192,238728,1,0,0:0:0:0:
256,192,238826,1,0,0:0:0:0:
256,192,238924,1,8,0:0:0:0:
256,192,239022,1,8,0:0:0:0:
256,192,239120,1,0,0:0:0:0:
256,192,239218,1,8,0:0:0:0:
256,192,239316,1,8,0:0:0:0:
256,192,239414,1,0,0:0:0:0:
256,192,239512,1,8,0:0:0:0:
256,192,239610,1,0,0:0:0:0:
256,192,239708,1,0,0:0:0:0:
256,192,239806,1,0,0:0:0:0:
256,192,239904,1,8,0:0:0:0:
256,192,240003,1,8,0:0:0:0:
256,192,240101,1,8,0:0:0:0:
256,192,240199,1,0,0:0:0:0:
256,192,240395,1,12,0:0:0:0:
256,192,240689,1,0,0:0:0:0:
256,192,241277,1,0,0:0:0:0:
256,192,241424,1,0,0:0:0:0:
256,192,241718,1,0,0:0:0:0:
256,192,242012,1,0,0:0:0:0:
256,192,242453,1,8,0:0:0:0:
256,192,242551,1,8,0:0:0:0:
256,192,242649,1,8,0:0:0:0:
256,192,242747,1,0,0:0:0:0:
256,192,243042,1,0,0:0:0:0:
256,192,243630,1,0,0:0:0:0:
256,192,243777,1,0,0:0:0:0:
256,192,244071,1,0,0:0:0:0:
256,192,244365,1,0,0:0:0:0:
256,192,244659,1,8,0:0:0:0:
256,192,244953,1,8,0:0:0:0:
256,192,245100,1,0,0:0:0:0:
256,192,245395,1,0,0:0:0:0:
256,192,245689,1,8,0:0:0:0:
256,192,245983,1,0,0:0:0:0:
256,192,246130,1,0,0:0:0:0:
256,192,246277,1,8,0:0:0:0:
256,192,246424,1,0,0:0:0:0:
256,192,246718,1,0,0:0:0:0:
256,192,247159,1,8,0:0:0:0:
256,192,247453,1,0,0:0:0:0:
256,192,247747,1,0,0:0:0:0:
256,192,248336,1,0,0:0:0:0:
256,192,248483,1,8,0:0:0:0:
256,192,248630,1,8,0:0:0:0:
256,192,248777,1,0,0:0:0:0:
256,192,249071,1,0,0:0:0:0:
256,192,249512,1,0,0:0:0:0:
256,192,249585,1,0,0:0:0:0:
256,192,249659,1,8,0:0:0:0:
256,192,249806,1,4,0:0:0:0:
256,192,249953,1,0,0:0:0:0:
256,192,250395,1,8,0:0:0:0:
256,192,250542,1,0,0:0:0:0:
256,192,250836,1,8,0:0:0:0:
256,192,251130,1,0,0:0:0:0:
256,192,251424,1,8,0:0:0:0:
256,192,251571,1,8,0:0:0:0:
256,192,251718,1,0,0:0:0:0:
256,192,251792,1,0,0:0:0:0:
256,192,251865,1,0,0:0:0:0:
256,192,252012,1,0,0:0:0:0:
256,192,252159,1,4,0:0:0:0:
256,192,252453,1,0,0:0:0:0:
256,192,252747,1,8,0:0:0:0:
256,192,252895,1,8,0:0:0:0:
256,192,253042,1,0,0:0:0:0:
256,192,253189,1,8,0:0:0:0:
256,192,253483,1,0,0:0:0:0:
256,192,253777,1,0,0:0:0:0:
256,192,253850,1,0,0:0:0:0:
256,192,253924,1,8,0:0:0:0:
256,192,254071,1,0,0:0:0:0:
256,192,254145,1,0,0:0:0:0:
256,192,254218,1,0,0:0:0:0:
256,192,254365,1,0,0:0:0:0:
256,192,254512,1,4,0:0:0:0:
256,192,254659,1,0,0:0:0:0:
256,192,254733,1,8,0:0:0:0:
256,192,254806,1,0,0:0:0:0:
256,192,255100,1,8,0:0:0:0:
256,192,255247,1,0,0:0:0:0:
256,192,255395,1,0,0:0:0:0:
256,192,255542,1,8,0:0:0:0:
256,192,255836,1,0,0:0:0:0:
256,192,255983,1,0,0:0:0:0:
256,192,256130,1,8,0:0:0:0:
256,192,256424,1,0,0:0:0:0:
256,192,256497,1,0,0:0:0:0:
256,192,256571,1,0,0:0:0:0:
256,192,256718,1,8,0:0:0:0:
256,192,256865,1,8,0:0:0:0:
256,192,257012,1,0,0:0:0:0:
256,192,257159,1,8,0:0:0:0:
256,192,257453,1,8,0:0:0:0:
256,192,257600,1,0,0:0:0:0:
256,192,257637,1,0,0:0:0:0:
256,192,257747,1,0,0:0:0:0:
256,192,257895,1,8,0:0:0:0:
256,192,257968,1,8,0:0:0:0:
256,192,258042,1,8,0:0:0:0:
256,192,258189,1,0,0:0:0:0:
256,192,258262,1,0,0:0:0:0:
256,192,258336,1,8,0:0:0:0:
256,192,258483,1,0,0:0:0:0:
256,192,258630,1,8,0:0:0:0:
256,192,258703,1,0,0:0:0:0:
256,192,258777,1,0,0:0:0:0:
256,192,258924,1,8,0:0:0:0:
256,192,259071,1,8,0:0:0:0:
256,192,259218,1,4,0:0:0:0:
256,192,259365,1,8,0:0:0:0:
256,192,259439,1,0,0:0:0:0:
256,192,259512,1,8,0:0:0:0:
256,192,259586,1,8,0:0:0:0:
256,192,259659,1,0,0:0:0:0:
256,192,259806,1,8,0:0:0:0:
256,192,259953,1,0,0:0:0:0:
256,192,260100,1,8,0:0:0:0:
256,192,260174,1,8,0:0:0:0:
256,192,260247,1,0,0:0:0:0:
256,192,260395,1,8,0:0:0:0:
256,192,260542,1,0,0:0:0:0:
256,192,260615,1,0,0:0:0:0:
256,192,260689,1,8,0:0:0:0:
256,192,260836,1,8,0:0:0:0:
256,192,260983,1,0,0:0:0:0:
256,192,261056,1,0,0:0:0:0:
256,192,261130,1,0,0:0:0:0:
256,192,261203,1,0,0:0:0:0:
256,192,261277,1,8,0:0:0:0:
256,192,261424,1,0,0:0:0:0:
256,192,261571,1,8,0:0:0:0:
256,192,261718,1,0,0:0:0:0:
256,192,261792,1,0,0:0:0:0:
256,192,261865,1,8,0:0:0:0:
256,192,262086,1,0,0:0:0:0:
256,192,262159,1,8,0:0:0:0:
256,192,262306,1,0,0:0:0:0:
256,192,262453,1,8,0:0:0:0:
256,192,262527,1,8,0:0:0:0:
256,192,262600,1,0,0:0:0:0:
256,192,262747,1,8,0:0:0:0:
256,192,262895,1,0,0:0:0:0:
256,192,262968,1,0,0:0:0:0:
256,192,263042,1,8,0:0:0:0:
256,192,263189,1,0,0:0:0:0:
256,192,263336,1,0,0:0:0:0:
256,192,263409,1,8,0:0:0:0:
256,192,263483,1,0,0:0:0:0:
256,192,263556,1,0,0:0:0:0:
256,192,263630,1,8,0:0:0:0:
256,192,263777,1,0,0:0:0:0:
256,192,263924,1,8,0:0:0:0:
256,192,264071,1,0,0:0:0:0:
256,192,264145,1,0,0:0:0:0:
256,192,264218,1,8,0:0:0:0:
256,192,264439,1,8,0:0:0:0:
256,192,264512,1,0,0:0:0:0:
256,192,264659,1,8,0:0:0:0:
256,192,264806,1,8,0:0:0:0:
256,192,264880,1,8,0:0:0:0:
256,192,264953,1,0,0:0:0:0:
256,192,265100,1,0,0:0:0:0:
256,192,265247,1,0,0:0:0:0:
256,192,265321,1,0,0:0:0:0:
256,192,265395,1,8,0:0:0:0:
256,192,265542,1,8,0:0:0:0:
256,192,265689,1,0,0:0:0:0:
256,192,265762,1,0,0:0:0:0:
256,192,265836,1,8,0:0:0:0:
256,192,265909,1,0,0:0:0:0:
256,192,265983,1,8,0:0:0:0:
256,192,266130,1,0,0:0:0:0:
256,192,266277,1,8,0:0:0:0:
256,192,266424,1,0,0:0:0:0:
256,192,266497,1,0,0:0:0:0:
256,192,266571,1,8,0:0:0:0:
256,192,266792,1,8,0:0:0:0:
256,192,266865,1,0,0:0:0:0:
256,192,267012,1,0,0:0:0:0:
256,192,267159,1,8,0:0:0:0:
256,192,267233,1,0,0:0:0:0:
256,192,267306,1,0,0:0:0:0:
256,192,267453,1,8,0:0:0:0:
256,192,267600,1,0,0:0:0:0:
256,192,267674,1,0,0:0:0:0:
256,192,267747,1,8,0:0:0:0:
256,192,267895,1,8,0:0:0:0:
256,192,268042,1,8,0:0:0:0:
256,192,268115,1,0,0:0:0:0:
256,192,268189,1,0,0:0:0:0:
256,192,268262,1,0,0:0:0:0:
256,192,268336,1,8,0:0:0:0:
256,192,268483,1,4,0:0:0:0:
256,192,268777,1,0,0:0:0:0:
256,192,268924,1,12,0:0:0:0:
256,192,269145,1,8,0:0:0:0:
256,192,269218,1,0,0:0:0:0:
256,192,269365,1,0,0:0:0:0:
256,192,269439,1,8,0:0:0:0:
256,192,269512,1,8,0:0:0:0:
256,192,269586,1,8,0:0:0:0:
256,192,269659,1,0,0:0:0:0:
256,192,269806,1,8,0:0:0:0:
256,192,269953,1,0,0:0:0:0:
256,192,270027,1,0,0:0:0:0:
256,192,270100,1,8,0:0:0:0:
256,192,270247,1,0,0:0:0:0:
256,192,270395,1,8,0:0:0:0:
256,192,270468,1,8,0:0:0:0:
256,192,270542,1,0,0:0:0:0:
256,192,270615,1,0,0:0:0:0:
256,192,270689,1,8,0:0:0:0:
256,192,270836,1,0,0:0:0:0:
256,192,270983,1,8,0:0:0:0:
256,192,271130,1,0,0:0:0:0:
256,192,271203,1,0,0:0:0:0:
256,192,271277,1,8,0:0:0:0:
256,192,271497,1,0,0:0:0:0:
256,192,271571,1,8,0:0:0:0:
256,192,271718,1,0,0:0:0:0:
256,192,271865,1,8,0:0:0:0:
256,192,271939,1,8,0:0:0:0:
256,192,272012,1,0,0:0:0:0:
256,192,272159,1,8,0:0:0:0:
256,192,272306,1,8,0:0:0:0:
256,192,272380,1,0,0:0:0:0:
256,192,272453,1,8,0:0:0:0:
256,192,272600,1,0,0:0:0:0:
256,192,272747,1,0,0:0:0:0:
256,192,272821,1,0,0:0:0:0:
256,192,272895,1,0,0:0:0:0:
256,192,272968,1,0,0:0:0:0:
256,192,273042,1,8,0:0:0:0:
256,192,273189,1,8,0:0:0:0:
256,192,273336,1,8,0:0:0:0:
256,192,273483,1,0,0:0:0:0:
256,192,273556,1,0,0:0:0:0:
256,192,273630,1,8,0:0:0:0:
256,192,273850,1,8,0:0:0:0:
256,192,273924,1,0,0:0:0:0:
256,192,274071,1,8,0:0:0:0:
256,192,274218,1,8,0:0:0:0:
256,192,274292,1,0,0:0:0:0:
256,192,274365,1,0,0:0:0:0:
256,192,274512,1,8,0:0:0:0:
256,192,274659,1,0,0:0:0:0:
256,192,274733,1,0,0:0:0:0:
256,192,274806,1,8,0:0:0:0:
256,192,274953,1,8,0:0:0:0:
256,192,275100,1,0,0:0:0:0:
256,192,275174,1,0,0:0:0:0:
256,192,275247,1,0,0:0:0:0:
256,192,275321,1,8,0:0:0:0:
256,192,275395,1,8,0:0:0:0:
256,192,275542,1,0,0:0:0:0:
256,192,275689,1,12,0:0:0:0:
256,192,275836,1,0,0:0:0:0:
256,192,275909,1,0,0:0:0:0:
256,192,275983,1,8,0:0:0:0:
256,192,276130,1,0,0:0:0:0:
256,192,276277,1,12,0:0:0:0:
256,192,276424,1,0,0:0:0:0:
256,192,276571,1,8,0:0:0:0:
256,192,276718,1,0,0:0:0:0:
256,192,276865,1,12,0:0:0:0:
256,192,277012,1,0,0:0:0:0:
256,192,277086,1,0,0:0:0:0:
256,192,277159,1,8,0:0:0:0:
256,192,277233,1,8,0:0:0:0:
256,192,277306,1,0,0:0:0:0:
256,192,277380,1,0,0:0:0:0:
256,192,277453,1,8,0:0:0:0:
256,192,277527,1,8,0:0:0:0:
256,192,277600,1,0,0:0:0:0:
256,192,277674,1,8,0:0:0:0:
256,192,277747,1,8,0:0:0:0:
256,192,277821,1,8,0:0:0:0:
256,192,277895,1,0,0:0:0:0:
256,192,278042,1,4,0:0:0:0:
256,192,278189,1,8,0:0:0:0:
256,192,278336,1,8,0:0:0:0:
256,192,278409,1,0,0:0:0:0:
256,192,278483,1,8,0:0:0:0:
256,192,278556,1,8,0:0:0:0:
256,192,278630,1,0,0:0:0:0:
256,192,278703,1,8,0:0:0:0:
256,192,278777,1,0,0:0:0:0:
256,192,278850,1,0,0:0:0:0:
256,192,278924,1,8,0:0:0:0:
256,192,279218,1,0,0:0:0:0:
256,192,279365,1,0,0:0:0:0:
256,192,279439,1,8,0:0:0:0:
256,192,279512,1,0,0:0:0:0:
256,192,279806,1,0,0:0:0:0:
256,192,279953,1,0,0:0:0:0:
256,192,280027,1,0,0:0:0:0:
256,192,280100,1,0,0:0:0:0:
256,192,280395,1,8,0:0:0:0:
256,192,280542,1,0,0:0:0:0:
256,192,280689,1,0,0:0:0:0:
256,192,280762,1,8,0:0:0:0:
256,192,280836,1,0,0:0:0:0:
256,192,280909,1,0,0:0:0:0:
256,192,280983,1,8,0:0:0:0:
256,192,281056,1,0,0:0:0:0:
256,192,281130,1,8,0:0:0:0:
256,192,281203,1,8,0:0:0:0:
256,192,281277,1,0,0:0:0:0:
256,192,281571,2,0,L|64:128,1,188.999994232178
256,192,282159,1,8,0:0:0:0:
256,192,282453,1,0,0:0:0:0:
256,192,282600,1,4,0:0:0:0:
256,192,283041,1,0,0:0:0:0:
256,192,283335,1,8,0:0:0:0:
256,192,283776,1,0,0:0:0:0:
256,192,283849,1,0,0:0:0:0:
256,192,283923,5,0,0:0:0:0:
256,192,284070,1,8,0:0:0:0:
256,192,284217,1,0,0:0:0:0:
256,192,284364,1,8,0:0:0:0:
256,192,284511,1,8,0:0:0:0:
256,192,284658,1,0,0:0:0:0:
256,192,284805,1,4,0:0:0:0:
256,192,285099,1,0,0:0:0:0:
256,192,285394,1,8,0:0:0:0:
256,192,285835,1,0,0:0:0:0:
256,192,285908,1,0,0:0:0:0:
256,192,285982,5,8,0:0:0:0:
256,192,286129,1,0,0:0:0:0:
256,192,286276,1,0,0:0:0:0:
256,192,286423,1,8,0:0:0:0:
256,192,286570,1,8,0:0:0:0:
256,192,286717,1,8,0:0:0:0:
256,192,286864,1,4,0:0:0:0:
256,192,287158,1,0,0:0:0:0:
256,192,287452,1,8,0:0:0:0:
256,192,287894,1,0,0:0:0:0:
256,192,287967,1,0,0:0:0:0:
256,192,288041,1,0,0:0:0:0:
256,192,288188,1,8,0:0:0:0:
256,192,288335,1,0,0:0:0:0:
256,192,288482,1,8,0:0:0:0:
256,192,288629,1,8,0:0:0:0:
256,192,288776,1,8,0:0:0:0:
256,192,288923,5,4,0:0:0:0:
256,192,289217,1,0,0:0:0:0:
256,192,289511,1,8,0:0:0:0:
256,192,289952,1,0,0:0:0:0:
256,192,290026,1,0,0:0:0:0:
256,192,290099,1,8,0:0:0:0:
256,192,290540,1,4,0:0:0:0:
256,192,290981,1,0,0:0:0:0:
256,192,291422,1,12,0:0:0:0:
256,192,291863,1,8,0:0:0:0:
256,192,292304,1,4,0:0:0:0:
256,192,292746,1,4,0:0:0:0:
256,192,293040,1,0,0:0:0:0:
256,192,293187,1,8,0:0:0:0:
256,192,293334,1,12,0:0:0:0:
256,192,293628,1,0,0:0:0:0:
256,192,293922,1,12,0:0:0:0:
256,192,294216,1,0,0:0:0:0:
256,192,294363,1,0,0:0:0:0:
256,192,294510,1,12,0:0:0:0:
256,192,294804,1,4,0:0:0:0:
256,192,295098,1,0,0:0:0:0:
256,192,295246,1,8,0:0:0:0:
256,192,295393,1,12,0:0:0:0:
256,192,295687,1,0,0:0:0:0:
256,192,295981,1,12,0:0:0:0:
256,192,296275,1,0,0:0:0:0:
256,192,296422,1,0,0:0:0:0:
256,192,296569,1,12,0:0:0:0:
256,192,296863,1,4,0:0:0:0:
256,192,297157,1,0,0:0:0:0:
256,192,297451,1,12,0:0:0:0:
256,192,297746,1,8,0:0:0:0:
256,192,297893,1,0,0:0:0:0:
256,192,298040,1,0,0:0:0:0:
256,192,298187,1,8,0:0:0:0:
256,192,298334,1,0,0:0:0:0:
256,192,298481,1,0,0:0:0:0:
256,192,298628,1,8,0:0:0:0:
256,192,298775,1,8,0:0:0:0:
256,192,298922,1,4,0:0:0:0:
256,192,299216,1,0,0:0:0:0:
256,192,299510,1,12,0:0:0:0:
256,192,299804,1,8,0:0:0:0:
256,192,299951,1,0,0:0:0:0:
256,192,300025,1,0,0:0:0:0:
256,192,300098,1,0,0:0:0:0:
256,192,300246,1,8,0:0:0:0:
256,192,300393,1,8,0:0:0:0:
256,192,300540,1,0,0:0:0:0:
256,192,300613,1,0,0:0:0:0:
256,192,300687,1,8,0:0:0:0:
256,192,300834,1,0,0:0:0:0:
256,192,300981,1,12,0:0:0:0:
256,192,301128,1,0,0:0:0:0:
256,192,301275,1,8,0:0:0:0:
256,192,301348,1,8,0:0:0:0:
256,192,301422,1,0,0:0:0:0:
256,192,301569,1,8,0:0:0:0:
256,192,301716,1,0,0:0:0:0:
256,192,301863,1,8,0:0:0:0:
256,192,301937,1,8,0:0:0:0:
256,192,302010,1,0,0:0:0:0:
256,192,302157,1,8,0:0:0:0:
256,192,302304,1,0,0:0:0:0:
256,192,302451,1,8,0:0:0:0:
256,192,302525,1,8,0:0:0:0:
256,192,302598,1,0,0:0:0:0:
256,192,302746,1,8,0:0:0:0:
256,192,302893,1,0,0:0:0:0:
256,192,303040,1,12,0:0:0:0:
256,192,303187,1,0,0:0:0:0:
256,192,303260,1,0,0:0:0:0:
256,192,303334,1,8,0:0:0:0:
256,192,303481,1,0,0:0:0:0:
256,192,303554,1,0,0:0:0:0:
256,192,303628,1,8,0:0:0:0:
256,192,303775,1,0,0:0:0:0:
256,192,303848,1,0,0:0:0:0:
256,192,303922,1,8,0:0:0:0:
256,192,304069,2,4,L|0:32,2,280
256,192,305392,12,0,306422,0:0:0:0:
256,192,306569,5,8,0:0:0:0:
256,192,306716,1,0,0:0:0:0:
256,192,306863,1,8,0:0:0:0:
256,192,306912,1,8,0:0:0:0:
256,192,306961,1,8,0:0:0:0:
256,192,307010,1,0,0:0:0:0:
256,192,307084,1,0,0:0:0:0:
256,192,307157,1,8,0:0:0:0:
256,192,307231,1,8,0:0:0:0:
256,192,307304,1,0,0:0:0:0:
256,192,307378,1,0,0:0:0:0:
256,192,307451,1,8,0:0:0:0:
256,192,307598,1,4,0:0:0:0:
256,192,307892,1,0,0:0:0:0:
256,192,308040,1,12,0:0:0:0:
256,192,308187,1,0,0:0:0:0:
256,192,308334,1,8,0:0:0:0:
256,192,308481,1,0,0:0:0:0:
256,192,308554,1,0,0:0:0:0:
256,192,308628,1,8,0:0:0:0:
256,192,308701,1,0,0:0:0:0:
256,192,308775,1,8,0:0:0:0:
256,192,308848,1,8,0:0:0:0:
256,192,308922,1,0,0:0:0:0:
256,192,309069,1,0,0:0:0:0:
256,192,309142,1,0,0:0:0:0:
256,192,309216,1,8,0:0:0:0:
256,192,309363,1,8,0:0:0:0:
256,192,309510,1,0,0:0:0:0:
256,192,309584,1,0,0:0:0:0:
256,192,309657,1,0,0:0:0:0:
256,192,309731,1,0,0:0:0:0:
256,192,309804,1,8,0:0:0:0:
256,192,309951,1,0,0:0:0:0:
256,192,310098,1,0,0:0:0:0:
256,192,310245,1,0,0:0:0:0:
256,192,310319,1,0,0:0:0:0:
256,192,310392,1,8,0:0:0:0:
256,192,310540,1,8,0:0:0:0:
256,192,310687,1,8,0:0:0:0:
256,192,310834,1,0,0:0:0:0:
256,192,310907,1,0,0:0:0:0:
256,192,310981,1,8,0:0:0:0:
256,192,311128,1,0,0:0:0:0:
256,192,311275,1,8,0:0:0:0:
256,192,311348,1,8,0:0:0:0:
256,192,311422,1,0,0:0:0:0:
256,192,311495,1,8,0:0:0:0:
256,192,311569,1,8,0:0:0:0:
256,192,311716,1,8,0:0:0:0:
256,192,311863,1,0,0:0:0:0:
256,192,311937,1,0,0:0:0:0:
256,192,312010,1,0,0:0:0:0:
256,192,312084,1,0,0:0:0:0:
256,192,312157,1,8,0:0:0:0:
256,192,312304,1,8,0:0:0:0:
256,192,312451,1,0,0:0:0:0:
256,192,312598,1,0,0:0:0:0:
256,192,312672,1,0,0:0:0:0:
256,192,312745,1,8,0:0:0:0:
256,192,312892,1,0,0:0:0:0:
256,192,313040,1,8,0:0:0:0:
256,192,313187,1,0,0:0:0:0:
256,192,313260,1,0,0:0:0:0:
256,192,313334,1,8,0:0:0:0:
256,192,313481,1,8,0:0:0:0:
256,192,313554,1,0,0:0:0:0:
256,192,313628,1,8,0:0:0:0:
256,192,313775,1,0,0:0:0:0:
256,192,313848,1,0,0:0:0:0:
256,192,313922,1,8,0:0:0:0:
256,192,314069,1,0,0:0:0:0:
256,192,314216,1,0,0:0:0:0:
256,192,314290,1,8,0:0:0:0:
256,192,314363,1,0,0:0:0:0:
256,192,314437,1,0,0:0:0:0:
256,192,314510,1,8,0:0:0:0:
256,192,314657,1,8,0:0:0:0:
256,192,314804,1,0,0:0:0:0:
256,192,314951,1,0,0:0:0:0:
256,192,315025,1,0,0:0:0:0:
256,192,315098,1,8,0:0:0:0:
256,192,315172,1,8,0:0:0:0:
256,192,315245,1,0,0:0:0:0:
256,192,315392,1,0,0:0:0:0:
256,192,315540,1,0,0:0:0:0:
256,192,315613,1,0,0:0:0:0:
256,192,315687,1,8,0:0:0:0:
256,192,315834,1,0,0:0:0:0:
256,192,315981,1,8,0:0:0:0:
256,192,316054,1,0,0:0:0:0:
256,192,316128,1,0,0:0:0:0:
256,192,316201,1,0,0:0:0:0:
256,192,316275,1,8,0:0:0:0:
256,192,316422,1,8,0:0:0:0:
256,192,316569,1,0,0:0:0:0:
256,192,316642,1,0,0:0:0:0:
256,192,316716,1,0,0:0:0:0:
256,192,316790,1,0,0:0:0:0:
256,192,316863,1,8,0:0:0:0:
256,192,317010,1,0,0:0:0:0:
256,192,317304,1,0,0:0:0:0:
256,192,317451,1,12,0:0:0:0:
256,192,317598,1,0,0:0:0:0:
256,192,317745,1,0,0:0:0:0:
256,192,317892,1,8,0:0:0:0:
256,192,317966,1,8,0:0:0:0:
256,192,318040,1,8,0:0:0:0:
256,192,318113,1,8,0:0:0:0:
256,192,318187,1,0,0:0:0:0:
256,192,318334,1,8,0:0:0:0:
256,192,318407,1,8,0:0:0:0:
256,192,318481,1,0,0:0:0:0:
256,192,318554,1,0,0:0:0:0:
256,192,318628,1,8,0:0:0:0:
256,192,318775,1,8,0:0:0:0:
256,192,318922,1,0,0:0:0:0:
256,192,318995,1,0,0:0:0:0:
256,192,319069,1,0,0:0:0:0:
256,192,319142,1,0,0:0:0:0:
256,192,319216,1,8,0:0:0:0:
256,192,319363,1,8,0:0:0:0:
256,192,319510,1,0,0:0:0:0:
256,192,319657,1,0,0:0:0:0:
256,192,319731,1,0,0:0:0:0:
256,192,319804,1,8,0:0:0:0:
256,192,319878,1,0,0:0:0:0:
256,192,319951,1,0,0:0:0:0:
256,192,320098,1,8,0:0:0:0:
256,192,320245,1,0,0:0:0:0:
256,192,320319,1,0,0:0:0:0:
256,192,320392,1,8,0:0:0:0:
256,192,320540,1,0,0:0:0:0:
256,192,320687,1,8,0:0:0:0:
256,192,320760,1,8,0:0:0:0:
256,192,320834,1,0,0:0:0:0:
256,192,320907,1,8,0:0:0:0:
256,192,320981,1,8,0:0:0:0:
256,192,321128,1,8,0:0:0:0:
256,192,321275,1,0,0:0:0:0:
256,192,321348,1,0,0:0:0:0:
256,192,321422,1,0,0:0:0:0:
256,192,321495,1,0,0:0:0:0:
256,192,321569,1,8,0:0:0:0:
256,192,321716,1,8,0:0:0:0:
256,192,321863,1,0,0:0:0:0:
256,192,322010,1,0,0:0:0:0:
256,192,322084,1,0,0:0:0:0:
256,192,322157,1,8,0:0:0:0:
256,192,322304,1,8,0:0:0:0:
256,192,322451,1,0,0:0:0:0:
256,192,322598,1,0,0:0:0:0:
256,192,322672,1,0,0:0:0:0:
256,192,322745,1,8,0:0:0:0:
256,192,322892,1,8,0:0:0:0:
256,192,322966,1,8,0:0:0:0:
256,192,323040,1,0,0:0:0:0:
256,192,323187,1,0,0:0:0:0:
256,192,323260,1,0,0:0:0:0:
256,192,323334,1,8,0:0:0:0:
256,192,323481,1,0,0:0:0:0:
256,192,323628,1,8,0:0:0:0:
256,192,323701,1,0,0:0:0:0:
256,192,323775,1,0,0:0:0:0:
256,192,323848,1,0,0:0:0:0:
256,192,323922,1,8,0:0:0:0:
256,192,324069,1,8,0:0:0:0:
256,192,324216,1,0,0:0:0:0:
256,192,324363,1,0,0:0:0:0:
256,192,324437,1,0,0:0:0:0:
256,192,324510,1,8,0:0:0:0:
256,192,324657,1,0,0:0:0:0:
256,192,324731,1,8,0:0:0:0:
256,192,324804,1,0,0:0:0:0:
256,192,324878,1,8,0:0:0:0:
256,192,324951,1,0,0:0:0:0:
256,192,325025,1,0,0:0:0:0:
256,192,325098,1,8,0:0:0:0:
256,192,325245,1,8,0:0:0:0:
256,192,325392,1,0,0:0:0:0:
256,192,325466,1,0,0:0:0:0:
256,192,325540,1,8,0:0:0:0:
256,192,325613,1,8,0:0:0:0:
256,192,325687,1,8,0:0:0:0:
256,192,325834,1,0,0:0:0:0:
256,192,325981,1,8,0:0:0:0:
256,192,326054,1,8,0:0:0:0:
256,192,326128,1,0,0:0:0:0:
256,192,326201,1,0,0:0:0:0:
256,192,326275,1,8,0:0:0:0:
256,192,326422,1,4,0:0:0:0:
256,192,326716,1,0,0:0:0:0:
256,192,326863,1,12,0:0:0:0:
256,192,327010,1,0,0:0:0:0:
256,192,327157,1,0,0:0:0:0:
256,192,327304,1,8,0:0:0:0:
256,192,327378,1,0,0:0:0:0:
256,192,327451,1,8,0:0:0:0:
256,192,327598,1,0,0:0:0:0:
256,192,327745,1,8,0:0:0:0:
256,192,327819,1,0,0:0:0:0:
256,192,327892,1,8,0:0:0:0:
256,192,327966,1,8,0:0:0:0:
256,192,328040,1,8,0:0:0:0:
256,192,328187,1,8,0:0:0:0:
256,192,328334,1,0,0:0:0:0:
256,192,328407,1,0,0:0:0:0:
256,192,328481,1,0,0:0:0:0:
256,192,328554,1,0,0:0:0:0:
256,192,328628,1,8,0:0:0:0:
256,192,328775,1,0,0:0:0:0:
256,192,328922,1,0,0:0:0:0:
256,192,329069,1,0,0:0:0:0:
256,192,329142,1,0,0:0:0:0:
256,192,329216,1,8,0:0:0:0:
256,192,329363,1,8,0:0:0:0:
256,192,329510,1,0,0:0:0:0:
256,192,329657,1,0,0:0:0:0:
256,192,329731,1,0,0:0:0:0:
256,192,329804,1,8,0:0:0:0:
256,192,329951,1,0,0:0:0:0:
256,192,330098,1,8,0:0:0:0:
256,192,330172,1,8,0:0:0:0:
256,192,330245,1,0,0:0:0:0:
256,192,330319,1,8,0:0:0:0:
256,192,330392,1,8,0:0:0:0:
256,192,330540,1,8,0:0:0:0:
256,192,330687,1,0,0:0:0:0:
256,192,330760,1,0,0:0:0:0:
256,192,330834,1,0,0:0:0:0:
256,192,330907,1,0,0:0:0:0:
256,192,330981,1,8,0:0:0:0:
256,192,331128,1,8,0:0:0:0:
256,192,331275,1,0,0:0:0:0:
256,192,331422,1,0,0:0:0:0:
256,192,331495,1,0,0:0:0:0:
256,192,331569,1,8,0:0:0:0:
256,192,331716,1,0,0:0:0:0:
256,192,331863,1,8,0:0:0:0:
256,192,332010,1,0,0:0:0:0:
256,192,332084,1,0,0:0:0:0:
256,192,332157,1,8,0:0:0:0:
256,192,332304,1,8,0:0:0:0:
256,192,332378,1,0,0:0:0:0:
256,192,332451,1,8,0:0:0:0:
256,192,332598,1,0,0:0:0:0:
256,192,332672,1,0,0:0:0:0:
256,192,332745,1,8,0:0:0:0:
256,192,332892,1,8,0:0:0:0:
256,192,333040,1,0,0:0:0:0:
256,192,333113,1,8,0:0:0:0:
256,192,333187,1,0,0:0:0:0:
256,192,333260,1,0,0:0:0:0:
256,192,333334,1,8,0:0:0:0:
256,192,333481,1,8,0:0:0:0:
256,192,333628,1,0,0:0:0:0:
256,192,333775,1,0,0:0:0:0:
256,192,333848,1,0,0:0:0:0:
256,192,333922,1,8,0:0:0:0:
256,192,334069,1,0,0:0:0:0:
256,192,334142,1,8,0:0:0:0:
256,192,334216,1,0,0:0:0:0:
256,192,334363,1,0,0:0:0:0:
256,192,334437,1,0,0:0:0:0:
256,192,334510,1,8,0:0:0:0:
256,192,334657,1,8,0:0:0:0:
256,192,334731,1,8,0:0:0:0:
256,192,334804,1,0,0:0:0:0:
256,192,334878,1,0,0:0:0:0:
256,192,334951,1,8,0:0:0:0:
256,192,335025,1,0,0:0:0:0:
256,192,335098,1,8,0:0:0:0:
256,192,335172,1,8,0:0:0:0:
256,192,335245,1,0,0:0:0:0:
256,192,335392,1,8,0:0:0:0:
256,192,335466,1,0,0:0:0:0:
256,192,335540,1,0,0:0:0:0:
256,192,335613,1,0,0:0:0:0:
256,192,335687,1,8,0:0:0:0:
256,192,335834,1,4,0:0:0:0:
256,192,336275,1,0,0:0:0:0:
256,192,336569,1,12,0:0:0:0:
256,192,337157,1,0,0:0:0:0:
256,192,337304,1,0,0:0:0:0:
256,192,337598,1,0,0:0:0:0:
256,192,337745,1,8,0:0:0:0:
256,192,338187,1,4,0:0:0:0:
256,192,338628,1,0,0:0:0:0:
256,192,338922,1,12,0:0:0:0:
256,192,339363,1,0,0:0:0:0:
256,192,339437,1,0,0:0:0:0:
256,192,339510,1,8,0:0:0:0:
256,192,339657,1,8,0:0:0:0:
256,192,339951,1,0,0:0:0:0:
256,192,340098,1,8,0:0:0:0:
256,192,340540,1,4,0:0:0:0:
256,192,340981,1,0,0:0:0:0:
256,192,341275,1,12,0:0:0:0:
256,192,341863,1,0,0:0:0:0:
256,192,342010,1,0,0:0:0:0:
256,192,342304,1,0,0:0:0:0:
256,192,342451,1,8,0:0:0:0:
256,192,342598,1,0,0:0:0:0:
256,192,342745,1,8,0:0:0:0:
256,192,342892,1,4,0:0:0:0:
256,192,343334,1,0,0:0:0:0:
256,192,343628,1,12,0:0:0:0:
256,192,344069,1,0,0:0:0:0:
256,192,344142,1,0,0:0:0:0:
256,192,344216,1,8,0:0:0:0:
256,192,344363,1,0,0:0:0:0:
256,192,344657,1,0,0:0:0:0:
256,192,344804,1,8,0:0:0:0:
256,192,344951,1,8,0:0:0:0:
256,192,345098,1,8,0:0:0:0:
256,192,345245,1,4,0:0:0:0:
256,192,345687,1,8,0:0:0:0:
256,192,345834,1,0,0:0:0:0:
256,192,345981,1,8,0:0:0:0:
256,192,346054,1,8,0:0:0:0:
256,192,346128,1,0,0:0:0:0:
256,192,346275,1,8,0:0:0:0:
256,192,346422,1,0,0:0:0:0:
256,192,346569,1,8,0:0:0:0:
256,192,346642,1,8,0:0:0:0:
256,192,346716,1,0,0:0:0:0:
256,192,346863,1,8,0:0:0:0:
256,192,347010,1,0,0:0:0:0:
256,192,347084,1,0,0:0:0:0:
256,192,347157,1,8,0:0:0:0:
256,192,347304,1,0,0:0:0:0:
256,192,347378,1,0,0:0:0:0:
256,192,347451,1,8,0:0:0:0:
256,192,347598,1,0,0:0:0:0:
256,192,347745,1,12,0:0:0:0:
256,192,347892,1,0,0:0:0:0:
256,192,347966,1,0,0:0:0:0:
256,192,348040,1,8,0:0:0:0:
256,192,348113,1,0,0:0:0:0:
256,192,348260,1,0,0:0:0:0:
256,192,348334,1,8,0:0:0:0:
256,192,348481,1,0,0:0:0:0:
256,192,348628,1,8,0:0:0:0:
256,192,348701,1,8,0:0:0:0:
256,192,348775,1,8,0:0:0:0:
256,192,348922,2,0,L|64:96,1,210
256,192,349510,1,8,0:0:0:0:
256,192,349657,1,0,0:0:0:0:
256,192,349951,1,4,0:0:0:0:
256,192,350245,1,0,0:0:0:0:
256,192,350392,1,12,0:0:0:0:
256,192,350687,1,0,0:0:0:0:
256,192,350834,1,8,0:0:0:0:
256,192,350907,1,0,0:0:0:0:
256,192,350981,1,8,0:0:0:0:
256,192,351275,1,8,0:0:0:0:
256,192,351422,1,0,0:0:0:0:
256,192,351495,1,0,0:0:0:0:
256,192,351569,1,8,0:0:0:0:
256,192,351716,1,0,0:0:0:0:
256,192,351863,1,8,0:0:0:0:
256,192,351937,1,8,0:0:0:0:
256,192,352010,1,0,0:0:0:0:
256,192,352084,1,0,0:0:0:0:
256,192,352157,1,8,0:0:0:0:
256,192,352304,1,8,0:0:0:0:
256,192,352451,1,0,0:0:0:0:
256,192,352598,1,0,0:0:0:0:
256,192,352672,1,0,0:0:0:0:
256,192,352745,1,8,0:0:0:0:
256,192,353040,1,0,0:0:0:0:
256,192,353187,1,8,0:0:0:0:
256,192,353260,1,0,0:0:0:0:
256,192,353334,1,8,0:0:0:0:
256,192,353628,1,8,0:0:0:0:
256,192,353775,1,0,0:0:0:0:
256,192,353848,1,0,0:0:0:0:
256,192,353922,1,8,0:0:0:0:
256,192,354069,1,0,0:0:0:0:
256,192,354216,1,8,0:0:0:0:
256,192,354290,1,0,0:0:0:0:
256,192,354363,1,0,0:0:0:0:
256,192,354437,1,0,0:0:0:0:
256,192,354510,1,8,0:0:0:0:
256,192,354657,1,8,0:0:0:0:
256,192,354804,1,0,0:0:0:0:
256,192,354951,1,0,0:0:0:0:
256,192,355025,1,0,0:0:0:0:
256,192,355098,1,8,0:0:0:0:
256,192,355392,1,0,0:0:0:0:
256,192,355540,1,8,0:0:0:0:
256,192,355613,1,0,0:0:0:0:
256,192,355687,1,8,0:0:0:0:
256,192,355981,1,8,0:0:0:0:
256,192,356128,1,0,0:0:0:0:
256,192,356201,1,0,0:0:0:0:
256,192,356275,1,8,0:0:0:0:
256,192,356422,1,8,0:0:0:0:
256,192,356569,1,0,0:0:0:0:
256,192,356642,1,8,0:0:0:0:
256,192,356716,1,8,0:0:0:0:
256,192,356790,1,0,0:0:0:0:
256,192,356863,1,8,0:0:0:0:
256,192,357010,1,8,0:0:0:0:
256,192,357157,1,0,0:0:0:0:
256,192,357304,1,0,0:0:0:0:
256,192,357378,1,0,0:0:0:0:
256,192,357451,1,8,0:0:0:0:
256,192,357745,1,0,0:0:0:0:
256,192,357892,1,8,0:0:0:0:
256,192,357966,1,0,0:0:0:0:
256,192,358040,1,8,0:0:0:0:
256,192,358334,1,8,0:0:0:0:
256,192,358481,1,0,0:0:0:0:
256,192,358554,1,0,0:0:0:0:
256,192,358628,1,8,0:0:0:0:
256,192,358775,1,0,0:0:0:0:
256,192,358848,1,0,0:0:0:0:
256,192,358922,1,8,0:0:0:0:
256,192,358995,1,8,0:0:0:0:
256,192,359069,1,0,0:0:0:0:
256,192,359142,1,8,0:0:0:0:
256,192,359216,1,8,0:0:0:0:
256,192,359363,1,0,0:0:0:0:
256,192,359657,1,0,0:0:0:0:
256,192,359804,1,12,0:0:0:0:
256,192,360098,1,0,0:0:0:0:
256,192,360245,1,8,0:0:0:0:
256,192,360319,1,0,0:0:0:0:
256,192,360392,1,8,0:0:0:0:
256,192,360687,1,8,0:0:0:0:
256,192,360834,1,0,0:0:0:0:
256,192,360907,1,0,0:0:0:0:
256,192,360981,1,8,0:0:0:0:
256,192,361128,1,0,0:0:0:0:
256,192,361275,1,0,0:0:0:0:
256,192,361348,1,8,0:0:0:0:
256,192,361422,1,0,0:0:0:0:
256,192,361495,1,0,0:0:0:0:
256,192,361569,1,8,0:0:0:0:
256,192,361716,1,8,0:0:0:0:
256,192,361863,1,0,0:0:0:0:
256,192,362010,1,0,0:0:0:0:
256,192,362084,1,0,0:0:0:0:
256,192,362157,1,8,0:0:0:0:
256,192,362451,1,0,0:0:0:0:
256,192,362598,1,8,0:0:0:0:
256,192,362672,1,0,0:0:0:0:
256,192,362745,1,8,0:0:0:0:
256,192,363040,1,8,0:0:0:0:
256,192,363187,1,0,0:0:0:0:
256,192,363260,1,0,0:0:0:0:
256,192,363334,1,8,0:0:0:0:
256,192,363481,1,8,0:0:0:0:
256,192,363554,1,8,0:0:0:0:
256,192,363628,1,0,0:0:0:0:
256,192,363701,1,8,0:0:0:0:
256,192,363775,1,0,0:0:0:0:
256,192,363848,1,0,0:0:0:0:
256,192,363922,1,8,0:0:0:0:
256,192,364069,1,8,0:0:0:0:
256,192,364216,1,0,0:0:0:0:
256,192,364363,1,0,0:0:0:0:
256,192,364437,1,0,0:0:0:0:
256,192,364510,1,8,0:0:0:0:
256,192,364804,1,0,0:0:0:0:
256,192,364951,1,8,0:0:0:0:
256,192,365025,1,0,0:0:0:0:
256,192,365098,1,8,0:0:0:0:
256,192,365392,1,8,0:0:0:0:
256,192,365540,1,0,0:0:0:0:
256,192,365613,1,0,0:0:0:0:
256,192,365687,1,8,0:0:0:0:
256,192,365834,1,0,0:0:0:0:
256,192,365981,1,0,0:0:0:0:
256,192,366054,1,0,0:0:0:0:
256,192,366128,1,0,0:0:0:0:
256,192,366201,1,0,0:0:0:0:
256,192,366275,1,8,0:0:0:0:
256,192,366422,1,8,0:0:0:0:
256,192,366569,1,0,0:0:0:0:
256,192,366716,1,0,0:0:0:0:
256,192,366790,1,0,0:0:0:0:
256,192,366863,1,8,0:0:0:0:
256,192,367157,1,0,0:0:0:0:
256,192,367304,1,8,0:0:0:0:
256,192,367378,1,0,0:0:0:0:
256,192,367451,1,8,0:0:0:0:
256,192,367745,1,8,0:0:0:0:
256,192,367892,1,0,0:0:0:0:
256,192,367966,1,0,0:0:0:0:
256,192,368040,1,8,0:0:0:0:
256,192,368187,1,0,0:0:0:0:
256,192,368334,1,0,0:0:0:0:
256,192,368407,1,0,0:0:0:0:
256,192,368481,1,8,0:0:0:0:
256,192,368554,1,0,0:0:0:0:
256,192,368628,1,8,0:0:0:0:
256,192,368775,1,4,0:0:0:0:
256,192,368922,1,0,0:0:0:0:
256,192,369069,1,8,0:0:0:0:
256,192,369216,1,8,0:0:0:0:
256,192,369363,1,0,0:0:0:0:
256,192,369510,1,8,0:0:0:0:
256,192,369804,1,0,0:0:0:0:
256,192,369951,1,8,0:0:0:0:
256,192,370098,1,8,0:0:0:0:
256,192,370245,1,0,0:0:0:0:
256,192,370392,1,0,0:0:0:0:
256,192,370540,1,8,0:0:0:0:
256,192,370687,1,0,0:0:0:0:
256,192,370981,1,0,0:0:0:0:
256,192,371128,1,8,0:0:0:0:
256,192,371275,1,0,0:0:0:0:
256,192,371422,1,8,0:0:0:0:
256,192,371569,1,8,0:0:0:0:
256,192,371716,1,0,0:0:0:0:
256,192,371863,1,0,0:0:0:0:
256,192,372157,1,8,0:0:0:0:
256,192,372304,1,0,0:0:0:0:
256,192,372451,1,8,0:0:0:0:
256,192,372598,1,0,0:0:0:0:
256,192,372745,1,0,0:0:0:0:
256,192,372892,1,8,0:0:0:0:
256,192,373040,1,8,0:0:0:0:
256,192,373334,1,12,0:0:0:0:
256,192,373481,1,0,0:0:0:0:
256,192,373627,1,8,0:0:0:0:
256,192,373700,1,8,0:0:0:0:
256,192,373774,1,8,0:0:0:0:
256,192,373847,1,8,0:0:0:0:
256,192,373921,1,0,0:0:0:0:
256,192,373994,1,0,0:0:0:0:
256,192,374068,1,8,0:0:0:0:
256,192,374215,1,0,0:0:0:0:
256,192,374362,1,8,0:0:0:0:
256,192,374435,1,8,0:0:0:0:
256,192,374509,1,0,0:0:0:0:
256,192,374656,1,0,0:0:0:0:
256,192,374729,1,0,0:0:0:0:
256,192,374803,1,8,0:0:0:0:
256,192,374950,1,0,0:0:0:0:
256,192,375024,1,0,0:0:0:0:
256,192,375097,1,8,0:0:0:0:
256,192,375171,1,8,0:0:0:0:
256,192,375244,1,8,0:0:0:0:
256,192,375318,1,8,0:0:0:0:
256,192,375391,1,0,0:0:0:0:
256,192,375465,1,0,0:0:0:0:
256,192,375538,1,8,0:0:0:0:
256,192,375685,1,0,0:0:0:0:
256,192,375832,1,8,0:0:0:0:
256,192,375906,1,0,0:0:0:0:
256,192,375979,1,0,0:0:0:0:
256,192,376127,1,0,0:0:0:0:
256,192,376200,1,8,0:0:0:0:
256,192,376274,1,8,0:0:0:0:
256,192,376421,1,0,0:0:0:0:
256,192,376494,1,0,0:0:0:0:
256,192,376568,1,8,0:0:0:0:
256,192,376641,1,0,0:0:0:0:
256,192,376715,1,8,0:0:0:0:
256,192,376788,1,8,0:0:0:0:
256,192,376862,1,0,0:0:0:0:
256,192,376935,1,0,0:0:0:0:
256,192,377009,1,8,0:0:0:0:
256,192,377156,1,0,0:0:0:0:
256,192,377303,1,8,0:0:0:0:
256,192,377377,1,8,0:0:0:0:
256,192,377450,1,0,0:0:0:0:
256,192,377597,1,0,0:0:0:0:
256,192,377671,1,0,0:0:0:0:
256,192,377744,1,8,0:0:0:0:
256,192,377891,1,0,0:0:0:0:
256,192,377965,1,8,0:0:0:0:
256,192,378038,1,8,0:0:0:0:
256,192,378185,1,0,0:0:0:0:
256,192,378259,1,8,0:0:0:0:
256,192,378332,1,0,0:0:0:0:
256,192,378406,1,0,0:0:0:0:
256,192,378479,1,8,0:0:0:0:
256,192,378627,1,0,0:0:0:0:
256,192,378774,1,0,0:0:0:0:
256,192,378847,1,8,0:0:0:0:
256,192,378921,1,0,0:0:0:0:
256,192,379068,1,0,0:0:0:0:
256,192,379141,1,0,0:0:0:0:
256,192,379215,1,8,0:0:0:0:
256,192,379362,1,8,0:0:0:0:
256,192,379435,1,8,0:0:0:0:
256,192,379509,1,8,0:0:0:0:
256,192,379656,1,0,0:0:0:0:
256,192,379729,1,0,0:0:0:0:
256,192,379803,1,0,0:0:0:0:
256,192,379950,1,8,0:0:0:0:
256,192,380097,1,0,0:0:0:0:
256,192,380171,1,0,0:0:0:0:
256,192,380244,1,0,0:0:0:0:
256,192,380391,1,8,0:0:0:0:
256,192,380538,1,0,0:0:0:0:
256,192,380685,1,8,0:0:0:0:
256,192,380759,1,8,0:0:0:0:
256,192,380832,1,0,0:0:0:0:
256,192,380979,1,12,0:0:0:0:
256,192,381127,1,0,0:0:0:0:
256,192,381200,1,0,0:0:0:0:
256,192,381274,1,0,0:0:0:0:
256,192,381421,1,8,0:0:0:0:
256,192,381568,1,0,0:0:0:0:
256,192,381641,1,0,0:0:0:0:
256,192,381715,1,0,0:0:0:0:
256,192,381862,1,8,0:0:0:0:
256,192,382009,1,0,0:0:0:0:
256,192,382156,1,8,0:0:0:0:
256,192,382229,1,8,0:0:0:0:
256,192,382303,1,0,0:0:0:0:
256,192,382450,1,12,0:0:0:0:
256,192,382597,1,0,0:0:0:0:
256,192,382671,1,0,0:0:0:0:
256,192,382744,1,0,0:0:0:0:
256,192,382818,1,0,0:0:0:0:
256,192,382891,1,8,0:0:0:0:
256,192,383038,1,0,0:0:0:0:
256,192,383112,1,0,0:0:0:0:
256,192,383185,1,0,0:0:0:0:
256,192,383259,1,0,0:0:0:0:
256,192,383332,1,8,0:0:0:0:
256,192,383479,1,0,0:0:0:0:
256,192,383553,1,0,0:0:0:0:
256,192,383627,1,8,0:0:0:0:
256,192,383774,1,0,0:0:0:0:
256,192,383847,1,0,0:0:0:0:
256,192,383921,1,8,0:0:0:0:
256,192,384068,1,0,0:0:0:0:
256,192,384141,1,0,0:0:0:0:
256,192,384215,1,0,0:0:0:0:
256,192,384288,1,0,0:0:0:0:
256,192,384362,1,8,0:0:0:0:
256,192,384435,1,8,0:0:0:0:
256,192,384509,1,8,0:0:0:0:
256,192,384582,1,8,0:0:0:0:
256,192,384656,1,0,0:0:0:0:
256,192,384803,1,12,0:0:0:0:
256,192,385097,1,12,0:0:0:0:
