osu file format v14

[General]
AudioFilename: DONT GLITCH OUT.mp3
AudioLeadIn: 0
PreviewTime: 159656
Countdown: 0
SampleSet: Soft
StackLeniency: 0.5
Mode: 0
LetterboxInBreaks: 0
WidescreenStoryboard: 1

[Editor]
DistanceSpacing: 0.6
BeatDivisor: 4
GridSize: 4
TimelineZoom: 2.2

[Metadata]
Title:Lies in Reality
TitleUnicode:Lies in Reality
Artist:FELT
ArtistUnicode:FELT
Creator:Frostings
Version:Albatross
Source:東方神霊廟 ~ Ten Desires.
Tags:Touhou Shinreibyou ~ Vivienne Maurits"禅"Cornelis Stage 5 Boss Theme Mononobe no Futo 物部 布都 大神神話伝 Legend of the Great Gods 東方Project Abyss nova
BeatmapID:1205981
BeatmapSetID:568845

[Difficulty]
HPDrainRate:4.4
CircleSize:4
OverallDifficulty:9
ApproachRate:9.5
SliderMultiplier:1.7
SliderTickRate:1

[Events]
//Background and Video events
0,0,"BG.jpg",0,0
//Break Periods
2,81925,88699
2,240600,249286
//Storyboard Layer 0 (Background)
//Storyboard Layer 1 (Fail)
//Storyboard Layer 2 (Pass)
//Storyboard Layer 3 (Foreground)
//Storyboard Sound Samples

[TimingPoints]
697,294.117647058824,4,2,1,60,1,0
697,-133.333333333333,4,2,1,60,0,0
1726,-142.857142857143,4,2,1,60,0,0
2461,-133.333333333333,4,2,1,60,0,0
8785,-100,4,2,1,60,0,0
10108,-133.333333333333,4,2,1,60,0,0
11138,-100,4,2,1,60,0,0
15402,-166.666666666667,4,2,1,60,0,0
15697,-100,4,2,1,60,0,0
20402,-66.6666666666667,4,2,1,60,0,0
20549,-90.9090909090909,4,2,1,60,0,0
37020,-166.666666666667,4,2,1,60,0,0
37388,-90.9090909090909,4,2,1,60,0,0
39373,-125,4,2,1,60,0,0
44079,-90.9090909090909,4,2,1,60,0,0
44226,294.117647058824,5,2,1,60,1,0
45108,-90.9090909090909,5,2,1,60,0,0
55990,-100,5,2,1,60,0,0
75108,-90.9090909090909,5,2,1,60,0,0
78049,294.117647058824,6,2,1,60,1,0
79372,-133.333333333333,6,2,1,60,0,0
79813,294.117647058824,7,2,1,60,1,0
90107,-133.333333333333,7,2,1,60,0,0
98342,-166.666666666667,7,2,1,60,0,0
114813,-133.333333333333,7,2,1,60,0,0
123048,-166.666666666667,7,2,1,60,0,0
139519,-125,7,2,1,60,0,0
147754,-166.666666666667,7,2,1,60,0,0
155989,-133.333333333333,7,2,1,60,0,0
158048,294.117647058824,4,2,1,60,1,0
159077,-200,7,2,1,60,0,0
159666,-100,7,2,1,60,0,0
160254,-133.333333333333,7,2,1,60,0,0
160695,-83.3333333333333,4,2,1,70,0,1
161283,-90.9090909090909,4,2,1,70,0,1
164959,-111.111111111111,4,2,1,70,0,1
165401,-90.9090909090909,4,2,1,70,0,1
169665,-133.333333333333,4,2,1,70,0,1
170106,-90.9090909090909,4,2,1,70,0,1
183783,-133.333333333333,4,2,1,60,0,0
183930,294.117647058824,5,2,1,60,1,0
183930,-133.333333333333,5,2,1,60,0,0
207459,294.117647058824,7,2,1,60,1,0
207459,-166.666666666667,7,2,1,60,0,0
240400,294.117647058824,4,2,1,60,1,0
240400,-166.666666666667,4,2,1,60,0,0
259370,-133.333333333333,4,2,1,60,0,0
275988,-106.382978723404,4,2,1,60,0,0
277900,-133.333333333333,4,2,1,60,0,0
282605,-125,4,2,1,60,0,0
282752,294.117647058824,7,2,1,60,1,0
282752,-125,7,2,1,60,0,0
288928,294.117647058824,4,2,1,60,1,0
288928,-125,4,2,1,60,0,0
290104,294.117647058824,3,2,1,60,1,0
290104,-166.666666666667,3,2,1,60,0,0
290545,-133.333333333333,3,2,1,60,0,0
291427,-100,3,2,1,60,0,0
291868,-200,3,2,1,60,0,0
292751,294.117647058824,7,2,1,60,1,0
292751,-166.666666666667,7,2,1,60,0,0
300986,-133.333333333333,7,2,1,60,0,0
302162,-117.647058823529,7,2,1,60,0,0
306574,-100,7,2,1,60,0,0
307603,-133.333333333333,7,2,1,60,0,0
307751,294.117647058824,4,2,1,60,1,0
308045,-83.3333333333333,4,2,1,70,0,1
308633,-90.9090909090909,4,2,1,70,0,1
317015,-133.333333333333,4,2,1,70,0,1
317383,-90.9090909090909,4,2,1,70,0,1
335839,-111.111111111111,4,2,1,70,0,1
336280,-133.333333333333,4,2,1,70,0,1
336574,-166.666666666667,4,2,1,60,0,1
338192,-133.333333333333,4,2,1,60,0,1
348045,-105.263157894737,4,2,1,60,0,1
349956,-90.9090909090909,4,2,1,60,0,0
373633,294.117647058824,5,2,1,60,1,0
384809,-83.3333333333333,5,2,1,60,0,0

[Colours]
Combo1 : 139,139,139
Combo2 : 147,255,255
Combo3 : 70,160,251
Combo4 : 37,64,252
Combo5 : 40,193,202
Combo6 : 221,221,221

[HitObjects]
196,136,1138,69,0,0:0:0:0:
196,136,1211,1,0,0:0:0:0:
196,136,1285,2,0,P|194:96|180:48,1,63.7500024318696,0|0,1:0|0:0,0:0:0:0:
288,144,1579,1,0,0:0:0:0:
64,264,1726,38,2,B|180:321|168:187|284:244,1,237.999992736817,0|2,0:1|0:1,0:1:0:0:
100,156,2461,38,0,P|68:159|37:160,1,63.7500024318696
160,76,2792,1,2,0:0:0:0:
312,280,3246,6,0,P|367:293|424:272,1,106.250004053116
472,240,3638,2,0,P|469:277|468:316,1,63.7500024318696,2|0,0:3|0:3,0:3:0:0:
316,160,3932,1,0,0:0:0:0:
232,336,4079,2,2,L|84:348,1,127.500004863739,4|2,0:3|0:1,0:1:0:0:
92,96,4520,69,2,0:3:0:0:
196,64,4814,2,0,L|192:156,1,63.7500024318696
112,264,5402,6,0,B|206:228|198:315|293:279,1,191.250007295609,2|2,0:0|0:0,0:0:0:0:
432,192,5991,1,4,0:3:0:0:
68,84,6285,21,4,0:3:0:0:
140,148,6432,2,0,L|232:128,1,63.7500024318696,2|0,0:1|0:1,0:1:0:0:
288,40,6726,1,0,0:0:0:0:
116,244,6873,1,2,0:1:0:0:
368,280,7167,37,2,0:0:0:0:
368,280,7314,2,0,P|364:242|348:192,1,63.7500024318696
496,144,7608,1,0,0:0:0:0:
496,144,7755,2,0,P|488:174|486:206,1,63.7500024318696
480,316,8049,1,0,0:0:0:0:
320,140,8197,1,0,0:0:0:0:
320,140,8270,1,0,0:0:0:0:
320,140,8344,2,0,L|404:128,1,63.7500024318696,2|0,0:3|0:0,0:0:0:0:
444,56,8638,1,4,0:3:0:0:
236,204,8785,6,2,P|197:145|208:40,1,170,4|4,0:3|0:3,0:1:0:0:
320,140,9226,1,0,0:0:0:0:
320,140,9299,1,0,0:0:0:0:
320,140,9373,1,0,0:0:0:0:
444,224,9520,69,0,0:0:0:0:
429,216,9593,1,0,0:0:0:0:
414,213,9667,1,0,0:0:0:0:
398,214,9740,1,0,0:0:0:0:
383,219,9814,1,0,0:0:0:0:
369,228,9887,1,0,0:0:0:0:
359,239,9961,1,0,0:0:0:0:
351,253,10034,1,0,0:0:0:0:
348,269,10108,2,0,L|356:316,7,31.8750012159348,2|0|0|0|2|0|0|0,0:0|0:0|0:0|0:0|0:0|0:0|0:0|0:0,0:0:0:0:
272,200,10697,5,2,0:3:0:0:
237,218,10770,1,0,0:0:0:0:
198,214,10844,1,0,0:0:0:0:
168,188,10917,1,0,0:0:0:0:
159,150,10991,2,0,L|176:108,1,31.8750012159348
48,40,11138,22,2,P|56:128|64:240,1,170,4|2,0:3|0:1,0:1:0:0:
44,340,11579,38,0,P|110:290|191:303,1,170
256,364,12020,1,0,0:0:0:0:
200,204,12167,2,0,L|308:192,1,85
136,136,12461,1,0,0:0:0:0:
384,136,12755,6,0,L|376:236,1,85
452,272,13049,1,0,0:0:0:0:
272,88,13344,1,0,0:0:0:0:
204,148,13491,69,2,0:3:0:0:
183,142,13564,1,0,0:0:0:0:
162,142,13638,1,0,0:0:0:0:
142,149,13711,1,0,0:0:0:0:
125,161,13785,1,0,0:0:0:0:
155,383,13932,2,0,P|190:319|167:215,1,170
175,227,14373,1,0,0:0:0:0:
92,244,14520,5,4,0:3:0:0:
36,180,14851,1,2,0:0:0:0:
56,92,15108,1,0,0:0:0:0:
75,99,15181,1,0,0:0:0:0:
96,100,15255,1,0,0:0:0:0:
117,94,15328,1,0,0:0:0:0:
134,82,15402,2,0,L|124:12,1,50.9999984436036,2|0,0:0|0:0,0:0:0:0:
212,184,15697,2,0,L|208:252,1,42.5
224,96,15844,21,2,0:1:0:0:
249,84,15917,1,0,0:1:0:0:
277,83,15991,1,2,0:1:0:0:
303,95,16064,1,0,0:0:0:0:
328,107,16138,1,0,0:1:0:0:
356,107,16211,1,0,0:0:0:0:
382,96,16285,1,2,0:1:0:0:
432,28,16726,37,0,0:0:0:0:
472,208,16873,2,0,L|400:192,1,56.6666666666667,4|0,0:3|0:0,0:0:0:0:
344,276,17167,1,0,0:0:0:0:
96,56,17461,6,0,P|46:102|36:149,1,85,4|0,0:3|0:0,0:0:0:0:
256,100,17755,2,0,P|209:50|162:40,1,85
80,208,18049,1,0,0:0:0:0:
184,300,18197,2,2,P|201:225|140:140,1,170,0|2,0:1|0:1,0:1:0:0:
84,320,18638,69,4,0:3:0:0:
472,168,18932,1,0,0:0:0:0:
472,168,19005,1,0,0:0:0:0:
472,168,19079,2,0,L|396:156,1,42.5
224,140,19226,5,4,0:3:0:0:
408,292,19373,2,0,L|412:248,1,42.5
328,108,19520,2,0,L|332:204,1,85,0|0,1:1|0:0,0:0:0:0:
412,64,19814,1,4,0:3:0:0:
80,244,19961,37,8,0:3:0:0:
100,248,20034,1,0,0:0:0:0:
124,240,20108,1,0,0:0:0:0:
148,248,20181,1,0,0:0:0:0:
172,232,20255,1,0,0:0:0:0:
192,256,20329,1,0,0:0:0:0:
236,220,20402,2,0,P|231:254|228:300,1,63.7500024318696
0,292,20549,54,2,P|-21:225|44:116,1,187.000005706787,6|4,1:1|0:3,0:1:0:0:
36,36,20917,1,0,0:0:0:0:
36,36,20991,2,0,P|82:56|134:56,1,93.5000028533936,2|0,1:0|0:0,0:0:0:0:
208,4,21285,1,4,0:3:0:0:
176,172,21432,1,2,0:1:0:0:
176,172,21505,1,0,0:0:0:0:
176,172,21579,1,0,1:0:0:0:
72,140,21726,1,0,0:0:0:0:
380,168,21873,6,0,P|329:171|280:153,1,93.5000028533936,2|4,0:1|0:3,0:0:0:0:
272,140,22094,1,4,0:3:0:0:
264,116,22167,1,0,1:0:0:0:
312,264,22314,1,0,0:0:0:0:
492,304,22461,1,0,0:0:0:0:
465,294,22534,1,2,0:3:0:0:
438,297,22608,1,4,0:3:0:0:
414,313,22681,1,0,0:0:0:0:
401,337,22755,1,0,1:0:0:0:
120,252,22902,70,0,P|143:249|188:236,1,46.7500014266968,2|0,0:1|0:0,0:0:0:0:
236,312,23049,1,2,0:1:0:0:
32,300,23197,1,4,0:3:0:0:
32,300,23270,1,0,0:0:0:0:
32,300,23344,2,0,P|14:228|21:180,1,93.5000028533936,2|0,1:1|0:0,0:0:0:0:
224,84,23638,2,0,P|241:155|234:203,1,93.5000028533936,4|2,0:3|0:1,0:0:0:0:
240,174,23858,1,0,0:0:0:0:
240,174,23932,1,0,1:0:0:0:
72,60,24079,1,0,0:0:0:0:
392,360,24226,6,0,P|396:304|372:252,1,93.5000028533936,2|4,0:1|0:3,0:0:0:0:
352,232,24447,1,4,0:3:0:0:
374,248,24520,1,0,1:0:0:0:
402,254,24594,1,0,0:0:0:0:
429,248,24667,1,0,0:0:0:0:
452,232,24741,1,0,0:0:0:0:
466,208,24814,2,0,L|454:152,1,46.7500014266968,0|2,0:0|0:0,0:0:0:0:
268,284,24961,1,4,0:3:0:0:
268,284,25035,1,4,0:3:0:0:
268,284,25108,2,0,L|208:280,1,46.7500014266968,0|0,1:0|0:0,0:0:0:0:
116,224,25255,70,2,P|128:279|125:327,1,93.5000028533936,2|0,0:1|0:3,0:1:0:0:
60,120,25549,1,4,0:3:0:0:
60,120,25623,1,4,0:3:0:0:
60,120,25697,2,0,B|151:160|143:64|235:104,1,187.000005706787,2|2,1:1|0:3,0:0:0:0:
464,228,26138,1,2,0:1:0:0:
352,164,26285,2,0,P|351:117|362:72,1,93.5000028533936,0|0,1:0|0:0,0:0:0:0:
362,72,26505,1,0,0:0:0:0:
362,72,26579,1,2,0:1:0:0:
260,296,26726,5,4,0:3:0:0:
260,296,26799,1,4,0:3:0:0:
260,296,26873,1,0,1:0:0:0:
235,104,27020,1,2,0:0:0:0:
408,196,27167,1,4,0:3:0:0:
384,181,27240,1,4,0:3:0:0:
356,175,27314,1,8,0:3:0:0:
329,180,27387,1,0,0:0:0:0:
305,195,27461,1,0,1:0:0:0:
484,292,27608,70,2,P|516:248|496:107,1,187.000005706787,2|4,0:1|0:3,0:1:0:0:
440,80,27976,1,4,0:3:0:0:
440,80,28049,2,0,P|388:100|348:96,1,93.5000028533936,2|0,1:0|0:0,0:0:0:0:
328,80,28270,1,0,0:0:0:0:
312,56,28344,1,4,0:3:0:0:
352,224,28491,1,2,0:1:0:0:
186,174,28638,1,0,1:0:0:0:
284,152,28785,1,0,0:0:0:0:
76,48,28932,6,0,P|88:96|84:152,1,93.5000028533936,2|4,0:1|0:3,0:0:0:0:
86,139,29152,1,4,0:3:0:0:
86,139,29226,1,0,1:0:0:0:
32,264,29373,1,2,0:0:0:0:
240,284,29520,1,4,0:3:0:0:
268,263,29593,1,4,0:3:0:0:
302,257,29667,1,4,0:3:0:0:
336,266,29740,1,4,0:3:0:0:
363,287,29814,1,0,1:0:0:0:
456,192,29961,70,0,L|452:244,1,46.7500014266968,2|0,0:1|0:0,0:0:0:0:
512,308,30108,1,2,0:1:0:0:
500,80,30255,1,0,0:0:0:0:
500,80,30329,1,0,0:0:0:0:
500,80,30402,2,0,P|435:101|372:84,1,93.5000028533936,2|0,1:1|0:0,0:0:0:0:
188,40,30697,2,0,P|252:18|316:36,1,93.5000028533936,4|2,0:3|0:1,0:0:0:0:
304,28,30917,1,0,0:0:0:0:
324,48,30991,1,0,1:0:0:0:
328,152,31138,1,0,0:0:0:0:
96,24,31285,5,2,0:1:0:0:
84,228,31432,1,4,0:3:0:0:
104,208,31505,1,4,0:3:0:0:
128,192,31579,2,0,P|152:184|183:181,1,46.7500014266968,0|0,1:0|0:0,0:0:0:0:
276,232,31726,1,0,0:0:0:0:
408,152,31873,1,4,0:3:0:0:
402,179,31946,1,4,0:3:0:0:
398,207,32020,1,4,0:3:0:0:
397,235,32093,1,4,0:3:0:0:
398,263,32167,1,0,1:0:0:0:
472,68,32314,70,2,P|436:25|296:44,1,187.000005706787,2|4,0:1|0:3,0:1:0:0:
288,144,32682,1,4,0:3:0:0:
288,144,32755,2,0,P|242:150|198:133,1,93.5000028533936,2|0,1:1|0:0,0:0:0:0:
144,40,33049,1,4,0:3:0:0:
51,199,33197,1,2,0:1:0:0:
78,201,33270,1,0,0:0:0:0:
104,187,33344,1,0,1:0:0:0:
49,93,33491,1,0,0:0:0:0:
256,268,33638,5,2,0:1:0:0:
233,251,33711,1,0,0:0:0:0:
206,245,33785,1,4,0:3:0:0:
179,250,33858,1,4,0:3:0:0:
156,266,33932,1,0,1:0:0:0:
316,192,34079,1,2,0:0:0:0:
338,208,34152,1,0,0:0:0:0:
365,214,34226,1,4,0:3:0:0:
392,209,34299,1,4,0:3:0:0:
415,193,34373,1,4,0:3:0:0:
456,104,34520,1,0,1:0:0:0:
512,332,34667,69,2,0:1:0:0:
483,344,34740,1,2,0:1:0:0:
452,342,34814,1,2,0:1:0:0:
428,324,34887,1,0,0:0:0:0:
402,305,34961,1,4,0:3:0:0:
371,303,35034,1,4,0:3:0:0:
344,316,35108,2,0,P|348:260|332:212,1,93.5000028533936,2|0,1:1|0:0,0:0:0:0:
184,192,35402,1,0,0:0:0:0:
432,108,35549,1,2,0:1:0:0:
432,108,35623,1,0,0:0:0:0:
432,108,35697,2,0,P|428:164|444:212,1,93.5000028533936,0|0,1:0|0:0,0:0:0:0:
508,272,35991,5,2,0:1:0:0:
332,96,36138,1,4,0:3:0:0:
306,84,36211,1,4,0:3:0:0:
278,84,36285,1,0,1:0:0:0:
253,96,36358,1,0,0:0:0:0:
235,117,36432,1,0,0:0:0:0:
140,248,36579,1,4,0:3:0:0:
166,260,36652,1,4,0:3:0:0:
194,260,36726,1,4,0:3:0:0:
219,248,36799,1,4,0:3:0:0:
237,227,36873,1,0,1:0:0:0:
40,204,37020,70,2,P|36:268|56:316,1,101.999996887207,2|4,0:1|0:3,0:1:0:0:
136,140,37388,1,4,0:3:0:0:
136,140,37461,2,0,P|107:77|-37:72,1,187.000005706787,2|4,1:1|0:3,0:0:0:0:
140,248,37902,1,2,0:1:0:0:
164,234,37975,1,0,0:0:0:0:
191,231,38049,1,0,1:0:0:0:
218,240,38122,1,0,0:0:0:0:
238,259,38196,1,0,0:0:0:0:
64,188,38344,5,2,0:1:0:0:
300,184,38491,1,4,0:3:0:0:
328,188,38564,1,4,0:3:0:0:
352,172,38638,1,0,1:0:0:0:
472,240,38785,1,0,0:0:0:0:
472,72,38932,1,0,1:0:0:0:
448,87,39005,1,0,0:0:0:0:
420,92,39079,1,0,0:0:0:0:
393,86,39152,1,0,0:0:0:0:
370,71,39226,1,0,0:0:0:0:
355,47,39299,1,0,0:0:0:0:
349,20,39373,38,0,L|344:104,1,68,4|0,0:3|0:0,0:0:0:0:
220,108,39667,1,0,0:0:0:0:
124,80,39814,2,0,L|140:164,1,68,4|0,0:3|0:0,0:0:0:0:
360,176,40108,2,0,L|352:268,1,68,4|0,0:3|0:0,0:0:0:0:
200,228,40402,2,0,L|212:316,1,68,4|0,0:3|0:0,0:0:0:0:
277,131,40697,2,0,L|284:64,1,68,4|0,0:3|0:0,0:0:0:0:
80,196,40991,2,0,L|100:272,1,68,4|0,0:3|0:0,0:0:0:0:
354,243,41285,2,0,L|346:319,1,68,4|0,0:3|0:0,0:0:0:0:
176,124,41579,6,0,L|188:212,1,68,4|0,0:3|0:0,0:0:0:0:
312,52,41873,2,0,L|308:148,1,68,4|0,0:3|0:0,0:0:0:0:
273,279,42167,2,0,L|276:212,1,68,4|0,0:3|0:0,0:0:0:0:
136,276,42461,2,0,L|146:343,1,68,4|0,0:3|0:0,0:0:0:0:
408,280,42755,2,0,L|397:347,1,68,4|0,0:3|0:0,0:0:0:0:
188,132,43049,2,0,L|200:220,1,68,4|0,0:3|0:0,0:0:0:0:
332,184,43344,2,0,L|320:272,1,68,4|0,0:3|0:0,0:0:0:0:
280,32,43638,2,0,L|276:128,1,68,4|0,0:3|0:0,0:0:0:0:
104,120,43932,37,0,1:0:0:0:
104,120,44005,1,0,0:0:0:0:
104,120,44079,2,0,L|108:180,1,46.7500014266968
88,296,44226,53,2,0:1:0:0:
102,272,44299,1,0,0:1:0:0:
125,256,44373,1,0,0:1:0:0:
152,252,44446,1,0,0:0:0:0:
179,258,44520,1,0,0:0:0:0:
332,176,44667,6,0,P|269:181|220:140,1,127.5,2|0,0:1|0:0,0:0:0:0:
188,164,44961,1,0,0:0:0:0:
197,133,45034,1,0,0:0:0:0:
195,102,45108,1,2,1:1:0:0:
182,73,45181,1,0,0:0:0:0:
160,50,45255,1,0,0:0:0:0:
88,280,45402,69,2,1:0:0:0:
116,291,45475,1,0,0:0:0:0:
147,289,45549,1,0,0:0:0:0:
173,272,45622,1,0,0:0:0:0:
199,255,45696,1,2,1:0:0:0:
229,253,45769,1,0,0:0:0:0:
258,264,45843,1,0,0:0:0:0:
344,328,45990,1,0,0:0:0:0:
124,192,46137,5,2,1:0:0:0:
116,164,46211,1,0,0:0:0:0:
120,136,46284,1,0,0:0:0:0:
216,212,46431,1,0,0:0:0:0:
40,240,46578,1,2,0:1:0:0:
48,268,46652,1,0,0:0:0:0:
44,296,46725,1,0,0:0:0:0:
156,332,46873,2,0,L|152:276,2,46.7500014266968,2|0|0,1:1|0:0|0:0,0:0:0:0:
412,288,47167,69,2,1:1:0:0:
386,299,47240,1,0,0:0:0:0:
358,299,47314,1,0,0:0:0:0:
333,286,47387,1,0,0:0:0:0:
316,264,47461,1,0,0:0:0:0:
228,160,47608,2,0,L|232:220,4,46.7500014266968,2|0|0|0|0,1:1|0:0|0:0|0:0|0:0,0:0:0:0:
172,48,48049,6,0,P|224:68|288:60,1,93.5000028533936,2|0,1:0|0:0,0:0:0:0:
288,56,48270,1,0,0:0:0:0:
308,36,48343,1,0,0:0:0:0:
356,160,48490,1,0,0:0:0:0:
476,228,48637,1,2,1:0:0:0:
480,200,48711,1,0,0:0:0:0:
476,172,48784,1,0,0:0:0:0:
312,268,48931,1,0,1:0:0:0:
428,384,49078,70,0,P|426:337|408:294,1,93.5000028533936,2|0,1:0|0:0,0:0:0:0:
276,356,49373,1,0,0:0:0:0:
301,366,49446,1,0,0:0:0:0:
328,362,49520,1,2,1:0:0:0:
400,200,49667,1,0,0:0:0:0:
212,288,49814,1,2,1:0:0:0:
179,300,49888,1,0,0:0:0:0:
145,297,49961,1,0,1:0:0:0:
113,282,50035,1,0,1:0:0:0:
92,255,50108,6,0,P|84:196|100:144,1,93.5000028533936,2|0,1:0|0:0,0:0:0:0:
172,92,50402,1,0,0:0:0:0:
328,260,50549,2,0,P|290:203|167:209,1,187.000005706787,2|0,1:0|0:0,0:0:0:0:
348,364,50990,1,2,1:0:0:0:
372,350,51063,1,0,0:0:0:0:
399,348,51137,1,0,0:0:0:0:
432,240,51284,1,2,1:0:0:0:
456,254,51357,1,0,0:0:0:0:
483,256,51431,1,0,0:0:0:0:
312,260,51578,69,2,1:0:0:0:
285,251,51651,1,0,0:0:0:0:
263,233,51725,1,0,0:0:0:0:
250,209,51798,1,0,0:0:0:0:
246,181,51872,1,0,0:0:0:0:
356,64,52020,6,0,P|360:132|344:172,1,93.5000028533936,2|0,1:0|0:0,0:0:0:0:
352,155,52240,1,0,0:0:0:0:
352,155,52314,1,0,0:0:0:0:
144,104,52461,2,0,P|140:36|156:-4,1,93.5000028533936,2|2,0:1|0:1,0:0:0:0:
248,148,52755,1,2,1:0:0:0:
248,148,52828,1,0,0:0:0:0:
248,148,52902,1,0,0:0:0:0:
432,292,53049,70,0,P|359:237|291:265,1,140.25000428009,2|0,1:0|0:0,0:0:0:0:
312,280,53343,1,0,0:0:0:0:
284,286,53416,1,0,0:0:0:0:
257,283,53490,1,2,1:0:0:0:
233,269,53563,1,0,0:0:0:0:
216,247,53637,1,0,0:0:0:0:
276,156,53784,1,0,0:0:0:0:
112,184,53931,2,0,L|128:252,2,46.7500014266968,2|0|0,1:0|0:0|0:0,0:0:0:0:
180,96,54226,5,2,1:0:0:0:
180,96,54299,1,0,0:0:0:0:
180,96,54373,1,0,0:0:0:0:
376,204,54520,1,2,1:0:0:0:
396,184,54593,1,0,0:0:0:0:
404,156,54667,2,0,P|404:104|384:64,1,93.5000028533936,0|0,0:0|1:0,0:0:0:0:
196,240,54961,70,0,P|260:220|292:136,1,140.25000428009,2|0,1:0|0:0,0:0:0:0:
288,132,55255,1,0,0:0:0:0:
96,236,55402,1,2,1:0:0:0:
96,264,55476,1,0,0:0:0:0:
109,290,55549,1,2,0:3:0:0:
160,144,55696,1,2,1:0:0:0:
156,116,55770,1,0,0:0:0:0:
143,90,55843,1,2,0:3:0:0:
56,144,55990,69,0,1:0:0:0:
196,240,56137,2,0,P|248:252|296:240,1,85,4|0,0:3|0:0,0:0:0:0:
344,180,56431,1,4,0:3:0:0:
100,252,56578,2,0,P|48:240|0:252,1,85,0|4,1:0|0:3,0:0:0:0:
80,344,56873,1,0,0:0:0:0:
168,324,57020,2,0,P|220:336|268:324,1,85,0|2,0:0|0:3,0:0:0:0:
392,344,57314,69,4,0:3:0:0:
392,344,57387,1,4,0:3:0:0:
392,344,57461,2,0,L|376:252,1,85,0|4,1:3|0:3,0:0:0:0:
468,236,57755,1,2,0:3:0:0:
312,192,57902,5,4,0:3:0:0:
292,280,58049,1,0,1:0:0:0:
235,146,58196,1,4,0:3:0:0:
202,288,58343,1,2,0:3:0:0:
166,205,58490,1,4,0:3:0:0:
312,192,58637,1,0,1:0:0:0:
292,280,58784,1,4,0:3:0:0:
158,100,58931,38,0,P|115:96|75:109,1,85,0|4,1:0|0:3,0:0:0:0:
235,146,59226,1,0,0:0:0:0:
312,192,59373,2,0,P|354:195|394:182,1,85,4|0,0:3|1:0,0:0:0:0:
436,104,59667,21,4,0:3:0:0:
510,278,59814,2,0,P|470:265|428:268,1,85,2|0,0:3|0:0,0:0:0:0:
392,348,60108,1,0,0:0:0:0:
228,304,60255,5,4,0:3:0:0:
228,304,60328,1,4,0:3:0:0:
228,304,60402,2,0,P|268:317|310:313,1,85,4|4,0:3|0:3,0:0:0:0:
176,216,60696,2,0,P|135:202|93:206,1,85,0|4,0:0|0:3,0:0:0:0:
132,308,60990,1,0,1:0:0:0:
208,120,61137,1,4,0:3:0:0:
268,200,61284,2,0,P|308:213|350:209,1,85,0|4,0:0|0:3,0:0:0:0:
424,148,61578,1,0,1:0:0:0:
408,288,61726,1,4,0:3:0:0:
113,172,61873,38,2,P|114:214|129:259,1,85,2|2,1:1|0:1,0:1:0:0:
332,112,62167,2,0,P|331:69|316:25,1,85,0|4,0:0|0:3,0:0:0:0:
232,176,62461,22,0,P|258:280|324:328,1,170,0|2,1:0|0:3,0:0:0:0:
392,304,62902,1,4,0:3:0:0:
472,176,63049,6,0,P|432:204|372:208,1,85,0|4,0:0|0:3,0:0:0:0:
372,208,63270,1,4,0:3:0:0:
348,200,63343,1,0,1:0:0:0:
308,104,63490,1,0,0:0:0:0:
270,268,63637,1,0,0:0:0:0:
204,112,63784,1,4,0:3:0:0:
182,214,63931,1,0,1:0:0:0:
264,180,64078,1,4,0:3:0:0:
36,168,64226,70,0,P|96:160|128:136,1,85,2|4,0:1|0:3,0:0:0:0:
128,56,64520,1,4,1:3:0:0:
48,264,64667,1,0,1:0:0:0:
252,288,64814,22,0,L|224:208,1,85,4|0,1:0|0:0,0:0:0:0:
172,352,65108,1,4,0:3:0:0:
392,104,65255,2,2,L|382:273,1,170,2|4,1:1|0:3,0:1:0:0:
112,104,65696,21,2,0:1:0:0:
194,122,65843,1,2,0:1:0:0:
261,69,65990,1,2,0:1:0:0:
252,288,66137,69,4,0:3:0:0:
252,288,66211,1,0,0:0:0:0:
252,288,66284,2,0,L|224:208,1,85,2|0,1:0|0:0,0:0:0:0:
172,352,66578,1,4,0:3:0:0:
404,112,66726,2,2,L|394:281,1,170,2|4,1:1|0:3,0:1:0:0:
96,72,67167,5,2,0:1:0:0:
200,132,67314,1,2,0:1:0:0:
274,49,67461,1,2,0:1:0:0:
440,128,67755,54,0,P|406:102|365:92,1,85,6|0,1:0|0:0,0:0:0:0:
268,236,68049,1,2,0:0:0:0:
384,352,68196,2,2,P|402:290|326:178,1,170,0|2,1:0|0:1,0:1:0:0:
288,336,68637,1,0,1:0:0:0:
152,152,68784,5,4,0:3:0:0:
152,152,68858,1,4,0:3:0:0:
152,152,68931,2,0,P|193:133|252:136,1,85,0|4,1:0|0:3,0:0:0:0:
432,64,69226,2,0,P|391:83|332:80,1,85,2|0,1:0|0:0,0:0:0:0:
272,24,69520,1,0,0:0:0:0:
80,312,69667,70,2,P|144:312|220:212,1,170,0|2,0:1|0:1,0:1:0:0:
140,112,70108,1,0,1:0:0:0:
130,142,70181,1,0,0:0:0:0:
132,175,70255,1,4,0:3:0:0:
336,292,70402,1,0,1:1:0:0:
346,262,70475,1,0,0:0:0:0:
344,229,70549,1,4,0:3:0:0:
308,96,70696,6,0,L|408:80,1,85,2|0,0:1|0:0,0:0:0:0:
432,176,70990,1,0,0:0:0:0:
204,48,71137,2,2,L|108:32,1,85,0|2,0:1|0:1,0:1:0:0:
80,128,71431,1,0,0:0:0:0:
320,284,71578,2,0,L|432:268,1,85,0|4,1:0|0:3,0:0:0:0:
196,328,71873,2,0,L|108:308,1,85
72,48,72167,69,2,1:0:0:0:
108,140,72314,2,0,L|192:124,1,85
412,104,72608,5,2,0:1:0:0:
408,296,72755,2,2,L|324:280,1,85,0|4,0:1|0:3,0:1:0:0:
112,244,73049,70,0,L|196:228,1,85,0|4,1:0|0:3,0:0:0:0:
392,160,73343,2,0,L|308:144,1,85,0|0,1:0|0:0,0:0:0:0:
152,32,73637,5,2,1:1:0:0:
114,127,73784,1,0,0:0:0:0:
216,112,73931,1,0,0:0:0:0:
388,108,74078,69,2,1:1:0:0:
426,203,74225,1,2,0:1:0:0:
324,188,74372,1,2,0:1:0:0:
128,292,74520,5,0,1:0:0:0:
225,259,74667,1,4,0:3:0:0:
408,356,74814,69,0,0:1:0:0:
311,332,74961,1,8,0:3:0:0:
60,192,75108,6,0,P|123:190|173:163,1,93.5000028533936,2|4,1:0|0:3,0:0:0:0:
236,112,75402,1,4,0:3:0:0:
432,260,75549,2,2,P|368:259|318:232,1,93.5000028533936,2|2,1:1|0:1,0:1:0:0:
260,296,75843,1,6,0:3:0:0:
360,48,75990,70,0,L|352:156,1,93.5000028533936,2|4,1:0|0:3,0:0:0:0:
456,168,76284,1,0,0:0:0:0:
456,168,76358,1,0,0:0:0:0:
456,168,76431,2,0,L|452:112,1,46.7500014266968,0|0,1:0|0:0,0:0:0:0:
168,144,76578,6,0,P|220:141|260:120,1,93.5000028533936,2|4,1:0|0:3,0:0:0:0:
104,60,76873,1,0,0:0:0:0:
194,314,77020,1,2,0:1:0:0:
195,296,77093,1,0,0:0:0:0:
197,279,77167,1,2,0:1:0:0:
199,261,77240,1,0,0:0:0:0:
200,244,77314,1,0,0:0:0:0:
0,193,77461,69,2,1:0:0:0:
2,216,77535,1,0,0:0:0:0:
4,240,77608,1,0,0:0:0:0:
200,244,77755,5,2,1:0:0:0:
202,220,77828,1,0,0:0:0:0:
204,197,77902,1,0,0:0:0:0:
104,48,78049,6,0,B|102:83|95:111|95:111|115:146|115:146|107:172|107:211,1,170,2|0,1:2|0:0,0:0:0:0:
336,152,78490,70,0,P|300:97|192:96,1,170,2|0,1:2|0:0,0:0:0:0:
212,216,78931,70,0,B|244:184|244:184|252:272|260:340,1,170,2|0,1:2|0:0,0:0:0:0:
380,204,79372,54,0,P|388:136|400:68,1,127.500004863739,2|0,1:2|0:0,0:0:0:0:
256,192,79813,12,4,81725,0:0:0:0:
368,168,89224,21,0,1:0:0:0:
208,60,89372,1,4,0:3:0:0:
300,52,89519,2,0,L|287:136,1,85,0|2,1:0|0:3,0:0:0:0:
204,148,89739,1,2,0:3:0:0:
204,148,89813,1,8,0:3:0:0:
440,232,89960,1,4,0:3:0:0:
116,168,90107,6,0,L|108:100,1,63.7500024318696,4|0,0:3|0:0,0:0:0:0:
344,212,90401,2,0,L|352:280,1,63.7500024318696,4|0,0:3|0:0,0:0:0:0:
244,336,90695,2,0,L|219:131,1,191.250007295609,4|0,0:0|0:0,0:0:0:0:
72,316,91283,69,2,0:3:0:0:
36,216,91430,2,0,L|120:224,1,63.7500024318696,2|0,0:3|0:0,0:0:0:0:
408,112,91724,5,2,0:3:0:0:
416,300,91872,2,0,L|352:293,1,63.7500024318696,0|0,1:0|0:0,0:0:0:0:
204,96,92166,70,0,P|209:131|216:176,1,63.7500024318696,4|0,0:3|0:0,0:0:0:0:
112,108,92460,1,4,0:3:0:0:
300,184,92607,1,0,0:0:0:0:
8,316,92754,2,0,P|23:270|150:219,1,191.250007295609,4|2,0:0|0:3,0:0:0:0:
148,372,93269,5,2,0:3:0:0:
148,372,93342,2,0,P|145:334|140:292,1,63.7500024318696,0|2,1:0|0:3,0:0:0:0:
348,252,93636,2,0,P|347:286|348:316,1,63.7500024318696,0|2,0:0|0:3,0:0:0:0:
252,352,93857,1,2,0:3:0:0:
252,352,93930,1,0,1:0:0:0:
240,168,94077,1,2,0:3:0:0:
145,218,94224,70,0,P|108:212|73:210,1,63.7500024318696,4|0,0:3|0:0,0:0:0:0:
88,28,94519,2,0,P|117:24|151:20,1,63.7500024318696,4|0,0:3|0:0,0:0:0:0:
304,140,94813,2,0,P|249:149|168:96,1,127.500004863739,4|0,0:0|0:0,0:0:0:0:
444,200,95254,5,2,0:3:0:0:
356,232,95401,2,0,L|344:316,1,63.7500024318696,4|2,0:3|0:3,0:0:0:0:
72,216,95842,69,2,0:3:0:0:
158,187,95989,2,0,L|168:124,1,63.7500024318696,0|2,1:0|0:3,0:0:0:0:
244,244,96283,6,0,P|248:273|252:308,1,63.7500024318696,4|0,0:3|0:0,0:0:0:0:
444,128,96577,2,0,P|447:160|452:196,1,63.7500024318696,4|0,0:3|0:0,0:0:0:0:
196,80,96872,2,0,P|280:80|329:188,1,191.250007295609,4|2,0:0|0:3,0:0:0:0:
244,268,97386,69,2,0:3:0:0:
244,268,97460,2,0,L|252:188,1,63.7500024318696,0|0,1:0|0:0,0:0:0:0:
336,296,97754,1,0,1:0:0:0:
56,280,97901,1,4,0:3:0:0:
132,160,98048,2,0,L|140:248,1,63.7500024318696,0|4,1:0|0:3,0:0:0:0:
280,88,98342,54,0,B|179:131|188:27|87:71,1,203.999993774414,4|0,0:2|1:0,0:0:0:0:
236,212,99224,2,0,P|289:214|305:212,1,50.9999984436036
456,148,99519,1,4,0:3:0:0:
392,296,99666,2,0,P|378:255|379:180,1,101.999996887207,2|2,0:3|0:3,0:0:0:0:
492,280,100107,2,0,P|490:312|484:344,1,50.9999984436036,0|0,1:0|0:0,0:0:0:0:
320,120,100401,6,0,P|212:104|142:176,1,203.999993774414,4|0,0:0|1:0,0:0:0:0:
344,32,101283,2,0,P|376:32|416:24,1,50.9999984436036,0|2,0:0|0:3,0:0:0:0:
460,80,101504,1,2,0:3:0:0:
460,80,101577,1,0,1:0:0:0:
424,224,101724,2,0,P|391:206|309:201,1,101.999996887207,2|2,0:3|0:3,0:0:0:0:
256,116,102092,1,2,0:3:0:0:
256,116,102166,2,0,P|288:116|328:108,1,50.9999984436036,0|4,1:0|0:3,0:0:0:0:
288,336,102460,70,0,P|240:320|184:176,1,203.999993774414,4|0,0:0|1:0,0:0:0:0:
60,68,103342,2,0,P|66:99|69:127,1,50.9999984436036,0|4,0:0|0:3,0:0:0:0:
8,184,103636,1,0,1:0:0:0:
160,100,103783,2,0,P|212:96|272:128,1,101.999996887207,2|2,0:3|0:3,0:0:0:0:
272,232,104224,2,0,P|240:232|208:224,1,50.9999984436036,0|2,1:0|0:3,0:0:0:0:
344,164,104519,6,0,P|396:168|456:136,1,101.999996887207,0|4,1:0|0:3,0:0:0:0:
221,228,105107,2,0,P|149:208|73:260,1,152.999995330811,4|4,0:0|0:3,0:0:0:0:
80,324,105622,5,4,0:3:0:0:
88,336,105695,1,4,0:3:0:0:
0,196,105842,1,4,0:3:0:0:
164,300,105989,5,0,0:0:0:0:
148,148,106136,1,4,0:3:0:0:
147,136,106210,1,4,0:3:0:0:
146,124,106283,1,0,1:0:0:0:
248,304,106430,5,4,0:3:0:0:
360,204,106577,22,0,P|289:226|205:200,1,152.999995330811,4|0,0:0|0:0,0:0:0:0:
16,288,107166,2,0,P|87:266|171:292,1,152.999995330811,0|2,1:0|0:3,0:0:0:0:
120,372,107754,1,0,1:0:0:0:
244,384,107901,2,0,P|256:336|246:263,1,101.999996887207,2|2,0:3|0:3,0:0:0:0:
180,160,108342,2,0,P|176:200|180:224,1,50.9999984436036,0|0,1:0|0:0,0:0:0:0:
452,240,108636,6,0,P|417:193|276:194,1,203.999993774414,4|0,0:0|1:0,0:0:0:0:
304,276,109519,1,0,0:0:0:0:
188,184,109666,1,2,0:3:0:0:
188,184,109739,1,2,0:3:0:0:
188,184,109813,2,0,P|194:208|196:234,1,50.9999984436036,0|0,1:0|0:0,0:0:0:0:
120,288,110107,1,0,0:0:0:0:
312,248,110254,1,2,0:3:0:0:
84,162,110401,2,0,P|85:136|92:112,1,50.9999984436036,0|4,1:0|0:3,0:0:0:0:
464,160,110695,70,0,B|363:203|372:99|272:143,1,203.999993774414,4|0,0:0|1:0,0:0:0:0:
172,68,111577,2,0,P|216:64|242:55,1,50.9999984436036,0|2,0:0|0:3,0:0:0:0:
312,40,111872,1,0,1:0:0:0:
80,44,112019,2,0,P|76:94|90:147,1,101.999996887207,2|2,0:3|0:3,0:0:0:0:
176,168,112460,1,0,1:0:0:0:
4,212,112607,1,0,1:0:0:0:
116,240,112754,6,0,P|141:244|176:252,1,50.9999984436036,4|0,0:3|0:0,0:0:0:0:
376,188,113048,2,0,P|350:192|325:197,1,50.9999984436036,4|0,0:3|0:0,0:0:0:0:
128,80,113342,2,0,P|204:96|248:176,1,152.999995330811,4|4,0:0|0:3,0:0:0:0:
244,232,113857,5,4,0:3:0:0:
244,232,113930,1,0,1:0:0:0:
380,108,114077,1,2,0:3:0:0:
364,244,114224,5,2,0:1:0:0:
168,184,114372,1,2,0:3:0:0:
168,184,114445,1,2,0:3:0:0:
168,184,114519,1,0,1:0:0:0:
260,144,114666,5,2,0:3:0:0:
68,136,114813,54,0,P|73:172|80:228,1,63.7500024318696,0|0,1:0|0:0,0:0:0:0:
152,88,115107,1,0,0:0:0:0:
0,68,115254,1,0,0:0:0:0:
8,296,115401,2,2,B|103:331|95:244|191:279,1,191.250007295609,2|2,0:1|1:1,0:1:0:0:
460,220,115989,1,0,1:0:0:0:
284,264,116136,2,0,L|276:356,1,63.7500024318696,2|0,0:3|0:0,0:0:0:0:
220,192,116430,1,2,0:3:0:0:
368,208,116577,2,0,L|376:128,1,63.7500024318696,0|2,1:0|0:3,0:0:0:0:
157,283,116872,38,0,L|96:300,1,63.7500024318696,0|0,1:0|0:0,0:0:0:0:
92,72,117166,2,0,L|153:88,1,63.7500024318696,0|0,1:0|0:0,0:0:0:0:
379,239,117460,2,2,P|338:256|215:179,1,191.250007295609,2|2,1:1|0:1,0:1:0:0:
296,124,118048,1,0,0:0:0:0:
124,188,118195,2,0,L|136:276,1,63.7500024318696
40,276,118489,1,4,0:3:0:0:
216,320,118636,1,0,2:0:0:0:
220,300,118710,1,0,0:0:0:0:
224,280,118783,1,0,0:0:0:0:
320,128,118930,38,0,P|323:191|328:256,1,127.500004863739,0|0,0:0|1:0,0:0:0:0:
432,280,119372,1,0,0:0:0:0:
388,64,119519,2,2,P|305:22|220:60,1,191.250007295609,2|2,1:1|0:1,0:1:0:0:
180,144,120107,1,0,1:0:0:0:
404,152,120254,2,0,P|461:157|515:207,1,127.500004863739,0|0,0:0|1:0,0:0:0:0:
340,224,120695,1,0,1:0:0:0:
252,192,120842,2,0,P|248:152|244:104,1,63.7500024318696,2|0,0:3|1:0,0:0:0:0:
328,72,121136,1,0,0:0:0:0:
168,248,121283,2,0,P|163:282|156:320,1,63.7500024318696,0|0,1:0|0:0,0:0:0:0:
40,144,121577,38,2,L|244:120,1,191.250007295609,2|2,1:1|0:1,0:1:0:0:
312,152,122092,1,2,0:3:0:0:
312,152,122166,2,0,L|328:64,1,63.7500024318696,0|0,1:0|1:0,0:0:0:0:
400,192,122460,1,0,0:0:0:0:
240,208,122607,1,4,0:3:0:0:
240,208,122680,1,4,0:3:0:0:
240,208,122754,1,0,1:0:0:0:
334,339,122901,1,4,0:3:0:0:
144,288,123048,6,0,P|203:239|326:251,1,203.999993774414,4|0,0:0|1:0,0:0:0:0:
136,168,123930,2,0,P|92:164|64:156,1,50.9999984436036
180,88,124224,1,0,1:0:0:0:
264,124,124372,2,0,P|272:68|268:20,1,101.999996887207,2|2,0:3|0:3,0:0:0:0:
328,196,124813,2,0,P|332:226|340:260,1,50.9999984436036,0|0,1:0|0:0,0:0:0:0:
168,96,125107,6,0,P|116:76|-4:164,1,203.999993774414,4|0,0:0|1:0,0:0:0:0:
160,192,125989,2,0,P|204:188|228:188,1,50.9999984436036,0|2,0:0|0:3,0:0:0:0:
288,192,126210,1,2,0:3:0:0:
288,192,126283,1,4,0:3:0:0:
148,96,126430,1,0,0:0:0:0:
316,276,126577,1,0,0:0:0:0:
384,176,126724,1,2,0:3:0:0:
384,176,126798,1,2,0:3:0:0:
384,176,126872,1,0,1:0:0:0:
436,284,127019,1,4,0:3:0:0:
88,296,127166,70,0,P|76:220|164:120,1,203.999993774414,4|0,0:0|1:0,0:0:0:0:
308,272,128048,2,0,P|352:280|380:280,1,50.9999984436036,0|4,0:0|0:3,0:0:0:0:
436,216,128342,1,2,0:3:0:0:
220,308,128489,2,0,P|209:268|213:184,1,101.999996887207,2|2,0:3|0:3,0:0:0:0:
304,120,128930,2,0,P|304:160|300:184,1,50.9999984436036,0|4,1:0|0:3,0:0:0:0:
88,132,129224,5,4,0:3:0:0:
200,92,129519,2,0,P|197:66|192:41,1,50.9999984436036,4|0,0:3|0:0,0:0:0:0:
72,260,129813,2,0,P|141:255|196:180,1,152.999995330811,4|4,0:0|0:3,0:0:0:0:
104,104,130327,5,4,0:3:0:0:
104,104,130401,2,0,P|109:134|116:176,1,50.9999984436036,0|0,1:0|0:0,0:0:0:0:
16,188,130695,5,0,0:0:0:0:
288,216,130842,5,4,0:3:0:0:
288,216,130916,1,4,0:3:0:0:
288,216,130989,2,0,P|289:190|292:165,1,50.9999984436036,0|0,1:0|0:3,0:0:0:0:
276,368,131283,22,0,P|216:337|188:204,1,203.999993774414,4|0,0:0|1:0,0:0:0:0:
84,280,132019,2,0,P|92:332|92:352,2,50.9999984436036,0|0|2,0:0|0:0|0:3,0:0:0:0:
0,232,132460,1,0,1:0:0:0:
297,300,132607,2,0,P|348:295|405:251,1,101.999996887207,2|2,0:3|0:3,0:0:0:0:
480,188,133048,2,0,P|476:232|476:248,1,50.9999984436036,0|0,1:0|0:0,0:0:0:0:
204,92,133342,6,0,P|147:65|22:129,1,203.999993774414,4|0,0:0|1:0,0:0:0:0:
132,268,134077,2,0,P|176:256|192:256,1,50.9999984436036,0|2,0:0|0:3,0:0:0:0:
260,296,134372,1,2,0:3:0:0:
260,296,134445,1,2,0:3:0:0:
260,296,134519,1,0,1:0:0:0:
424,176,134666,2,0,P|352:180|304:164,1,101.999996887207,0|2,0:0|0:3,0:0:0:0:
272,100,135033,1,2,0:3:0:0:
272,100,135107,1,0,1:0:0:0:
348,268,135254,1,0,0:3:0:0:
32,196,135401,70,0,P|80:176|184:204,1,152.999995330811,4|0,0:0|0:0,0:0:0:0:
256,284,135989,2,0,P|217:277|149:304,1,101.999996887207,0|0,1:0|0:0,0:0:0:0:
92,360,136430,1,2,0:3:0:0:
324,216,136577,1,0,1:0:0:0:
340,332,136724,2,0,P|379:339|447:312,1,101.999996887207,2|2,0:3|0:3,0:0:0:0:
472,180,137166,2,0,P|468:208|468:236,1,50.9999984436036,0|0,1:0|0:0,0:0:0:0:
492,84,137460,6,0,P|432:68|380:84,1,101.999996887207,4|4,0:3|0:3,0:0:0:0:
222,231,138048,2,0,P|272:239|320:224,1,101.999996887207,4|0,0:0|0:0,0:0:0:0:
408,180,138489,5,2,0:3:0:0:
408,180,138563,1,2,0:3:0:0:
408,180,138636,2,0,L|404:248,1,50.9999984436036,0|4,1:0|0:3,0:0:0:0:
492,128,138930,1,2,0:1:0:0:
360,304,139077,5,4,0:3:0:0:
360,304,139151,1,4,0:3:0:0:
360,304,139224,1,0,1:1:0:0:
256,140,139372,5,4,0:3:0:0:
164,288,139519,54,0,P|159:246|152:196,1,68,4|0,0:3|0:0,0:0:0:0:
380,140,139813,2,0,P|378:173|377:207,1,68,4|0,0:3|0:0,0:0:0:0:
106,50,140107,2,2,P|186:47|254:164,1,204,2|2,1:1|0:1,0:1:0:0:
156,168,140695,1,4,0:3:0:0:
232,304,140842,2,0,P|235:264|228:204,1,68,2|0,0:3|0:0,0:0:0:0:
128,344,141136,1,2,0:3:0:0:
24,256,141283,2,0,P|22:222|24:188,1,68,0|0,1:0|0:0,0:0:0:0:
136,80,141577,38,0,L|148:172,1,68,4|0,0:3|0:0,0:0:0:0:
388,228,141872,1,4,0:3:0:0:
208,240,142019,1,0,0:0:0:0:
302,24,142166,2,2,L|288:160,1,136,2|2,1:1|0:1,0:1:0:0:
468,100,142607,37,2,0:3:0:0:
468,100,142680,1,2,0:3:0:0:
468,100,142754,1,2,0:3:0:0:
408,192,142901,1,0,0:0:0:0:
208,64,143048,1,0,0:0:0:0:
256,172,143195,1,0,0:0:0:0:
256,172,143269,1,0,0:0:0:0:
256,172,143342,1,0,1:0:0:0:
340,120,143489,1,2,0:3:0:0:
100,136,143636,38,0,L|108:203,1,68,4|0,0:3|0:0,0:0:0:0:
188,284,143930,1,4,0:3:0:0:
12,232,144077,1,0,0:0:0:0:
412,254,144224,2,2,P|376:190|236:182,1,204,2|2,1:0|0:1,0:1:0:0:
16,60,144813,1,2,0:3:0:0:
104,128,144960,2,0,L|198:107,1,68,4|0,0:3|0:0,0:0:0:0:
424,88,145254,1,2,0:3:0:0:
428,288,145401,2,0,L|340:276,1,68,0|0,1:0|0:0,0:0:0:0:
144,240,145695,37,4,0:3:0:0:
344,168,145842,1,0,0:0:0:0:
236,280,145989,2,0,L|252:376,1,68,4|0,0:3|0:0,0:0:0:0:
82,130,146283,2,2,B|185:176|175:64|281:112,1,204,2|2,1:1|0:1,0:1:0:0:
344,168,146798,37,2,0:3:0:0:
344,168,146872,1,4,0:3:0:0:
360,24,147019,1,0,0:0:0:0:
232,192,147166,1,0,0:0:0:0:
164,36,147313,1,2,0:3:0:0:
164,36,147386,1,2,0:3:0:0:
164,36,147460,1,2,0:3:0:0:
274,110,147607,1,4,0:3:0:0:
4,152,147754,6,0,P|71:146|168:128,1,152.999995330811,4|0,0:0|0:0,0:0:0:0:
220,272,148342,2,0,L|112:264,1,101.999996887207,0|0,1:0|0:0,0:0:0:0:
312,176,148930,6,0,P|380:196|432:188,1,101.999996887207,4|4,0:3|0:3,0:0:0:0:
480,132,149372,1,0,0:0:0:0:
448,276,149519,2,0,P|444:320|444:328,1,50.9999984436036,0|0,1:0|0:0,0:0:0:0:
240,88,149813,70,0,P|172:68|56:132,1,203.999993774414,4|4,0:0|0:3,0:0:0:0:
0,32,150695,1,4,0:3:0:0:
288,320,150989,6,0,P|336:332|432:292,1,152.999995330811
512,268,151577,2,0,L|508:332,1,50.9999984436036,0|0,1:0|0:0,0:0:0:0:
352,208,151872,70,0,L|348:176,4,25.4999992218018,4|0|0|0|4,0:3|0:0|0:0|0:0|0:3,0:0:0:0:
444,208,152313,1,0,0:0:0:0:
264,80,152460,2,0,P|315:82|376:80,1,101.999996887207,0|0,1:0|0:0,0:0:0:0:
365,80,152901,1,0,0:0:0:0:
169,55,153048,2,0,L|177:123,1,50.9999984436036,4|0,0:3|0:0,0:0:0:0:
241,171,153342,1,0,0:0:0:0:
83,128,153489,1,0,0:0:0:0:
264,80,153636,21,0,1:0:0:0:
150,195,153783,1,0,0:0:0:0:
432,200,153930,54,0,P|376:192|316:184,1,101.999996887207,4|4,0:0|0:3,0:0:0:0:
336,276,154372,1,0,0:0:0:0:
72,196,154519,6,0,P|146:198|206:153,1,152.999995330811,0|2,1:0|0:3,0:0:0:0:
224,76,155033,1,2,0:3:0:0:
224,76,155107,1,0,1:0:0:0:
216,268,155254,1,0,0:0:0:0:
32,112,155401,1,0,0:0:0:0:
72,256,155548,1,4,0:3:0:0:
72,256,155622,1,4,0:3:0:0:
72,256,155695,1,0,1:0:0:0:
148,168,155842,1,4,0:3:0:0:
328,296,155989,6,0,P|330:262|336:216,1,63.7500024318696,4|4,0:0|0:3,0:0:0:0:
408,352,156283,1,0,1:0:0:0:
224,276,156430,1,4,0:3:0:0:
440,184,156577,2,0,P|442:215|445:247,1,63.7500024318696,4|0,0:3|0:0,0:0:0:0:
508,296,156798,1,0,0:0:0:0:
508,296,156872,1,0,1:0:0:0:
340,144,157019,1,4,0:3:0:0:
108,232,157166,5,0,0:0:0:0:
138,240,157239,1,0,0:0:0:0:
169,235,157313,1,0,0:0:0:0:
196,218,157386,1,0,0:0:0:0:
214,192,157460,1,4,0:3:0:0:
212,92,157607,1,0,0:0:0:0:
368,336,157754,2,0,L|357:262,1,63.7500024318696,0|2,1:0|0:3,0:0:0:0:
480,164,158048,69,0,1:0:0:0:
450,180,158121,1,0,0:0:0:0:
417,188,158195,1,0,0:0:0:0:
384,181,158268,1,0,0:0:0:0:
355,164,158342,1,0,1:0:0:0:
326,146,158415,1,0,0:0:0:0:
294,139,158489,1,4,0:3:0:0:
261,146,158562,1,4,0:3:0:0:
231,163,158636,1,0,1:0:0:0:
308,304,158783,5,0,0:3:0:0:
308,271,158857,1,0,0:3:0:0:
296,242,158930,1,0,0:3:0:0:
436,100,159077,38,0,L|432:260,1,148.75
480,336,159666,5,2,0:3:0:0:
446,347,159739,1,2,0:3:0:0:
412,342,159813,1,0,1:0:0:0:
385,319,159886,1,0,0:0:0:0:
359,296,159960,1,2,0:3:0:0:
324,290,160033,1,2,0:3:0:0:
291,302,160107,1,2,0:3:0:0:
48,240,160254,38,0,P|112:248|184:204,1,127.500004863739,4|0,0:0|0:0,0:0:0:0:
216,96,160621,53,0,0:0:0:0:
216,96,160695,2,0,P|272:64|408:120,1,203.999993774414,0|2,1:2|0:3,0:0:0:0:
264,188,161136,1,0,0:0:0:0:
112,116,161283,2,0,P|104:52|108:12,1,93.5000028533936,0|0,1:0|0:0,0:0:0:0:
355,200,161577,2,0,P|363:264|359:304,1,93.5000028533936,2|4,0:3|0:3,0:0:0:0:
360,292,161798,1,4,0:3:0:0:
360,292,161871,1,0,1:0:0:0:
212,200,162018,1,0,0:0:0:0:
436,132,162165,5,2,0:3:0:0:
411,102,162238,1,2,0:3:0:0:
377,86,162312,1,0,0:0:0:0:
339,85,162385,1,0,0:0:0:0:
304,100,162459,1,0,0:0:0:0:
216,260,162606,22,0,P|144:296|36:256,1,187.000005706787,4|2,0:0|0:3,0:0:0:0:
104,180,162974,1,2,0:3:0:0:
104,180,163048,2,0,P|96:130|80:68,1,93.5000028533936,0|0,1:0|0:0,0:0:0:0:
8,16,163342,1,2,0:3:0:0:
208,156,163489,1,2,0:3:0:0:
256,256,163636,2,0,P|320:284|424:248,1,140.25000428009,0|0,1:0|0:0,0:0:0:0:
412,244,163930,37,2,1:0:0:0:
452,120,164077,1,2,0:1:0:0:
452,120,164151,1,0,0:0:0:0:
452,120,164224,1,0,1:0:0:0:
500,304,164371,1,2,0:1:0:0:
296,160,164518,1,2,0:3:0:0:
252,144,164591,1,2,0:3:0:0:
206,149,164665,1,2,0:3:0:0:
167,175,164738,1,2,0:3:0:0:
144,215,164812,1,0,1:0:0:0:
392,200,164959,6,0,P|387:153|388:88,1,76.4999976654053,4|0,0:2|0:0,0:0:0:0:
476,320,165253,1,2,1:3:0:0:
476,320,165327,1,2,0:3:0:0:
476,320,165401,2,0,P|427:319|365:280,1,93.5000028533936,0|0,1:0|0:0,0:0:0:0:
144,132,165695,2,0,P|193:133|255:172,1,93.5000028533936,4|0,0:3|0:0,0:0:0:0:
248,180,165915,1,0,0:0:0:0:
256,212,165989,1,0,1:0:0:0:
336,76,166136,1,0,0:0:0:0:
172,344,166283,22,0,P|165:299|154:236,1,93.5000028533936,2|2,0:3|0:3,0:0:0:0:
152,224,166503,1,2,0:3:0:0:
148,196,166577,1,0,1:0:0:0:
280,360,166724,1,0,0:0:0:0:
64,96,166871,1,4,0:3:0:0:
93,113,166944,1,4,0:3:0:0:
128,118,167018,1,4,0:3:0:0:
162,109,167091,1,4,0:3:0:0:
189,87,167165,1,0,1:0:0:0:
312,28,167312,38,0,P|315:98|327:178,1,140.25000428009,4|0,0:3|0:0,0:0:0:0:
424,272,167606,1,2,0:3:0:0:
424,272,167680,1,2,0:3:0:0:
424,272,167753,2,0,P|360:260|252:332,1,187.000005706787,0|0,1:0|0:0,0:0:0:0:
336,384,168195,1,0,0:0:0:0:
196,108,168342,6,0,P|217:149|227:216,1,93.5000028533936,0|0,1:0|0:0,0:0:0:0:
36,340,168636,2,0,P|15:299|5:232,1,93.5000028533936,4|4,0:3|0:3,0:0:0:0:
5,252,168856,1,4,0:3:0:0:
5,252,168930,1,0,1:0:0:0:
64,120,169077,1,0,0:0:0:0:
160,304,169224,1,2,0:3:0:0:
188,324,169297,1,2,0:3:0:0:
222,333,169371,1,2,0:3:0:0:
256,330,169444,1,2,0:3:0:0:
288,315,169518,1,0,1:0:0:0:
408,232,169665,6,0,P|404:300|408:372,1,127.500004863739,4|2,0:3|0:3,0:0:0:0:
492,140,170033,53,2,0:3:0:0:
492,140,170106,2,0,P|436:84|300:108,1,187.000005706787,4|2,0:2|0:3,0:0:0:0:
276,188,170548,1,0,0:0:0:0:
160,156,170695,2,0,P|144:111|141:65,1,93.5000028533936,0|0,1:0|0:0,0:0:0:0:
252,8,170989,1,2,0:3:0:0:
188,256,171136,1,2,0:3:0:0:
188,256,171209,1,2,0:3:0:0:
188,256,171283,2,0,P|143:271|97:274,1,93.5000028533936,0|0,1:0|0:0,0:0:0:0:
320,220,171577,5,4,0:3:0:0:
349,238,171650,1,4,0:3:0:0:
383,247,171724,1,4,0:3:0:0:
418,245,171797,1,4,0:3:0:0:
451,234,171871,1,0,1:0:0:0:
252,112,172018,22,0,P|176:88|76:176,1,187.000005706787,0|0,1:0|0:0,0:0:0:0:
184,328,172386,1,0,0:0:0:0:
184,328,172459,2,0,P|174:265|138:206,1,93.5000028533936,0|0,1:0|0:0,0:0:0:0:
52,252,172753,1,2,0:3:0:0:
284,312,172901,1,2,0:3:0:0:
380,272,173048,2,0,L|384:172,1,93.5000028533936,0|0,1:0|0:0,0:0:0:0:
464,336,173342,37,2,0:1:0:0:
236,76,173489,2,0,L|248:196,1,93.5000028533936,0|0,0:0|1:0,0:0:0:0:
356,64,173783,1,2,0:1:0:0:
152,240,173930,1,2,0:3:0:0:
147,217,174003,1,2,0:3:0:0:
143,194,174077,1,2,0:3:0:0:
138,171,174150,1,2,0:3:0:0:
134,148,174224,1,0,1:0:0:0:
76,356,174371,6,0,P|172:360|236:276,1,187.000005706787,4|2,0:3|0:3,0:0:0:0:
352,188,174739,1,2,0:3:0:0:
352,188,174812,2,0,P|343:243|342:295,1,93.5000028533936,0|0,1:0|0:0,0:0:0:0:
440,128,175106,2,0,P|400:76|344:56,1,93.5000028533936,2|0,0:3|0:0,0:0:0:0:
256,96,175401,1,0,1:0:0:0:
236,220,175548,22,0,P|172:232|56:148,1,187.000005706787
128,40,175915,1,0,0:0:0:0:
128,40,175989,2,0,P|152:92|156:148,1,93.5000028533936,0|0,1:0|0:0,0:0:0:0:
40,360,176283,1,2,0:3:0:0:
60,331,176356,1,2,0:3:0:0:
90,314,176430,1,2,0:3:0:0:
125,309,176503,1,2,0:3:0:0:
158,318,176577,1,0,1:0:0:0:
448,336,176724,38,0,P|456:276|380:176,1,187.000005706787,4|2,0:3|0:3,0:0:0:0:
360,92,177092,1,2,0:3:0:0:
360,92,177165,2,0,P|276:112|248:104,1,93.5000028533936,0|0,1:0|0:0,0:0:0:0:
180,36,177459,1,4,0:3:0:0:
216,204,177606,1,4,0:3:0:0:
332,352,177753,6,0,P|341:305|336:256,1,93.5000028533936,0|0,1:0|0:0,0:0:0:0:
100,207,178048,2,0,P|90:253|95:302,1,93.5000028533936,4|2,0:3|0:3,0:0:0:0:
94,298,178268,1,2,0:3:0:0:
94,298,178342,1,0,1:0:0:0:
232,108,178489,1,2,0:0:0:0:
223,358,178636,21,2,0:3:0:0:
225,322,178709,1,2,0:3:0:0:
227,287,178783,1,2,0:3:0:0:
230,252,178856,1,2,0:3:0:0:
233,217,178930,1,0,1:0:0:0:
484,232,179077,38,0,P|387:232|314:136,1,187.000005706787,4|0,0:0|0:0,0:0:0:0:
52,56,179518,6,0,P|116:64|156:48,1,93.5000028533936,4|0,0:3|0:0,0:0:0:0:
456,104,179812,2,0,P|391:100|354:78,1,93.5000028533936,4|0,0:3|0:0,0:0:0:0:
92,324,180106,2,0,P|151:298|178:265,1,93.5000028533936,8|0,0:3|0:0,0:0:0:0:
240,24,180401,22,0,L|252:140,1,93.5000028533936,4|0,0:3|0:0,0:0:0:0:
405,265,180695,2,0,P|362:234|292:222,1,93.5000028533936,4|0,0:3|0:0,0:0:0:0:
27,199,180989,2,0,P|103:249|193:234,1,187.000005706787,4|8,0:3|0:3,0:0:0:0:
249,117,181430,1,0,0:0:0:0:
268,328,181577,1,0,1:0:0:0:
20,320,181871,5,4,0:3:0:0:
193,234,182018,1,0,0:0:0:0:
92,152,182165,21,4,0:3:0:0:
265,162,182312,1,0,0:0:0:0:
224,40,182459,5,4,0:3:0:0:
354,125,182606,1,0,0:0:0:0:
388,12,182753,5,4,0:2:0:0:
451,136,183342,69,2,0:3:0:0:
220,108,183783,70,0,L|364:88,1,127.500004863739,4|0,0:0|0:0,0:0:0:0:
346,90,184150,1,0,0:0:0:0:
346,90,184224,1,0,0:0:0:0:
356,272,184371,2,0,L|280:260,1,63.7500024318696,0|0,1:0|0:0,0:0:0:0:
412,188,184665,1,0,0:0:0:0:
196,344,184812,54,0,P|180:276|212:204,1,127.500004863739,4|0,0:3|1:0,0:0:0:0:
164,112,185253,1,0,0:0:0:0:
164,112,185327,1,0,0:0:0:0:
164,112,185400,2,0,P|196:120|248:116,1,63.7500024318696,0|0,1:0|0:0,0:0:0:0:
280,32,185694,1,0,0:0:0:0:
408,232,185841,2,0,P|365:202|271:214,1,127.500004863739,0|0,1:0|0:0,0:0:0:0:
312,360,186282,2,0,P|316:304|323:276,1,63.7500024318696,0|0,1:0|0:0,0:0:0:0:
92,212,186577,2,0,P|96:243|98:275,1,63.7500024318696,0|0,1:0|0:0,0:0:0:0:
216,160,186871,5,0,1:0:0:0:
204,344,187018,1,0,0:0:0:0:
204,344,187091,1,0,0:0:0:0:
204,344,187165,1,0,0:0:0:0:
348,268,187312,2,0,L|268:256,1,63.7500024318696,0|0,1:0|0:0,0:0:0:0:
376,168,187606,5,0,0:0:0:0:
376,168,187680,1,0,0:0:0:0:
376,168,187753,1,0,1:0:0:0:
56,164,187900,2,0,L|136:152,1,63.7500024318696,0|0,0:0|1:0,0:0:0:0:
168,48,188194,1,0,0:0:0:0:
188,312,188341,54,0,L|176:220,1,63.7500024318696,0|0,1:0|0:0,0:0:0:0:
179,248,188562,1,0,0:0:0:0:
179,248,188635,1,4,0:3:0:0:
416,204,188782,2,0,L|412:284,1,63.7500024318696,0|0,1:0|0:0,0:0:0:0:
264,156,189077,1,0,0:0:0:0:
312,348,189224,2,0,L|312:256,1,63.7500024318696,0|0,1:0|0:0,0:0:0:0:
106,112,189518,2,0,L|112:176,1,63.7500024318696,0|4,1:0|0:3,0:0:0:0:
32,204,189738,5,0,0:0:0:0:
32,204,189812,1,0,1:0:0:0:
198,269,189959,1,0,0:0:0:0:
236,149,190106,1,0,0:0:0:0:
24,296,190253,2,0,L|112:276,1,63.7500024318696,0|0,1:0|0:0,0:0:0:0:
459,257,190547,5,0,0:0:0:0:
427,261,190620,1,0,0:0:0:0:
396,254,190694,1,4,0:3:0:0:
370,236,190767,1,0,0:0:0:0:
352,210,190841,1,0,0:0:0:0:
368,100,190988,1,0,1:0:0:0:
256,252,191135,53,0,0:0:0:0:
256,252,191209,1,0,0:0:0:0:
256,252,191282,2,0,L|268:340,1,63.7500024318696,0|0,1:0|0:0,0:0:0:0:
356,352,191577,1,0,0:0:0:0:
276,152,191724,6,0,P|218:132|107:205,1,191.250007295609,0|4,1:0|0:3,0:0:0:0:
80,276,192312,1,0,0:0:0:0:
64,76,192459,1,0,1:0:0:0:
204,320,192606,1,0,0:0:0:0:
204,320,192680,1,0,0:0:0:0:
204,320,192753,2,0,L|193:240,1,63.7500024318696,4|0,0:3|0:0,0:0:0:0:
116,364,193047,1,0,0:0:0:0:
328,192,193194,6,0,L|320:344,1,127.500004863739,0|0,1:0|0:0,0:0:0:0:
420,348,193635,1,4,0:3:0:0:
216,180,193782,2,0,L|204:128,2,31.8750012159348,0|0|0,0:0|0:0|1:0,0:0:0:0:
148,256,194077,1,0,0:0:0:0:
432,176,194224,5,4,0:3:0:0:
328,192,194371,1,0,0:0:0:0:
364,88,194518,1,4,0:3:0:0:
82,166,194665,70,0,L|226:146,1,127.500004863739,0|0,1:0|0:0,0:0:0:0:
20,68,195106,1,0,1:0:0:0:
148,256,195253,1,0,1:0:0:0:
244,64,195400,1,4,0:3:0:0:
328,192,195547,1,4,0:3:0:0:
428,104,195694,6,0,L|420:171,1,63.7500024318696,4|0,0:2|0:0,0:0:0:0:
496,240,195988,1,0,0:0:0:0:
248,112,196135,2,0,L|324:100,1,63.7500024318696,4|0,0:3|1:0,0:0:0:0:
324,216,196430,1,0,0:0:0:0:
140,56,196577,2,0,L|68:48,1,63.7500024318696,0|4,0:0|0:3,0:0:0:0:
100,312,196871,2,0,L|170:292,1,63.7500024318696,0|4,0:0|0:3,0:0:0:0:
280,192,197091,69,4,0:3:0:0:
280,192,197165,2,0,P|216:196|144:144,1,127.500004863739,0|0,1:0|0:0,0:0:0:0:
140,56,197606,1,4,0:3:0:0:
64,216,197753,2,0,P|59:184|50:153,1,63.7500024318696,0|4,1:0|0:3,0:0:0:0:
256,40,198047,2,0,P|249:71|247:102,1,63.7500024318696,0|4,0:0|0:3,0:0:0:0:
140,56,198341,1,0,1:0:0:0:
316,284,198488,5,0,0:0:0:0:
316,284,198562,1,0,0:0:0:0:
316,284,198635,2,0,L|408:296,1,63.7500024318696,4|0,0:2|0:0,0:0:0:0:
440,216,198930,1,0,0:0:0:0:
176,100,199077,2,0,L|88:80,1,63.7500024318696,4|0,0:3|1:0,0:0:0:0:
256,192,199371,1,0,0:0:0:0:
336,100,199518,2,0,L|424:80,1,63.7500024318696,0|4,0:0|0:3,0:0:0:0:
196,284,199812,2,0,L|104:296,1,63.7500024318696,0|4,0:0|0:3,0:0:0:0:
76,236,200032,69,4,0:3:0:0:
76,236,200106,1,0,1:0:0:0:
32,40,200253,1,4,0:3:0:0:
156,152,200400,1,0,0:0:0:0:
400,40,200547,5,4,0:3:0:0:
408,228,200694,2,0,L|320:212,1,63.7500024318696,0|0,1:0|0:0,0:0:0:0:
32,40,200988,69,0,0:0:0:0:
93,163,201135,2,0,L|181:147,1,63.7500024318696,4|0,0:3|1:0,0:0:0:0:
400,124,201430,5,0,1:0:0:0:
200,276,201577,2,0,L|212:364,1,63.7500024318696,4|0,0:2|0:0,0:0:0:0:
112,120,201871,69,0,0:0:0:0:
320,224,202018,2,0,L|312:312,1,63.7500024318696,0|0,0:0|1:0,0:0:0:0:
448,180,202312,5,0,0:0:0:0:
140,112,202459,2,0,L|152:204,1,63.7500024318696,0|4,0:0|0:3,0:0:0:0:
356,64,202753,2,0,L|348:140,1,63.7500024318696,0|4,0:0|0:3,0:0:0:0:
260,216,202974,69,4,0:3:0:0:
260,216,203047,2,0,L|252:128,2,63.7500024318696,0|0|0,1:0|0:0|0:0,0:0:0:0:
356,260,203488,1,4,0:3:0:0:
76,104,203635,2,0,P|144:108|196:72,1,127.500004863739,0|0,1:0|0:0,0:0:0:0:
256,8,204077,1,4,0:3:0:0:
168,200,204224,2,0,L|176:272,1,63.7500024318696,0|0,0:0|1:0,0:0:0:0:
476,116,204518,5,4,0:2:0:0:
354,208,204665,1,0,0:0:0:0:
368,100,204812,1,4,0:3:0:0:
460,222,204959,1,0,1:0:0:0:
460,222,205253,1,0,0:0:0:0:
248,92,205400,5,0,1:0:0:0:
256,192,205547,1,4,0:3:0:0:
264,292,205694,1,4,0:3:0:0:
52,222,205841,69,4,0:3:0:0:
52,222,205915,1,4,0:3:0:0:
52,222,205988,1,0,1:0:0:0:
144,100,206135,1,4,0:3:0:0:
158,208,206282,1,4,0:3:0:0:
36,116,206429,1,0,1:0:0:0:
36,116,206724,1,4,0:3:0:0:
256,192,206871,5,0,1:0:0:0:
256,192,207018,1,4,0:3:0:0:
256,192,207165,1,4,0:3:0:0:
40,84,207459,22,0,P|120:92|188:36,1,152.999995330811,0|0,0:0|1:0,0:0:0:0:
276,32,208047,2,0,P|272:60|268:108,1,50.9999984436036
372,224,208341,2,0,P|364:172|360:92,1,101.999996887207,4|4,0:3|0:3,0:0:0:0:
292,272,208782,2,0,P|296:297|297:323,1,50.9999984436036
212,368,209076,1,0,1:0:0:0:
60,304,209223,2,0,P|132:257|222:281,1,152.999995330811,4|0,0:3|1:0,0:0:0:0:
196,156,209811,5,0,0:0:0:0:
297,322,209959,1,0,0:0:0:0:
372,228,210106,1,4,0:3:0:0:
472,352,210253,2,0,L|464:280,1,50.9999984436036,0|4,0:0|0:3,0:0:0:0:
508,220,210547,1,2,0:3:0:0:
380,324,210694,1,0,0:0:0:0:
248,220,210841,2,0,L|253:270,1,50.9999984436036,0|4,1:0|0:3,0:0:0:0:
344,184,211135,2,0,L|348:112,1,50.9999984436036
420,244,211429,1,0,1:0:0:0:
244,120,211576,70,0,P|176:112|104:160,1,152.999995330811,4|0,0:2|1:0,0:0:0:0:
336,72,212459,2,0,P|404:64|476:112,1,152.999995330811,4|0,0:3|0:0,0:0:0:0:
420,180,212973,1,0,0:0:0:0:
420,180,213047,2,0,P|420:210|424:236,1,50.9999984436036,0|0,0:0|1:0,0:0:0:0:
492,288,213341,1,4,0:3:0:0:
320,160,213488,1,0,0:0:0:0:
256,264,213635,1,0,0:0:0:0:
132,200,213782,6,0,L|148:312,1,101.999996887207,0|0,1:0|0:0,0:0:0:0:
168,104,214223,2,0,L|117:94,1,50.9999984436036,4|0,0:3|0:0,0:0:0:0:
40,152,214517,1,4,0:3:0:0:
340,216,214664,6,0,L|390:206,1,50.9999984436036,0|4,1:0|0:3,0:0:0:0:
460,272,214959,1,4,0:3:0:0:
168,272,215106,6,0,L|117:262,1,50.9999984436036,0|4,1:0|0:3,0:0:0:0:
40,152,215400,1,4,0:3:0:0:
64,336,215547,5,0,1:0:0:0:
288,104,215694,22,0,P|388:96|448:60,1,152.999995330811,4|0,0:2|0:0,0:0:0:0:
344,204,216282,2,0,P|340:240|344:320,1,101.999996887207,0|0,1:0|0:0,0:0:0:0:
428,360,216723,1,4,0:3:0:0:
248,200,216870,2,0,P|203:187|102:251,1,152.999995330811,4|0,0:3|1:0,0:0:0:0:
120,328,217459,1,0,0:0:0:0:
16,196,217606,2,0,P|20:244|20:260,1,50.9999984436036,4|4,0:3|0:3,0:0:0:0:
104,120,217900,1,0,0:0:0:0:
227,306,218047,2,0,P|229:281|232:256,1,50.9999984436036
120,264,218341,6,0,L|116:388,1,101.999996887207,0|0,1:0|0:0,0:0:0:0:
204,156,218782,1,4,0:3:0:0:
204,156,218856,1,0,0:0:0:0:
204,156,218929,2,0,L|212:84,1,50.9999984436036,4|0,0:3|0:0,0:0:0:0:
144,40,219223,1,0,0:0:0:0:
252,248,219370,2,0,P|300:268|368:260,1,101.999996887207,0|0,1:0|0:0,0:0:0:0:
172,140,219811,70,0,P|124:120|24:152,1,152.999995330811,4|0,0:2|0:0,0:0:0:0:
152,284,220400,2,0,P|148:236|144:212,1,50.9999984436036,0|0,1:0|0:0,0:0:0:0:
52,248,220694,1,0,0:0:0:0:
252,189,220841,2,0,P|249:214|248:240,1,50.9999984436036,4|4,0:3|0:3,0:0:0:0:
30,146,221135,2,0,P|28:120|25:95,1,50.9999984436036,0|0,1:0|0:0,0:0:0:0:
157,31,221429,1,0,1:0:0:0:
147,233,221576,1,0,0:0:0:0:
152,132,221723,5,4,0:3:0:0:
152,132,221797,1,4,0:3:0:0:
152,132,221870,1,0,1:0:0:0:
236,192,222017,1,0,0:0:0:0:
331,158,222164,6,0,P|331:190|336:231,1,50.9999984436036,0|0,1:0|0:0,0:0:0:0:
408,268,222459,1,0,0:0:0:0:
248,92,222606,6,0,P|248:64|248:36,1,50.9999984436036,0|0,1:0|0:0,0:0:0:0:
152,176,222900,2,0,P|148:248|136:352,1,152.999995330811,0|0,1:0|1:0,0:0:0:0:
76,112,223488,5,4,0:3:0:0:
240,236,223635,1,4,0:3:0:0:
344,144,223782,1,4,0:3:0:0:
444,208,223929,22,0,L|456:88,1,101.999996887207,4|0,0:2|0:0,0:0:0:0:
512,288,224517,1,0,1:0:0:0:
140,204,224959,5,4,0:3:0:0:
140,104,225106,2,0,L|32:92,1,101.999996887207,4|0,0:3|0:0,0:0:0:0:
224,152,225547,2,0,L|296:140,2,50.9999984436036,0|0|0,1:0|0:0|0:0,0:0:0:0:
312,240,225988,70,0,L|424:244,1,101.999996887207,4|4,0:3|0:3,0:0:0:0:
256,324,226576,1,0,1:0:0:0:
320,140,227017,5,4,0:3:0:0:
140,68,227164,2,0,L|148:180,1,101.999996887207
244,72,227606,2,0,L|248:12,2,50.9999984436036,0|0|0,1:0|0:0|0:0,0:0:0:0:
456,320,228047,70,0,L|340:304,1,101.999996887207,4|0,0:3|0:0,0:0:0:0:
52,92,228635,2,0,L|212:68,1,152.999995330811,0|4,1:0|0:3,0:0:0:0:
368,244,229223,6,0,L|300:232,1,50.9999984436036,4|0,0:3|0:0,0:0:0:0:
304,88,229517,1,4,0:3:0:0:
128,184,229664,2,0,L|236:168,1,101.999996887207,0|4,1:0|0:3,0:0:0:0:
236,348,230106,69,4,0:3:0:0:
152,280,230253,1,0,0:0:0:0:
152,280,230326,1,0,0:0:0:0:
152,280,230400,2,0,L|148:352,1,50.9999984436036
52,248,230694,2,0,L|40:132,1,101.999996887207,0|0,1:0|0:0,0:0:0:0:
32,56,231135,1,4,0:3:0:0:
344,208,231282,6,0,L|416:216,1,50.9999984436036,0|4,1:0|0:3,0:0:0:0:
256,192,231576,1,4,0:3:0:0:
168,176,231723,2,0,L|96:168,1,50.9999984436036,0|0,1:0|0:0,0:0:0:0:
288,276,232017,69,4,0:3:0:0:
288,276,232091,1,4,0:3:0:0:
288,276,232164,2,0,L|296:384,1,101.999996887207,4|0,0:2|0:0,0:0:0:0:
380,148,232753,2,0,L|384:80,1,50.9999984436036,0|0,1:0|0:0,0:0:0:0:
320,32,233047,1,0,0:0:0:0:
456,208,233194,1,4,0:3:0:0:
164,176,233341,22,0,B|151:124|151:124|174:62,1,101.999996887207,2|2,0:1|0:1,0:1:0:0:
348,208,233782,2,0,B|361:260|361:260|338:322,1,101.999996887207,0|0,1:0|0:0,0:0:0:0:
256,192,234223,53,4,0:3:0:0:
436,164,234517,1,0,0:0:0:0:
76,220,234811,1,0,1:0:0:0:
256,192,235106,2,0,L|261:242,1,50.9999984436036,4|4,0:3|0:3,0:0:0:0:
348,148,235400,38,0,B|351:94|351:94|327:52,1,101.999996887207,2|2,0:1|0:1,0:0:0:0:
164,236,235841,2,0,B|160:289|160:289|184:331,1,101.999996887207,0|0,1:0|0:0,0:0:0:0:
256,192,236282,37,0,0:0:0:0:
436,220,236576,1,0,0:0:0:0:
76,164,236870,1,0,1:0:0:0:
256,192,237164,2,0,L|252:136,1,50.9999984436036,4|0,0:3|0:0,0:0:0:0:
344,216,237459,54,0,B|389:234|389:234|441:226,1,101.999996887207,2|2,0:1|0:1,0:0:0:0:
168,168,237900,2,0,B|122:149|122:149|70:157,1,101.999996887207,0|0,1:0|0:0,0:0:0:0:
324,344,238341,22,0,L|328:300,7,25.4999992218018,0|0|0|0|0|0|0|0,1:0|0:0|0:0|0:0|0:0|0:0|0:0|0:0,0:0:0:0:
180,288,238929,2,0,L|176:244,7,25.4999992218018,0|0|0|0|0|0|4|0,1:0|0:0|0:0|0:0|0:0|0:0|0:3|0:0,0:0:0:0:
324,224,239517,6,0,L|328:180,3,25.4999992218018,0|0|4|0,1:0|0:0|0:3|0:0,0:0:0:0:
200,156,239811,2,0,L|196:112,1,25.4999992218018,0|0,1:0|0:0,0:0:0:0:
304,100,239959,2,0,L|308:56,5,25.4999992218018,0|0|0|0|0|0,1:0|0:0|0:0|0:0|0:0|0:0,0:0:0:0:
232,8,240400,5,4,0:2:0:0:
144,172,249811,53,4,0:2:0:0:
204,260,249958,2,0,P|260:272|348:204,1,152.999995330811,4|0,0:3|1:0,0:0:0:0:
432,192,250547,2,0,P|428:244|428:264,1,50.9999984436036,4|0,0:3|0:0,0:0:0:0:
188,88,250841,2,0,P|144:76|40:132,1,152.999995330811,0|0,1:0|0:0,0:0:0:0:
80,208,251429,5,0,1:0:0:0:
0,32,251576,1,0,0:0:0:0:
236,168,251723,1,4,0:3:0:0:
236,168,251797,1,4,0:3:0:0:
236,168,251870,1,4,0:3:0:0:
256,28,252017,1,4,0:3:0:0:
368,120,252164,70,0,L|380:48,1,50.9999984436036,4|0,0:2|0:0,0:0:0:0:
408,216,252458,2,0,P|416:277|428:336,1,101.999996887207,4|0,0:3|1:0,0:0:0:0:
468,136,252900,1,0,0:0:0:0:
312,203,253047,1,4,0:3:0:0:
312,203,253120,1,0,0:0:0:0:
312,203,253194,2,0,P|281:200|240:195,1,50.9999984436036,2|0,0:3|0:0,0:0:0:0:
192,116,253488,5,4,0:3:0:0:
204,290,253635,1,0,0:0:0:0:
92,156,253782,1,4,0:3:0:0:
92,156,253855,1,4,0:3:0:0:
92,156,253929,1,0,1:0:0:0:
97,290,254076,2,0,L|101:250,2,25.4999992218018,4|4|4,0:3|0:3|0:3,0:0:0:0:
16,336,254370,1,4,0:3:0:0:
172,208,254517,69,4,1:2:0:0:
312,332,254664,2,0,L|300:152,1,152.999995330811,4|0,0:3|1:0,0:0:0:0:
412,236,255252,2,0,L|406:286,1,50.9999984436036,2|0,0:3|0:0,0:0:0:0:
120,288,255547,6,0,P|160:288|224:256,1,101.999996887207,0|4,1:0|0:3,0:0:0:0:
204,168,255988,1,0,0:0:0:0:
304,304,256135,2,0,P|307:278|312:253,1,50.9999984436036,0|0,1:0|0:0,0:0:0:0:
103,141,256429,1,4,0:3:0:0:
103,141,256502,1,4,0:3:0:0:
103,141,256576,2,0,P|108:166|112:192,1,50.9999984436036,4|2,0:3|0:3,0:0:0:0:
220,72,256870,69,0,1:0:0:0:
224,172,257017,1,4,0:3:0:0:
320,156,257164,2,0,L|336:36,1,101.999996887207,0|0,1:0|0:0,0:0:0:0:
408,208,257605,2,0,L|416:268,1,50.9999984436036,0|4,0:0|0:3,0:0:0:0:
484,144,257900,5,0,0:0:0:0:
484,144,257973,1,0,0:0:0:0:
484,144,258047,1,2,0:3:0:0:
320,256,258194,1,4,0:3:0:0:
208,140,258341,2,0,L|216:208,1,50.9999984436036,0|4,1:0|0:3,0:0:0:0:
108,248,258635,2,0,L|112:204,2,25.4999992218018,4|4|4,0:3|0:3|0:3,0:0:0:0:
24,64,258929,5,0,1:0:0:0:
52,77,259002,1,0,0:0:0:0:
84,79,259076,1,0,0:0:0:0:
113,68,259149,1,0,0:0:0:0:
136,46,259223,1,4,1:2:0:0:
208,140,259370,5,0,0:0:0:0:
312,100,259517,2,0,L|320:180,1,63.7500024318696,0|0,1:0|0:0,0:0:0:0:
318,163,259738,1,0,0:0:0:0:
318,163,259811,1,4,0:3:0:0:
412,44,259958,1,4,0:3:0:0:
504,196,260105,2,0,L|510:132,1,63.7500024318696,0|0,1:0|0:0,0:0:0:0:
412,212,260400,1,4,0:3:0:0:
164,84,260547,69,4,0:3:0:0:
164,84,260620,1,4,0:3:0:0:
164,84,260694,2,0,L|168:172,1,63.7500024318696,0|0,1:0|0:0,0:0:0:0:
84,284,260988,1,4,0:3:0:0:
102,259,261061,1,4,0:3:0:0:
131,245,261135,1,4,0:3:0:0:
162,245,261208,1,4,0:3:0:0:
191,260,261282,1,0,1:0:0:0:
68,164,261429,1,4,0:3:0:0:
156,340,261576,5,4,0:2:0:0:
156,340,261650,1,0,0:0:0:0:
156,340,261723,1,4,0:3:0:0:
265,176,261870,1,0,1:3:0:0:
328,288,262017,1,0,0:0:0:0:
420,228,262164,2,0,L|428:304,1,63.7500024318696,0|4,1:0|0:3,0:0:0:0:
364,128,262458,70,0,P|424:136|496:84,1,127.500004863739,0|4,1:0|0:3,0:0:0:0:
292,56,262900,1,4,0:3:0:0:
292,56,262973,1,4,0:3:0:0:
292,56,263047,1,0,1:0:0:0:
318,219,263194,1,0,0:0:0:0:
201,102,263341,1,4,0:3:0:0:
201,102,263414,1,4,0:3:0:0:
201,102,263488,2,0,L|204:144,2,31.8750012159348,4|4|0,0:3|0:3|1:0,0:0:0:0:
112,56,263782,1,4,0:3:0:0:
184,221,263929,5,4,0:2:0:0:
12,204,264076,1,4,0:3:0:0:
12,204,264150,1,4,0:3:0:0:
12,204,264223,2,0,P|45:165|140:159,1,127.500004863739,0|4,1:0|0:3,0:0:0:0:
184,221,264664,1,4,0:3:0:0:
284,168,264811,2,0,P|280:111|274:91,1,63.7500024318696,0|0,1:0|0:0,0:0:0:0:
192,36,265105,69,4,0:3:0:0:
280,272,265252,1,4,0:3:0:0:
280,272,265326,1,4,0:3:0:0:
280,272,265400,2,0,P|356:288|416:248,1,127.500004863739,0|4,1:0|0:3,0:0:0:0:
488,240,265767,1,4,0:3:0:0:
485,261,265840,1,4,0:3:0:0:
484,282,265914,1,4,0:3:0:0:
484,303,265987,1,0,1:0:0:0:
432,144,266135,1,4,0:3:0:0:
336,184,266282,5,4,0:2:0:0:
224,128,266429,1,4,0:3:0:0:
224,128,266502,1,4,0:3:0:0:
224,128,266576,2,0,L|232:208,1,63.7500024318696,0|0,1:0|0:0,0:0:0:0:
148,48,266870,1,4,0:3:0:0:
312,88,267017,1,0,0:0:0:0:
28,172,267164,2,0,L|21:108,1,63.7500024318696,0|0,1:0|0:0,0:0:0:0:
136,256,267458,69,4,0:3:0:0:
230,191,267605,1,4,0:3:0:0:
230,191,267679,1,4,0:3:0:0:
230,191,267752,1,0,1:0:0:0:
320,260,267900,1,0,0:0:0:0:
413,195,268047,1,4,0:3:0:0:
413,195,268120,1,4,0:3:0:0:
413,195,268194,1,4,0:3:0:0:
413,195,268267,1,4,0:3:0:0:
413,195,268341,1,0,1:0:0:0:
503,263,268488,6,0,L|512:192,1,63.7500024318696,4|0,0:2|0:0,0:0:0:0:
296,320,268782,1,4,0:3:0:0:
296,320,268855,1,4,0:3:0:0:
296,320,268929,2,0,P|392:336|436:312,1,127.500004863739,0|4,1:0|0:3,0:0:0:0:
416,325,269297,1,4,0:3:0:0:
416,325,269370,1,8,0:3:0:0:
270,219,269517,2,0,P|239:217|208:224,1,63.7500024318696,0|0,1:0|0:0,0:0:0:0:
148,312,269811,69,4,0:3:0:0:
100,132,269958,1,4,0:3:0:0:
100,132,270032,1,4,0:3:0:0:
100,132,270105,1,0,1:0:0:0:
48,272,270252,1,0,0:0:0:0:
432,248,270400,5,4,0:3:0:0:
402,259,270473,1,4,0:3:0:0:
370,259,270547,1,4,0:3:0:0:
340,248,270620,1,4,0:3:0:0:
316,227,270694,1,0,1:0:0:0:
332,120,270841,1,0,0:0:0:0:
212,272,270988,70,0,L|200:188,1,63.7500024318696,2|4,0:3|0:3,0:0:0:0:
202,208,271208,1,4,0:3:0:0:
202,208,271282,1,0,1:0:0:0:
120,328,271429,1,0,0:0:0:0:
8,264,271576,2,0,L|20:348,1,63.7500024318696,4|4,0:3|0:3,0:0:0:0:
104,212,271870,2,0,L|82:59,1,127.500004863739,0|4,1:0|0:3,0:0:0:0:
264,168,272311,5,4,0:3:0:0:
264,168,272385,1,4,0:3:0:0:
264,168,272458,2,0,L|196:160,1,63.7500024318696,0|0,1:0|0:0,0:0:0:0:
316,264,272752,1,4,0:3:0:0:
346,270,272825,1,4,0:3:0:0:
378,265,272899,1,4,0:3:0:0:
404,247,272972,1,4,0:3:0:0:
422,221,273046,1,0,1:0:0:0:
428,112,273194,1,4,0:3:0:0:
512,280,273341,1,2,0:3:0:0:
132,232,273488,69,4,0:3:0:0:
132,232,273561,1,4,0:3:0:0:
132,232,273635,2,0,L|224:220,1,63.7500024318696,0|0,1:0|0:0,0:0:0:0:
68,144,273929,1,4,0:3:0:0:
136,336,274076,1,4,0:3:0:0:
436,192,274223,5,0,1:0:0:0:
392,292,274370,2,0,L|300:280,1,63.7500024318696,4|2,0:2|0:3,0:0:0:0:
120,92,274664,1,4,0:3:0:0:
120,92,274738,1,4,0:3:0:0:
120,92,274811,2,0,L|212:104,1,63.7500024318696,0|0,1:0|0:0,0:0:0:0:
448,112,275105,5,4,0:3:0:0:
430,147,275178,1,4,0:3:0:0:
398,170,275252,1,4,0:3:0:0:
359,176,275325,1,4,0:3:0:0:
322,163,275400,1,0,1:0:0:0:
288,64,275547,1,0,0:0:0:0:
328,283,275694,53,4,0:2:0:0:
56,264,275841,1,4,0:3:0:0:
56,264,275914,1,4,0:3:0:0:
56,264,275988,2,0,P|104:212|192:220,1,159.799997561646,0|4,1:0|0:3,0:0:0:0:
264,332,276429,1,8,0:3:0:0:
248,52,276576,6,0,L|256:168,1,79.8999987808228,0|0,1:0|0:0,0:0:0:0:
468,276,276870,69,0,1:0:0:0:
429,283,276943,1,0,0:0:0:0:
390,274,277017,1,4,0:3:0:0:
359,249,277090,1,4,0:3:0:0:
342,214,277164,5,0,1:0:0:0:
342,234,277238,1,4,0:3:0:0:
340,254,277312,1,4,0:3:0:0:
334,273,277385,1,4,0:3:0:0:
326,291,277459,5,12,0:3:0:0:
293,270,277532,1,8,0:3:0:0:
253,265,277606,1,8,0:3:0:0:
215,278,277679,1,8,0:3:0:0:
187,305,277752,2,0,P|184:280|168:236,1,39.9499993904114,0|0,1:0|0:0,0:0:0:0:
84,144,277900,70,0,P|149:169|215:151,1,127.500004863739,4|0,0:2|0:0,0:0:0:0:
352,188,278341,70,0,L|368:104,1,63.7500024318696,4|0,0:3|0:0,0:0:0:0:
152,72,278635,6,0,L|140:-8,1,63.7500024318696,4|0,0:3|0:0,0:0:0:0:
224,280,278929,70,0,L|240:196,1,63.7500024318696,4|0,0:3|0:0,0:0:0:0:
20,125,279223,54,0,L|32:188,1,63.7500024318696,4|0,0:3|0:0,0:0:0:0:
336,340,279517,22,0,L|352:256,1,63.7500024318696,4|0,0:3|0:0,0:0:0:0:
148,176,279811,54,0,L|139:113,1,63.7500024318696,4|0,0:3|0:0,0:0:0:0:
340,116,280105,6,0,L|352:36,1,63.7500024318696,4|0,0:3|0:0,0:0:0:0:
240,20,280400,70,0,L|244:72,7,31.8750012159348,4|0|0|0|4|0|0|0,0:3|0:0|0:0|0:0|0:3|0:0|0:0|0:0,0:0:0:0:
264,132,280988,2,0,L|260:184,3,31.8750012159348,4|0|0|0,0:3|0:0|0:0|0:0,0:0:0:0:
240,248,281282,2,0,L|244:300,3,31.8750012159348,4|0|0|0,0:3|0:0|0:0|0:0,0:0:0:0:
268,364,281576,21,4,0:2:0:0:
256,192,282164,21,0,1:0:0:0:
256,192,282311,1,8,0:3:0:0:
24,280,282605,54,0,P|88:284|148:240,1,136,8|0,0:3|0:0,0:0:0:0:
160,144,283046,1,8,0:3:0:0:
444,320,283340,2,0,B|341:366|351:254|245:302,1,204,4|4,1:2|0:3,0:0:0:0:
188,360,283854,1,4,0:3:0:0:
188,360,283928,1,0,1:0:0:0:
284,192,284075,2,0,P|275:144|262:118,1,68,8|0,0:3|0:0,0:0:0:0:
164,256,284369,1,8,0:3:0:0:
48,208,284516,2,0,P|52:160|62:132,1,68,0|0,1:0|0:0,0:0:0:0:
252,298,284810,38,0,L|264:370,1,68,8|0,0:3|0:0,0:0:0:0:
344,284,285104,1,8,0:3:0:0:
164,256,285252,1,0,0:0:0:0:
272,180,285399,2,0,P|344:176|404:120,1,136,4|0,1:2|0:0,0:0:0:0:
500,80,285840,37,4,0:3:0:0:
500,80,285913,1,4,0:3:0:0:
500,80,285987,2,0,L|496:176,1,68,0|2,1:0|0:3,0:0:0:0:
392,32,286281,1,4,0:3:0:0:
296,148,286428,2,0,L|288:64,1,68,4|0,0:3|1:0,0:0:0:0:
400,200,286722,1,4,0:3:0:0:
400,200,286869,1,8,0:3:0:0:
196,120,287016,37,0,0:0:0:0:
156,224,287163,1,8,0:3:0:0:
60,168,287310,1,0,0:0:0:0:
287,351,287457,2,0,L|295:148,1,204,4|4,1:2|0:3,0:0:0:0:
400,156,288046,1,4,0:3:0:0:
236,52,288193,2,0,P|284:52|364:20,1,136,0|4,1:0|0:3,0:0:0:0:
295,147,288634,1,0,1:0:0:0:
136,24,288781,1,4,0:3:0:0:
62,179,288928,38,0,P|58:145|52:112,1,68,8|0,0:3|0:0,0:0:0:0:
295,147,289222,2,0,P|289:181|285:215,1,68,8|0,0:3|0:0,0:0:0:0:
200,372,289516,2,0,P|156:308|188:180,1,204,4|4,1:2|0:3,0:0:0:0:
120,48,290031,21,4,0:3:0:0:
120,48,290104,2,0,P|162:71|224:72,1,101.999996887207,4|0,0:2|0:0,0:0:0:0:
456,176,290545,70,0,P|392:180|332:144,1,127.500004863739,4|0,0:2|0:0,0:0:0:0:
67,235,290986,70,0,P|130:227|183:181,1,127.500004863739,4|0,0:2|0:0,0:0:0:0:
316,264,291427,54,0,B|277:241|277:241|292:388,1,170,4|0,0:2|0:0,0:0:0:0:
380,176,291868,6,0,L|396:80,1,85,4|0,0:2|0:0,0:0:0:0:
140,164,292309,2,0,L|124:68,1,85,4|0,0:2|0:0,0:0:0:0:
256,96,292751,70,0,L|268:264,1,152.999995330811,0|0,0:2|0:0,0:0:0:0:
360,320,293339,2,0,P|365:269|376:200,1,101.999996887207,4|0,0:3|0:0,0:0:0:0:
448,364,293780,1,0,0:0:0:0:
272,128,293927,6,0,P|240:104|116:116,1,152.999995330811,4|0,0:3|0:0,0:0:0:0:
44,168,294515,2,0,P|39:137|28:96,1,50.9999984436036,4|0,0:3|0:0,0:0:0:0:
292,224,294809,70,0,P|344:232|408:204,1,101.999996887207,4|4,0:2|0:3,0:0:0:0:
444,124,295251,1,0,0:0:0:0:
416,320,295398,2,0,P|412:368|412:388,1,50.9999984436036,4|0,0:3|0:0,0:0:0:0:
196,280,295692,2,0,P|194:255|192:230,1,50.9999984436036,4|0,0:3|0:0,0:0:0:0:
364,128,295986,6,0,P|312:144|216:100,1,152.999995330811,4|0,0:2|0:0,0:0:0:0:
128,68,296574,2,0,P|132:112|132:136,1,50.9999984436036,0|0,1:0|0:0,0:0:0:0:
460,160,296868,70,0,L|460:112,2,25.4999992218018,4|0|0,0:3|0:0|0:0,0:0:0:0:
364,220,297162,1,0,1:0:0:0:
252,100,297309,1,0,0:0:0:0:
256,216,297456,2,0,L|260:288,2,50.9999984436036,0|0|0,1:0|0:0|0:0,0:0:0:0:
72,148,297898,1,4,0:3:0:0:
140,312,298045,6,0,L|144:244,1,50.9999984436036,4|4,0:3|0:3,0:0:0:0:
208,384,298339,1,0,0:0:0:0:
48,332,298486,1,4,0:3:0:0:
232,292,298633,5,0,1:0:0:0:
72,148,298780,1,0,1:0:0:0:
304,364,298927,54,0,P|360:364|416:328,1,101.999996887207,4|0,0:2|1:0,0:0:0:0:
488,384,299368,1,0,0:0:0:0:
232,292,299515,2,0,P|161:268|93:299,1,152.999995330811,0|4,1:0|0:3,0:0:0:0:
93,298,300030,1,4,0:3:0:0:
93,298,300103,1,4,0:3:0:0:
0,200,300251,5,8,0:3:0:0:
60,384,300398,1,0,0:0:0:0:
190,240,300545,1,4,0:3:0:0:
190,240,300618,1,4,0:3:0:0:
190,240,300692,1,0,1:0:0:0:
236,348,300839,1,0,1:0:0:0:
360,268,300986,6,0,L|272:260,1,63.7500024318696,4|0,0:2|0:0,0:0:0:0:
296,262,301206,1,0,0:0:0:0:
296,262,301280,1,0,1:0:0:0:
252,116,301427,1,0,0:0:0:0:
124,200,301574,2,0,L|212:192,1,63.7500024318696,8|0,0:3|0:0,0:0:0:0:
204,288,301868,1,0,1:0:0:0:
52,108,302015,1,0,0:0:0:0:
12,284,302162,6,0,P|9:247|0:192,1,72.2500013780594,0|4,0:0|0:3,0:0:0:0:
4,212,302383,1,0,0:0:0:0:
4,212,302456,1,0,1:0:0:0:
136,344,302603,1,4,0:3:0:0:
264,288,302751,2,0,P|261:324|262:360,1,72.2500013780594,0|8,1:0|0:3,0:0:0:0:
371,202,303045,69,0,1:0:0:0:
342,215,303118,1,0,0:0:0:0:
311,221,303192,1,4,0:3:0:0:
281,211,303265,1,4,0:3:0:0:
256,192,303339,1,0,1:0:0:0:
231,172,303412,1,0,0:0:0:0:
201,162,303486,1,4,0:3:0:0:
169,167,303559,1,4,0:3:0:0:
141,181,303633,1,0,1:0:0:0:
272,328,303780,5,4,0:3:0:0:
240,56,303927,1,0,1:0:0:0:
255,192,304074,5,4,0:2:0:0:
256,192,304148,12,2,305398,0:3:0:0:
60,124,305986,21,2,0:3:0:0:
60,124,306574,21,0,1:0:0:0:
156,104,306721,1,4,0:3:0:0:
156,104,306795,1,0,0:0:0:0:
156,104,306868,2,0,L|164:36,1,42.5,2|0,0:0|0:0,0:0:0:0:
460,208,307015,5,0,0:3:0:0:
420,222,307089,1,0,0:3:0:0:
379,215,307162,1,0,1:0:0:0:
347,188,307236,1,0,1:0:0:0:
314,160,307309,1,0,0:3:0:0:
273,154,307383,1,0,0:3:0:0:
233,168,307456,1,0,1:0:0:0:
128,340,307603,6,0,P|187:334|243:277,1,127.500004863739,4|4,0:2|0:3,0:0:0:0:
233,168,307971,53,0,0:0:0:0:
233,168,308045,2,0,P|163:129|45:187,1,203.999993774414,0|4,1:0|0:3,0:0:0:0:
40,276,308486,1,4,0:3:0:0:
260,60,308633,2,0,P|340:80|380:72,1,93.5000028533936,0|0,1:0|0:0,0:0:0:0:
428,16,308927,1,4,0:3:0:0:
304,168,309074,1,4,0:3:0:0:
308,214,309147,1,4,0:3:0:0:
329,255,309221,1,0,1:0:0:0:
428,312,309368,1,0,0:0:0:0:
208,152,309515,5,4,0:3:0:0:
166,130,309588,1,4,0:3:0:0:
120,130,309662,1,4,0:3:0:0:
79,151,309735,1,4,0:3:0:0:
51,188,309809,1,0,1:0:0:0:
332,196,309956,22,0,P|409:180|508:276,1,187.000005706787,4|4,0:3|0:3,0:0:0:0:
136,336,310324,1,4,0:3:0:0:
136,336,310398,2,0,P|125:289|130:243,1,93.5000028533936,0|0,1:0|0:0,0:0:0:0:
376,288,310692,2,0,P|386:334|381:380,1,93.5000028533936,4|0,0:3|0:0,0:0:0:0:
256,252,310986,2,0,P|245:205|250:159,1,93.5000028533936,0|0,1:0|0:0,0:0:0:0:
320,64,311280,37,0,1:0:0:0:
352,188,311427,1,4,0:3:0:0:
352,188,311501,1,4,0:3:0:0:
352,188,311574,2,0,P|396:203|443:203,1,93.5000028533936,0|0,1:0|0:0,0:0:0:0:
208,88,311868,1,4,0:3:0:0:
165,72,311941,1,4,0:3:0:0:
120,80,312015,1,4,0:3:0:0:
84,109,312088,1,4,0:3:0:0:
68,153,312162,1,0,1:0:0:0:
400,320,312309,6,0,P|332:320|252:224,1,187.000005706787,4|4,0:2|0:3,0:0:0:0:
340,200,312677,1,4,0:3:0:0:
340,200,312751,2,0,P|336:140|348:88,1,93.5000028533936,0|0,1:0|0:0,0:0:0:0:
432,228,313045,1,4,0:3:0:0:
160,168,313192,1,0,0:0:0:0:
160,168,313265,1,0,0:0:0:0:
160,168,313339,1,0,1:0:0:0:
112,304,313486,22,0,P|182:286|217:244,1,93.5000028533936,2|2,0:0|0:3,0:0:0:0:
204,72,313780,1,4,0:3:0:0:
204,72,313853,1,4,0:3:0:0:
204,72,313927,2,0,P|126:37|28:80,1,187.000005706787,0|4,1:0|0:3,0:0:0:0:
24,168,314295,1,4,0:3:0:0:
68,154,314368,1,4,0:3:0:0:
113,164,314442,1,4,0:3:0:0:
147,194,314515,1,0,1:0:0:0:
356,312,314662,38,0,P|402:310|452:288,1,93.5000028533936,4|2,0:3|0:3,0:0:0:0:
476,104,314956,1,4,0:3:0:0:
476,104,315030,1,4,0:3:0:0:
476,104,315103,2,0,P|404:52|292:88,1,187.000005706787,0|4,1:0|0:3,0:0:0:0:
112,176,315545,1,0,0:0:0:0:
112,176,315618,1,0,0:0:0:0:
112,176,315692,2,0,P|180:192|208:188,1,93.5000028533936,0|0,1:0|0:0,0:0:0:0:
208,68,315986,5,4,0:3:0:0:
328,240,316133,2,0,L|336:172,2,46.7500014266968,4|4|0,0:3|0:3|1:0,0:0:0:0:
36,344,316427,1,0,0:0:0:0:
76,358,316501,1,0,0:0:0:0:
117,351,316574,1,0,1:0:0:0:
149,324,316648,1,4,0:3:0:0:
182,296,316721,1,4,0:3:0:0:
223,290,316795,1,4,0:3:0:0:
263,304,316868,1,0,1:0:0:0:
484,292,317015,6,0,P|416:292|360:248,1,127.500004863739,4|4,0:2|0:3,0:0:0:0:
160,100,317383,53,4,0:3:0:0:
160,100,317456,2,0,P|225:104|285:200,1,187.000005706787,0|0,1:0|1:0,0:0:0:0:
208,288,317898,1,4,0:3:0:0:
384,163,318045,2,0,P|388:116|375:71,1,93.5000028533936,4|0,0:3|0:0,0:0:0:0:
272,4,318339,1,0,1:0:0:0:
321,252,318486,5,4,0:3:0:0:
321,252,318559,1,4,0:3:0:0:
321,252,318633,2,0,P|400:289|489:257,1,187.000005706787,0|4,1:0|0:3,0:0:0:0:
361,152,319001,1,4,0:3:0:0:
324,140,319074,1,4,0:3:0:0:
285,145,319148,1,4,0:3:0:0:
253,167,319221,1,0,1:0:0:0:
229,356,319368,22,0,P|219:280|109:204,1,187.000005706787,4|4,0:3|0:3,0:0:0:0:
69,112,319736,1,4,0:3:0:0:
69,112,319809,2,0,P|141:108|181:84,1,93.5000028533936,0|0,1:0|0:0,0:0:0:0:
117,324,320103,2,0,P|73:307|39:275,1,93.5000028533936,2|0,0:3|0:0,0:0:0:0:
233,240,320398,2,0,P|337:260|413:183,1,187.000005706787,0|4,1:0|0:3,0:0:0:0:
500,140,320839,37,4,0:3:0:0:
500,140,320912,1,4,0:3:0:0:
500,140,320986,2,0,P|490:195|491:231,1,93.5000028533936,0|4,1:0|0:3,0:0:0:0:
384,96,321280,1,4,0:3:0:0:
349,65,321353,1,4,0:3:0:0:
305,51,321427,1,4,0:3:0:0:
259,57,321500,1,4,0:3:0:0:
220,81,321574,1,0,1:0:0:0:
232,192,321721,5,4,0:2:0:0:
92,48,321868,2,0,P|108:104|104:164,1,93.5000028533936,2|4,0:3|0:3,0:0:0:0:
108,138,322089,1,4,0:3:0:0:
108,138,322162,1,0,1:0:0:0:
0,112,322309,1,0,0:0:0:0:
204,296,322456,2,0,P|295:291|360:216,1,187.000005706787,4|0,0:3|1:0,0:0:0:0:
352,100,322898,21,0,0:0:0:0:
460,276,323045,2,0,P|468:204|448:148,1,93.5000028533936,4|4,0:3|0:3,0:0:0:0:
463,184,323265,1,4,0:3:0:0:
463,184,323339,1,0,1:0:0:0:
360,324,323486,1,0,0:0:0:0:
152,184,323633,37,4,0:3:0:0:
195,168,323706,1,4,0:3:0:0:
241,173,323780,1,4,0:3:0:0:
281,197,323853,1,4,0:3:0:0:
306,236,323927,1,0,1:0:0:0:
56,252,324074,6,0,P|32:188|96:56,1,187.000005706787,0|4,0:0|0:3,0:0:0:0:
152,184,324442,1,4,0:3:0:0:
152,184,324515,2,0,P|224:204|268:192,1,93.5000028533936,0|0,1:0|0:0,0:0:0:0:
388,72,324809,2,0,P|334:124|323:168,1,93.5000028533936,4|0,0:3|0:3,0:0:0:0:
368,332,325103,2,0,P|349:259|316:227,1,93.5000028533936,0|0,1:0|0:0,0:0:0:0:
241,201,325398,21,4,0:3:0:0:
416,196,325545,1,4,0:3:0:0:
458,213,325618,1,4,0:3:0:0:
496,202,325692,1,0,1:0:0:0:
508,76,325839,1,0,0:0:0:0:
304,212,325986,37,0,1:0:0:0:
260,196,326059,1,0,1:0:0:0:
215,202,326133,1,4,0:3:0:0:
178,231,326206,1,4,0:3:0:0:
160,273,326280,2,0,L|172:352,1,46.7500014266968,0|2,1:0|0:3,0:0:0:0:
40,144,326427,22,0,L|256:152,1,187.000005706787,4|4,0:2|0:3,0:0:0:0:
200,48,326795,53,4,0:3:0:0:
200,48,326868,2,0,P|292:64|364:8,1,187.000005706787,0|4,1:0|0:3,0:0:0:0:
316,156,327309,1,0,0:3:0:0:
268,244,327456,2,0,P|284:300|312:340,1,93.5000028533936,0|0,1:0|0:0,0:0:0:0:
408,352,327751,1,0,0:3:0:0:
316,156,327898,5,4,0:3:0:0:
316,156,327971,1,4,0:3:0:0:
316,156,328045,2,0,P|268:123|136:156,1,187.000005706787,0|4,1:0|0:3,0:0:0:0:
40,124,328412,1,4,0:3:0:0:
63,164,328485,1,4,0:3:0:0:
75,209,328559,1,4,0:3:0:0:
75,256,328632,1,0,1:0:0:0:
208,16,328780,22,0,P|267:21|321:54,1,93.5000028533936,4|2,0:2|0:3,0:0:0:0:
268,300,329074,1,4,0:3:0:0:
268,300,329148,1,4,0:3:0:0:
268,300,329221,2,0,P|226:239|257:98,1,187.000005706787,0|4,1:0|0:3,0:0:0:0:
152,336,329662,1,4,0:3:0:0:
376,356,329809,2,0,P|387:311|380:252,1,93.5000028533936,0|0,1:0|0:0,0:0:0:0:
280,52,330103,37,4,0:3:0:0:
292,164,330251,1,4,0:3:0:0:
292,164,330324,1,4,0:3:0:0:
292,164,330398,2,0,P|360:184|480:112,1,187.000005706787,0|4,1:0|0:3,0:0:0:0:
192,116,330765,1,4,0:3:0:0:
147,104,330838,1,4,0:3:0:0:
102,115,330912,1,4,0:3:0:0:
69,147,330985,1,0,1:0:0:0:
292,376,331133,6,0,P|287:308|193:229,1,187.000005706787,4|4,0:2|0:3,0:0:0:0:
48,332,331501,1,4,0:3:0:0:
48,332,331574,2,0,P|90:312|136:307,1,93.5000028533936,0|0,1:0|0:0,0:0:0:0:
288,100,331868,2,0,P|245:119|199:124,1,93.5000028533936,0|4,0:3|0:3,0:0:0:0:
132,36,332162,1,0,1:0:0:0:
224,264,332309,22,0,L|216:208,2,46.7500014266968,0|0|0,0:0|0:0|1:0,0:0:0:0:
360,236,332603,1,4,0:3:0:0:
406,236,332677,1,4,0:3:0:0:
436,200,332750,1,0,1:0:0:0:
512,312,332898,1,0,0:0:0:0:
232,144,333045,37,0,1:0:0:0:
192,123,333118,1,4,0:3:0:0:
146,126,333192,1,4,0:3:0:0:
107,151,333265,1,4,0:3:0:0:
86,191,333339,1,0,1:0:0:0:
304,224,333486,6,0,P|384:216|476:304,1,187.000005706787,2|4,0:3|0:3,0:0:0:0:
216,304,333853,1,4,0:3:0:0:
216,304,333927,2,0,P|192:244|204:176,1,93.5000028533936,0|0,1:0|0:0,0:0:0:0:
360,32,334221,2,0,P|384:92|372:160,1,93.5000028533936,0|4,0:3|0:3,0:0:0:0:
112,68,334515,2,0,P|202:52|272:125,1,187.000005706787,0|2,1:0|0:3,0:0:0:0:
96,176,334956,21,4,0:3:0:0:
51,185,335030,1,4,0:3:0:0:
18,218,335103,1,0,1:0:0:0:
260,232,335251,37,0,0:0:0:0:
305,239,335325,1,0,0:0:0:0:
337,275,335398,1,0,1:0:0:0:
172,280,335545,6,0,P|120:290|76:358,1,93.5000028533936,8|0,0:3|0:0,0:0:0:0:
284,128,335839,22,0,P|360:112|456:184,1,191.249994163513,4|0,0:3|0:0,0:0:0:0:
392,248,336280,2,0,P|402:307|415:337,1,63.7500024318696,0|0,1:0|0:0,0:0:0:0:
192,72,336574,38,0,P|124:52|20:123,1,203.999993774414,0|0,1:0|1:0,0:0:0:0:
268,144,337309,2,0,P|332:132|384:152,1,101.999996887207,0|4,0:3|0:3,0:0:0:0:
440,80,337751,1,0,1:0:0:0:
364,240,337898,2,0,L|372:312,1,50.9999984436036
48,300,338192,38,0,P|121:242|212:259,1,191.250007295609,4|4,0:3|0:3,0:0:0:0:
268,64,338780,1,0,0:0:0:0:
280,180,338927,2,0,P|341:193|400:173,1,127.500004863739,0|2,1:0|0:0,0:0:0:0:
444,88,339368,1,0,1:0:0:0:
444,88,339442,1,0,1:0:0:0:
444,88,339515,1,0,1:0:0:0:
184,240,339662,38,0,P|164:190|172:106,1,127.500004863739,8|4,0:3|0:3,0:0:0:0:
292,268,340103,1,0,1:0:0:0:
96,40,340398,1,0,0:0:0:0:
272,152,340545,38,0,P|344:160|432:84,1,191.250007295609,4|4,0:2|0:3,0:0:0:0:
192,240,341280,2,0,P|132:220|56:252,1,127.500004863739,0|0,1:0|0:0,0:0:0:0:
36,328,341721,1,0,0:0:0:0:
184,128,341868,1,4,0:3:0:0:
272,316,342015,2,0,P|332:336|408:304,1,127.500004863739,4|4,0:3|0:3,0:0:0:0:
496,280,342456,2,0,P|490:312|488:344,1,63.7500024318696,0|0,1:0|0:0,0:0:0:0:
460,112,342751,1,0,1:0:0:0:
424,208,342898,38,0,P|360:220|256:148,1,191.250007295609,2|4,0:3|0:3,0:0:0:0:
28,300,343633,2,0,P|75:271|148:270,1,127.500004863739,0|8,1:0|0:3,0:0:0:0:
220,348,344074,37,4,0:3:0:0:
220,348,344148,1,4,0:3:0:0:
220,348,344221,1,0,1:0:0:0:
180,160,344368,1,8,0:3:0:0:
312,256,344515,2,0,L|248:249,1,63.7500024318696,0|2,0:0|0:3,0:0:0:0:
412,188,344809,1,0,1:0:0:0:
380,340,344956,1,0,1:0:0:0:
248,249,345103,1,0,1:0:0:0:
136,308,345251,38,0,P|129:242|120:156,1,127.500004863739,4|0,0:2|0:0,0:0:0:0:
360,260,345692,54,0,L|448:276,1,63.7500024318696,0|0,1:0|0:3,0:0:0:0:
412,64,345986,2,0,L|349:83,1,63.7500024318696,0|0,1:0|0:3,0:0:0:0:
152,260,346280,2,0,L|64:276,1,63.7500024318696,0|4,1:0|0:3,0:0:0:0:
100,64,346574,2,0,L|162:83,1,63.7500024318696,0|4,1:0|0:3,0:0:0:0:
256,192,346868,1,0,1:0:0:0:
256,76,347015,5,4,0:3:0:0:
256,76,347089,1,4,0:3:0:0:
256,76,347162,1,0,1:0:0:0:
256,308,347309,5,4,0:3:0:0:
235,270,347382,1,4,0:3:0:0:
234,229,347456,1,0,1:0:0:0:
255,192,347529,1,0,0:0:0:0:
277,155,347603,1,8,0:3:0:0:
276,114,347676,1,0,0:0:0:0:
256,76,347750,1,0,1:0:0:0:
8,140,347898,5,4,0:3:0:0:
8,140,347971,1,4,0:3:0:0:
8,140,348045,2,0,L|100:128,1,80.7499978437424,0|4,1:0|0:3,0:0:0:0:
172,148,348265,2,0,L|176:100,1,40.3749989218712,4|0,0:3|1:0,0:0:0:0:
112,216,348486,1,8,0:3:0:0:
340,236,348633,1,0,1:0:0:0:
340,236,348706,1,0,0:0:0:0:
340,236,348780,2,0,L|344:288,1,40.3749989218712,4|4,0:3|0:3,0:0:0:0:
256,192,348927,5,2,1:2:0:0:
264,284,349515,53,0,1:0:0:0:
264,284,349662,1,8,0:3:0:0:
136,216,349956,5,6,1:0:0:0:
136,216,350030,1,0,0:0:0:0:
136,216,350104,1,0,0:0:0:0:
136,216,350177,1,0,0:0:0:0:
136,216,350251,1,4,0:3:0:0:
400,216,350398,6,0,P|324:232|236:152,1,187.000005706787,2|4,1:1|0:3,0:0:0:0:
316,96,350839,1,2,0:1:0:0:
134,123,350986,2,0,P|127:169|135:215,1,93.5000028533936,0|0,1:0|0:0,0:0:0:0:
252,368,351280,2,0,P|249:321|234:277,1,93.5000028533936,2|4,1:0|0:3,0:0:0:0:
234,277,351501,1,4,0:3:0:0:
234,277,351574,1,0,1:0:0:0:
132,328,351721,1,0,0:0:0:0:
242,169,351868,69,4,0:3:0:0:
266,193,351941,1,4,0:3:0:0:
299,205,352015,1,4,0:3:0:0:
333,201,352088,1,4,0:3:0:0:
362,182,352162,1,0,1:0:0:0:
460,136,352309,6,0,P|454:194|456:252,1,93.5000028533936,2|2,1:0|0:3,0:0:0:0:
504,44,352603,1,4,0:3:0:0:
504,44,352677,1,4,0:3:0:0:
504,44,352751,2,0,P|454:23|404:30,1,93.5000028533936,2|0,1:1|0:0,0:0:0:0:
240,128,353045,2,0,P|289:107|339:114,1,93.5000028533936,8|2,0:3|0:1,0:0:0:0:
204,232,353339,2,0,P|140:228|68:124,1,187.000005706787,0|2,1:0|1:1,0:0:0:0:
300,308,353780,69,4,0:3:0:0:
300,308,353853,1,4,0:3:0:0:
300,308,353927,2,0,P|310:262|303:210,1,93.5000028533936,0|0,1:0|0:0,0:0:0:0:
268,96,354221,1,4,0:3:0:0:
296,116,354294,1,4,0:3:0:0:
330,121,354368,1,4,0:3:0:0:
363,111,354441,1,4,0:3:0:0:
387,86,354515,1,0,1:0:0:0:
212,192,354662,5,2,1:0:0:0:
175,205,354735,1,0,0:0:0:0:
137,200,354809,1,2,0:3:0:0:
109,173,354882,1,0,0:0:0:0:
80,147,354956,1,4,0:3:0:0:
43,140,355029,1,4,0:3:0:0:
7,154,355103,1,2,1:0:0:0:
56,336,355251,70,0,P|52:271|31:218,1,93.5000028533936,0|4,0:0|0:3,0:0:0:0:
160,372,355545,1,2,0:1:0:0:
407,307,355692,2,0,P|326:268|244:305,1,187.000005706787,0|2,1:0|1:0,0:0:0:0:
132,188,356133,1,4,0:3:0:0:
132,188,356206,1,4,0:3:0:0:
132,188,356280,2,0,P|203:206|261:187,1,93.5000028533936,0|0,1:0|0:0,0:0:0:0:
412,128,356574,5,4,0:3:0:0:
386,103,356647,1,4,0:3:0:0:
353,92,356721,1,4,0:3:0:0:
319,95,356794,1,4,0:3:0:0:
289,113,356868,1,0,1:0:0:0:
328,256,357015,2,0,L|320:180,1,46.7500014266968,2|0,1:0|0:0,0:0:0:0:
416,296,357162,1,2,0:3:0:0:
184,80,357309,69,4,0:3:0:0:
184,80,357383,1,0,0:0:0:0:
184,80,357456,2,0,L|164:192,1,93.5000028533936,2|0,1:0|0:0,0:0:0:0:
224,268,357751,1,4,0:3:0:0:
8,148,357898,1,2,0:1:0:0:
92,328,358045,2,0,L|80:216,1,93.5000028533936,0|8,1:0|0:3,0:0:0:0:
416,228,358339,5,2,1:0:0:0:
383,239,358412,1,0,0:0:0:0:
348,236,358486,1,4,0:3:0:0:
319,218,358559,1,4,0:3:0:0:
300,188,358633,1,0,1:0:0:0:
316,80,358780,1,2,0:0:0:0:
4,268,358927,69,4,0:3:0:0:
41,281,359000,1,4,0:3:0:0:
79,276,359074,1,4,0:3:0:0:
107,249,359147,1,4,0:3:0:0:
136,223,359221,1,0,1:0:0:0:
173,216,359294,1,0,0:0:0:0:
209,230,359368,2,0,L|200:184,4,46.7500014266968,2|0|0|0|4,0:1|0:0|0:0|0:0|0:3,0:0:0:0:
396,236,359809,6,0,P|332:236|288:204,1,93.5000028533936,2|0,1:0|0:0,0:0:0:0:
268,116,360103,1,4,0:3:0:0:
288,320,360251,1,2,0:1:0:0:
120,216,360398,2,0,P|184:216|228:248,1,93.5000028533936,0|0,1:0|0:0,0:0:0:0:
64,304,360692,69,2,1:1:0:0:
40,88,360839,1,4,0:3:0:0:
70,104,360912,1,4,0:3:0:0:
105,107,360986,1,0,1:0:0:0:
138,96,361059,1,0,0:0:0:0:
164,73,361133,1,0,0:0:0:0:
152,208,361280,5,4,0:3:0:0:
154,231,361353,1,4,0:3:0:0:
157,254,361427,1,4,0:3:0:0:
160,277,361500,1,4,0:3:0:0:
163,300,361574,1,0,1:0:0:0:
248,184,361721,69,2,1:0:0:0:
249,172,361794,1,0,0:0:0:0:
250,160,361868,1,2,0:3:0:0:
396,296,362015,5,4,0:3:0:0:
396,296,362089,1,4,0:3:0:0:
396,296,362162,2,0,P|328:288|288:244,1,93.5000028533936,2|8,1:0|0:3,0:0:0:0:
316,92,362456,2,0,P|356:69|402:70,1,93.5000028533936,0|2,1:0|0:1,0:0:0:0:
512,264,362751,70,0,P|482:212|363:183,1,187.000005706787,0|2,1:0|1:0,0:0:0:0:
291,298,363192,1,4,0:3:0:0:
287,275,363265,1,4,0:3:0:0:
284,252,363339,1,0,1:3:0:0:
200,180,363486,1,2,0:0:0:0:
60,324,363633,5,4,0:3:0:0:
75,293,363706,1,4,0:3:0:0:
103,272,363780,1,4,0:3:0:0:
138,266,363853,1,4,0:3:0:0:
171,276,363927,1,0,1:0:0:0:
292,348,364074,69,2,1:0:0:0:
337,354,364147,1,0,0:0:0:0:
379,336,364221,1,2,0:3:0:0:
406,298,364294,1,0,0:0:0:0:
408,252,364368,1,4,0:3:0:0:
248,160,364515,6,0,L|268:260,1,93.5000028533936,2|0,1:0|0:0,0:0:0:0:
344,136,364809,2,0,L|348:84,2,46.7500014266968,4|0|2,0:3|0:0|0:1,0:0:0:0:
424,188,365103,1,0,1:0:0:0:
244,116,365251,1,0,0:0:0:0:
140,152,365398,2,0,L|128:60,1,93.5000028533936,2|4,1:0|0:3,0:0:0:0:
128,60,365618,1,4,0:3:0:0:
128,60,365692,1,0,1:0:0:0:
224,216,365839,1,0,0:0:0:0:
32,312,365986,69,4,0:3:0:0:
62,336,366059,1,4,0:3:0:0:
99,345,366133,1,4,0:3:0:0:
135,329,366206,1,4,0:3:0:0:
171,314,366280,1,0,1:0:0:0:
208,320,366353,1,0,0:0:0:0:
237,346,366427,2,0,L|232:296,3,46.7500014266968,2|0|2|0,1:0|0:0|0:3|0:0,0:0:0:0:
279,189,366721,5,4,0:3:0:0:
279,189,366795,1,4,0:3:0:0:
279,189,366868,2,0,P|206:209|154:184,1,93.5000028533936,2|0,1:0|0:0,0:0:0:0:
16,40,367162,2,0,P|89:20|140:45,1,93.5000028533936,4|2,0:3|0:1,0:0:0:0:
60,280,367456,2,0,P|52:196|153:121,1,187.000005706787,0|2,1:0|1:0,0:0:0:0:
297,304,367898,69,4,0:3:0:0:
297,304,367971,1,4,0:3:0:0:
297,304,368045,2,0,P|379:324|424:304,1,93.5000028533936,0|0,1:0|0:0,0:0:0:0:
404,83,368339,1,4,0:3:0:0:
372,95,368413,1,4,0:3:0:0:
337,91,368486,1,4,0:3:0:0:
307,73,368560,1,4,0:3:0:0:
288,44,368633,1,0,1:0:0:0:
256,192,368780,21,4,0:3:0:0:
256,192,368853,12,4,373339,0:2:0:0:
92,264,373633,37,2,1:0:0:0:
119,280,373706,1,0,0:0:0:0:
150,282,373780,1,0,0:0:0:0:
180,272,373853,1,0,0:0:0:0:
202,249,373927,1,0,0:0:0:0:
320,256,374074,2,0,L|324:208,4,42.5,2|0|0|0|0,1:0|0:0|0:0|0:0|0:0,0:0:0:0:
128,100,374515,6,0,L|136:208,1,85,2|0,1:1|0:0,0:0:0:0:
252,56,374809,1,2,1:0:0:0:
440,184,374956,69,0,0:0:0:0:
440,184,375030,1,0,0:0:0:0:
440,184,375103,2,0,L|380:176,1,42.5,2|0,1:0|0:0,0:0:0:0:
360,256,375250,1,0,0:0:0:0:
348,92,375397,1,0,0:0:0:0:
212,208,375544,2,0,L|208:156,2,42.5,2|0|0,1:1|0:0|0:0,0:0:0:0:
304,268,375838,5,0,0:0:0:0:
304,268,375912,1,0,0:0:0:0:
304,268,375985,2,0,L|312:148,1,85,2|0,1:0|0:0,0:0:0:0:
392,316,376280,1,2,1:0:0:0:
392,316,376353,1,0,0:0:0:0:
392,316,376427,1,0,0:0:0:0:
391,79,376574,70,0,L|287:95,1,85,2|0,1:0|0:0,0:0:0:0:
252,24,376794,1,0,0:0:0:0:
252,24,376868,1,0,0:0:0:0:
128,88,377015,5,2,1:0:0:0:
159,85,377088,1,0,0:0:0:0:
189,95,377162,1,0,0:0:0:0:
213,115,377235,1,0,0:0:0:0:
228,143,377309,1,0,0:0:0:0:
152,272,377456,2,0,L|144:172,1,85,2|0,1:0|0:0,0:0:0:0:
40,144,377750,69,2,1:0:0:0:
42,165,377823,1,0,0:0:0:0:
44,186,377897,1,0,0:0:0:0:
328,148,378044,2,0,L|336:84,4,42.5,2|0|0|0|0,1:0|0:0|0:0|0:0|0:0,0:0:0:0:
328,248,378485,2,0,L|432:232,1,85,2|0,1:0|0:0,0:0:0:0:
440,148,378780,1,0,0:0:0:0:
480,344,378927,2,0,L|356:328,1,85,2|0,1:0|0:0,0:0:0:0:
512,248,379221,1,2,1:0:0:0:
308,380,379368,21,0,0:0:0:0:
308,380,379441,1,0,0:0:0:0:
308,380,379515,2,0,L|300:276,1,85,2|0,1:0|0:0,0:0:0:0:
68,228,379809,69,0,0:0:0:0:
192,256,379956,2,0,L|208:132,1,85,2|4,1:0|0:3,0:0:0:0:
444,148,380250,5,4,0:3:0:0:
320,176,380397,2,0,L|304:52,1,85,2|4,1:0|0:3,0:0:0:0:
212,72,380691,70,0,L|228:-24,1,85,2|0,1:0|0:0,0:0:0:0:
104,40,380985,5,2,1:0:0:0:
56,168,381133,2,0,L|168:148,1,85,8|4,0:3|0:3,0:0:0:0:
412,96,381427,69,2,1:0:0:0:
424,232,381574,2,0,L|328:208,1,85
88,320,381868,6,0,L|196:296,1,85,2|0,1:0|0:0,0:0:0:0:
392,384,382162,70,0,L|284:360,1,85,2|0,1:0|0:0,0:0:0:0:
152,192,382456,22,0,L|148:140,5,42.5,2|0|0|0|0|0,1:0|0:0|0:0|0:0|0:0|0:0,0:0:0:0:
344,152,382897,2,0,L|348:100,5,42.5,2|0|4|4|4|0,1:0|0:0|0:3|0:3|0:3|0:0,0:0:0:0:
248,88,383338,2,0,L|244:36,3,42.5,2|0|4|4,1:0|0:0|0:3|0:3,0:0:0:0:
256,192,383633,37,2,1:0:0:0:
256,192,383706,1,0,0:0:0:0:
256,192,383780,1,4,0:3:0:0:
76,332,383927,37,2,1:0:0:0:
99,296,384000,1,0,0:0:0:0:
136,278,384074,1,8,0:3:0:0:
178,282,384147,1,4,0:3:0:0:
212,306,384221,1,4,0:3:0:0:
472,256,384368,37,2,1:0:0:0:
449,292,384441,1,4,0:3:0:0:
412,310,384515,1,4,0:3:0:0:
370,306,384588,1,4,0:3:0:0:
336,282,384662,1,4,0:3:0:0:
248,100,384809,6,0,P|240:20|260:-36,1,101.999996887207,2|0,1:0|0:0,0:0:0:0:
256,192,385103,5,2,1:0:0:0:
