osu file format v14

[General]
AudioFilename: audio.mp3
AudioLeadIn: 0
PreviewTime: 158555
Countdown: 0
SampleSet: Soft
StackLeniency: 0.7
Mode: 2
LetterboxInBreaks: 0
WidescreenStoryboard: 0

[Editor]
Bookmarks: 321420,378404
DistanceSpacing: 1.3
BeatDivisor: 4
GridSize: 4
TimelineZoom: 3.399999

[Metadata]
Title:Lies in Reality
TitleUnicode:Lies in Reality
Artist:FELT
ArtistUnicode:FELT
Creator:Benita
Version:y'all liars and fake
Source:東方神霊廟 ~ Ten Desires.
Tags:東方project touhou doujin Renko Vivienne Maurits 禅 Cornelis Abyss Nova c84 大神神話伝 Legend of the Great Gods Mononobe no Futo ZUN Benny- BennyBananas Aunn Yukiya Bashe Mustacho English rock W.nova Comiket Video Game
BeatmapID:2703093
BeatmapSetID:1303498

[Difficulty]
HPDrainRate:6
CircleSize:4.6
OverallDifficulty:9.6
ApproachRate:9.6
SliderMultiplier:2
SliderTickRate:2

[Events]
//Background and Video events
0,0,"Lies in reality.jpg",0,0
//Break Periods
//Storyboard Layer 0 (Background)
//Storyboard Layer 1 (Fail)
//Storyboard Layer 2 (Pass)
//Storyboard Layer 3 (Foreground)
//Storyboard Layer 4 (Overlay)
//Storyboard Sound Samples

[TimingPoints]
27,294.117647058824,4,2,1,70,1,0
27,-125,4,2,1,70,0,0
763,294.117647058824,4,2,1,60,1,0
1351,-125,4,2,1,60,0,0
19439,-100,4,2,2,60,0,1
38263,-100,4,2,1,70,0,0
43116,294.117647058824,5,2,2,70,1,0
54880,-100,5,2,1,70,0,0
76939,294.117647058824,6,2,1,40,1,0
80174,-100,6,2,1,5,0,0
80468,-100,6,2,1,40,0,0
87821,-100,6,2,1,5,0,0
88115,-100,6,2,1,40,0,0
88997,294.117647058824,7,2,1,40,1,0
156938,294.117647058824,4,2,1,70,1,0
157967,-76.9230769230769,4,2,1,70,0,0
158702,-100,4,2,1,70,0,0
159143,-100,4,2,2,70,0,1
177967,-100,4,2,1,70,0,1
181643,-100,4,2,1,70,0,0
182820,294.117647058824,5,2,1,50,1,0
206349,294.117647058824,7,2,1,55,1,0
239290,294.117647058824,4,2,1,50,1,0
239290,-125,4,2,1,50,0,0
253407,-111.111111111111,4,2,1,50,0,0
258113,-100,4,2,2,50,0,1
275760,-90.9090909090909,4,2,2,50,0,1
280466,-76.9230769230769,4,2,1,50,0,1
281054,-100,4,2,1,50,0,1
281495,-100,4,2,1,50,0,0
281642,294.117647058824,7,2,1,60,1,0
287818,294.117647058824,4,2,1,60,1,0
288994,294.117647058824,3,2,1,60,1,0
291641,294.117647058824,7,2,1,50,1,0
301935,294.117647058824,4,2,1,70,1,0
302964,-83.3333333333333,4,2,1,70,0,0
305464,-100,4,2,1,70,0,0
306493,-100,4,2,2,70,0,1
324287,-83.3333333333333,4,2,2,70,0,1
324740,294.117647058824,4,2,2,70,1,1
325328,294.117647058824,4,2,2,70,1,1
325475,294.117647058824,4,2,2,70,1,1
334739,-100,4,2,1,70,0,0
348857,-100,4,2,2,70,0,1
367680,-100,4,2,1,70,0,0
367828,294.117647058824,6,2,1,50,1,0
369592,294.117647058824,5,2,1,50,1,0
372533,-100,5,2,2,50,0,0
383709,-66.6666666666667,5,2,1,50,0,0
384297,-100,5,2,1,55,0,0
384592,-100,5,2,1,40,0,0
384886,-100,5,2,1,45,0,0
385180,-100,5,2,1,30,0,0
385474,-100,5,2,1,20,0,0
385768,-100,5,2,1,5,0,0

[Colours]
Combo1 : 242,175,250
Combo2 : 124,47,187
Combo3 : 233,88,189

[HitObjects]
136,348,27,6,0,L|136:288,1,40,0|0,3:0|3:0,0:0:0:0:
352,288,174,2,0,L|359:179,1,80,8|0,0:0|3:0,0:0:0:0:
127,180,468,1,8,0:0:0:0:
341,323,615,6,0,P|428:291|321:144,1,320,4|0,0:0|0:0,0:0:0:0:
214,138,1351,1,2,3:0:0:0:
394,297,1645,2,0,P|456:259|362:147,1,240,0|0,0:0|0:0,0:0:0:0:
124,84,2527,2,0,P|67:147|104:206,1,160,2|0,0:3|3:0,0:0:0:0:
302,272,2968,6,0,P|363:219|303:171,1,160,2|0,3:0|3:2,0:0:0:0:
188,158,3410,2,0,P|139:131|207:59,1,160,2|8,3:2|0:0,0:0:0:0:
323,23,3851,6,0,L|56:43,2,240,2|2|2,0:0|0:0|0:0,0:0:0:0:
469,59,4880,2,0,P|500:108|434:205,1,160,2|0,0:3|3:0,0:0:0:0:
178,226,5321,6,2,P|126:182|175:100,1,160,0|0,0:0|3:0,0:0:0:0:
249,97,5763,1,2,3:2:0:0:
60,76,6057,2,0,L|186:60,2,120,2|2|2,0:3|0:0|0:0,0:0:0:0:
205,180,6645,6,0,L|76:164,2,120,2|2|2,0:0|0:0|0:0,0:0:0:0:
339,199,7233,2,0,P|387:122|334:59,1,160,2|0,0:3|3:2,0:0:0:0:
66,66,7674,6,0,P|44:129|111:222,1,160,2|0,3:2|3:0,0:0:0:0:
189,230,8115,1,0,3:0:0:0:
384,333,8410,1,0,0:3:0:0:
441,318,8494,1,2,0:0:0:0:
461,301,8557,1,0,0:0:0:0:
478,285,8630,1,2,0:0:0:0:
492,256,8704,1,0,0:0:0:0:
495,222,8759,1,0,0:0:0:0:
486,185,8814,1,0,0:0:0:0:
460,147,8869,1,0,0:0:0:0:
425,127,8949,1,2,0:0:0:0:
351,119,9053,1,2,0:0:0:0:
309,117,9108,1,2,0:0:0:0:
237,118,9194,5,2,0:0:0:0:
206,130,9243,1,2,0:0:0:0:
181,152,9292,1,2,0:0:0:0:
165,181,9351,1,2,0:0:0:0:
167,247,9439,1,2,0:0:0:0:
185,275,9494,1,2,0:0:0:0:
210,296,9549,1,2,0:0:0:0:
269,311,9641,1,2,0:0:0:0:
338,313,9733,2,0,L|408:314,2,40,0|0|0,3:2|3:2|3:2,0:0:0:0:
106,311,10027,6,0,P|67:263|121:176,1,160,4|2,3:2|0:0,0:0:0:0:
227,166,10468,1,2,3:2:0:0:
71,122,10763,2,0,P|30:160|76:233,1,120,2|0,0:0|0:0,0:0:0:0:
241,243,11057,2,0,L|354:241,1,80,0|0,3:2|0:0,0:0:0:0:
179,208,11351,5,2,0:0:0:0:
376,182,11645,1,4,3:2:0:0:
461,184,11792,2,0,P|465:117|367:62,1,160,2|2,0:0|0:0,0:0:0:0:
126,74,12233,1,2,3:2:0:0:
382,290,12380,6,0,L|475:286,2,80,0|2|2,3:2|0:0|0:0,0:0:0:0:
243,244,12821,2,0,P|193:201|252:118,1,160,2|0,3:2|0:0,0:0:0:0:
336,91,13263,1,2,0:0:0:0:
202,92,13410,6,0,L|28:93,2,160,2|2|0,3:2|0:0|3:2,0:0:0:0:
346,78,14145,1,2,0:0:0:0:
290,74,14218,1,2,0:0:0:0:
234,75,14292,2,0,P|183:107|218:195,1,160,2|0,0:0|3:2,0:0:0:0:
484,191,14733,6,0,L|375:184,2,80,2|2|2,3:2|0:0|3:2,0:0:0:0:
242,282,15174,2,0,P|164:240|247:124,1,240,2|0,3:2|0:0,0:0:0:0:
381,70,15763,5,0,3:2:0:0:
418,78,15836,2,0,P|455:125|408:161,1,120,2|0,0:0|0:0,0:0:0:0:
206,183,16351,2,0,L|29:170,2,160,2|2|2,3:2|0:0|3:2,0:0:0:0:
341,318,17086,6,0,L|357:210,1,80,2|0,3:2|0:0,0:0:0:0:
279,166,17380,1,2,0:0:0:0:
427,162,17527,2,0,P|474:211|413:298,1,160,2|0,3:2|0:0,0:0:0:0:
257,299,17919,2,0,L|251:207,1,80,2|0,0:0|0:0,0:0:0:0:
289,218,18115,1,2,3:2:0:0:
355,216,18189,1,0,3:2:0:0:
205,260,18263,6,0,L|158:257,1,40,2|2,3:2|3:2,0:0:0:0:
449,253,18410,2,0,L|466:138,1,80,12|0,0:0|3:2,0:0:0:0:
203,149,18704,2,0,L|100:143,1,80,12|0,0:0|0:0,0:0:0:0:
260,79,18998,1,12,0:0:0:0:
160,73,19145,1,0,0:0:0:0:
60,70,19292,1,0,3:2:0:0:
437,142,19439,6,0,P|481:178|417:287,1,200,4|0,3:2|0:0,0:0:0:0:
379,287,19806,1,0,0:0:0:0:
226,288,19880,2,0,L|111:287,1,100,10|0,0:0|0:0,0:0:0:0:
286,189,20174,1,0,0:0:0:0:
161,180,20321,1,2,0:0:0:0:
419,179,20468,2,0,L|432:54,1,100,8|0,0:0|0:0,0:0:0:0:
152,68,20762,6,0,L|147:203,1,100,2|0,0:0|0:0,0:0:0:0:
197,180,20983,1,0,0:0:0:0:
363,186,21056,2,0,L|366:311,1,100,8|0,0:0|0:0,0:0:0:0:
235,299,21350,2,0,L|176:299,1,50,0|0,0:0|0:0,0:0:0:0:
186,251,21497,2,0,L|242:251,1,50,0|0,0:0|0:0,0:0:0:0:
412,239,21644,1,8,0:0:0:0:
161,236,21791,6,0,P|106:196|173:95,1,200,4|0,0:0|0:0,0:0:0:0:
206,93,22159,1,0,0:0:0:0:
361,95,22233,2,0,L|476:88,1,100,10|0,0:0|0:0,0:0:0:0:
341,206,22527,1,0,0:0:0:0:
482,201,22674,1,2,0:0:0:0:
222,287,22821,2,0,L|106:281,1,100,8|0,0:0|0:0,0:0:0:0:
348,255,23115,6,0,L|455:253,1,100,2|0,0:0|0:0,0:0:0:0:
409,204,23336,1,0,0:0:0:0:
191,202,23409,2,0,L|77:200,1,100,8|0,0:0|0:0,0:0:0:0:
216,168,23703,2,0,L|291:164,1,50,0|0,0:0|0:0,0:0:0:0:
261,122,23850,2,0,L|206:121,1,50,0|0,0:0|0:0,0:0:0:0:
51,117,23997,1,8,0:0:0:0:
290,280,24144,6,0,L|488:224,1,200,4|0,0:0|0:0,0:0:0:0:
445,220,24512,1,0,0:0:0:0:
287,213,24586,2,0,L|280:85,1,100,10|0,0:0|0:0,0:0:0:0:
410,99,24880,1,0,0:0:0:0:
268,72,25027,1,2,0:0:0:0:
26,235,25174,2,0,L|150:246,1,100,8|0,0:0|0:0,0:0:0:0:
379,207,25468,6,0,L|238:192,1,100,2|0,0:0|0:0,0:0:0:0:
233,191,25688,1,0,0:0:0:0:
392,160,25762,1,10,0:0:0:0:
274,124,25909,1,2,0:0:0:0:
395,91,26056,2,0,L|395:158,1,50,2|0,0:0|0:0,0:0:0:0:
314,157,26203,2,0,L|311:206,1,50,2|0,0:0|0:0,0:0:0:0:
478,220,26350,1,10,0:0:0:0:
196,327,26497,6,0,P|153:291|215:164,1,200,4|0,0:0|0:0,0:0:0:0:
245,167,26865,1,0,0:0:0:0:
451,203,26938,2,0,L|449:96,1,100,10|0,0:0|0:0,0:0:0:0:
351,84,27233,1,0,0:0:0:0:
140,220,27380,2,0,L|253:232,2,100,2|8|0,0:0|0:0|0:0,0:0:0:0:
401,242,27821,6,0,L|415:134,1,100,2|0,0:0|0:0,0:0:0:0:
371,133,28041,1,0,0:0:0:0:
200,126,28115,2,0,L|81:124,1,100,10|0,0:0|0:0,0:0:0:0:
236,218,28409,2,0,L|292:217,1,50,2|0,0:0|0:0,0:0:0:0:
289,172,28556,2,0,L|236:168,1,50,2|0,0:0|0:0,0:0:0:0:
67,166,28703,1,10,0:0:0:0:
298,121,28850,6,0,P|342:157|278:266,1,200,4|0,0:0|0:0,0:0:0:0:
240,272,29218,1,0,0:0:0:0:
451,332,29291,2,0,L|460:222,1,100,10|0,0:0|0:0,0:0:0:0:
226,189,29586,1,0,0:0:0:0:
351,180,29733,1,2,0:0:0:0:
93,179,29880,2,0,L|80:54,1,100,8|0,0:0|0:0,0:0:0:0:
360,68,30174,6,0,L|365:203,1,100,2|0,0:0|0:0,0:0:0:0:
315,180,30395,1,0,0:0:0:0:
149,186,30468,1,8,0:0:0:0:
269,216,30615,1,0,0:0:0:0:
161,327,30762,2,0,L|154:263,1,50,2|0,0:0|0:0,0:0:0:0:
237,274,30909,2,0,L|240:215,1,50,2|0,0:0|0:0,0:0:0:0:
89,221,31056,1,8,0:0:0:0:
351,236,31203,6,0,P|406:196|339:95,1,200,4|0,0:0|0:0,0:0:0:0:
306,93,31571,1,0,0:0:0:0:
150,95,31645,2,0,L|35:88,1,100,10|0,0:0|0:0,0:0:0:0:
171,206,31939,1,0,0:0:0:0:
30,201,32086,1,2,0:0:0:0:
290,287,32233,2,0,L|406:281,1,100,8|0,0:0|0:0,0:0:0:0:
164,255,32527,6,0,L|57:253,1,100,2|0,0:0|0:0,0:0:0:0:
103,204,32748,1,0,0:0:0:0:
321,202,32821,2,0,L|435:200,1,100,8|0,0:0|0:0,0:0:0:0:
296,168,33115,2,0,L|221:164,1,50,2|0,0:0|0:0,0:0:0:0:
251,122,33262,2,0,L|306:121,1,50,2|0,0:0|0:0,0:0:0:0:
461,117,33409,1,10,0:0:0:0:
222,280,33556,6,0,L|24:224,1,200,4|0,0:0|0:0,0:0:0:0:
67,220,33924,1,0,0:0:0:0:
225,213,33998,2,0,L|232:85,1,100,10|0,0:0|0:0,0:0:0:0:
102,99,34292,1,0,0:0:0:0:
244,72,34439,1,2,0:0:0:0:
486,235,34586,2,0,L|362:246,1,100,10|0,0:0|0:0,0:0:0:0:
133,207,34880,6,0,L|274:192,1,100,2|0,0:0|0:0,0:0:0:0:
206,166,35100,1,0,0:0:0:0:
47,135,35174,1,8,0:0:0:0:
165,99,35321,1,0,0:0:0:0:
44,66,35468,2,0,L|44:133,1,50,2|0,0:0|0:0,0:0:0:0:
78,145,35615,2,0,L|147:148,1,50,2|0,0:0|0:0,0:0:0:0:
280,155,35762,1,8,0:0:0:0:
41,251,35909,6,0,L|268:227,1,200,4|0,0:0|0:0,0:0:0:0:
279,225,36277,1,0,0:0:0:0:
61,203,36350,2,0,L|63:96,1,100,10|0,0:0|0:0,0:0:0:0:
161,84,36645,1,0,0:0:0:0:
372,220,36792,2,0,L|259:232,2,100,2|8|0,0:0|0:0|0:0,0:0:0:0:
111,242,37233,6,0,L|97:134,1,100,2|0,0:0|0:0,0:0:0:0:
141,133,37453,1,0,0:0:0:0:
312,126,37527,2,0,L|431:124,1,100,10|0,0:0|0:0,0:0:0:0:
305,218,37821,2,0,L|249:217,1,50,2|0,0:0|0:0,0:0:0:0:
254,163,37968,2,0,L|307:159,1,50,2|0,0:0|0:0,0:0:0:0:
474,156,38115,1,8,0:0:0:0:
231,216,38262,6,0,L|118:215,1,100,2|0,0:0|0:0,0:0:0:0:
262,222,38556,2,0,L|262:103,1,100,2|0,0:0|3:0,0:0:0:0:
145,140,38850,2,0,L|127:30,1,100,2|0,0:0|3:0,0:0:0:0:
275,46,39144,2,0,L|164:35,1,100,2|0,0:0|3:0,0:0:0:0:
37,101,39438,6,0,L|29:216,1,100,2|0,0:0|3:0,0:0:0:0:
151,241,39733,1,2,0:0:0:0:
41,266,39880,1,0,3:0:0:0:
186,304,40027,2,0,L|308:303,1,100,2|0,0:0|3:0,0:0:0:0:
171,246,40321,2,0,L|54:242,1,100,2|0,0:0|3:0,0:0:0:0:
353,247,40615,6,0,L|371:140,1,100,2|0,0:0|3:0,0:0:0:0:
232,146,40909,2,0,L|227:41,1,100,2|0,0:0|3:0,0:0:0:0:
364,43,41203,2,0,L|246:24,1,100,2|0,0:0|3:0,0:0:0:0:
409,51,41497,2,0,L|423:191,1,100,2|0,0:0|3:0,0:0:0:0:
294,166,41791,6,0,L|293:278,1,100,2|0,0:0|3:0,0:0:0:0:
406,298,42086,1,2,0:0:0:0:
304,313,42233,1,0,3:0:0:0:
150,284,42380,2,0,L|260:295,1,100,2|0,0:0|3:0,0:0:0:0:
388,253,42674,1,2,0:0:0:0:
135,256,42821,2,0,L|24:249,1,100,12|0,0:0|0:0,0:0:0:0:
348,327,43116,6,0,L|349:262,1,50,4|0,0:0|0:0,0:0:0:0:
286,273,43263,2,0,L|286:219,1,50,0|0,0:0|0:0,0:0:0:0:
353,214,43410,2,0,L|353:156,1,50,0|0,0:0|0:0,0:0:0:0:
167,180,43557,2,0,L|166:117,1,50,10|0,0:0|0:0,0:0:0:0:
228,128,43704,2,0,L|277:127,1,50,0|0,0:0|0:0,0:0:0:0:
279,86,43851,2,0,L|230:87,1,50,0|0,0:0|0:0,0:0:0:0:
59,88,43998,2,0,L|113:88,1,50,2|0,0:0|0:0,0:0:0:0:
171,88,44145,2,0,L|108:89,1,50,0|0,0:0|0:0,0:0:0:0:
286,89,44292,2,0,L|337:89,1,50,10|0,0:0|0:0,0:0:0:0:
148,183,44439,2,0,L|96:180,1,50,0|0,0:0|0:0,0:0:0:0:
304,189,44586,6,0,L|305:256,1,50,2|0,0:0|0:0,0:0:0:0:
248,272,44733,2,0,L|184:276,1,50,0|0,0:0|0:0,0:0:0:0:
131,265,44880,2,0,L|126:196,1,50,0|0,0:0|0:0,0:0:0:0:
305,208,45027,2,0,L|367:203,1,50,10|0,0:0|0:0,0:0:0:0:
305,208,45174,2,0,L|247:215,1,50,0|0,0:0|0:0,0:0:0:0:
233,157,45321,2,0,L|292:150,1,50,0|0,0:0|0:0,0:0:0:0:
461,152,45468,2,0,L|460:217,1,50,2|0,0:0|0:0,0:0:0:0:
412,232,45616,2,0,L|343:232,1,50,0|0,0:0|0:0,0:0:0:0:
179,205,45763,2,0,L|231:202,1,50,10|0,0:0|0:0,0:0:0:0:
393,154,45910,2,0,L|315:158,1,50,0|0,0:0|0:0,0:0:0:0:
109,156,46057,6,0,L|106:207,1,50,2|0,0:0|0:0,0:0:0:0:
170,235,46204,2,0,L|229:240,1,50,0|0,0:0|0:0,0:0:0:0:
150,296,46351,2,0,L|84:287,1,50,0|0,0:0|0:0,0:0:0:0:
295,308,46498,2,0,L|365:294,1,50,10|0,0:0|0:0,0:0:0:0:
344,240,46645,2,0,L|276:239,1,50,0|0,0:0|0:0,0:0:0:0:
232,231,46792,2,0,L|238:168,1,50,0|0,0:0|0:0,0:0:0:0:
421,187,46939,2,0,L|477:188,1,50,2|0,0:0|0:0,0:0:0:0:
472,261,47086,2,0,L|411:261,1,50,0|0,0:0|0:0,0:0:0:0:
235,258,47233,2,0,L|162:258,1,50,10|0,0:0|0:0,0:0:0:0:
375,242,47380,2,0,L|437:237,1,50,0|0,0:0|0:0,0:0:0:0:
207,207,47527,6,0,L|140:206,1,50,2|0,0:0|0:0,0:0:0:0:
91,229,47674,2,0,L|90:292,1,50,0|0,0:0|0:0,0:0:0:0:
154,310,47821,2,0,L|216:307,1,50,0|0,0:0|0:0,0:0:0:0:
394,296,47968,2,0,L|395:233,1,50,10|0,0:0|0:0,0:0:0:0:
331,239,48116,2,0,L|266:237,1,50,0|0,0:0|0:0,0:0:0:0:
220,236,48263,2,0,L|213:167,1,50,0|0,0:0|0:0,0:0:0:0:
433,96,48410,2,0,L|485:94,1,50,2|0,0:0|0:0,0:0:0:0:
482,39,48557,2,0,L|419:43,1,50,0|0,0:0|0:0,0:0:0:0:
174,207,48704,1,10,0:0:0:0:
323,191,48777,1,8,0:0:0:0:
473,171,48851,1,8,0:0:0:0:
323,191,48924,1,8,0:0:0:0:
164,207,48998,6,0,L|163:142,1,50,6|0,0:0|0:0,0:0:0:0:
237,134,49145,2,0,L|295:132,1,50,0|0,0:0|0:0,0:0:0:0:
287,70,49292,2,0,L|238:68,1,50,0|0,0:0|0:0,0:0:0:0:
38,182,49439,2,0,L|37:119,1,50,10|0,0:0|0:0,0:0:0:0:
99,130,49586,2,0,L|148:129,1,50,0|0,0:0|0:0,0:0:0:0:
150,88,49733,2,0,L|101:89,1,50,0|0,0:0|0:0,0:0:0:0:
314,183,49880,2,0,L|364:183,1,50,2|0,0:0|0:0,0:0:0:0:
366,124,50027,2,0,L|316:123,1,50,0|0,0:0|0:0,0:0:0:0:
112,111,50174,2,0,L|163:111,1,50,10|0,0:0|0:0,0:0:0:0:
340,113,50321,2,0,L|392:110,1,50,0|0,0:0|0:0,0:0:0:0:
208,189,50468,6,0,L|207:256,1,50,2|0,0:0|0:0,0:0:0:0:
264,272,50615,2,0,L|328:276,1,50,0|0,0:0|0:0,0:0:0:0:
381,265,50762,2,0,L|386:196,1,50,0|0,0:0|0:0,0:0:0:0:
207,208,50909,2,0,L|145:203,1,50,10|0,0:0|0:0,0:0:0:0:
207,208,51056,2,0,L|265:215,1,50,0|0,0:0|0:0,0:0:0:0:
279,157,51203,2,0,L|220:150,1,50,0|0,0:0|0:0,0:0:0:0:
51,152,51350,2,0,L|52:217,1,50,2|0,0:0|0:0,0:0:0:0:
100,232,51498,2,0,L|169:232,1,50,0|0,0:0|0:0,0:0:0:0:
333,205,51645,2,0,L|281:202,1,50,10|0,0:0|0:0,0:0:0:0:
119,154,51792,2,0,L|197:158,1,50,0|0,0:0|0:0,0:0:0:0:
403,156,51939,6,0,L|406:207,1,50,2|0,0:0|0:0,0:0:0:0:
342,235,52086,2,0,L|283:240,1,50,0|0,0:0|0:0,0:0:0:0:
362,296,52233,2,0,L|428:287,1,50,0|0,0:0|0:0,0:0:0:0:
217,308,52380,2,0,L|147:294,1,50,10|0,0:0|0:0,0:0:0:0:
168,240,52527,2,0,L|236:239,1,50,0|0,0:0|0:0,0:0:0:0:
280,231,52674,2,0,L|274:168,1,50,0|0,0:0|0:0,0:0:0:0:
91,187,52821,2,0,L|35:188,1,50,2|0,0:0|0:0,0:0:0:0:
40,261,52968,2,0,L|101:261,1,50,0|0,0:0|0:0,0:0:0:0:
277,258,53115,2,0,L|350:258,1,50,10|0,0:0|0:0,0:0:0:0:
137,242,53262,2,0,L|75:237,1,50,0|0,0:0|0:0,0:0:0:0:
389,255,53410,6,0,L|396:195,1,50,2|0,0:0|0:0,0:0:0:0:
328,206,53557,2,0,L|326:143,1,50,0|0,0:0|0:0,0:0:0:0:
398,155,53704,2,0,L|405:101,1,50,0|0,0:0|0:0,0:0:0:0:
225,106,53851,2,0,L|164:106,1,50,10|0,0:0|0:0,0:0:0:0:
171,170,53998,2,0,L|229:170,1,50,0|0,0:0|0:0,0:0:0:0:
222,231,54145,2,0,L|173:231,1,50,0|0,0:0|0:0,0:0:0:0:
426,298,54292,2,0,L|425:235,1,50,2|0,0:3|0:0,0:0:0:0:
286,225,54440,2,0,L|282:149,1,50,0|0,0:0|0:0,0:0:0:0:
351,163,54586,2,0,L|351:96,1,50,0|0,0:3|0:0,0:0:0:0:
138,101,54733,1,8,0:0:0:0:
297,125,54807,1,8,0:0:0:0:
463,155,54880,5,12,3:2:0:0:
331,175,55027,2,0,P|293:276|318:376,1,200,2|2,3:2|3:2,0:0:0:0:
479,360,55468,1,8,0:0:0:0:
386,350,55616,1,0,3:0:0:0:
293,343,55763,1,2,0:0:0:0:
430,251,55910,2,0,L|224:204,1,200,2|0,3:2|3:0,0:0:0:0:
290,199,56277,1,0,3:0:0:0:
444,181,56351,6,0,L|446:81,1,100,4|0,3:2|3:0,0:0:0:0:
207,172,56645,2,2,L|100:164,1,100,2|0,0:0|3:0,0:0:0:0:
249,92,56939,1,10,0:0:0:0:
128,80,57086,1,0,3:2:0:0:
60,134,57233,1,2,0:3:0:0:
43,215,57380,1,0,3:2:0:0:
172,226,57527,1,10,0:0:0:0:
50,248,57674,1,0,3:2:0:0:
337,285,57821,5,4,3:2:0:0:
216,262,57968,2,0,L|205:48,1,200,2|0,3:2|3:0,0:0:0:0:
347,60,58410,1,8,0:0:0:0:
213,51,58557,2,0,L|305:97,2,100,2|2|0,3:2|0:3|3:0,0:0:0:0:
78,107,58998,2,0,L|74:245,1,100,2|0,0:0|3:0,0:0:0:0:
128,227,59218,1,0,3:0:0:0:
290,330,59292,6,0,L|293:229,1,100,4|0,3:2|3:0,0:0:0:0:
181,183,59586,2,0,L|72:176,1,100,2|0,0:0|3:2,0:0:0:0:
226,157,59880,2,0,L|325:150,2,100,10|0|2,0:0|3:0|0:3,0:0:0:0:
119,167,60321,1,0,3:2:0:0:
368,236,60468,1,10,0:0:0:0:
124,266,60616,1,8,0:0:0:0:
379,293,60763,5,4,3:2:0:0:
240,293,60910,2,0,L|256:82,1,200,2|0,3:2|3:0,0:0:0:0:
119,83,61351,2,0,L|225:71,2,100,10|0|0,0:0|3:0|0:0,0:0:0:0:
285,183,61792,2,0,L|294:74,1,100,0|2,3:2|0:3,0:0:0:0:
31,189,62086,6,0,L|24:138,2,50,0|0|0,3:0|3:0|3:2,0:0:0:0:
153,208,62380,1,2,3:2:0:0:
36,256,62527,1,2,0:3:0:0:
152,280,62674,1,0,3:2:0:0:
409,341,62821,6,0,L|408:219,1,100,10|2,3:2|3:2,0:0:0:0:
294,203,63115,1,2,0:3:0:0:
394,167,63262,1,2,3:2:0:0:
492,131,63410,1,2,3:2:0:0:
167,204,63557,5,10,0:0:0:0:
399,261,63704,1,4,3:2:0:0:
267,272,63851,1,0,3:2:0:0:
396,237,63998,1,2,3:2:0:0:
107,293,64145,2,0,P|58:251|146:151,1,200,4|0,3:2|3:0,0:0:0:0:
336,152,64586,1,0,3:2:0:0:
216,137,64733,1,0,3:2:0:0:
439,132,64880,2,0,P|477:167|470:239,1,100,4|0,3:2|0:0,0:0:0:0:
446,251,65101,1,0,3:2:0:0:
232,265,65174,5,4,3:2:0:0:
355,246,65321,1,0,3:2:0:0:
231,222,65468,1,0,3:2:0:0:
487,184,65616,2,0,L|278:162,1,200,4|8,3:2|0:0,0:0:0:0:
65,135,66057,1,8,0:0:0:0:
303,123,66204,1,8,0:0:0:0:
65,135,66351,2,0,P|24:172|49:260,1,150,12|0,0:0|0:0,0:0:0:0:
275,278,66645,6,0,L|382:274,2,100,4|2|2,3:2|3:2|0:0,0:0:0:0:
125,279,67086,2,0,P|112:217|125:166,1,100,2|8,3:2|0:0,0:0:0:0:
223,165,67380,1,8,3:0:0:0:
463,166,67527,2,0,L|480:278,1,100,12|0,0:0|3:0,0:0:0:0:
420,279,67748,1,0,3:0:0:0:
259,285,67821,2,0,L|154:283,1,100,10|0,0:0|3:0,0:0:0:0:
449,235,68116,6,0,P|482:185|451:111,1,100,4|0,3:2|3:0,0:0:0:0:
396,92,68410,1,0,3:0:0:0:
250,94,68557,2,0,L|356:85,2,100,4|2|2,3:2|0:0|3:2,0:0:0:0:
26,168,68998,2,0,L|23:284,1,100,12|0,0:0|3:0,0:0:0:0:
81,285,69218,1,0,3:0:0:0:
323,292,69292,2,0,L|444:286,1,100,10|0,0:0|3:0,0:0:0:0:
168,275,69586,6,0,L|164:173,1,100,4|0,3:2|3:0,0:0:0:0:
291,149,69880,1,2,0:0:0:0:
143,153,70027,2,0,P|126:94|130:41,1,100,4|0,3:2|3:0,0:0:0:0:
235,37,70321,1,2,3:2:0:0:
483,216,70468,2,0,L|348:214,1,100,10|0,0:0|3:0,0:0:0:0:
336,215,70689,1,0,3:0:0:0:
164,212,70763,2,0,L|42:206,1,100,10|0,0:0|3:2,0:0:0:0:
284,198,71057,6,0,L|392:196,2,100,4|2|2,3:2|3:2|3:2,0:0:0:0:
146,195,71498,2,0,L|32:186,2,100,2|2|0,3:2|3:2|3:2,0:0:0:0:
372,209,71939,2,0,L|240:226,1,100,10|0,0:0|3:0,0:0:0:0:
221,227,72160,1,0,3:0:0:0:
434,263,72233,2,0,L|441:383,1,100,10|0,0:0|3:0,0:0:0:0:
161,364,72527,6,0,L|41:357,2,100,4|2|2,3:2|3:2|3:2,0:0:0:0:
309,372,72968,2,0,L|303:260,1,100,2|0,3:2|3:2,0:0:0:0:
199,256,73263,1,0,3:2:0:0:
442,261,73410,2,0,L|450:130,1,100,10|0,0:0|3:0,0:0:0:0:
398,147,73630,1,0,3:0:0:0:
228,147,73704,2,0,L|209:36,1,100,10|0,0:0|3:2,0:0:0:0:
481,232,73998,6,0,L|365:241,2,100,4|2|2,3:2|3:2|3:2,0:0:0:0:
339,333,74439,2,0,P|317:270|321:195,1,100,2|2,3:2|3:0,0:0:0:0:
404,196,74733,1,0,3:2:0:0:
164,197,74880,2,0,L|31:190,1,100,10|0,0:0|3:0,0:0:0:0:
105,141,75101,1,0,3:0:0:0:
283,146,75174,2,0,L|384:139,1,100,10|0,0:0|0:0,0:0:0:0:
49,289,75468,5,12,0:0:0:0:
202,263,75616,1,2,3:2:0:0:
49,289,75763,1,2,3:2:0:0:
356,238,75910,1,12,0:0:0:0:
202,263,76057,1,2,3:2:0:0:
49,289,76204,1,2,3:2:0:0:
356,238,76351,1,12,0:0:0:0:
202,263,76498,1,2,3:2:0:0:
356,238,76645,1,12,0:0:0:0:
202,263,76792,2,0,L|203:192,1,50,2|0,3:2|3:2,0:0:0:0:
421,52,76939,6,0,P|486:116|378:226,1,250,12|0,3:1|0:0,0:0:0:0:
158,232,77380,2,0,P|194:180|390:224,1,250,4|0,3:2|0:0,0:0:0:0:
87,318,77821,2,0,P|31:278|111:141,1,250,4|0,3:1|0:0,0:0:0:0:
345,140,78262,5,4,3:2:0:0:
256,192,78703,12,0,80174,0:0:0:0:
128,216,80468,5,0,0:0:0:0:
413,192,80614,1,4,3:2:0:0:
256,192,80761,12,0,87821,0:0:0:0:
106,241,88114,6,0,L|220:230,1,100,8|0,0:0|3:0,0:0:0:0:
485,212,88408,2,0,L|365:213,1,100,8|0,0:0|3:0,0:0:0:0:
336,214,88629,1,0,3:0:0:0:
169,184,88703,2,0,L|281:177,1,100,8|0,0:0|3:0,0:0:0:0:
41,106,88997,6,0,L|36:226,1,100,4|0,3:2|0:0,0:0:0:0:
174,195,89291,2,0,L|176:325,1,100,2|0,3:2|0:0,0:0:0:0:
463,318,89585,6,0,B|250:303|250:303|360:286,1,300,12|0,0:0|3:0,0:0:0:0:
446,273,90173,1,2,3:0:0:0:
302,274,90320,2,0,P|243:241|241:108,1,200,2|2,3:2|3:2,0:0:0:0:
478,101,90761,2,0,L|341:89,1,100,10|0,0:1|0:0,0:0:0:0:
106,278,91055,6,0,L|243:293,1,100,4|0,3:2|0:0,0:0:0:0:
366,224,91350,2,0,L|253:212,1,100,2|0,3:2|0:0,0:0:0:0:
27,274,91644,6,0,B|240:259|240:259|130:242,1,300,12|0,0:0|3:0,0:0:0:0:
107,238,92158,1,0,3:0:0:0:
62,231,92232,1,2,3:0:0:0:
187,224,92379,2,0,L|201:110,1,100,2|2,3:2|0:0,0:0:0:0:
90,131,92673,2,0,L|87:69,1,50,0|0,3:0|3:0,0:0:0:0:
250,78,92820,2,0,L|361:78,1,100,10|2,0:1|3:2,0:0:0:0:
102,222,93114,6,0,L|219:228,1,100,4|0,3:2|0:0,0:0:0:0:
72,227,93408,2,0,L|40:122,1,100,2|0,3:2|0:0,0:0:0:0:
318,127,93703,6,0,B|199:133|199:133|389:153,1,300,12|0,0:0|3:0,0:0:0:0:
499,165,94291,1,2,3:0:0:0:
350,170,94438,2,0,L|136:165,1,200,2|2,3:2|3:2,0:0:0:0:
379,284,94879,2,0,L|505:281,1,100,10|0,0:1|3:0,0:0:0:0:
201,264,95173,6,0,L|198:157,1,100,4|0,3:2|0:0,0:0:0:0:
342,162,95467,2,0,L|463:147,1,100,2|0,3:2|0:0,0:0:0:0:
194,127,95761,6,0,B|313:133|313:133|123:153,1,300,12|0,0:0|3:0,0:0:0:0:
84,157,96276,1,0,3:0:0:0:
33,163,96349,1,2,3:0:0:0:
177,184,96497,1,2,3:2:0:0:
36,213,96644,2,0,L|27:332,1,100,8|0,0:0|3:0,0:0:0:0:
86,336,96864,1,0,3:0:0:0:
272,312,96937,2,0,L|146:309,1,100,12|2,0:0|3:2,0:0:0:0:
426,285,97232,6,0,P|481:217|430:103,1,200,2|0,3:2|3:0,0:0:0:0:
311,129,97673,2,0,L|303:13,1,100,2|10,3:2|0:1,0:0:0:0:
122,69,98114,2,0,L|122:196,1,100,2|0,0:0|3:0,0:0:0:0:
243,205,98408,1,2,3:0:0:0:
83,213,98555,2,0,P|34:264|118:382,1,200,2|2,3:2|3:2,0:0:0:0:
212,368,98997,1,10,0:1:0:0:
441,340,99291,6,0,L|240:311,2,200,4|0|12,3:2|3:0|0:1,0:0:0:0:
228,369,100173,2,0,P|179:318|185:256,1,100,2|0,0:0|3:0,0:0:0:0:
225,266,100394,1,0,3:0:0:0:
283,248,100467,1,2,3:0:0:0:
140,248,100614,2,0,L|134:136,1,100,2|2,3:2|0:0,0:0:0:0:
271,149,100908,2,0,L|273:81,1,50,0|0,3:0|3:0,0:0:0:0:
119,96,101055,2,0,L|227:92,1,100,10|0,0:1|3:0,0:0:0:0:
464,247,101350,6,0,P|480:193|391:96,1,200,4|0,3:2|3:0,0:0:0:0:
181,123,101938,2,0,L|404:112,1,200,10|0,0:1|0:0,0:0:0:0:
310,65,102379,1,0,3:0:0:0:
46,229,102526,1,2,3:0:0:0:
165,338,102673,2,0,L|181:108,1,200,2|0,3:2|3:1,0:0:0:0:
420,143,103114,2,0,L|420:269,1,100,10|0,0:1|3:0,0:0:0:0:
192,348,103408,6,0,L|415:319,1,200,4|0,3:2|3:2,0:0:0:0:
112,309,103997,2,0,P|69:273|162:82,1,300,10|0,0:1|3:0,0:0:0:0:
201,77,104511,1,0,3:0:0:0:
262,78,104585,1,2,3:0:0:0:
159,169,104732,1,0,3:0:0:0:
287,185,104879,2,0,L|288:292,1,100,2|0,0:0|3:0,0:0:0:0:
239,303,105100,1,0,3:0:0:0:
80,316,105173,2,0,L|78:192,1,100,10|2,0:1|3:2,0:0:0:0:
345,311,105467,6,0,P|406:276|343:182,1,200,4|0,3:2|3:0,0:0:0:0:
221,129,105908,2,0,L|323:101,1,100,2|10,0:0|0:1,0:0:0:0:
486,82,106349,2,0,L|380:89,1,100,2|0,0:0|3:0,0:0:0:0:
256,139,106643,1,2,3:0:0:0:
400,153,106790,2,0,P|449:204|365:322,1,200,2|2,3:2|3:2,0:0:0:0:
271,320,107232,1,10,0:1:0:0:
56,317,107526,6,0,L|257:288,2,200,4|0|10,3:2|3:2|0:1,0:0:0:0:
242,361,108408,2,0,L|351:347,1,100,2|0,0:0|3:0,0:0:0:0:
384,341,108629,1,0,3:0:0:0:
438,336,108703,1,2,3:0:0:0:
313,291,108849,2,0,L|307:179,1,100,2|0,3:2|0:0,0:0:0:0:
426,176,109143,2,0,L|428:108,1,50,2|0,3:2|3:0,0:0:0:0:
248,125,109290,2,0,L|125:117,1,100,10|2,0:1|3:2,0:0:0:0:
406,282,109585,6,0,P|461:238|377:147,1,200,4|0,3:2|3:0,0:0:0:0:
181,123,110173,2,0,P|125:150|166:281,1,200,10|2,0:1|0:0,0:0:0:0:
231,287,110614,1,0,3:0:0:0:
450,221,110761,1,2,3:0:0:0:
331,330,110908,2,0,L|315:100,1,200,2|0,3:2|3:2,0:0:0:0:
92,143,111349,2,0,L|92:269,1,100,10|2,0:1|3:2,0:0:0:0:
320,348,111643,6,0,L|97:319,1,200,4|0,3:2|3:0,0:0:0:0:
400,309,112232,2,0,P|443:273|350:82,1,300,10|0,0:1|3:0,0:0:0:0:
311,77,112746,1,0,3:0:0:0:
250,78,112820,1,2,3:0:0:0:
353,169,112967,1,0,3:0:0:0:
112,219,113114,2,0,L|111:326,1,100,2|0,3:2|3:0,0:0:0:0:
160,337,113335,1,0,3:0:0:0:
319,350,113408,2,0,L|321:226,1,100,10|8,0:1|0:0,0:0:0:0:
58,247,113703,6,0,L|53:131,1,100,4|0,3:2|0:0,0:0:0:0:
194,144,113997,2,0,L|182:35,1,100,2|0,3:2|0:0,0:0:0:0:
478,41,114291,6,0,B|320:40|320:40|488:40,1,300,12|0,0:0|0:0,0:0:0:0:
332,277,114879,1,2,3:0:0:0:
477,275,115026,2,0,P|465:218|325:164,1,200,2|2,3:2|3:2,0:0:0:0:
111,161,115467,2,0,L|3:149,1,100,10|2,0:1|0:0,0:0:0:0:
261,127,115761,6,0,L|378:119,1,100,4|0,3:2|0:0,0:0:0:0:
211,221,116055,2,0,L|310:234,1,100,2|0,3:2|0:0,0:0:0:0:
34,41,116349,6,0,B|192:40|192:40|24:40,1,300,12|0,0:0|0:0,0:0:0:0:
176,292,116938,1,2,3:2:0:0:
38,295,117085,2,0,L|35:188,1,100,2|0,3:2|0:0,0:0:0:0:
162,192,117379,2,0,L|165:140,1,50,2|0,3:2|0:0,0:0:0:0:
23,129,117526,2,0,L|129:118,1,100,10|2,0:1|3:2,0:0:0:0:
368,116,117820,6,0,L|369:250,1,100,4|0,3:2|0:0,0:0:0:0:
240,233,118114,2,0,L|119:251,1,100,2|0,3:2|0:0,0:0:0:0:
433,295,118408,6,0,B|326:278|326:278|401:263|411:164|316:156,1,300,12|0,0:0|3:0,0:0:0:0:
191,152,118997,1,2,3:0:0:0:
342,157,119144,2,0,P|388:127|339:14,1,200,2|2,3:2|3:2,0:0:0:0:
95,101,119585,2,0,L|85:221,1,100,10|2,0:1|3:2,0:0:0:0:
357,239,119879,6,0,L|238:227,1,100,4|0,3:2|0:0,0:0:0:0:
390,201,120173,2,0,L|492:195,1,100,2|0,3:2|0:0,0:0:0:0:
158,315,120467,6,0,B|265:298|265:298|190:283|180:184|275:176,1,300,12|0,0:0|3:0,0:0:0:0:
326,174,120982,1,0,3:0:0:0:
381,172,121056,1,2,3:0:0:0:
232,171,121203,2,0,L|231:70,1,100,2|0,3:2|0:0,0:0:0:0:
359,71,121497,2,0,L|363:132,1,50,0|0,3:0|3:0,0:0:0:0:
218,204,121644,2,0,L|331:213,1,100,12|2,0:0|3:2,0:0:0:0:
37,264,121938,6,0,L|243:247,1,200,4|0,3:2|3:0,0:0:0:0:
112,225,122379,2,0,L|113:118,1,100,2|10,0:0|0:1,0:0:0:0:
296,117,122820,2,0,L|403:109,1,100,2|0,0:0|3:0,0:0:0:0:
248,81,123114,1,2,3:0:0:0:
386,68,123261,2,0,L|389:278,1,200,10|0,3:2|3:0,0:0:0:0:
240,278,123703,1,10,0:1:0:0:
489,215,123997,6,0,L|253:187,2,200,4|0|10,3:2|3:0|0:1,0:0:0:0:
271,334,124880,2,0,L|160:316,1,100,2|0,0:0|3:0,0:0:0:0:
231,304,125100,1,0,3:0:0:0:
289,293,125174,1,2,3:0:0:0:
163,275,125321,2,0,L|54:257,1,100,0|2,3:0|0:0,0:0:0:0:
210,170,125615,2,0,L|273:167,1,50,2|0,3:2|3:0,0:0:0:0:
77,167,125762,2,0,L|75:293,1,100,10|2,0:1|3:2,0:0:0:0:
332,286,126055,6,0,L|121:212,1,200,4|0,3:2|3:0,0:0:0:0:
15,161,126497,2,0,L|120:155,1,100,2|10,0:0|0:1,0:0:0:0:
323,133,126938,2,0,L|209:119,1,100,2|0,0:0|3:0,0:0:0:0:
373,81,127232,1,2,3:0:0:0:
241,125,127379,2,0,L|228:330,1,200,2|2,3:2|3:2,0:0:0:0:
369,340,127820,2,0,L|373:228,1,100,10|10,0:1|0:1,0:0:0:0:
119,241,128114,6,0,P|74:214|130:95,1,200,4|0,3:2|3:0,0:0:0:0:
308,131,128702,2,0,L|101:98,1,200,10|0,0:1|0:0,0:0:0:0:
222,73,129144,1,0,3:0:0:0:
231,48,129217,1,0,3:0:0:0:
241,23,129291,1,2,3:0:0:0:
133,17,129438,1,0,3:0:0:0:
232,92,129585,2,0,L|231:199,1,100,2|0,0:0|3:0,0:0:0:0:
186,201,129805,1,0,3:0:0:0:
39,214,129879,2,0,L|30:333,1,100,10|0,0:1|3:0,0:0:0:0:
285,317,130173,6,0,L|486:312,1,200,4|0,3:2|3:0,0:0:0:0:
366,246,130614,2,0,L|475:237,1,100,2|10,0:0|0:1,0:0:0:0:
243,236,131055,2,0,L|241:129,1,100,2|2,0:0|3:0,0:0:0:0:
353,110,131349,1,10,0:1:0:0:
221,109,131497,2,0,L|0:94,1,200,2|2,3:2|3:2,0:0:0:0:
165,36,131938,1,10,0:1:0:0:
409,250,132232,6,0,L|180:234,2,200,4|0|10,3:2|3:0|0:1,0:0:0:0:
246,347,133114,2,0,L|240:210,1,100,2|0,0:0|3:0,0:0:0:0:
303,247,133335,1,0,3:0:0:0:
366,246,133408,1,10,0:1:0:0:
262,167,133555,1,2,0:0:0:0:
379,171,133702,2,0,L|390:69,1,100,2|0,0:0|3:0,0:0:0:0:
334,59,133923,1,0,3:0:0:0:
162,95,133997,2,0,L|293:104,1,100,10|10,0:1|0:1,0:0:0:0:
49,139,134291,6,0,P|37:213|105:315,1,200,4|0,3:2|3:2,0:0:0:0:
256,312,134732,2,0,L|264:207,1,100,2|10,0:0|0:1,0:0:0:0:
76,177,135173,2,0,L|79:68,1,100,2|0,0:0|3:0,0:0:0:0:
200,65,135467,1,2,3:0:0:0:
67,41,135614,2,0,P|136:16|265:14,1,200,2|0,3:2|3:0,0:0:0:0:
404,30,136055,2,0,L|415:154,1,100,10|10,0:1|0:1,0:0:0:0:
149,262,136349,6,0,P|110:224|178:122,1,200,4|0,3:2|3:0,0:0:0:0:
320,113,136791,2,0,L|225:84,1,100,2|10,0:0|0:1,0:0:0:0:
381,97,137232,2,0,L|387:219,1,100,2|0,0:0|3:0,0:0:0:0:
329,201,137452,1,0,3:0:0:0:
171,215,137526,2,0,L|168:340,1,100,10|0,0:1|0:0,0:0:0:0:
467,305,137820,2,0,L|350:285,1,100,10|0,0:1|3:0,0:0:0:0:
315,280,138041,1,0,3:0:0:0:
188,239,138114,2,0,L|315:229,1,100,12|2,0:0|3:2,0:0:0:0:
41,106,138408,6,0,L|36:226,1,100,4|0,3:2|0:0,0:0:0:0:
174,195,138702,2,0,L|176:325,1,100,4|0,3:2|0:0,0:0:0:0:
463,318,138996,6,0,B|250:303|250:303|360:286,1,300,12|0,0:0|3:0,0:0:0:0:
446,273,139584,1,2,3:0:0:0:
302,274,139731,2,0,P|243:241|241:108,1,200,2|2,3:2|3:2,0:0:0:0:
478,101,140172,2,0,L|341:89,1,100,10|2,0:1|0:0,0:0:0:0:
106,278,140466,6,0,L|243:293,1,100,4|0,3:2|0:0,0:0:0:0:
366,224,140761,2,0,L|253:212,1,100,4|0,3:2|0:0,0:0:0:0:
27,274,141055,6,0,B|240:259|240:259|130:242,1,300,12|0,0:0|3:0,0:0:0:0:
107,238,141569,1,0,3:0:0:0:
62,231,141643,1,2,3:0:0:0:
187,224,141790,2,0,L|201:110,1,100,2|2,0:0|0:0,0:0:0:0:
90,131,142084,2,0,L|87:69,1,50,0|0,3:0|3:0,0:0:0:0:
250,78,142231,2,0,L|361:78,1,100,10|0,0:1|0:0,0:0:0:0:
102,222,142525,6,0,L|219:228,1,100,4|0,3:2|0:0,0:0:0:0:
72,227,142819,2,0,L|40:122,1,100,4|0,3:2|0:0,0:0:0:0:
318,127,143114,6,0,B|199:133|199:133|389:153,1,300,12|0,0:0|3:0,0:0:0:0:
499,165,143702,1,2,3:0:0:0:
350,170,143849,2,0,L|136:165,1,200,2|2,3:2|3:2,0:0:0:0:
379,284,144290,2,0,L|505:281,1,100,10|2,0:0|3:2,0:0:0:0:
201,264,144584,6,0,L|198:157,1,100,4|0,3:2|0:0,0:0:0:0:
342,162,144878,2,0,L|463:147,1,100,4|0,3:2|0:0,0:0:0:0:
194,127,145172,6,0,B|313:133|313:133|123:153,1,300,12|0,0:0|3:0,0:0:0:0:
84,157,145687,1,0,3:0:0:0:
33,163,145760,1,2,3:0:0:0:
177,184,145908,1,0,0:0:0:0:
36,213,146055,2,0,L|27:332,1,100,2|0,0:0|3:0,0:0:0:0:
86,336,146275,1,0,3:0:0:0:
272,312,146349,2,0,L|146:309,1,100,12|0,0:0|3:0,0:0:0:0:
421,233,146644,6,0,L|200:196,1,200,2|0,3:2|3:0,0:0:0:0:
349,177,147085,2,0,L|474:161,2,100,2|2|0,0:0|3:0|0:0,0:0:0:0:
214,177,147526,2,0,L|208:294,1,100,2|0,3:2|0:0,0:0:0:0:
430,281,147820,2,0,P|483:256|423:144,1,200,2|0,3:2|3:0,0:0:0:0:
216,160,148261,2,0,L|201:278,1,100,2|2,0:0|3:0,0:0:0:0:
300,293,148555,1,0,0:0:0:0:
48,287,148702,6,0,P|16:243|96:142,1,200,4|0,3:2|3:0,0:0:0:0:
237,150,149144,2,0,P|243:90|218:39,1,100,2|2,0:0|3:0,0:0:0:0:
133,42,149438,1,2,0:0:0:0:
286,48,149585,2,0,L|290:172,1,100,2|0,3:2|0:0,0:0:0:0:
68,160,149879,2,0,P|28:205|114:307,1,200,4|0,3:2|3:0,0:0:0:0:
241,301,150320,2,0,L|342:280,2,100,2|10|2,0:0|0:1|0:0,0:0:0:0:
476,188,150761,6,0,L|268:108,2,200,4|0|10,3:2|3:0|0:1,0:0:0:0:
244,290,151644,2,0,L|138:285,1,100,2|0,0:0|3:0,0:0:0:0:
298,252,151938,2,0,L|297:149,1,100,4|2,3:2|3:2,0:0:0:0:
152,174,152232,2,0,L|152:57,1,100,0|0,0:0|3:0,0:0:0:0:
352,143,152526,1,10,0:1:0:0:
107,127,152673,1,8,0:0:0:0:
350,122,152820,6,0,P|414:156|379:274,1,200,4|2,3:2|3:2,0:0:0:0:
295,276,153261,1,2,0:0:0:0:
158,278,153408,2,0,P|100:252|154:148,1,200,10|2,0:1|0:0,0:0:0:0:
246,145,153849,2,0,L|316:137,2,50,0|0|2,3:0|3:0|3:0,0:0:0:0:
123,189,154144,1,2,3:2:0:0:
258,221,154291,1,2,0:0:0:0:
122,219,154438,1,0,3:0:0:0:
111,261,154511,1,0,3:0:0:0:
101,294,154585,1,2,3:0:0:0:
230,318,154732,1,0,3:0:0:0:
471,323,154879,6,0,L|471:209,1,100,4|0,3:2|3:0,0:0:0:0:
370,198,155173,1,10,0:1:0:0:
201,194,155320,2,0,L|93:192,2,100,2|2|0,0:0|3:0|3:0,0:0:0:0:
359,196,155761,2,0,L|371:323,1,100,10|0,0:1|3:0,0:0:0:0:
27,326,156055,6,0,L|136:320,2,100,2|0|10,0:0|3:0|0:0,0:0:0:0:
367,320,156497,2,0,L|486:306,2,100,2|8|0,3:2|0:0|3:0,0:0:0:0:
86,329,156938,6,0,L|79:217,1,100,4|0,3:2|3:0,0:0:0:0:
129,220,157158,1,0,3:0:0:0:
189,212,157232,1,10,0:0:0:0:
61,157,157379,2,0,L|46:103,1,50,0|0,3:0|3:0,0:0:0:0:
245,108,157526,2,0,L|359:113,2,100,10|0|0,0:1|3:2|3:0,0:0:0:0:
462,164,157967,6,0,B|189:172|189:172|444:207,1,519.99997619629,4|0,3:2|3:0,0:0:0:0:
479,216,158629,1,0,3:0:0:0:
287,270,158702,2,0,L|225:271,1,50,10|0,0:1|0:0,0:0:0:0:
422,271,158849,2,0,L|491:269,1,50,2|0,3:2|3:0,0:0:0:0:
281,194,158996,1,0,3:0:0:0:
28,191,159143,6,0,L|266:181,1,200,4|0,3:2|0:0,0:0:0:0:
285,181,159511,1,0,0:0:0:0:
441,176,159585,2,0,L|455:302,1,100,10|0,0:0|0:0,0:0:0:0:
228,318,159879,1,2,0:0:0:0:
370,283,160026,1,0,0:0:0:0:
126,275,160173,2,0,L|121:159,1,100,10|0,0:0|0:0,0:0:0:0:
258,170,160467,6,0,L|123:170,1,100,2|0,0:0|0:0,0:0:0:0:
112,171,160688,1,0,0:0:0:0:
290,146,160761,2,0,L|437:147,1,100,10|0,0:0|0:0,0:0:0:0:
183,197,161055,2,0,L|171:276,1,50,2|0,0:0|0:0,0:0:0:0:
347,279,161202,2,0,L|345:352,1,50,0|0,0:0|0:0,0:0:0:0:
157,357,161349,1,10,0:0:0:0:
409,361,161496,6,0,P|441:304|345:205,1,200,4|0,0:0|0:0,0:0:0:0:
310,201,161864,1,0,0:0:0:0:
152,187,161938,2,0,L|257:173,1,100,10|0,0:0|0:0,0:0:0:0:
23,128,162232,1,2,0:0:0:0:
165,110,162379,1,0,0:0:0:0:
429,172,162526,2,0,L|436:306,1,100,10|0,0:0|0:0,0:0:0:0:
166,303,162820,5,2,0:0:0:0:
304,268,162967,2,0,L|306:212,1,50,0|0,0:0|0:0,0:0:0:0:
164,219,163114,1,10,0:0:0:0:
311,204,163261,2,0,L|315:93,1,100,2|2,0:0|0:0,0:0:0:0:
259,102,163482,1,0,0:0:0:0:
399,109,163555,2,0,L|470:108,1,50,2|0,0:0|0:0,0:0:0:0:
247,70,163702,1,10,0:0:0:0:
481,244,163849,6,0,L|245:238,1,200,4|0,0:0|0:0,0:0:0:0:
232,237,164217,1,0,0:0:0:0:
440,202,164290,2,0,L|442:79,1,100,10|0,0:0|0:0,0:0:0:0:
205,113,164585,2,0,L|329:112,2,100,2|0|10,0:0|0:0|0:0,0:0:0:0:
458,176,165026,6,0,L|469:299,1,100,2|2,0:0|0:0,0:0:0:0:
341,296,165320,2,0,L|337:235,1,50,2|0,0:0|0:0,0:0:0:0:
476,215,165467,2,0,L|358:204,1,100,10|0,0:0|0:0,0:0:0:0:
117,186,165761,2,0,L|167:182,1,50,2|0,0:0|0:0,0:0:0:0:
352,146,165908,2,0,L|285:144,1,50,2|0,0:0|0:0,0:0:0:0:
135,115,166055,1,10,0:0:0:0:
360,109,166202,6,0,P|422:152|346:252,1,200,4|0,0:0|0:0,0:0:0:0:
323,253,166570,1,0,0:0:0:0:
166,255,166643,2,0,L|51:250,1,100,10|0,0:0|0:0,0:0:0:0:
337,272,166938,1,2,0:0:0:0:
202,284,167085,1,0,0:0:0:0:
471,296,167232,2,0,L|479:184,1,100,10|0,0:0|0:0,0:0:0:0:
238,221,167526,6,0,L|124:220,1,100,2|0,0:0|0:0,0:0:0:0:
79,219,167746,1,0,0:0:0:0:
245,122,167820,1,10,0:0:0:0:
361,121,167967,2,0,L|366:247,1,100,2|2,0:0|0:0,0:0:0:0:
319,239,168188,1,0,0:0:0:0:
114,303,168261,2,0,L|164:298,1,50,2|0,0:0|0:0,0:0:0:0:
355,333,168408,1,10,0:0:0:0:
140,336,168555,6,0,P|78:305|146:204,1,200,4|0,0:0|0:0,0:0:0:0:
170,198,168923,1,0,0:0:0:0:
17,168,168996,2,0,L|17:68,1,100,10|0,0:0|0:0,0:0:0:0:
284,318,169290,1,2,0:0:0:0:
142,283,169437,1,0,0:0:0:0:
386,275,169584,2,0,L|391:159,1,100,10|0,0:0|0:0,0:0:0:0:
254,170,169878,6,0,L|256:52,1,100,2|0,0:0|0:0,0:0:0:0:
319,71,170099,1,0,0:0:0:0:
138,76,170172,2,0,L|-9:77,1,100,10|0,0:0|0:0,0:0:0:0:
187,220,170466,2,0,L|248:222,1,50,2|0,0:0|0:0,0:0:0:0:
54,268,170614,2,0,L|56:341,1,50,0|0,0:0|0:0,0:0:0:0:
229,361,170760,1,10,0:0:0:0:
15,221,170908,6,0,L|250:207,1,200,4|0,0:0|0:0,0:0:0:0:
263,204,171275,1,0,0:0:0:0:
456,202,171349,2,0,L|459:97,1,100,10|0,0:0|0:0,0:0:0:0:
229,167,171643,1,2,0:0:0:0:
355,140,171790,1,0,0:0:0:0:
143,140,171937,2,0,L|20:130,1,100,10|0,0:0|0:0,0:0:0:0:
277,325,172231,5,2,0:0:0:0:
158,282,172378,2,0,L|156:226,1,50,0|0,0:0|0:0,0:0:0:0:
297,216,172525,1,10,0:0:0:0:
172,200,172672,2,0,L|284:199,1,100,2|2,0:0|0:0,0:0:0:0:
231,175,172893,1,0,0:0:0:0:
18,143,172966,2,0,L|89:142,1,50,2|0,0:0|0:0,0:0:0:0:
265,70,173113,1,10,0:0:0:0:
31,244,173260,6,0,L|267:238,1,200,4|0,0:0|0:0,0:0:0:0:
280,237,173628,1,0,0:0:0:0:
72,202,173701,2,0,L|70:79,1,100,10|0,0:0|0:0,0:0:0:0:
307,113,173996,2,0,L|183:112,2,100,2|0|10,0:0|0:0|0:0,0:0:0:0:
54,176,174437,6,0,L|43:299,1,100,2|2,0:0|0:0,0:0:0:0:
171,296,174731,2,0,L|175:235,1,50,0|0,0:0|0:0,0:0:0:0:
36,215,174878,2,0,L|154:204,1,100,10|0,0:0|0:0,0:0:0:0:
395,186,175172,2,0,L|345:182,1,50,2|0,0:0|0:0,0:0:0:0:
160,146,175319,2,0,L|227:144,1,50,0|0,0:0|0:0,0:0:0:0:
377,115,175466,1,10,0:0:0:0:
152,109,175613,6,0,P|90:152|166:252,1,200,4|0,0:0|0:0,0:0:0:0:
189,253,175981,1,0,0:0:0:0:
346,255,176054,2,0,L|461:250,1,100,10|0,0:0|0:0,0:0:0:0:
175,272,176349,1,2,0:0:0:0:
310,284,176496,1,0,0:0:0:0:
41,296,176643,2,0,L|33:184,1,100,10|0,0:0|0:0,0:0:0:0:
274,221,176937,6,0,L|388:220,1,100,2|0,0:0|0:0,0:0:0:0:
433,219,177157,1,0,0:0:0:0:
267,122,177231,1,10,0:0:0:0:
151,121,177378,2,0,L|146:247,1,100,2|2,0:0|0:0,0:0:0:0:
193,239,177599,1,0,0:0:0:0:
398,303,177672,2,0,L|348:298,1,50,2|0,0:0|0:0,0:0:0:0:
157,333,177819,1,10,0:0:0:0:
372,336,177967,6,4,P|421:290|348:191,1,200,4|0,3:2|0:0,0:0:0:0:
206,194,178408,2,0,L|205:86,1,100,2|0,3:2|0:0,0:0:0:0:
345,142,178702,2,0,L|344:29,1,100,2|0,3:2|0:0,0:0:0:0:
483,120,178996,2,0,L|483:13,1,100,2|0,3:2|0:0,0:0:0:0:
229,101,179290,6,0,L|118:95,1,100,2|0,3:2|0:0,0:0:0:0:
252,198,179585,2,2,L|141:204,1,100,2|0,3:2|0:0,0:0:0:0:
290,306,179879,2,2,L|179:300,1,100,2|0,3:2|0:0,0:0:0:0:
316,368,180173,1,2,3:2:0:0:
171,361,180320,1,2,0:0:0:0:
411,358,180467,6,0,L|415:246,1,100,4|0,3:2|0:0,0:0:0:0:
271,226,180761,2,0,L|382:214,2,100,2|2|2,3:2|0:0|3:2,0:0:0:0:
118,197,181202,2,0,L|225:192,2,100,2|2|2,0:0|3:2|0:0,0:0:0:0:
426,229,181643,6,0,P|471:184|403:81,1,200,4|0,3:2|0:0,0:0:0:0:
215,126,182232,2,0,L|421:98,1,200,2|2,0:0|0:0,0:0:0:0:
57,95,182673,6,0,P|12:132|54:251,1,200,4|0,3:2|0:0,0:0:0:0:
183,250,183114,2,0,L|243:243,2,50,2|2|8,0:0|0:0|0:0,0:0:0:0:
46,247,183408,2,0,L|42:136,1,100,2|0,0:0|0:0,0:0:0:0:
285,159,183702,2,0,L|290:100,1,50,2|0,3:2|0:0,0:0:0:0:
226,111,183849,2,0,L|225:60,1,50,2|0,0:0|0:0,0:0:0:0:
407,68,183996,2,0,L|466:65,2,50,10|2|2,0:0|0:0|0:0,0:0:0:0:
101,103,184290,6,0,P|69:161|80:218,1,100,2|2,3:2|0:0,0:0:0:0:
169,222,184584,1,0,0:0:0:0:
421,217,184731,2,0,P|430:161|410:109,1,100,10|0,0:0|0:0,0:0:0:0:
281,122,185025,2,0,L|229:121,2,50,2|2|2,0:0|0:0|3:2,0:0:0:0:
418,120,185320,2,0,L|424:183,1,50,2|0,0:0|0:0,0:0:0:0:
245,237,185467,2,0,L|196:232,2,50,10|2|2,0:0|0:0|0:0,0:0:0:0:
485,245,185761,6,0,L|373:239,2,100,2|2|2,3:2|0:0|0:0,0:0:0:0:
200,280,186202,2,0,L|88:276,1,100,10|0,0:0|0:0,0:0:0:0:
216,225,186496,2,2,L|266:219,1,50,2|2,0:0|0:0,0:0:0:0:
191,206,186643,2,0,L|190:101,1,100,2|2,3:2|0:0,0:0:0:0:
234,104,186864,1,0,0:0:0:0:
396,113,186937,2,0,L|463:116,2,50,10|2|2,0:0|0:0|0:0,0:0:0:0:
128,113,187231,6,0,L|20:108,2,100,2|2|2,3:2|0:0|0:0,0:0:0:0:
408,169,187672,2,0,L|411:280,1,100,10|0,0:0|0:0,0:0:0:0:
282,274,187967,2,0,L|280:335,1,50,2|2,0:0|0:0,0:0:0:0:
350,343,188114,2,0,L|454:344,1,100,2|2,3:2|0:0,0:0:0:0:
419,309,188334,1,0,0:0:0:0:
260,296,188408,2,0,L|202:295,1,50,10|0,0:0|0:0,0:0:0:0:
418,257,188555,2,0,L|475:256,1,50,10|0,0:0|0:0,0:0:0:0:
221,248,188702,6,2,L|112:243,2,100,4|2|2,3:2|0:0|0:0,0:0:0:0:
474,245,189143,1,10,0:0:0:0:
348,229,189290,2,0,L|341:115,1,100,2|0,0:0|0:0,0:0:0:0:
398,125,189511,1,2,0:0:0:0:
453,120,189584,1,2,3:2:0:0:
329,72,189731,2,0,L|270:68,1,50,2|0,0:0|0:0,0:0:0:0:
77,68,189878,2,0,L|66:125,1,50,10|0,0:0|0:0,0:0:0:0:
119,149,190025,1,2,0:0:0:0:
383,173,190172,6,0,L|489:174,2,100,2|2|0,3:2|0:0|0:0,0:0:0:0:
129,159,190614,2,0,L|234:156,1,100,10|0,0:0|0:0,0:0:0:0:
367,153,190908,1,2,0:0:0:0:
317,154,190981,1,2,0:0:0:0:
266,155,191055,1,10,0:0:0:0:
384,272,191202,2,0,L|385:344,1,50,2|0,0:0|0:0,0:0:0:0:
197,328,191349,2,0,L|191:269,1,50,10|0,0:0|0:0,0:0:0:0:
246,261,191496,1,2,0:0:0:0:
487,250,191643,6,0,L|365:240,2,100,2|2|0,3:2|0:0|0:0,0:0:0:0:
215,244,192084,2,0,P|202:181|213:137,1,100,10|0,0:0|0:0,0:0:0:0:
350,147,192378,2,0,L|405:143,2,50,2|2|2,0:0|0:0|3:2,0:0:0:0:
212,162,192672,2,0,L|205:234,1,50,2|0,0:0|0:0,0:0:0:0:
400,263,192820,2,0,L|458:263,2,50,10|2|2,0:0|0:0|0:0,0:0:0:0:
138,264,193114,6,0,L|249:251,2,100,2|2|0,3:2|0:0|3:0,0:0:0:0:
429,317,193555,2,0,P|433:249|419:183,1,100,10|0,0:0|0:0,0:0:0:0:
295,214,193849,2,0,L|296:273,1,50,2|2,0:0|0:0,0:0:0:0:
463,326,193996,1,10,0:0:0:0:
246,332,194143,2,0,P|235:274|246:208,1,100,10|0,0:0|3:0,0:0:0:0:
461,208,194437,1,10,0:0:0:0:
212,181,194584,5,2,3:2:0:0:
341,199,194731,1,2,3:2:0:0:
212,181,194878,1,2,0:0:0:0:
461,180,195025,2,0,P|473:251|460:298,1,100,2|8,3:2|0:0,0:0:0:0:
378,298,195320,1,2,3:2:0:0:
122,262,195467,1,2,0:3:0:0:
252,248,195614,1,2,3:2:0:0:
382,233,195761,1,2,0:3:0:0:
252,248,195908,2,0,L|201:254,1,50,2|0,3:2|3:0,0:0:0:0:
460,170,196055,5,2,3:2:0:0:
331,188,196202,1,2,3:2:0:0:
460,170,196349,1,2,0:3:0:0:
186,324,196496,2,0,L|83:321,2,100,2|8|0,3:2|0:0|3:2,0:0:0:0:
410,278,196937,1,2,0:3:0:0:
280,278,197084,1,2,3:2:0:0:
151,280,197231,1,10,0:0:0:0:
280,278,197378,1,2,3:2:0:0:
30,163,197525,5,2,3:2:0:0:
159,181,197672,1,0,3:0:0:0:
30,163,197819,1,2,0:3:0:0:
280,210,197967,2,0,P|276:155|243:110,1,100,2|8,3:2|0:0,0:0:0:0:
138,100,198261,1,2,3:2:0:0:
340,205,198408,1,2,0:3:0:0:
470,204,198555,1,2,3:2:0:0:
340,205,198702,1,2,0:3:0:0:
470,204,198849,2,0,L|468:148,1,50,2|0,3:2|3:0,0:0:0:0:
216,151,198996,5,2,3:2:0:0:
346,142,199143,1,2,3:2:0:0:
216,151,199290,1,2,0:3:0:0:
476,174,199437,2,0,P|487:238|483:286,1,100,2|8,3:2|0:0,0:0:0:0:
396,298,199731,1,2,3:2:0:0:
192,297,199878,1,2,0:3:0:0:
322,276,200025,1,2,3:2:0:0:
78,243,200172,1,10,0:0:0:0:
322,276,200320,1,10,0:0:0:0:
22,217,200467,5,2,3:2:0:0:
152,188,200614,1,2,3:2:0:0:
22,217,200761,1,2,0:3:0:0:
312,233,200908,2,0,L|209:232,1,100,2|8,3:2|0:0,0:0:0:0:
114,231,201202,1,2,3:2:0:0:
345,192,201349,1,2,0:3:0:0:
476,192,201496,1,2,3:2:0:0:
345,192,201643,1,2,3:0:0:0:
214,192,201790,2,0,L|215:136,1,50,2|0,3:2|3:0,0:0:0:0:
476,192,201937,5,2,3:2:0:0:
345,192,202084,1,2,3:2:0:0:
476,192,202231,1,2,0:3:0:0:
214,264,202378,2,0,L|113:262,2,100,2|8|2,3:2|0:0|3:2,0:0:0:0:
453,275,202820,1,2,0:3:0:0:
323,263,202967,1,2,3:2:0:0:
193,240,203114,1,2,3:2:0:0:
466,209,203261,1,10,0:0:0:0:
149,174,203408,5,2,3:2:0:0:
302,154,203555,1,2,3:2:0:0:
149,174,203702,1,2,3:0:0:0:
425,290,203849,2,0,P|474:263|406:150,1,200,2|2,3:2|3:2,0:0:0:0:
164,164,204290,1,2,3:2:0:0:
314,124,204437,1,2,3:2:0:0:
464,75,204584,1,2,3:0:0:0:
314,124,204731,2,0,L|296:184,1,50,2|0,3:2|3:0,0:0:0:0:
469,270,204878,5,2,3:2:0:0:
319,233,205025,1,2,3:2:0:0:
469,270,205172,1,2,3:0:0:0:
188,324,205320,2,0,L|88:317,1,100,2|0,3:2|0:0,0:0:0:0:
320,294,205614,1,10,0:0:0:0:
63,277,205761,1,2,3:0:0:0:
328,264,205908,1,10,0:0:0:0:
68,236,206055,2,0,L|68:125,1,100,10|2,0:0|0:0,0:0:0:0:
357,179,206349,6,0,L|476:168,2,100,4|2|2,3:2|0:0|0:0,0:0:0:0:
104,103,206790,2,0,L|100:235,1,100,10|2,0:0|0:0,0:0:0:0:
233,194,207084,2,0,L|230:325,1,100,2|2,0:0|3:0,0:0:0:0:
81,315,207378,1,2,0:0:0:0:
374,314,207525,6,0,L|492:308,2,100,2|0|0,3:2|0:0|0:0,0:0:0:0:
123,332,207966,1,10,0:0:0:0:
26,293,208113,1,2,3:2:0:0:
34,181,208260,1,2,0:0:0:0:
136,106,208407,1,2,0:0:0:0:
377,113,208554,2,0,L|496:110,1,100,10|2,0:0|0:0,0:0:0:0:
167,173,208849,6,0,L|161:302,1,100,2|2,0:0|3:2,0:0:0:0:
294,280,209143,2,2,L|303:401,1,100,2|2,0:0|3:0,0:0:0:0:
141,373,209437,1,2,0:0:0:0:
381,345,209584,1,2,3:2:0:0:
154,315,209731,1,8,0:0:0:0:
280,290,209878,1,0,3:2:0:0:
159,306,210025,1,2,0:0:0:0:
289,275,210172,2,0,L|402:267,1,100,2|10,0:0|0:0,0:0:0:0:
144,78,210466,6,0,P|76:125|139:217,1,200,4|0,3:2|0:0,0:0:0:0:
366,208,210907,2,0,L|476:203,2,100,10|2|2,0:0|0:0|3:2,0:0:0:0:
224,200,211349,2,0,L|209:315,1,100,2|0,3:2|0:0,0:0:0:0:
351,316,211643,6,0,L|451:342,1,100,2|2,3:2|0:3,0:0:0:0:
307,353,211937,1,2,0:0:0:0:
41,316,212084,1,10,0:0:0:0:
309,321,212231,2,0,L|433:305,2,100,2|0|0,3:2|0:0|0:0,0:0:0:0:
65,222,212672,2,0,L|270:212,1,200,10|0,0:0|0:0,0:0:0:0:
124,181,213113,2,0,L|122:308,1,100,2|2,3:2|0:0,0:0:0:0:
223,316,213407,5,2,3:2:0:0:
453,302,213554,1,10,0:0:0:0:
320,266,213701,1,2,3:2:0:0:
453,302,213849,1,2,3:2:0:0:
180,206,213996,1,10,0:0:0:0:
310,185,214143,1,2,3:2:0:0:
440,165,214290,1,2,3:2:0:0:
148,125,214437,1,10,0:0:0:0:
463,126,214584,6,0,L|344:115,2,100,4|2|2,3:2|0:0|0:0,0:0:0:0:
186,108,215025,1,2,0:0:0:0:
452,186,215172,2,0,L|449:317,1,100,10|2,0:0|0:0,0:0:0:0:
354,311,215466,1,0,0:0:0:0:
462,341,215613,1,2,3:2:0:0:
171,331,215760,6,0,L|53:325,2,100,2|2|0,3:2|0:0|0:0,0:0:0:0:
442,336,216201,1,10,0:0:0:0:
478,252,216348,1,2,0:3:0:0:
408,168,216496,1,0,3:0:0:0:
250,166,216643,2,0,L|247:287,1,100,2|2,3:2|0:0,0:0:0:0:
470,329,216937,6,0,L|368:326,2,100,2|2|10,0:3|0:0|0:0,0:0:0:0:
159,256,217378,1,2,0:0:0:0:
307,264,217525,1,2,0:0:0:0:
444,271,217672,1,2,3:2:0:0:
182,353,217819,2,0,L|58:351,2,100,2|0|0,3:2|0:0|0:0,0:0:0:0:
462,355,218260,2,0,L|467:214,1,100,10|2,0:0|0:0,0:0:0:0:
354,202,218554,1,2,0:0:0:0:
105,202,218701,6,0,L|314:182,1,200,4|2,3:2|0:0,0:0:0:0:
164,128,219143,2,0,L|54:123,2,100,0|10|0,0:0|0:0|0:0,0:0:0:0:
318,135,219584,1,2,0:0:0:0:
30,149,219731,2,0,L|21:263,1,100,2|2,3:2|3:2,0:0:0:0:
264,221,220025,2,0,L|149:215,1,100,10|2,0:0|3:2,0:0:0:0:
469,181,220319,2,0,L|354:177,1,100,10|2,0:0|3:2,0:0:0:0:
167,129,220613,2,0,L|232:133,1,50,2|0,3:2|3:0,0:0:0:0:
422,141,220760,6,0,L|423:268,1,100,12|0,0:0|0:0,0:0:0:0:
151,265,221054,1,10,0:0:0:0:
288,248,221201,1,0,3:2:0:0:
151,265,221349,1,0,3:2:0:0:
440,259,221496,2,0,L|438:139,1,100,10|0,0:0|0:0,0:0:0:0:
153,148,221790,1,10,0:0:0:0:
267,118,221937,1,0,0:0:0:0:
30,67,222084,1,0,3:2:0:0:
347,165,222231,2,0,L|351:285,1,100,10|0,0:0|3:2,0:0:0:0:
209,295,222525,1,2,3:2:0:0:
352,325,222672,1,2,3:0:0:0:
36,355,222819,6,0,P|15:298|101:174,1,200,4|0,3:2|0:0,0:0:0:0:
282,108,223407,1,10,0:0:0:0:
384,172,223554,1,2,0:0:0:0:
384,285,223701,1,2,0:0:0:0:
284,341,223849,1,2,0:0:0:0:
437,354,223996,2,0,L|444:249,1,100,2|0,3:2|0:0,0:0:0:0:
171,255,224290,6,0,L|165:143,1,100,2|10,0:0|0:0,0:0:0:0:
272,118,224584,1,2,0:0:0:0:
153,108,224731,2,0,L|43:102,1,100,2|0,0:0|3:2,0:0:0:0:
206,218,225025,2,0,L|326:217,2,100,2|2|0,0:0|0:0|0:0,0:0:0:0:
63,222,225466,2,0,L|56:108,1,100,10|0,0:0|0:0,0:0:0:0:
171,89,225760,1,2,0:0:0:0:
20,84,225907,1,2,0:0:0:0:
271,74,226054,6,0,L|375:73,2,100,2|2|2,3:2|0:0|0:0,0:0:0:0:
413,166,226496,1,10,0:0:0:0:
241,164,226643,2,0,L|226:294,1,100,2|0,0:0|0:0,0:0:0:0:
480,260,226937,6,0,L|475:48,1,200,4|0,3:2|0:0,0:0:0:0:
221,163,227525,2,0,L|334:158,2,100,10|2|2,0:0|3:2|0:0,0:0:0:0:
347,87,227966,1,0,3:2:0:0:
71,172,228113,6,0,L|14:77,1,100,4|2,3:2|0:0,0:0:0:0:
126,51,228407,1,2,3:2:0:0:
275,53,228554,1,10,0:0:0:0:
152,93,228701,1,2,0:3:0:0:
147,142,228775,1,2,0:0:0:0:
147,185,228849,1,2,0:0:0:0:
394,194,228996,6,0,L|275:204,1,100,4|0,3:2|0:0,0:0:0:0:
176,277,229290,2,0,L|295:286,1,100,2|0,0:0|0:0,0:0:0:0:
40,273,229584,2,0,L|36:155,1,100,10|0,0:0|0:0,0:0:0:0:
133,146,229878,1,2,0:0:0:0:
12,122,230025,1,2,0:0:0:0:
323,191,230172,6,0,L|199:197,2,100,10|0|0,0:0|3:0|3:0,0:0:0:0:
37,107,230613,2,0,L|28:231,1,100,10|0,0:0|0:0,0:0:0:0:
127,283,230907,2,0,L|207:286,1,50,0|0,3:0|3:0,0:0:0:0:
391,288,231054,6,0,P|437:263|365:154,1,200,4|0,3:2|0:0,0:0:0:0:
189,243,231643,1,10,0:0:0:0:
199,150,231790,1,2,0:0:0:0:
276,104,231937,1,2,0:0:0:0:
156,92,232084,1,2,3:2:0:0:
395,86,232231,6,0,L|507:84,2,100,2|2|0,3:2|0:0|0:0,0:0:0:0:
254,204,232672,2,0,L|461:190,1,200,10|0,0:0|0:0,0:0:0:0:
174,344,233113,6,0,P|104:278|127:176,1,200,4|0,3:2|0:0,0:0:0:0:
368,122,233701,2,0,L|366:241,1,100,10|0,0:0|0:0,0:0:0:0:
270,252,233996,1,2,0:0:0:0:
401,288,234143,1,2,3:2:0:0:
116,298,234290,6,0,L|14:254,2,100,2|0|2,3:2|0:0|0:0,0:0:0:0:
263,302,234731,2,0,P|271:242|262:192,1,100,10|0,0:0|0:0,0:0:0:0:
147,181,235025,1,2,0:0:0:0:
407,173,235172,6,0,L|208:147,1,200,4|2,3:2|0:0,0:0:0:0:
459,197,235760,2,0,L|470:312,1,100,10|2,0:0|3:2,0:0:0:0:
382,328,236054,1,2,0:0:0:0:
238,328,236201,1,2,3:2:0:0:
485,333,236349,6,0,P|493:279|460:218,1,100,4|0,3:2|0:0,0:0:0:0:
377,202,236643,1,2,0:0:0:0:
131,200,236790,2,0,L|246:191,1,100,10|2,0:0|0:3,0:0:0:0:
337,182,237084,1,2,0:0:0:0:
126,239,237231,5,0,3:2:0:0:
57,228,237329,1,2,0:0:0:0:
32,177,237427,1,2,0:0:0:0:
65,119,237525,1,2,0:0:0:0:
129,100,237623,1,2,0:0:0:0:
189,122,237721,1,2,0:0:0:0:
396,216,237819,5,10,0:0:0:0:
452,212,237917,1,2,0:0:0:0:
392,196,238015,1,2,0:0:0:0:
332,196,238113,1,2,0:0:0:0:
396,176,238211,1,2,0:0:0:0:
448,168,238309,1,2,0:0:0:0:
200,176,238407,5,10,0:0:0:0:
144,160,238505,1,2,0:0:0:0:
108,124,238603,1,2,0:0:0:0:
108,64,238701,1,2,3:2:0:0:
148,36,238799,1,2,0:0:0:0:
208,24,238898,1,2,0:0:0:0:
408,64,238996,1,2,3:2:0:0:
493,141,239143,2,0,L|424:138,1,50,0|0,3:2|3:0,0:0:0:0:
195,300,239290,5,4,3:2:0:0:
373,275,239584,2,0,P|278:237|77:325,1,320,2|0,3:2|3:0,0:0:0:0:
252,320,240319,6,0,L|441:305,2,160,2|0|0,3:2|3:0|3:0,0:0:0:0:
48,329,241642,5,2,3:2:0:0:
203,322,241937,2,0,P|301:269|206:126,1,320,2|0,3:2|0:0,0:0:0:0:
56,225,242672,6,0,P|28:192|186:65,1,320,2|2,3:2|0:0,0:0:0:0:
437,288,243995,5,2,3:2:0:0:
266,290,244290,2,0,P|197:228|315:78,1,320,2|0,3:2|3:0,0:0:0:0:
453,127,245025,6,0,L|256:111,2,160,0|0|0,3:0|3:0|3:0,0:0:0:0:
177,335,246348,5,2,3:2:0:0:
351,285,246642,2,0,P|285:239|73:321,1,320,2|0,3:2|0:0,0:0:0:0:
241,337,247378,6,0,P|357:244|509:312,1,320,2|0,3:2|3:0,0:0:0:0:
87,320,248701,6,0,L|85:222,1,80,4|0,3:2|3:0,0:0:0:0:
266,181,249290,2,0,L|359:183,2,80,10|0|0,0:0|3:0|3:0,0:0:0:0:
412,119,249731,6,0,P|453:145|395:239,1,160,10|0,0:0|3:0,0:0:0:0:
190,276,250319,2,0,L|181:165,1,80,10|2,0:1|0:0,0:0:0:0:
285,193,250613,2,0,L|290:144,2,40,0|0|0,3:0|3:0|3:0,0:0:0:0:
177,209,250907,1,0,3:0:0:0:
430,211,251054,6,0,L|244:188,1,160,4|0,3:2|3:0,0:0:0:0:
483,113,251642,1,10,0:1:0:0:
361,98,251790,1,8,0:0:0:0:
483,113,251937,1,2,3:2:0:0:
361,98,252084,6,0,L|183:91,1,160,2|0,3:2|3:0,0:0:0:0:
357,155,252672,2,0,L|356:206,1,40,0|0,3:0|3:0,0:0:0:0:
228,202,252819,2,0,L|220:307,1,80,10|2,0:0|3:2,0:0:0:0:
277,292,253040,1,0,3:0:0:0:
337,301,253113,1,0,3:0:0:0:
444,323,253260,1,2,3:0:0:0:
149,332,253407,6,0,L|148:219,1,89.9999972534181,4|0,3:2|3:0,0:0:0:0:
344,182,253995,2,0,L|238:182,2,89.9999972534181,10|0|0,0:0|3:0|3:0,0:0:0:0:
486,151,254437,6,0,L|282:137,2,179.999994506836,10|0|0,0:0|3:0|3:0,0:0:0:0:
252,276,255319,2,0,L|197:275,2,44.999998626709,2|0|0,3:2|3:0|3:0,0:0:0:0:
348,279,255613,1,2,0:3:0:0:
118,278,255760,6,0,L|19:276,2,89.9999972534181,10|0|2,0:0|3:0|3:0,0:0:0:0:
333,269,256348,1,2,0:0:0:0:
403,212,256495,1,2,3:2:0:0:
395,115,256642,1,2,0:0:0:0:
312,63,256790,1,2,0:0:0:0:
50,149,256937,6,0,L|44:266,1,89.9999972534181,2|0,0:0|3:0,0:0:0:0:
101,257,257157,1,0,3:0:0:0:
311,262,257231,2,0,L|406:254,1,89.9999972534181,12|0,0:0|0:0,0:0:0:0:
131,240,257525,2,0,L|16:233,1,89.9999972534181,12|0,0:0|0:0,0:0:0:0:
325,239,257819,2,0,L|486:230,1,134.999995880127,12|0,0:0|0:0,0:0:0:0:
190,354,258113,6,0,L|199:158,1,133.333333333333,4|0,3:2|0:0,0:0:0:0:
289,193,258407,2,0,L|147:187,1,133.333333333333,10|0,0:0|0:0,0:0:0:0:
342,132,258701,2,0,L|420:129,2,66.6666666666667,2|0|0,3:2|0:0|0:0,0:0:0:0:
264,137,258995,2,0,L|182:142,2,66.6666666666667,2|0|0,0:0|0:0|0:0,0:0:0:0:
445,173,259290,6,0,P|466:231|427:261,1,100,2|0,0:0|0:0,0:0:0:0:
376,264,259510,1,0,0:0:0:0:
106,273,259584,2,0,L|106:375,1,100,10|0,0:0|0:0,0:0:0:0:
169,365,259804,1,2,0:0:0:0:
370,368,259878,1,2,0:0:0:0:
431,323,259951,1,0,0:0:0:0:
429,264,260025,1,0,0:0:0:0:
388,216,260098,1,0,0:0:0:0:
196,189,260172,2,0,L|70:189,1,100,10|0,0:0|0:0,0:0:0:0:
375,80,260466,6,0,L|378:228,1,100,4|0,3:2|0:0,0:0:0:0:
318,196,260687,1,0,0:0:0:0:
146,207,260760,2,0,L|96:203,1,50,10|0,0:0|0:0,0:0:0:0:
146,207,260907,2,0,L|234:212,1,50,2|0,0:0|0:0,0:0:0:0:
40,197,261054,2,0,L|32:263,1,50,2|0,0:0|0:0,0:0:0:0:
231,308,261201,2,0,L|294:310,2,50,0|0|10,0:0|0:0|0:0,0:0:0:0:
96,303,261495,1,0,0:0:0:0:
384,305,261642,6,0,P|421:252|392:190,1,100,4|0,0:0|0:0,0:0:0:0:
364,197,261863,1,0,0:0:0:0:
204,197,261937,2,0,L|144:197,1,50,10|0,0:0|0:0,0:0:0:0:
150,148,262084,2,0,L|206:146,1,50,2|0,0:0|0:0,0:0:0:0:
423,128,262231,2,0,L|354:132,1,50,2|0,0:0|0:0,0:0:0:0:
163,243,262378,2,0,L|222:240,1,50,2|0,0:0|0:0,0:0:0:0:
444,192,262525,2,0,L|302:190,1,100,10|0,0:0|0:0,0:0:0:0:
57,132,262819,6,0,L|38:259,1,100,4|0,0:0|0:0,0:0:0:0:
94,256,263040,1,0,0:0:0:0:
273,249,263113,2,0,L|157:234,1,100,10|0,0:0|0:0,0:0:0:0:
469,207,263407,2,0,L|321:196,2,100,0|2|10,0:0|0:0|0:0,0:0:0:0:
134,316,263848,6,0,P|118:264|140:187,1,100,2|0,0:0|0:0,0:0:0:0:
250,169,264142,1,0,0:0:0:0:
215,161,264216,1,0,0:0:0:0:
178,156,264290,1,10,0:0:0:0:
68,141,264437,1,0,0:0:0:0:
291,157,264584,2,0,L|363:161,2,50,2|0|0,0:0|0:0|0:0,0:0:0:0:
117,159,264804,2,0,L|106:227,1,50,2|10,0:0|0:0,0:0:0:0:
226,258,265025,1,2,0:0:0:0:
478,247,265172,6,0,P|492:166|466:125,1,100,2|0,0:0|0:0,0:0:0:0:
432,127,265392,1,0,0:0:0:0:
253,120,265466,2,0,L|384:120,1,100,10|0,0:0|0:0,0:0:0:0:
106,112,265760,1,2,0:0:0:0:
26,180,265907,1,0,0:0:0:0:
54,274,266054,1,10,0:0:0:0:
161,310,266201,1,0,0:0:0:0:
441,262,266348,6,0,L|303:257,1,100,2|0,0:0|0:0,0:0:0:0:
365,229,266569,1,0,0:0:0:0:
499,212,266642,2,0,L|486:100,1,100,10|0,0:0|0:0,0:0:0:0:
227,113,266937,2,0,L|214:178,1,50,2|0,0:0|0:0,0:0:0:0:
388,174,267084,2,0,L|396:242,1,50,2|0,0:0|0:0,0:0:0:0:
179,262,267231,1,10,0:0:0:0:
453,260,267378,6,0,P|487:211|395:104,1,200,4|0,0:0|0:0,0:0:0:0:
364,105,267745,1,0,0:0:0:0:
149,118,267819,2,0,L|137:230,1,100,10|0,0:0|0:0,0:0:0:0:
373,271,268113,1,0,0:0:0:0:
134,236,268260,1,2,0:0:0:0:
485,239,268407,2,0,L|488:120,1,100,10|0,0:0|0:0,0:0:0:0:
232,135,268701,6,0,L|226:250,1,100,2|0,0:0|0:0,0:0:0:0:
282,249,268922,1,0,0:0:0:0:
103,244,268995,2,0,L|101:361,1,100,10|0,0:0|0:0,0:0:0:0:
381,353,269290,2,0,L|386:298,1,50,2|0,0:0|0:0,0:0:0:0:
326,289,269437,1,2,0:0:0:0:
117,287,269510,2,0,L|110:227,1,50,0|10,0:0|0:0,0:0:0:0:
237,194,269731,1,2,0:0:0:0:
31,97,269878,6,0,L|161:96,1,100,4|0,0:0|0:0,0:0:0:0:
177,95,270098,1,0,0:0:0:0:
338,99,270172,2,0,L|224:98,1,100,10|0,0:0|0:0,0:0:0:0:
461,244,270466,1,2,0:0:0:0:
328,215,270613,1,0,0:0:0:0:
71,193,270760,2,0,L|57:328,1,100,10|2,0:0|0:0,0:0:0:0:
306,335,271054,6,0,L|434:335,1,100,2|2,0:0|0:0,0:0:0:0:
447,339,271275,1,0,0:0:0:0:
266,305,271348,2,0,L|137:293,1,100,10|0,0:0|0:0,0:0:0:0:
401,261,271642,2,0,L|411:205,1,50,2|0,0:0|0:0,0:0:0:0:
214,203,271790,2,0,L|142:191,1,50,2|0,0:0|0:0,0:0:0:0:
392,168,271937,2,0,L|506:158,1,100,10|2,0:0|0:0,0:0:0:0:
170,101,272231,6,0,L|158:202,1,100,4|0,0:0|0:0,0:0:0:0:
211,212,272451,1,0,0:0:0:0:
424,227,272525,2,0,L|289:210,1,100,10|0,0:0|0:0,0:0:0:0:
82,192,272819,1,2,0:0:0:0:
349,164,272966,1,2,0:0:0:0:
144,118,273113,1,10,0:0:0:0:
453,114,273260,6,0,P|492:149|435:269,1,200,4|0,0:0|0:0,0:0:0:0:
396,271,273628,1,0,0:0:0:0:
196,272,273701,2,0,P|188:202|212:149,1,100,10|0,0:0|0:0,0:0:0:0:
469,153,273995,2,0,L|409:148,1,50,2|0,0:0|0:0,0:0:0:0:
370,146,274142,1,0,0:0:0:0:
190,138,274216,2,0,L|260:134,1,50,0|10,0:0|0:0,0:0:0:0:
385,125,274437,1,2,0:0:0:0:
97,127,274584,6,0,L|78:249,1,100,4|0,0:0|0:0,0:0:0:0:
133,244,274804,1,0,0:0:0:0:
332,246,274878,2,0,L|473:246,1,100,10|0,0:0|0:0,0:0:0:0:
178,192,275172,1,2,0:0:0:0:
401,170,275319,1,2,0:0:0:0:
141,146,275466,1,10,0:0:0:0:
131,195,275539,1,0,0:0:0:0:
122,244,275613,1,2,0:0:0:0:
402,204,275760,6,4,L|482:192,1,55.0000016784668,0|0,0:0|0:0,0:0:0:0:
229,202,275907,2,0,L|160:177,1,55.0000016784668,0|0,0:0|0:0,0:0:0:0:
372,176,276054,2,0,L|431:138,1,55.0000016784668,10|0,0:0|0:0,0:0:0:0:
267,171,276201,2,0,L|219:129,1,55.0000016784668,0|0,0:0|0:0,0:0:0:0:
452,184,276348,2,0,L|454:114,1,55.0000016784668,10|0,0:0|0:0,0:0:0:0:
384,124,276495,2,0,L|373:68,1,55.0000016784668,0|0,0:0|0:0,0:0:0:0:
447,70,276642,2,0,L|508:69,1,55.0000016784668,10|0,0:0|0:0,0:0:0:0:
221,76,276790,2,0,L|217:147,1,55.0000016784668,0|0,0:0|0:0,0:0:0:0:
422,189,276937,6,0,L|423:118,1,55.0000016784668,10|0,0:0|0:0,0:0:0:0:
347,139,277084,2,0,L|291:139,1,55.0000016784668,0|0,0:0|0:0,0:0:0:0:
290,74,277231,2,0,L|345:77,1,55.0000016784668,10|0,0:0|0:0,0:0:0:0:
399,75,277378,2,0,L|327:77,1,55.0000016784668,0|0,0:0|0:0,0:0:0:0:
155,164,277525,2,0,L|153:241,1,55.0000016784668,10|0,0:0|0:0,0:0:0:0:
216,228,277672,2,0,L|213:292,1,55.0000016784668,0|0,0:0|0:0,0:0:0:0:
276,277,277819,2,0,L|277:343,1,55.0000016784668,10|0,0:0|0:0,0:0:0:0:
336,326,277966,2,0,L|344:395,1,55.0000016784668,0|0,0:0|0:0,0:0:0:0:
178,367,278113,6,0,L|108:363,1,55.0000016784668,10|0,0:0|0:0,0:0:0:0:
178,367,278260,2,0,L|246:370,1,55.0000016784668,0|0,0:0|0:0,0:0:0:0:
178,367,278407,2,0,L|106:363,1,55.0000016784668,10|0,0:0|0:0,0:0:0:0:
178,367,278554,2,0,L|252:372,1,55.0000016784668,0|0,0:0|0:0,0:0:0:0:
53,325,278701,2,0,L|53:247,1,55.0000016784668,10|0,0:0|0:0,0:0:0:0:
126,272,278848,2,0,L|220:271,1,55.0000016784668,0|0,0:0|0:0,0:0:0:0:
190,207,278995,2,0,L|110:204,1,55.0000016784668,10|0,0:0|0:0,0:0:0:0:
56,212,279142,2,0,L|55:139,1,55.0000016784668,0|0,0:0|0:0,0:0:0:0:
300,134,279290,6,0,L|371:134,2,55.0000016784668,12|0|0,0:0|0:0|0:0,0:0:0:0:
245,133,279510,1,0,0:0:0:0:
177,162,279584,2,0,L|171:241,1,55.0000016784668,2|0,0:3|0:3,0:0:0:0:
241,226,279731,2,0,L|243:303,1,55.0000016784668,0|0,0:0|0:0,0:0:0:0:
172,304,279878,2,0,L|112:303,1,55.0000016784668,2|0,0:0|0:0,0:0:0:0:
117,240,280025,2,0,L|176:241,1,55.0000016784668,0|0,0:0|0:0,0:0:0:0:
241,239,280172,2,0,L|311:238,1,55.0000016784668,0|0,0:0|0:0,0:0:0:0:
297,171,280319,2,0,L|239:172,1,55.0000016784668,0|0,0:0|0:0,0:0:0:0:
71,286,280466,6,0,B|287:266|287:266|80:254,1,389.999982147218,12|0,3:2|0:0,0:0:0:0:
471,308,281054,6,0,L|351:297,2,100,12|0|0,0:0|3:0|3:0,0:0:0:0:
205,332,281495,6,0,P|151:305|210:191,1,200,2|0,3:2|0:0,0:0:0:0:
338,195,281936,2,0,L|336:325,1,100,2|0,3:0|0:0,0:0:0:0:
49,318,282230,6,0,B|262:303|262:303|152:286,1,300,12|0,0:0|3:0,0:0:0:0:
126,282,282744,1,0,3:0:0:0:
66,273,282818,1,2,3:0:0:0:
210,274,282965,2,0,P|269:241|271:108,1,200,2|2,3:2|3:2,0:0:0:0:
34,101,283406,2,0,L|171:89,1,100,10|0,0:1|0:0,0:0:0:0:
406,278,283700,6,0,L|269:293,1,100,4|0,3:2|0:0,0:0:0:0:
146,224,283995,2,0,L|259:212,1,100,2|0,3:2|0:0,0:0:0:0:
485,274,284289,6,0,B|272:259|272:259|382:242,1,300,12|0,0:0|3:0,0:0:0:0:
405,238,284803,1,0,3:0:0:0:
218,223,284877,2,0,L|108:221,2,100,2|0|2,3:0|3:0|3:2,0:0:0:0:
53,269,285318,2,0,L|40:166,1,100,2|10,0:0|0:1,0:0:0:0:
269,142,285612,1,10,0:1:0:0:
37,128,285759,6,0,L|154:122,1,100,4|0,3:2|0:0,0:0:0:0:
290,118,286053,2,0,L|402:114,1,100,2|0,3:2|0:0,0:0:0:0:
150,143,286348,6,0,B|269:149|269:149|79:169,1,300,12|0,0:0|3:0,0:0:0:0:
46,172,286862,1,0,3:0:0:0:
0,176,286936,1,2,3:0:0:0:
162,170,287083,2,0,L|376:165,1,200,2|2,3:2|3:2,0:0:0:0:
133,284,287524,2,0,L|7:281,1,100,10|2,0:1|0:0,0:0:0:0:
311,264,287818,6,0,L|314:157,1,100,4|0,3:2|0:0,0:0:0:0:
170,162,288112,2,0,L|49:147,1,100,2|0,3:2|0:0,0:0:0:0:
318,127,288406,6,0,B|199:133|199:133|389:153,1,300,12|0,0:0|3:0,0:0:0:0:
428,157,288920,1,0,3:0:0:0:
176,324,288994,6,0,P|112:304|188:176,1,250,4|0,3:1|0:0,0:0:0:0:
372,188,289435,2,0,P|420:160|352:8,1,250,4|0,3:2|0:0,0:0:0:0:
144,200,289876,6,0,P|212:168|392:200,1,250,4|0,3:1|0:0,0:0:0:0:
112,76,290317,2,0,P|64:104|120:272,1,250,2|0,3:2|0:0,0:0:0:0:
300,280,290758,6,0,P|264:232|72:244,1,250,4|0,3:1|0:0,0:0:0:0:
308,232,291199,2,0,P|336:168|196:68,1,250,4|0,3:2|0:0,0:0:0:0:
44,72,291641,6,0,P|6:135|105:220,1,200,4|0,3:2|3:0,0:0:0:0:
225,209,292082,2,0,L|113:202,1,100,2|0,0:0|3:2,0:0:0:0:
331,146,292523,1,0,3:0:0:0:
105,157,292817,2,0,P|63:196|126:305,1,200,2|0,3:2|3:0,0:0:0:0:
270,302,293258,2,0,P|281:244|271:183,1,100,2|0,0:0|3:0,0:0:0:0:
28,191,293699,6,0,P|78:174|239:189,1,200,4|0,3:2|3:0,0:0:0:0:
104,236,294141,2,0,L|98:360,1,100,2|0,0:0|3:0,0:0:0:0:
351,325,294582,1,0,3:0:0:0:
81,241,294876,6,0,P|190:208|305:211,1,200,2|0,3:2|3:2,0:0:0:0:
419,192,295317,1,2,0:0:0:0:
172,173,295464,2,0,L|156:282,1,100,10|0,0:1|0:0,0:0:0:0:
442,309,295758,6,0,P|443:246|416:195,1,100,4|0,3:2|0:0,0:0:0:0:
306,194,296052,1,0,3:2:0:0:
404,152,296199,1,2,0:0:0:0:
157,148,296346,2,0,P|96:185|152:298,1,200,10|2,0:1|0:0,0:0:0:0:
279,295,296788,1,0,3:2:0:0:
150,243,296935,1,2,3:0:0:0:
278,237,297082,2,0,P|280:198|276:125,1,100,2|0,3:2|0:0,0:0:0:0:
140,120,297376,1,2,3:2:0:0:
363,93,297523,1,10,0:1:0:0:
137,91,297670,1,10,0:1:0:0:
445,98,297817,6,0,P|472:162|459:229,1,100,4|0,3:2|0:0,0:0:0:0:
356,233,298111,1,0,3:2:0:0:
463,254,298258,1,2,0:0:0:0:
183,258,298405,2,0,P|153:217|236:118,1,200,10|2,0:1|0:0,0:0:0:0:
375,120,298846,2,0,L|393:68,2,50,0|0|2,3:0|3:0|3:0,0:0:0:0:
234,120,299141,2,0,L|222:253,1,100,2|2,3:2|0:3,0:0:0:0:
367,219,299435,2,0,L|372:294,1,50,0|0,3:0|3:0,0:0:0:0:
113,283,299582,2,0,L|100:147,1,100,10|0,0:1|3:2,0:0:0:0:
364,159,299876,6,0,L|245:152,1,100,4|0,3:2|3:0,0:0:0:0:
406,83,300170,2,0,P|453:113|418:238,1,200,10|0,0:1|3:2,0:0:0:0:
325,248,300611,1,0,3:2:0:0:
77,201,300758,2,0,L|203:200,1,100,10|0,0:0|0:0,0:0:0:0:
33,218,301052,2,0,L|31:336,1,100,2|0,0:0|3:2,0:0:0:0:
291,330,301346,1,10,0:1:0:0:
161,310,301493,1,2,3:2:0:0:
300,285,301641,2,2,L|431:279,1,100,10|0,0:0|3:2,0:0:0:0:
102,272,301935,6,0,L|81:151,1,100,4|0,3:2|3:0,0:0:0:0:
140,168,302155,1,0,3:0:0:0:
314,166,302229,2,0,L|186:157,1,100,10|0,0:0|3:0,0:0:0:0:
251,128,302449,1,0,3:0:0:0:
424,123,302523,2,0,L|395:235,1,100,4|0,3:2|0:0,0:0:0:0:
147,277,302817,1,10,0:0:0:0:
489,307,302964,6,0,B|225:277|225:277|384:274|467:277|522:279|523:165|520:108|522:64|522:43|473:1|408:-7|330:-13|256:1|220:35|190:89|167:140,1,1079.99996704102,4|2,3:2|0:3,0:0:0:0:
176,119,304876,1,2,0:3:0:0:
356,316,305464,5,10,0:1:0:0:
496,286,305611,1,0,3:0:0:0:
246,269,305758,1,10,0:1:0:0:
386,239,305905,1,0,3:0:0:0:
136,229,306052,2,0,L|88:195,1,50,2|0,3:2|3:0,0:0:0:0:
287,180,306199,2,0,L|330:149,1,50,0|0,3:0|3:0,0:0:0:0:
176,103,306346,1,10,0:0:0:0:
470,136,306493,6,0,L|247:128,1,200,4|0,3:2|0:0,0:0:0:0:
216,126,306861,1,0,0:0:0:0:
441,176,306935,2,0,L|455:302,1,100,10|0,0:0|0:0,0:0:0:0:
228,318,307229,1,2,0:0:0:0:
492,275,307376,1,0,0:0:0:0:
126,275,307523,2,0,L|121:159,1,100,10|0,0:0|0:0,0:0:0:0:
258,170,307817,6,0,L|123:170,1,100,2|0,0:0|0:0,0:0:0:0:
208,141,308038,1,0,0:0:0:0:
364,140,308111,2,0,L|511:141,1,100,10|0,0:0|0:0,0:0:0:0:
183,197,308405,2,0,L|116:227,1,50,2|0,0:0|0:0,0:0:0:0:
311,259,308552,2,0,L|357:298,1,50
201,350,308699,1,8,0:0:0:0:
461,353,308846,6,0,P|493:296|397:197,1,200,4|0,0:0|0:0,0:0:0:0:
359,191,309214,1,0,0:0:0:0:
152,187,309288,2,0,L|144:77,1,100,10|0,0:0|0:0,0:0:0:0:
358,76,309582,1,2,0:0:0:0:
146,45,309729,1,0,0:0:0:0:
392,66,309876,2,0,L|503:77,1,100,10|0,0:0|0:0,0:0:0:0:
166,303,310170,5,2,0:0:0:0:
306,268,310317,2,0,L|239:266,1,50,0|0,0:0|0:0,0:0:0:0:
98,261,310464,1,10,0:0:0:0:
238,213,310611,2,0,L|354:211,1,100,2|2,0:0|0:0,0:0:0:0:
390,211,310832,1,0,0:0:0:0:
222,169,310905,2,0,L|150:166,1,50,2|0,0:0|0:0,0:0:0:0:
339,77,311052,1,10,0:0:0:0:
74,87,311199,6,0,P|31:135|110:269,1,200,4|0,0:0|0:0,0:0:0:0:
120,262,311567,1,0,0:0:0:0:
359,264,311640,2,0,L|356:146,1,100,10|0,0:0|0:0,0:0:0:0:
108,167,311935,1,2,0:0:0:0:
334,134,312082,1,0,0:0:0:0:
204,118,312229,1,10,0:0:0:0:
469,176,312376,1,2,0:0:0:0:
319,168,312523,5,2,0:0:0:0:
469,176,312670,2,0,L|470:112,1,50,0|0,0:0|0:0,0:0:0:0:
214,61,312817,2,0,L|114:70,1,100,10|0,0:0|0:0,0:0:0:0:
381,140,313111,2,0,L|381:80,1,50,2|0,0:0|0:0,0:0:0:0:
200,134,313258,2,0,L|133:132,1,50,2|0,0:0|0:0,0:0:0:0:
377,115,313405,1,10,0:0:0:0:
152,109,313552,6,0,P|90:152|166:252,1,200,4|0,0:0|0:0,0:0:0:0:
189,253,313920,1,0,0:0:0:0:
346,255,313993,2,0,L|233:258,1,100,10|0,0:0|0:0,0:0:0:0:
458,181,314288,1,2,0:0:0:0:
222,181,314435,1,0,0:0:0:0:
476,168,314582,2,0,L|468:56,1,100,10|2,0:0|0:0,0:0:0:0:
165,231,314876,6,0,L|279:230,1,100,2|0,0:0|0:0,0:0:0:0:
227,198,315096,1,0,0:0:0:0:
69,184,315170,1,10,0:0:0:0:
175,196,315317,2,0,L|171:304,1,100,2|2,0:0|0:0,0:0:0:0:
121,309,315538,1,0,0:0:0:0:
342,309,315611,2,0,L|392:304,1,50,2|0,0:0|0:0,0:0:0:0:
157,333,315758,1,10,0:0:0:0:
372,336,315905,6,0,P|434:305|366:204,1,200,4|0,0:0|0:0,0:0:0:0:
342,198,316273,1,0,0:0:0:0:
85,194,316346,2,0,L|198:190,1,100,10|0,0:0|0:0,0:0:0:0:
446,180,316640,1,2,0:0:0:0:
246,147,316787,1,0,0:0:0:0:
483,145,316935,2,0,L|478:29,1,100,10|0,0:0|0:0,0:0:0:0:
192,145,317228,6,0,L|81:142,1,100,2|0,0:0|0:0,0:0:0:0:
134,88,317449,1,0,0:0:0:0:
330,81,317523,2,0,L|332:208,1,100,10|0,0:0|0:0,0:0:0:0:
117,253,317816,2,0,L|167:264,1,50,2|0,0:0|0:0,0:0:0:0:
352,265,317964,2,0,L|280:277,1,50,0|0,0:0|0:0,0:0:0:0:
126,348,318111,1,10,0:0:0:0:
421,332,318258,6,0,P|419:278|275:211,1,200,4|0,0:0|0:0,0:0:0:0:
249,204,318625,1,0,0:0:0:0:
56,202,318699,2,0,L|53:97,1,100,10|0,0:0|0:0,0:0:0:0:
357,166,318993,1,2,0:0:0:0:
70,134,319140,1,0,0:0:0:0:
369,140,319287,2,0,L|378:267,1,100,10|0,0:0|0:0,0:0:0:0:
121,323,319581,5,2,0:0:0:0:
241,319,319728,2,0,L|304:317,1,50,0|0,0:0|0:0,0:0:0:0:
450,311,319876,1,10,0:0:0:0:
341,238,320023,2,0,L|453:237,1,100,2|2,0:0|0:0,0:0:0:0:
407,198,320243,1,0,0:0:0:0:
224,204,320317,2,0,L|153:203,1,50,2|0,0:0|0:0,0:0:0:0:
388,83,320463,1,10,0:0:0:0:
126,335,320611,6,0,P|84:291|128:172,1,200,4|0,0:0|0:0,0:0:0:0:
192,157,320978,1,0,0:0:0:0:
440,202,321052,2,0,L|442:79,1,100,10|0,0:0|0:0,0:0:0:0:
196,100,321346,1,2,0:0:0:0:
404,147,321493,1,0,0:0:0:0:
267,108,321640,1,10,0:0:0:0:
489,103,321787,6,0,L|492:222,1,100,2|2,0:0|0:0,0:0:0:0:
350,237,322082,2,0,L|290:238,1,50,0|0,0:0|0:0,0:0:0:0:
107,241,322229,2,0,L|225:230,1,100,10|0,0:0|0:0,0:0:0:0:
436,204,322522,2,0,L|386:200,1,50,2|0,0:0|0:0,0:0:0:0:
201,164,322669,2,0,L|268:162,1,50,2|0,0:0|0:0,0:0:0:0:
418,133,322817,1,10,0:0:0:0:
176,234,322964,6,0,P|148:180|252:101,1,200,4|0,0:0|0:0,0:0:0:0:
299,107,323331,1,0,0:0:0:0:
85,256,323404,2,0,L|20:180,1,100,10|0,0:0|0:0,0:0:0:0:
337,272,323699,1,2,0:0:0:0:
126,239,323846,1,0,0:0:0:0:
388,299,323993,2,0,L|396:187,1,100,10|0,0:0|0:0,0:0:0:0:
127,358,324287,6,0,L|125:232,1,119.999996337891,4|0,0:0|0:0,0:0:0:0:
185,222,324507,1,0,0:0:0:0:
331,175,324582,1,12,0:0:0:0:
215,162,324740,1,2,0:0:0:0:
416,217,324887,1,8,0:0:0:0:
267,262,324960,1,8,0:0:0:0:
116,309,325034,1,8,0:0:0:0:
265,262,325107,1,8,0:0:0:0:
416,217,325181,1,8,0:0:0:0:
267,262,325254,1,8,0:0:0:0:
42,136,325328,6,0,L|265:128,1,200,12|0,0:0|0:0,0:0:0:0:
296,126,325695,1,0,0:0:0:0:
71,176,325769,2,0,L|57:302,1,100,10|0,0:0|0:0,0:0:0:0:
270,315,326063,1,2,0:0:0:0:
63,307,326210,1,0,0:0:0:0:
386,275,326357,2,0,L|391:159,1,100,10|0,0:0|0:0,0:0:0:0:
254,170,326650,6,0,L|389:170,1,100,2|0,0:0|0:0,0:0:0:0:
304,141,326872,1,0,0:0:0:0:
148,140,326945,2,0,L|1:141,1,100,10|0,0:0|0:0,0:0:0:0:
329,197,327239,2,0,L|377:243,1,50,2|0,0:0|0:0,0:0:0:0:
191,263,327386,2,0,L|154:305,1,50,2|0,0:0|0:0,0:0:0:0:
299,349,327533,1,10,0:0:0:0:
51,353,327680,6,0,P|19:296|115:197,1,200,4|0,0:0|0:0,0:0:0:0:
153,191,328048,1,0,0:0:0:0:
360,187,328121,2,0,L|368:77,1,100,10|0,0:0|0:0,0:0:0:0:
116,81,328415,1,2,0:0:0:0:
394,38,328563,1,0,0:0:0:0:
75,39,328709,2,0,L|20:128,1,100,10|0,0:0|0:0,0:0:0:0:
346,303,329004,5,2,0:0:0:0:
206,268,329151,2,0,L|273:266,1,50,0|0,0:0|0:0,0:0:0:0:
414,261,329298,1,10,0:0:0:0:
274,213,329445,2,0,L|158:211,1,100,2|2,0:0|0:0,0:0:0:0:
122,211,329666,1,0,0:0:0:0:
290,169,329739,2,0,L|362:166,1,50,2|0,0:0|0:0,0:0:0:0:
173,77,329886,1,10,0:0:0:0:
438,87,330033,6,0,P|481:135|402:269,1,200,4|0,0:0|0:0,0:0:0:0:
392,262,330401,1,0,0:0:0:0:
153,264,330474,2,0,L|156:146,1,100,10|0,0:0|0:0,0:0:0:0:
404,167,330769,1,2,0:0:0:0:
178,134,330916,1,0,0:0:0:0:
308,118,331063,1,10,0:0:0:0:
43,176,331210,1,2,0:0:0:0:
171,166,331357,5,2,0:0:0:0:
43,176,331504,2,0,L|42:112,1,50,0|0,0:0|0:0,0:0:0:0:
298,61,331651,2,0,L|398:70,1,100,10|0,0:0|0:0,0:0:0:0:
131,140,331945,2,0,L|131:80,1,50,2|0,0:0|0:0,0:0:0:0:
312,134,332092,2,0,L|379:132,1,50,2|0,0:0|0:0,0:0:0:0:
135,115,332239,1,10,0:0:0:0:
360,109,332386,6,0,P|422:152|346:252,1,200,4|0,0:0|0:0,0:0:0:0:
323,253,332754,1,0,0:0:0:0:
166,255,332827,2,0,L|279:258,1,100,10|0,0:0|0:0,0:0:0:0:
54,181,333121,1,2,0:0:0:0:
290,181,333269,1,0,0:0:0:0:
36,168,333416,2,0,L|44:56,1,100,10|0,0:0|0:0,0:0:0:0:
347,231,333710,6,0,L|233:230,1,100,2|0,0:0|0:0,0:0:0:0:
285,198,333930,1,0,0:0:0:0:
443,184,334004,1,10,0:0:0:0:
337,196,334150,2,0,L|342:322,1,100,2|2,0:0|0:0,0:0:0:0:
392,308,334372,1,0,0:0:0:0:
170,309,334445,2,0,L|120:304,1,50,2|0,0:0|0:0,0:0:0:0:
355,333,334592,1,10,0:0:0:0:
109,248,334739,6,0,L|346:233,1,200,12|0,3:2|0:0,0:0:0:0:
15,106,335180,2,0,L|21:221,1,100,2|0,3:2|0:0,0:0:0:0:
163,193,335474,2,0,L|179:313,1,100,2|0,3:2|0:0,0:0:0:0:
340,288,335768,2,0,L|364:406,1,100,2|0,3:2|0:0,0:0:0:0:
38,236,336062,5,4,3:2:0:0:
147,243,336209,2,0,L|355:256,1,200,2|0,3:2|0:0,0:0:0:0:
66,341,336650,2,0,P|7:309|87:224,1,200,10|0,0:0|0:0,0:0:0:0:
380,226,337092,6,0,P|433:206|376:83,1,200,2|0,3:2|0:0,0:0:0:0:
98,109,337533,2,0,L|215:96,1,100,2|0,3:2|0:0,0:0:0:0:
57,239,337827,2,0,L|164:226,1,100,2|0,3:2|0:0,0:0:0:0:
16,353,338121,2,0,L|132:334,1,100,2|0,3:2|0:0,0:0:0:0:
158,328,338342,1,0,3:0:0:0:
346,310,338415,5,4,3:2:0:0:
233,289,338562,2,0,L|27:248,1,200,2|0,3:2|3:2,0:0:0:0:
298,262,339003,2,0,P|351:232|284:117,1,200,10|2,0:0|0:0,0:0:0:0:
58,128,339445,6,0,L|280:103,1,200,4|0,3:2|0:0,0:0:0:0:
476,182,339886,2,0,L|469:317,1,100,2|0,3:2|0:0,0:0:0:0:
310,187,340180,2,0,L|295:308,1,100,2|0,3:2|0:0,0:0:0:0:
151,175,340474,2,0,L|129:292,1,100,2|0,3:2|0:0,0:0:0:0:
463,224,340768,5,2,3:2:0:0:
344,233,340915,2,0,P|297:211|353:75,1,200,2|0,3:2|3:0,0:0:0:0:
68,61,341356,2,0,L|23:272,1,200,10|10,0:1|0:1,0:0:0:0:
289,291,341797,6,0,L|512:281,1,200,2|0,3:2|0:0,0:0:0:0:
224,230,342239,2,0,L|116:219,1,100,2|0,3:2|0:0,0:0:0:0:
276,156,342533,2,0,L|168:145,1,100,2|0,3:2|0:0,0:0:0:0:
321,75,342827,2,0,L|213:64,1,100,2|0,3:2|0:0,0:0:0:0:
172,60,343047,1,0,3:2:0:0:
361,255,343121,5,4,3:2:0:0:
239,253,343268,2,0,L|31:241,1,200,2|0,3:2|3:2,0:0:0:0:
306,170,343709,1,10,0:0:0:0:
31,157,343856,1,8,0:0:0:0:
306,155,344003,1,10,0:0:0:0:
16,194,344150,6,0,L|226:181,1,200,4|0,3:2|0:0,0:0:0:0:
346,188,344592,2,0,L|347:80,1,100,10|0,0:0|3:0,0:0:0:0:
188,141,344886,2,0,L|189:28,1,100,10|0,0:0|3:0,0:0:0:0:
29,120,345180,2,0,L|29:13,1,100,10|0,0:0|3:0,0:0:0:0:
360,76,345474,6,0,L|471:70,1,100,10|0,0:0|3:0,0:0:0:0:
318,173,345768,2,2,L|429:179,1,100,10|0,0:0|3:0,0:0:0:0:
377,217,345989,1,0,3:0:0:0:
244,295,346062,2,2,L|355:289,1,100,10|0,0:0|3:0,0:0:0:0:
300,256,346283,1,0,3:0:0:0:
121,249,346356,1,10,0:0:0:0:
249,218,346503,1,2,3:2:0:0:
14,196,346650,6,0,L|135:200,1,100,10|0,0:0|3:0,0:0:0:0:
158,204,346871,1,0,3:0:0:0:
366,199,346945,2,0,L|367:264,1,50,10|0,0:0|0:0,0:0:0:0:
300,256,347092,2,0,L|286:315,1,50,0|0,3:1|0:0,0:0:0:0:
356,320,347239,2,0,L|361:379,1,50,10|0,0:0|0:0,0:0:0:0:
276,382,347386,2,0,L|208:383,1,50,2|0,3:2|0:0,0:0:0:0:
417,358,347533,2,0,L|481:352,1,50,10|0,0:0|0:0,0:0:0:0:
236,323,347680,2,0,L|158:314,1,50,2|0,3:2|0:0,0:0:0:0:
412,229,347827,6,0,L|-2:173,1,400,12|10,0:0|0:0,0:0:0:0:
376,160,348562,2,0,L|243:147,1,100,8|0,3:0|0:0,0:0:0:0:
75,142,348856,6,0,P|31:178|95:287,1,200,4|0,3:2|0:0,0:0:0:0:
133,287,349224,1,0,0:0:0:0:
286,288,349298,2,0,L|401:287,1,100,10|0,0:0|0:0,0:0:0:0:
116,204,349592,1,0,0:0:0:0:
351,180,349739,1,2,0:0:0:0:
93,179,349886,2,0,L|80:54,1,100,8|0,0:0|0:0,0:0:0:0:
360,68,350180,6,0,L|365:203,1,100,2|0,0:0|0:0,0:0:0:0:
315,180,350401,1,0,0:0:0:0:
149,186,350474,2,0,L|146:311,1,100,10|0,0:0|0:0,0:0:0:0:
277,299,350768,2,0,L|336:299,1,50,2|0,0:0|0:0,0:0:0:0:
326,251,350915,2,0,L|270:251,1,50,0|0,0:0|0:0,0:0:0:0:
100,239,351062,1,10,0:0:0:0:
351,236,351210,6,0,P|406:196|339:95,1,200,4|0,0:0|0:0,0:0:0:0:
306,93,351577,1,0,0:0:0:0:
150,95,351651,2,0,L|35:88,1,100,10|0,0:0|0:0,0:0:0:0:
266,205,351945,1,0,0:0:0:0:
30,201,352092,1,2,0:0:0:0:
290,287,352239,2,0,L|406:281,1,100,8|0,0:0|0:0,0:0:0:0:
164,255,352533,6,0,L|57:253,1,100,2|0,0:0|0:0,0:0:0:0:
103,204,352754,1,0,0:0:0:0:
321,202,352827,2,0,L|435:200,1,100,10|0,0:0|0:0,0:0:0:0:
296,168,353122,2,0,L|221:164,1,50,0|0,0:0|0:0,0:0:0:0:
251,122,353269,2,0,L|306:121,1,50,0|0,0:0|0:0,0:0:0:0:
461,117,353416,1,10,0:0:0:0:
222,280,353563,6,0,L|24:224,1,200,4|0,0:0|0:0,0:0:0:0:
67,220,353930,1,0,0:0:0:0:
225,213,354004,2,0,L|334:209,1,100,10|0,0:0|0:0,0:0:0:0:
104,103,354298,1,0,0:0:0:0:
320,74,354445,1,2,0:0:0:0:
26,235,354592,2,0,L|150:246,1,100,10|0,0:0|0:0,0:0:0:0:
379,207,354886,6,0,L|238:192,1,100,2|0,0:0|0:0,0:0:0:0:
233,191,355107,1,0,0:0:0:0:
392,160,355180,1,10,0:0:0:0:
274,124,355327,1,0,0:0:0:0:
395,91,355475,2,0,L|395:158,1,50,2|0,0:0|0:0,0:0:0:0:
314,157,355622,2,0,L|311:206,1,50,2|0,0:0|0:0,0:0:0:0:
478,220,355769,1,10,0:0:0:0:
196,327,355916,6,0,P|153:291|215:164,1,200,4|0,0:0|0:0,0:0:0:0:
245,167,356283,1,0,0:0:0:0:
451,203,356357,2,0,L|449:96,1,100,10|0,0:0|0:0,0:0:0:0:
351,84,356651,1,0,0:0:0:0:
140,220,356798,2,0,L|253:232,2,100,2|8|0,0:0|0:0|0:0,0:0:0:0:
401,242,357239,6,0,L|415:134,1,100,2|0,0:0|0:0,0:0:0:0:
371,133,357459,1,0,0:0:0:0:
200,126,357533,2,0,L|81:124,1,100,10|0,0:0|0:0,0:0:0:0:
236,218,357827,2,0,L|292:217,1,50,2|0,0:0|0:0,0:0:0:0:
289,172,357974,2,0,L|236:168,1,50,2|0,0:0|0:0,0:0:0:0:
67,166,358121,1,10,0:0:0:0:
298,121,358268,6,0,P|342:157|278:266,1,200,4|0,0:0|0:0,0:0:0:0:
240,272,358636,1,0,0:0:0:0:
451,332,358710,2,0,L|460:222,1,100,10|0,0:0|0:0,0:0:0:0:
226,189,359004,1,0,0:0:0:0:
441,162,359151,1,2,0:0:0:0:
93,179,359298,2,0,L|80:54,1,100,8|0,0:0|0:0,0:0:0:0:
360,68,359592,6,0,L|365:203,1,100,2|0,0:0|0:0,0:0:0:0:
315,180,359813,1,0,0:0:0:0:
149,186,359886,1,10,0:0:0:0:
269,216,360033,1,0,0:0:0:0:
161,327,360180,2,0,L|154:263,1,50,2|0,0:0|0:0,0:0:0:0:
237,274,360327,2,0,L|240:215,1,50,2|0,0:0|0:0,0:0:0:0:
89,221,360474,1,10,0:0:0:0:
351,236,360621,6,0,P|406:196|339:95,1,200,4|0,0:0|0:0,0:0:0:0:
306,93,360989,1,0,0:0:0:0:
150,95,361063,2,0,L|35:88,1,100,10|0,0:0|0:0,0:0:0:0:
258,199,361357,1,0,0:0:0:0:
30,201,361504,1,2,0:0:0:0:
290,287,361651,2,0,L|406:281,1,100,10|0,0:0|0:0,0:0:0:0:
164,255,361945,6,0,L|57:253,1,100,2|0,0:0|0:0,0:0:0:0:
103,204,362166,1,0,0:0:0:0:
321,202,362239,2,0,L|435:200,1,100,10|0,0:0|0:0,0:0:0:0:
296,168,362533,2,0,L|221:164,1,50,2|0,0:0|0:0,0:0:0:0:
251,122,362680,2,0,L|306:121,1,50,2|0,0:0|0:0,0:0:0:0:
461,117,362827,1,10,0:0:0:0:
222,280,362974,6,0,P|109:232|123:133,1,200,4|0,0:0|0:0,0:0:0:0:
145,133,363342,1,0,0:0:0:0:
337,182,363416,2,0,L|208:171,1,100,10|0,0:0|0:0,0:0:0:0:
447,99,363710,1,0,0:0:0:0:
178,206,363857,1,2,0:0:0:0:
486,235,364004,2,0,L|362:246,1,100,8|0,0:0|0:0,0:0:0:0:
133,207,364298,6,0,L|274:192,1,100,2|0,0:0|0:0,0:0:0:0:
206,166,364518,1,0,0:0:0:0:
47,135,364592,1,10,0:0:0:0:
165,99,364739,1,0,0:0:0:0:
44,66,364886,2,0,L|44:133,1,50,2|0,0:0|0:0,0:0:0:0:
78,145,365033,2,0,L|147:148,1,50,2|0,0:0|0:0,0:0:0:0:
280,155,365180,1,10,0:0:0:0:
41,251,365327,6,0,L|268:227,1,200,4|0,0:0|0:0,0:0:0:0:
279,225,365695,1,0,0:0:0:0:
61,203,365768,2,0,L|63:96,1,100,10|0,0:0|0:0,0:0:0:0:
161,84,366063,1,0,0:0:0:0:
372,220,366210,2,0,L|259:232,2,100,2|8|0,0:0|0:0|0:0,0:0:0:0:
111,242,366651,6,0,L|97:134,1,100,2|0,0:0|0:0,0:0:0:0:
141,133,366871,1,0,0:0:0:0:
312,126,366945,2,0,L|431:124,1,100,10|0,0:0|0:0,0:0:0:0:
276,218,367239,2,0,L|220:217,1,50,2|0,0:0|0:0,0:0:0:0:
223,172,367386,2,0,L|276:168,1,50,2|0,0:0|0:0,0:0:0:0:
445,166,367533,1,10,0:0:0:0:
154,315,367680,6,0,L|155:188,1,100,2|0,0:0|0:0,0:0:0:0:
262,222,367974,2,0,L|262:103,1,100,2|0,0:0|3:0,0:0:0:0:
145,140,368268,2,0,L|127:30,1,100,2|0,0:0|3:0,0:0:0:0:
275,46,368562,2,0,L|164:35,1,100,2|0,3:0|3:0,0:0:0:0:
37,101,368856,6,0,L|29:216,1,100,2|0,0:0|3:0,0:0:0:0:
151,241,369151,1,2,0:0:0:0:
41,266,369298,1,2,3:0:0:0:
186,304,369445,2,0,L|308:303,1,100,2|0,0:0|3:0,0:0:0:0:
171,246,369739,2,0,L|54:242,1,100,2|0,0:0|3:0,0:0:0:0:
353,247,370033,6,0,L|371:140,1,100,2|0,0:0|3:0,0:0:0:0:
232,146,370327,2,0,L|227:41,1,100,2|0,0:0|3:0,0:0:0:0:
364,43,370621,2,0,L|246:24,1,100,2|0,0:0|3:0,0:0:0:0:
409,51,370915,2,0,L|423:191,1,100,2|0,0:0|3:0,0:0:0:0:
294,166,371209,6,0,L|293:278,1,100,2|0,0:0|3:0,0:0:0:0:
406,298,371502,1,2,0:0:0:0:
304,313,371649,1,2,3:0:0:0:
150,284,371796,2,0,L|260:295,1,100,2|0,0:0|3:0,0:0:0:0:
388,253,372092,1,2,0:0:0:0:
135,256,372239,2,0,L|24:249,1,100,10|0,0:1|0:0,0:0:0:0:
348,327,372533,6,0,L|404:328,1,50,0|0,0:0|0:0,0:0:0:0:
348,327,372680,2,0,L|281:325,1,50,0|0,0:0|0:0,0:0:0:0:
298,272,372827,2,0,L|365:273,1,50,0|0,0:0|0:0,0:0:0:0:
167,180,372974,2,0,L|166:117,1,50,10|0,0:0|0:0,0:0:0:0:
228,128,373121,2,0,L|277:127,1,50,0|0,0:0|0:0,0:0:0:0:
279,86,373268,2,0,L|230:87,1,50,0|0,0:0|0:0,0:0:0:0:
77,227,373415,2,0,L|23:227,1,50,2|0,0:0|0:0,0:0:0:0:
31,169,373562,2,0,L|94:170,1,50,0|0,0:0|0:0,0:0:0:0:
286,89,373709,2,0,L|337:89,1,50,10|0,0:0|0:0,0:0:0:0:
148,183,373856,2,0,L|96:180,1,50,0|0,0:0|0:0,0:0:0:0:
304,189,374003,6,0,L|305:256,1,50,2|0,0:0|0:0,0:0:0:0:
248,272,374150,2,0,L|184:276,1,50,0|0,0:0|0:0,0:0:0:0:
131,265,374297,2,0,L|126:196,1,50,0|0,0:0|0:0,0:0:0:0:
305,208,374444,2,0,L|367:203,1,50,10|0,0:0|0:0,0:0:0:0:
305,208,374591,2,0,L|247:215,1,50,0|0,0:0|0:0,0:0:0:0:
233,157,374738,2,0,L|292:150,1,50,0|0,0:0|0:0,0:0:0:0:
461,152,374885,2,0,L|460:217,1,50,2|0,0:0|0:0,0:0:0:0:
412,232,375033,2,0,L|343:232,1,50,0|0,0:0|0:0,0:0:0:0:
179,205,375180,2,0,L|231:202,1,50,10|0,0:0|0:0,0:0:0:0:
393,154,375327,2,0,L|315:158,1,50,0|0,0:0|0:0,0:0:0:0:
109,156,375474,6,0,L|106:207,1,50,2|0,0:0|0:0,0:0:0:0:
170,235,375621,2,0,L|229:240,1,50,0|0,0:0|0:0,0:0:0:0:
150,296,375768,2,0,L|84:287,1,50,0|0,0:0|0:0,0:0:0:0:
295,308,375915,2,0,L|365:294,1,50,10|0,0:0|0:0,0:0:0:0:
344,240,376062,2,0,L|276:239,1,50,0|0,0:0|0:0,0:0:0:0:
232,231,376209,2,0,L|238:168,1,50,0|0,0:0|0:0,0:0:0:0:
421,187,376356,2,0,L|477:188,1,50,2|0,0:0|0:0,0:0:0:0:
472,261,376503,2,0,L|411:261,1,50,0|0,0:0|0:0,0:0:0:0:
235,258,376650,2,0,L|162:258,1,50,10|0,0:0|0:0,0:0:0:0:
375,242,376797,2,0,L|437:237,1,50,0|0,0:0|0:0,0:0:0:0:
207,207,376944,6,0,L|140:206,1,50,2|0,0:0|0:0,0:0:0:0:
91,229,377091,2,0,L|90:292,1,50,0|0,0:0|0:0,0:0:0:0:
154,310,377238,2,0,L|216:307,1,50,0|0,0:0|0:0,0:0:0:0:
394,296,377385,2,0,L|395:233,1,50,10|0,0:0|0:0,0:0:0:0:
331,239,377533,2,0,L|266:237,1,50,0|0,0:0|0:0,0:0:0:0:
220,236,377680,2,0,L|213:167,1,50,0|0,0:0|0:0,0:0:0:0:
390,179,377827,2,0,L|442:177,1,50,2|0,0:0|0:0,0:0:0:0:
439,122,377974,2,0,L|376:126,1,50,0|0,0:0|0:0,0:0:0:0:
199,213,378121,1,10,0:0:0:0:
348,245,378194,1,8,0:0:0:0:
499,174,378268,1,8,0:0:0:0:
348,245,378341,1,8,0:0:0:0:
151,213,378415,6,0,L|150:148,1,50,4|0,0:0|0:0,0:0:0:0:
347,106,378562,2,0,L|405:104,1,50,0|0,0:0|0:0,0:0:0:0:
400,47,378709,2,0,L|351:45,1,50,0|0,0:0|0:0,0:0:0:0:
109,175,378856,2,0,L|55:175,1,50,10|0,0:0|0:0,0:0:0:0:
201,102,379003,2,0,L|250:101,1,50,0|0,0:0|0:0,0:0:0:0:
201,102,379150,2,0,L|152:103,1,50,0|0,0:0|0:0,0:0:0:0:
357,187,379297,2,0,L|407:187,1,50,10|0,0:0|0:0,0:0:0:0:
409,128,379444,2,0,L|359:127,1,50,0|0,0:0|0:0,0:0:0:0:
112,111,379591,2,0,L|163:111,1,50,10|0,0:0|0:0,0:0:0:0:
340,113,379738,2,0,L|392:110,1,50,0|0,0:0|0:0,0:0:0:0:
208,189,379885,6,0,L|207:256,1,50,10|0,0:0|0:0,0:0:0:0:
364,266,380032,2,0,L|428:270,1,50,0|0,0:0|0:0,0:0:0:0:
481,259,380179,2,0,L|486:190,1,50,0|0,0:0|0:0,0:0:0:0:
309,202,380326,2,0,L|247:197,1,50,10|0,0:0|0:0,0:0:0:0:
438,184,380473,2,0,L|438:106,1,50,0|0,0:0|0:0,0:0:0:0:
372,122,380620,2,0,L|313:115,1,50,0|0,0:0|0:0,0:0:0:0:
51,152,380768,2,0,L|52:217,1,50,10|0,0:0|0:0,0:0:0:0:
100,232,380915,2,0,L|169:232,1,50,0|0,0:0|0:0,0:0:0:0:
333,205,381062,2,0,L|281:202,1,50,10|0,0:0|0:0,0:0:0:0:
119,154,381209,2,0,L|197:158,1,50,0|0,0:0|0:0,0:0:0:0:
403,156,381356,6,0,L|406:207,1,50,10|0,0:0|0:0,0:0:0:0:
230,273,381503,2,0,L|171:278,1,50,0|0,0:0|0:0,0:0:0:0:
359,318,381650,2,0,L|425:309,1,50,0|0,0:0|0:0,0:0:0:0:
114,293,381797,2,0,L|44:279,1,50,10|0,0:0|0:0,0:0:0:0:
65,225,381944,2,0,L|133:224,1,50,0|0,0:0|0:0,0:0:0:0:
331,191,382091,2,0,L|255:190,1,50,0|0,0:0|0:0,0:0:0:0:
91,187,382238,2,0,L|35:188,1,50,10|0,0:0|0:0,0:0:0:0:
309,151,382385,2,0,L|370:151,1,50,0|0,0:0|0:0,0:0:0:0:
118,136,382532,2,0,L|68:136,1,50,10|0,0:0|0:0,0:0:0:0:
356,104,382679,2,0,L|294:99,1,50,0|0,0:0|0:0,0:0:0:0:
116,264,382827,6,0,L|33:264,1,50,10|0,0:0|0:0,0:0:0:0:
245,251,382974,2,0,L|312:249,1,50,0|0,0:0|0:0,0:0:0:0:
245,251,383121,2,0,L|184:249,1,50,0|0,0:0|0:0,0:0:0:0:
383,139,383268,2,10,L|387:194,1,50,10|0,0:0|0:0,0:0:0:0:
129,264,383414,1,8,0:0:0:0:
300,279,383488,1,8,0:0:0:0:
473,292,383561,1,8,0:0:0:0:
300,279,383635,1,8,0:0:0:0:
129,264,383709,6,0,P|86:216|196:118,1,225.000008583069,10|0,0:0|0:0,0:0:0:0:
473,292,384002,1,12,0:0:0:0:
256,192,384149,12,0,385767,0:0:0:0:
