osu file format v14

[General]
AudioFilename: audio.mp3
AudioLeadIn: 0
PreviewTime: 111544
Countdown: 0
SampleSet: Soft
StackLeniency: 0.7
Mode: 3
LetterboxInBreaks: 0
SpecialStyle: 0
WidescreenStoryboard: 0

[Editor]
Bookmarks: 42872,56894,70807,84720,98633,112546,126459,140372,154285,168198,182111,196024,209937,223850,237763,267328,281241,295155,309068,322981
DistanceSpacing: 1
BeatDivisor: 4
GridSize: 8
TimelineZoom: 1.8

[Metadata]
Title:Intertwined infinite/Sky Gate--Introduction/Wind God Girl Arrange
TitleUnicode:Intertwined infinite/Sky Gate--Introduction/Wind God Girl Arrange
Artist:FELT
ArtistUnicode:FELT
Creator:Wonki
Version:Trinity
Source:東方Project
Tags:Milky Wink NAGI☆ 舞花 Maika Reitaisai SP 風神少女 Wind God Girl 東方花映塚 〜 Phantasmagoria of Flower View
BeatmapID:1220737
BeatmapSetID:576634

[Difficulty]
HPDrainRate:8.3
CircleSize:7
OverallDifficulty:7.5
ApproachRate:5
SliderMultiplier:1.4
SliderTickRate:1

[Events]
//Background and Video events
0,0,"skygate.jpg",0,0
//Break Periods
//Storyboard Layer 0 (Background)
//Storyboard Layer 1 (Fail)
//Storyboard Layer 2 (Pass)
//Storyboard Layer 3 (Foreground)
//Storyboard Sound Samples

[TimingPoints]
1264,1200,4,2,1,100,1,0
1264,-36.231884057971,4,2,1,100,0,0
6064,645.161290322581,4,2,1,100,1,0
6064,-67.3913043478261,4,2,1,100,0,0
6386,682.59385665529,4,2,1,100,1,0
6386,-63.6956521739131,4,2,1,100,0,0
6727,958.772770853308,4,2,1,100,1,0
6727,-45.3478260869565,4,2,1,100,0,0
8644,1054.03103302881,4,2,1,100,1,0
8644,-41.2495073742073,4,2,1,100,0,0
10752,1212.12121212121,4,2,1,100,1,0
10752,-35.8695652173914,4,2,1,100,0,0
13176,600,4,2,1,100,1,0
13176,-72.463768115942,4,2,1,100,0,0
13251,800,4,2,1,100,1,0
13251,-54.3478260869565,4,2,1,100,0,0
13351,721.153846153846,4,2,1,100,1,0
13351,-60.2898550724638,4,2,1,100,0,0
14793,1069.32810550704,4,2,1,100,1,0
14793,-40.6594202898551,4,2,1,100,0,0
16931,857.142857142857,4,2,1,100,1,0
16931,-50.7246376811594,4,2,1,100,0,0
17359,983.606557377049,4,2,1,100,1,0
17359,-44.2028985507246,4,2,1,100,0,0
17850,1385.36134841838,4,2,1,100,1,0
17850,-31.3840579710145,4,2,1,100,0,0
20620,1010.10101010101,4,2,1,100,1,0
20620,-43.0434782608696,4,2,1,100,0,0
22640,750,4,2,1,100,1,0
22640,-57.9710144927536,4,2,1,100,0,0
22686,655.737704918033,4,2,1,100,1,0
22686,-66.3043478260869,4,2,1,100,0,0
22972,641.711229946524,4,2,1,100,1,0
22972,-67.7536231884058,4,2,1,100,0,0
23292,630.252100840336,4,2,1,100,1,0
23292,-68.9855072463768,4,2,1,100,0,0
23922,1185.77075098814,4,2,1,100,1,0
23922,-36.6666666666667,4,2,1,100,0,0
26293,2898.55072463768,4,2,1,100,1,0
26293,-15,4,2,1,100,0,0
42903,434.782608695652,4,2,1,100,1,0
42958,434.782608695652,4,2,1,100,1,0
112523,-100,4,2,1,100,0,1
140349,-100,4,2,1,100,0,0
182088,-100,4,2,1,100,0,1
209914,-100,4,2,1,100,0,0
267305,-117.647058823529,4,2,1,100,0,0
278827,-100,4,2,1,100,0,0
281218,-100,4,2,1,100,0,1
295131,-100,4,2,1,100,0,0

[HitObjects]
36,192,1264,128,0,37887:0:0:0:0:
109,192,6064,1,0,0:0:0:0:
256,192,6386,1,0,0:0:0:0:
402,192,6727,1,0,0:0:0:0:
475,192,8644,1,0,0:0:0:0:
402,192,10752,1,0,0:0:0:0:
329,192,13176,1,0,0:0:0:0:
256,192,13251,1,0,0:0:0:0:
182,192,13351,1,0,0:0:0:0:
475,192,14793,1,0,0:0:0:0:
182,192,16931,1,0,0:0:0:0:
329,192,16931,1,0,0:0:0:0:
402,192,17359,1,0,0:0:0:0:
475,192,17850,128,0,41148:0:0:0:0:
402,192,20620,1,0,0:0:0:0:
329,192,22640,1,0,0:0:0:0:
182,192,22686,1,0,0:0:0:0:
256,192,22972,1,0,0:0:0:0:
402,192,23292,1,0,0:0:0:0:
182,192,23922,1,0,0:0:0:0:
402,192,26293,1,0,0:0:0:0:
256,192,26293,128,0,39336:0:0:0:0:
329,192,42903,128,0,43610:0:0:0:0:
402,192,42930,128,0,43610:0:0:0:0:
475,192,42958,128,0,43610:0:0:0:0:
36,192,42958,1,0,0:0:0:0:
109,192,43175,1,0,0:0:0:0:
182,192,43392,1,0,0:0:0:0:
36,192,43610,128,0,44479:0:0:0:0:
256,192,43610,1,0,0:0:0:0:
182,192,43827,1,0,0:0:0:0:
109,192,44044,1,0,0:0:0:0:
182,192,44262,128,0,44479:0:0:0:0:
402,192,44262,1,0,0:0:0:0:
109,192,44479,128,0,44697:0:0:0:0:
329,192,44479,1,0,0:0:0:0:
475,192,44660,128,0,45349:0:0:0:0:
402,192,44697,128,0,45349:0:0:0:0:
256,192,44697,1,0,0:0:0:0:
36,192,44914,1,0,0:0:0:0:
109,192,45131,1,0,0:0:0:0:
182,192,45349,128,0,46218:0:0:0:0:
329,192,45349,1,0,0:0:0:0:
402,192,45566,1,0,0:0:0:0:
475,192,45784,1,0,0:0:0:0:
36,192,46001,128,0,46218:0:0:0:0:
402,192,46001,1,0,0:0:0:0:
109,192,46218,128,0,46436:0:0:0:0:
329,192,46218,1,0,0:0:0:0:
256,192,46436,1,0,0:0:0:0:
475,192,46436,128,0,47088:0:0:0:0:
402,192,46436,128,0,47088:0:0:0:0:
36,192,46653,1,0,0:0:0:0:
182,192,46871,1,0,0:0:0:0:
329,192,47088,1,0,0:0:0:0:
109,192,47088,128,0,47740:0:0:0:0:
256,192,47305,1,0,0:0:0:0:
475,192,47523,128,0,47740:0:0:0:0:
182,192,47523,1,0,0:0:0:0:
329,192,47740,128,0,48175:0:0:0:0:
36,192,47740,1,0,0:0:0:0:
402,192,47958,128,0,48175:0:0:0:0:
109,192,47958,1,0,0:0:0:0:
475,192,48175,128,0,49262:0:0:0:0:
182,192,48175,1,0,0:0:0:0:
256,192,48392,128,0,48827:0:0:0:0:
36,192,48392,1,0,0:0:0:0:
182,192,48610,128,0,49044:0:0:0:0:
402,192,48610,1,0,0:0:0:0:
109,192,48827,128,0,49262:0:0:0:0:
329,192,48827,1,0,0:0:0:0:
36,192,49044,128,0,49479:0:0:0:0:
256,192,49044,1,0,0:0:0:0:
182,192,49262,128,0,49697:0:0:0:0:
329,192,49262,1,0,0:0:0:0:
109,192,49479,128,0,49914:0:0:0:0:
402,192,49479,1,0,0:0:0:0:
36,192,49697,128,0,50131:0:0:0:0:
475,192,49697,1,0,0:0:0:0:
182,192,49914,1,0,0:0:0:0:
329,192,49914,128,0,50566:0:0:0:0:
402,192,49968,128,0,50566:0:0:0:0:
109,192,50131,1,0,0:0:0:0:
36,192,50349,1,0,0:0:0:0:
182,192,50566,128,0,51436:0:0:0:0:
256,192,50566,1,0,0:0:0:0:
475,192,50784,1,0,0:0:0:0:
402,192,51001,1,0,0:0:0:0:
329,192,51218,128,0,51436:0:0:0:0:
36,192,51218,1,0,0:0:0:0:
402,192,51436,128,0,51653:0:0:0:0:
109,192,51436,1,0,0:0:0:0:
36,192,51653,128,0,52305:0:0:0:0:
182,192,51653,1,0,0:0:0:0:
329,192,51871,1,0,0:0:0:0:
402,192,52088,1,0,0:0:0:0:
109,192,52305,128,0,52958:0:0:0:0:
182,192,52305,128,0,52958:0:0:0:0:
475,192,52305,1,0,0:0:0:0:
256,192,52523,1,0,0:0:0:0:
329,192,52740,1,0,0:0:0:0:
36,192,52958,128,0,53175:0:0:0:0:
402,192,52958,1,0,0:0:0:0:
182,192,53175,128,0,53392:0:0:0:0:
475,192,53175,1,0,0:0:0:0:
329,192,53392,128,0,54044:0:0:0:0:
256,192,53392,1,0,0:0:0:0:
36,192,53392,128,0,53827:0:0:0:0:
109,192,53610,128,0,53827:0:0:0:0:
475,192,53610,1,0,0:0:0:0:
182,192,53827,128,0,54044:0:0:0:0:
256,192,53827,1,0,0:0:0:0:
475,192,54044,128,0,54479:0:0:0:0:
36,192,54044,1,0,0:0:0:0:
182,192,54262,1,0,0:0:0:0:
402,192,54479,128,0,54914:0:0:0:0:
256,192,54479,1,0,0:0:0:0:
109,192,54697,1,0,0:0:0:0:
329,192,54914,128,0,55131:0:0:0:0:
182,192,54914,1,0,0:0:0:0:
256,192,55131,128,0,55349:0:0:0:0:
475,192,55131,1,0,0:0:0:0:
182,192,55349,128,0,56001:0:0:0:0:
402,192,55349,1,0,0:0:0:0:
329,192,55566,128,0,56001:0:0:0:0:
36,192,55566,1,0,0:0:0:0:
402,192,55784,1,0,0:0:0:0:
475,192,55784,128,0,56001:0:0:0:0:
36,192,56001,128,0,56218:0:0:0:0:
256,192,56001,128,0,56218:0:0:0:0:
109,192,56218,128,0,56436:0:0:0:0:
329,192,56218,128,0,56436:0:0:0:0:
182,192,56436,128,0,56653:0:0:0:0:
402,192,56436,128,0,56653:0:0:0:0:
256,192,56653,128,0,56871:0:0:0:0:
475,192,56653,128,0,56871:0:0:0:0:
182,192,56871,128,0,57523:0:0:0:0:
329,192,56871,128,0,57523:0:0:0:0:
36,192,56871,128,0,57088:0:0:0:70:01.wav
109,192,57088,128,0,57305:0:0:0:0:
475,192,57305,128,0,58175:0:0:0:0:
256,192,57523,128,0,58175:0:0:0:0:
109,192,57523,128,0,58175:0:0:0:0:
402,192,57523,128,0,58175:0:0:0:0:
182,192,58175,128,0,58392:0:0:0:0:
36,192,58175,128,0,58610:0:0:0:0:
475,192,58392,128,0,58610:0:0:0:0:
402,192,58610,128,0,59262:0:0:0:0:
329,192,58610,128,0,58827:0:0:0:0:
109,192,58610,128,0,59262:0:0:0:0:
256,192,58827,128,0,59044:0:0:0:0:
36,192,59044,128,0,59914:0:0:0:0:
182,192,59262,128,0,59914:0:0:0:0:
329,192,59262,128,0,59914:0:0:0:0:
475,192,59262,128,0,59914:0:0:0:0:
256,192,59914,128,0,60131:0:0:0:0:
402,192,59914,128,0,60349:0:0:0:0:
109,192,60131,128,0,60349:0:0:0:0:
36,192,60349,128,0,61001:0:0:0:0:
329,192,60349,128,0,61001:0:0:0:0:
182,192,60349,128,0,60566:0:0:0:0:
256,192,60566,128,0,60784:0:0:0:0:
475,192,60784,128,0,61436:0:0:0:0:
402,192,61001,128,0,61436:0:0:0:0:
109,192,61001,128,0,61436:0:0:0:0:
256,192,61001,128,0,61436:0:0:0:0:
36,192,61436,128,0,61653:0:0:0:0:
329,192,61436,128,0,61653:0:0:0:0:
182,192,61653,128,0,61871:0:0:0:0:
475,192,61653,128,0,61871:0:0:0:0:
402,192,61871,128,0,62088:0:0:0:0:
109,192,61871,128,0,62088:0:0:0:0:
36,192,62088,128,0,62957:0:0:0:0:
329,192,62088,128,0,62957:0:0:0:0:
256,192,62957,128,0,63175:0:0:0:0:
475,192,62957,128,0,63175:0:0:0:0:
402,192,63175,128,0,63392:0:0:0:0:
182,192,63175,128,0,63392:0:0:0:0:
109,192,63392,128,0,63610:0:0:0:0:
329,192,63392,128,0,63610:0:0:0:0:
256,192,63610,128,0,63827:0:0:0:0:
36,192,63610,128,0,63827:0:0:0:0:
182,192,63827,128,0,64479:0:0:0:0:
475,192,63827,128,0,64479:0:0:0:0:
402,192,63827,128,0,64044:0:0:0:0:
329,192,64044,128,0,64262:0:0:0:0:
36,192,64262,128,0,65131:0:0:0:0:
256,192,64479,128,0,65131:0:0:0:0:
109,192,64479,128,0,65131:0:0:0:0:
402,192,64479,128,0,65131:0:0:0:0:
182,192,65131,128,0,65349:0:0:0:0:
329,192,65131,128,0,65349:0:0:0:0:
256,192,65349,128,0,65566:0:0:0:0:
402,192,65349,128,0,65566:0:0:0:0:
182,192,65566,128,0,66218:0:0:0:0:
329,192,65566,128,0,66218:0:0:0:0:
475,192,65566,128,0,65784:0:0:0:0:
36,192,65784,128,0,66001:0:0:0:0:
475,192,66001,128,0,66871:0:0:0:0:
256,192,66218,128,0,66871:0:0:0:0:
109,192,66218,128,0,66871:0:0:0:0:
402,192,66218,128,0,66871:0:0:0:0:
329,192,66871,128,0,67088:0:0:0:0:
36,192,66871,128,0,67088:0:0:0:0:
182,192,67088,128,0,67305:0:0:0:0:
475,192,67088,128,0,67305:0:0:0:0:
329,192,67305,128,0,69044:0:0:0:0:
36,192,67305,128,0,69044:0:0:0:0:
256,192,67305,128,0,70784:0:0:0:0:
36,192,70784,1,0,0:0:0:70:cymbol.wav
109,192,70784,1,4,0:0:0:0:
402,192,70784,1,0,0:0:0:0:
475,192,70784,1,0,0:0:0:0:
182,192,71001,1,0,0:0:0:0:
329,192,71218,1,0,0:0:0:0:
475,192,71218,1,4,0:0:0:0:
109,192,71436,1,0,0:0:0:0:
329,192,71653,1,0,0:0:0:0:
475,192,71653,1,4,0:0:0:0:
36,192,71871,1,0,0:0:0:0:
329,192,72088,1,0,0:0:0:0:
475,192,72088,1,4,0:0:0:0:
182,192,72088,128,0,72523:0:0:0:0:
256,192,72305,1,0,0:0:0:0:
109,192,72523,1,0,0:0:0:0:
36,192,72523,1,4,0:0:0:0:
329,192,72523,128,0,73175:0:0:0:0:
475,192,72740,1,0,0:0:0:0:
182,192,72957,128,0,73175:0:0:0:0:
109,192,72957,1,0,0:0:0:0:
36,192,72957,1,4,0:0:0:0:
402,192,73175,1,0,0:0:0:0:
256,192,73175,128,0,73610:0:0:0:0:
109,192,73392,1,0,0:0:0:0:
36,192,73392,1,4,0:0:0:0:
182,192,73610,128,0,74262:0:0:0:0:
329,192,73610,1,0,0:0:0:0:
36,192,73827,1,4,0:0:0:0:
109,192,73827,1,0,0:0:0:0:
329,192,74044,128,0,74262:0:0:0:0:
256,192,74044,1,0,0:0:0:0:
36,192,74262,1,4,0:0:0:0:
109,192,74262,1,0,0:0:0:70:cymbol.wav
402,192,74262,1,0,0:0:0:0:
475,192,74262,1,0,0:0:0:0:
256,192,74479,128,0,75131:0:0:0:0:
329,192,74479,1,0,0:0:0:0:
182,192,74697,128,0,75131:0:0:0:0:
36,192,74697,1,0,0:0:0:0:
109,192,74697,1,0,0:0:0:0:
402,192,74914,1,0,0:0:0:0:
475,192,75131,1,4,0:0:0:0:
329,192,75131,1,0,0:0:0:0:
36,192,75349,1,0,0:0:0:0:
182,192,75566,128,0,76001:0:0:0:0:
329,192,75566,1,0,0:0:0:0:
475,192,75566,1,4,0:0:0:0:
109,192,75784,128,0,76001:0:0:0:0:
256,192,75784,1,0,0:0:0:0:
36,192,76001,128,0,76653:0:0:0:0:
402,192,76001,1,0,0:0:0:0:
475,192,76001,1,4,0:0:0:0:
256,192,76218,1,0,0:0:0:0:
182,192,76436,128,0,76653:0:0:0:0:
402,192,76436,1,0,0:0:0:0:
329,192,76436,1,4,0:0:0:0:
109,192,76653,128,0,76871:0:0:0:0:
475,192,76653,1,0,0:0:0:0:
329,192,76871,1,4,0:0:0:0:
256,192,76871,1,0,0:0:0:0:
182,192,76979,1,0,0:0:0:0:
402,192,77088,128,0,77523:0:0:0:0:
109,192,77088,1,0,0:0:0:0:
36,192,77305,1,4,0:0:0:0:
256,192,77305,1,0,0:0:0:0:
329,192,77523,1,0,0:0:0:0:
182,192,77523,128,0,77740:0:0:0:0:
256,192,77631,1,0,0:0:0:0:
36,192,77740,1,4,0:0:0:0:
109,192,77740,1,0,0:0:0:70:cymbol.wav
402,192,77740,1,0,0:0:0:0:
475,192,77740,1,0,0:0:0:0:
329,192,77740,128,0,78610:0:0:0:0:
256,192,77957,128,0,78610:0:0:0:0:
36,192,77957,1,0,0:0:0:0:
402,192,78175,1,0,0:0:0:0:
475,192,78175,1,4,0:0:0:0:
182,192,78175,128,0,78610:0:0:0:0:
109,192,78392,1,0,0:0:0:0:
475,192,78610,1,4,0:0:0:0:
402,192,78610,1,0,0:0:0:0:
256,192,78827,1,0,0:0:0:0:
109,192,79044,1,0,0:0:0:0:
36,192,79044,1,4,0:0:0:0:
475,192,79044,128,0,79697:0:0:0:0:
402,192,79262,128,0,79697:0:0:0:0:
256,192,79262,1,0,0:0:0:0:
109,192,79479,1,4,0:0:0:0:
182,192,79479,1,0,0:0:0:0:
329,192,79697,1,0,0:0:0:0:
36,192,79697,128,0,79914:0:0:0:0:
109,192,79914,128,0,80349:0:0:0:0:
256,192,79914,1,4,0:0:0:0:
475,192,79914,1,0,0:0:0:0:
36,192,80131,128,0,80349:0:0:0:0:
402,192,80131,1,0,0:0:0:0:
329,192,80349,1,4,0:0:0:0:
182,192,80349,1,0,0:0:0:0:
109,192,80566,1,0,0:0:0:0:
475,192,80784,128,0,81218:0:0:0:0:
256,192,80784,1,0,0:0:0:0:
36,192,80784,1,4,0:0:0:0:
329,192,81001,1,0,0:0:0:0:
402,192,81218,1,0,0:0:0:0:
256,192,81218,1,4,0:0:0:0:
36,192,81218,1,0,0:0:0:0:
109,192,81218,1,0,0:0:0:0:
182,192,81218,128,0,81653:0:0:0:0:
475,192,81436,1,0,0:0:0:0:
329,192,81653,128,0,82088:0:0:0:0:
109,192,81653,1,0,0:0:0:0:
36,192,81653,1,4,0:0:0:0:
182,192,81871,128,0,82088:0:0:0:0:
402,192,81871,1,0,0:0:0:0:
36,192,82088,1,4,0:0:0:0:
256,192,82088,1,0,0:0:0:0:
182,192,82305,1,0,0:0:0:0:
329,192,82305,128,0,83610:0:0:0:0:
36,192,82523,1,4,0:0:0:0:
475,192,82523,1,0,0:0:0:0:
402,192,82740,128,0,83610:0:0:0:0:
182,192,82740,1,0,0:0:0:0:
109,192,82957,1,4,0:0:0:0:
36,192,82957,128,0,83175:0:0:0:0:
475,192,83175,128,0,83610:0:0:0:0:
256,192,83175,128,0,83392:0:0:0:0:
36,192,83392,1,4,0:0:0:0:
109,192,83392,128,0,83610:0:0:0:0:
182,192,83610,128,0,83827:0:0:0:0:
36,192,83610,128,0,84044:0:0:0:0:
329,192,83827,1,4,0:0:0:0:
475,192,83827,1,0,0:0:0:0:
109,192,84044,1,0,0:0:0:0:
329,192,84044,1,0,0:0:0:0:
475,192,84044,128,0,84479:0:0:0:0:
182,192,84044,1,8,0:0:0:0:
402,192,84262,128,0,84479:0:0:0:0:
256,192,84262,1,0,0:0:0:0:
109,192,84262,1,4,0:0:0:0:
329,192,84479,128,0,84697:0:0:0:0:
182,192,84479,1,0,0:0:0:0:
36,192,84479,1,4,0:0:0:0:
36,192,84697,1,4,0:0:0:0:
109,192,84697,1,0,0:0:0:70:cymbol.wav
475,192,84697,1,0,0:0:0:0:
402,192,84697,1,0,0:0:0:0:
256,192,84914,1,0,0:0:0:0:
182,192,85131,1,0,0:0:0:0:
475,192,85131,1,0,0:0:0:0:
36,192,85131,1,8,0:0:0:0:
402,192,85349,1,0,0:0:0:0:
329,192,85457,1,0,0:0:0:0:
256,192,85566,1,0,0:0:0:0:
109,192,85675,1,0,0:0:0:0:
475,192,85784,1,0,0:0:0:0:
182,192,85784,1,4,0:0:0:0:
329,192,86001,128,0,86436:0:0:0:0:
475,192,86001,1,0,0:0:0:0:
109,192,86218,1,0,0:0:0:0:
182,192,86218,128,0,86436:0:0:0:70:hihat.wav
36,192,86218,1,4,0:0:0:0:
402,192,86436,128,0,86871:0:0:0:0:
256,192,86436,1,0,0:0:0:0:
109,192,86653,1,0,0:0:0:0:
182,192,86653,1,4,0:0:0:0:
475,192,86871,128,0,87523:0:0:0:0:
182,192,86871,1,0,0:0:0:0:
109,192,86871,1,0,0:0:0:0:
36,192,86871,1,8,0:0:0:0:
329,192,87088,128,0,87523:0:0:0:0:
36,192,87088,1,0,0:0:0:0:
109,192,87197,1,0,0:0:0:0:
182,192,87305,1,0,0:0:0:0:
109,192,87414,1,0,0:0:0:0:
36,192,87523,1,4,0:0:0:0:
402,192,87523,1,0,0:0:0:0:
182,192,87523,128,0,89044:0:0:0:0:
402,192,87740,1,0,0:0:0:0:
329,192,87740,1,0,0:0:0:0:
475,192,87740,1,8,0:0:0:0:
402,192,87849,1,0,0:0:0:0:
329,192,87849,1,0,0:0:0:0:
475,192,87849,1,8,0:0:0:0:
256,192,87957,128,0,89044:0:0:0:0:
109,192,87957,1,0,0:0:0:0:
36,192,87957,1,4,0:0:0:0:
475,192,88175,1,0,0:0:0:0:
329,192,88175,1,4,0:0:0:0:
475,192,88392,128,0,89044:0:0:0:0:
36,192,88392,1,0,0:0:0:0:
109,192,88610,1,0,0:0:0:0:
402,192,88610,1,8,0:0:0:0:
329,192,88610,1,0,0:0:0:0:
36,192,88827,1,0,0:0:0:0:
402,192,88936,1,0,0:0:0:0:
109,192,89044,1,0,0:0:0:0:
182,192,89153,1,0,0:0:0:0:
256,192,89262,1,4,0:0:0:0:
36,192,89262,1,0,0:0:0:0:
109,192,89479,128,0,89914:0:0:0:0:
329,192,89479,1,0,0:0:0:0:
182,192,89697,128,0,89914:0:0:0:70:hihat.wav
402,192,89697,1,4,0:0:0:0:
475,192,89697,1,0,0:0:0:0:
36,192,89914,128,0,90566:0:0:0:0:
329,192,89914,1,0,0:0:0:0:
256,192,90131,1,4,0:0:0:0:
182,192,90131,1,0,0:0:0:0:
182,192,90349,128,0,90566:0:0:0:0:
329,192,90349,1,0,0:0:0:0:
402,192,90349,1,0,0:0:0:0:
475,192,90349,1,8,0:0:0:0:
256,192,90566,1,0,0:0:0:0:
109,192,90566,128,0,91001:0:0:0:0:
329,192,90675,1,0,0:0:0:0:
475,192,90784,1,0,0:0:0:0:
402,192,90892,1,0,0:0:0:0:
256,192,90892,128,0,91001:0:0:0:0:
329,192,91001,1,4,0:0:0:0:
182,192,91001,128,0,91653:0:0:0:0:
36,192,91001,1,0,0:0:0:0:
329,192,91218,1,0,0:0:0:0:
402,192,91218,1,0,0:0:0:0:
475,192,91218,1,8,0:0:0:0:
329,192,91327,1,0,0:0:0:0:
402,192,91327,1,0,0:0:0:0:
475,192,91327,1,8,0:0:0:0:
36,192,91436,1,4,0:0:0:0:
109,192,91436,1,0,0:0:0:0:
256,192,91436,128,0,91653:0:0:0:0:
36,192,91653,1,4,0:0:0:0:
109,192,91653,1,0,0:0:0:70:cymbol.wav
402,192,91653,1,0,0:0:0:0:
475,192,91653,1,0,0:0:0:0:
329,192,91653,128,0,91871:0:0:0:0:
402,192,91871,128,0,92088:0:0:0:0:
475,192,92088,128,0,92523:0:0:0:0:
36,192,92088,1,8,0:0:0:0:
109,192,92088,1,0,0:0:0:0:
182,192,92088,1,0,0:0:0:0:
329,192,92305,128,0,92523:0:0:0:0:
36,192,92305,1,0,0:0:0:0:
109,192,92414,1,0,0:0:0:0:
182,192,92523,1,0,0:0:0:0:
109,192,92631,1,0,0:0:0:0:
36,192,92740,1,0,0:0:0:0:
475,192,92740,1,4,0:0:0:0:
329,192,92740,128,0,93175:0:0:0:0:
182,192,92957,128,0,93175:0:0:0:0:
36,192,92957,1,0,0:0:0:0:
256,192,93175,128,0,93610:0:0:0:0:
109,192,93175,1,0,0:0:0:0:
402,192,93175,1,4,0:0:0:0:
36,192,93175,128,0,93392:0:0:0:0:
475,192,93175,128,0,93392:0:0:0:70:hihat.wav
182,192,93392,1,0,0:0:0:0:
329,192,93392,1,0,0:0:0:0:
109,192,93610,1,0,0:0:0:0:
402,192,93610,1,4,0:0:0:0:
36,192,93827,1,0,0:0:0:0:
256,192,93827,1,0,0:0:0:0:
475,192,93827,1,8,0:0:0:0:
402,192,94044,1,0,0:0:0:0:
256,192,94153,1,0,0:0:0:0:
109,192,94262,128,0,95131:0:0:0:0:
475,192,94262,1,0,0:0:0:0:
329,192,94371,1,0,0:0:0:0:
36,192,94479,1,4,0:0:0:0:
256,192,94479,1,0,0:0:0:0:
182,192,94697,128,0,95131:0:0:0:0:
329,192,94697,1,0,0:0:0:0:
402,192,94697,1,0,0:0:0:0:
475,192,94697,1,8,0:0:0:0:
475,192,94805,1,8,0:0:0:0:
402,192,94805,1,0,0:0:0:0:
329,192,94805,1,0,0:0:0:0:
256,192,94914,1,4,0:0:0:0:
36,192,94914,1,0,0:0:0:0:
402,192,95131,1,4,0:0:0:0:
475,192,95131,1,0,0:0:0:0:
36,192,95131,128,0,95566:0:0:0:0:
329,192,95349,1,0,0:0:0:0:
182,192,95457,1,4,0:0:0:0:
109,192,95457,1,0,0:0:0:0:
329,192,95566,1,0,0:0:0:0:
402,192,95566,1,0,0:0:0:0:
475,192,95566,1,8,0:0:0:0:
256,192,95566,128,0,96436:0:0:0:0:
182,192,95784,128,0,96436:0:0:0:0:
36,192,95784,1,0,0:0:0:0:
109,192,95892,1,0,0:0:0:0:
475,192,96001,1,0,0:0:0:0:
402,192,96110,1,0,0:0:0:0:
109,192,96218,128,0,96436:0:0:0:0:
329,192,96218,1,0,0:0:0:0:
36,192,96218,1,4,0:0:0:0:
475,192,96436,1,0,0:0:0:0:
109,192,96653,1,0,0:0:0:0:
402,192,96653,1,0,0:0:0:0:
182,192,96653,128,0,97740:0:0:0:0:
256,192,96653,1,0,0:0:0:0:
36,192,96653,1,4,0:0:0:0:
475,192,96653,128,0,97088:0:0:0:0:
329,192,96871,1,0,0:0:0:0:
329,192,97088,128,0,97740:0:0:0:0:
402,192,97088,128,0,97305:0:0:0:0:
109,192,97088,1,0,0:0:0:0:
36,192,97088,1,4,0:0:0:0:
475,192,97305,128,0,97631:0:0:0:0:
36,192,97305,1,8,0:0:0:0:
109,192,97305,1,0,0:0:0:0:
256,192,97305,1,0,0:0:0:0:
402,192,97523,128,0,97631:0:0:0:0:
36,192,97523,1,4,0:0:0:0:
109,192,97523,1,0,0:0:0:0:
256,192,97631,1,0,0:0:0:0:
402,192,97740,1,8,0:0:0:0:
475,192,97740,1,0,0:0:0:0:
36,192,97740,1,0,0:0:0:0:
182,192,97957,128,0,98501:0:0:0:0:
329,192,97957,1,4,0:0:0:0:
475,192,97957,1,0,0:0:0:0:
109,192,98175,128,0,98501:0:0:0:0:
329,192,98175,1,0,0:0:0:0:
402,192,98175,1,0,0:0:0:0:
475,192,98175,1,8,0:0:0:0:
329,192,98284,1,0,0:0:0:0:
402,192,98284,1,0,0:0:0:0:
475,192,98284,1,8,0:0:0:0:
36,192,98392,128,4,98501:0:0:0:0:
256,192,98392,128,0,98610:0:0:0:0:
36,192,98610,1,4,0:0:0:0:
109,192,98610,1,0,0:0:0:70:cymbol.wav
182,192,98610,1,0,0:0:0:0:
402,192,98610,128,0,99262:0:0:0:0:
475,192,98610,128,0,99262:0:0:0:0:
329,192,98610,1,0,0:0:0:0:
109,192,99044,1,8,0:0:0:0:
256,192,99044,1,0,0:0:0:0:
36,192,99044,1,0,0:0:0:0:
329,192,99262,128,0,99697:0:0:0:0:
36,192,99262,128,0,99914:0:0:0:0:
182,192,99262,1,0,0:0:0:0:
475,192,99479,128,0,99697:0:0:0:0:
402,192,99479,1,0,0:0:0:0:
109,192,99697,128,0,99914:0:0:0:0:
256,192,99697,1,4,0:0:0:0:
475,192,99914,128,0,100240:0:0:0:0:
182,192,99914,128,0,100240:0:0:0:0:
329,192,99914,1,8,0:0:0:0:
402,192,99914,1,0,0:0:0:0:
109,192,100131,1,0,0:0:0:0:
402,192,100131,1,4,0:0:0:0:
36,192,100131,128,0,100566:0:0:0:0:
329,192,100131,128,0,100566:0:0:0:0:
182,192,100349,1,0,0:0:0:0:
475,192,100349,1,0,0:0:0:0:
402,192,100566,1,4,0:0:0:0:
475,192,100566,1,0,0:0:0:0:
109,192,100566,128,0,100784:0:0:0:0:
182,192,100784,128,0,101218:0:0:0:0:
329,192,100784,1,0,0:0:0:0:
475,192,100784,1,0,0:0:0:0:
402,192,100784,1,8,0:0:0:0:
329,192,101001,128,0,101436:0:0:0:0:
36,192,101001,1,0,0:0:0:0:
402,192,101218,128,0,101653:0:0:0:0:
109,192,101218,1,0,0:0:0:0:
182,192,101327,1,0,0:0:0:0:
475,192,101436,128,0,101871:0:0:0:0:
36,192,101436,1,4,0:0:0:0:
256,192,101436,1,0,0:0:0:0:
329,192,101653,128,0,102088:0:0:0:0:
109,192,101653,1,8,0:0:0:0:
36,192,101653,1,0,0:0:0:0:
182,192,101653,1,0,0:0:0:0:
402,192,101871,128,0,102088:0:0:0:0:
109,192,101871,1,4,0:0:0:0:
182,192,101871,1,0,0:0:0:0:
475,192,102088,128,0,102523:0:0:0:0:
182,192,102088,1,4,0:0:0:0:
256,192,102088,1,0,0:0:0:0:
36,192,102088,128,0,102523:0:0:0:0:
182,192,102523,128,0,103175:0:0:0:0:
329,192,102523,128,0,103175:0:0:0:0:
109,192,102523,1,0,0:0:0:0:
402,192,102523,1,8,0:0:0:0:
109,192,102740,128,0,103175:0:0:0:0:
402,192,102740,128,0,103175:0:0:0:0:
256,192,102740,1,0,0:0:0:0:
36,192,102957,1,0,0:0:0:0:
475,192,102957,1,0,0:0:0:0:
256,192,103175,1,4,0:0:0:0:
36,192,103175,128,0,103610:0:0:0:0:
475,192,103175,128,0,103392:0:0:0:0:
182,192,103284,1,0,0:0:0:0:
329,192,103392,1,0,0:0:0:0:
109,192,103392,1,8,0:0:0:0:
402,192,103392,1,0,0:0:0:0:
402,192,103610,1,4,0:0:0:0:
475,192,103610,128,0,104262:0:0:0:0:
256,192,103610,128,0,104044:0:0:0:0:
109,192,103827,1,0,0:0:0:0:
36,192,104044,1,4,0:0:0:0:
109,192,104044,1,0,0:0:0:0:
402,192,104044,128,0,104262:0:0:0:0:
182,192,104044,128,0,104262:0:0:0:0:
36,192,104262,1,0,0:0:0:0:
256,192,104262,1,0,0:0:0:0:
329,192,104262,1,8,0:0:0:0:
109,192,104262,128,0,104914:0:0:0:0:
182,192,104479,128,0,104914:0:0:0:0:
475,192,104479,1,0,0:0:0:0:
402,192,104697,1,0,0:0:0:0:
329,192,104805,1,0,0:0:0:0:
475,192,104914,128,0,105131:0:0:0:0:
36,192,104914,1,4,0:0:0:0:
256,192,104914,128,0,105349:0:0:0:0:
109,192,105131,1,0,0:0:0:0:
182,192,105131,1,0,0:0:0:0:
36,192,105131,1,8,0:0:0:0:
329,192,105131,128,0,105349:0:0:0:0:
182,192,105240,1,0,0:0:0:0:
109,192,105240,1,0,0:0:0:0:
36,192,105240,1,8,0:0:0:0:
402,192,105349,1,4,0:0:0:0:
475,192,105349,128,0,106110:0:0:0:0:
109,192,105566,1,0,0:0:0:70:cymbol.wav
36,192,105566,1,4,0:0:0:0:
329,192,105566,1,0,0:0:0:0:
402,192,105566,1,0,0:0:0:0:
402,192,106001,128,0,106110:0:0:0:0:
182,192,106001,1,0,0:0:0:0:
36,192,106001,1,0,0:0:0:0:
109,192,106001,1,8,0:0:0:0:
402,192,106218,1,0,0:0:0:0:
475,192,106218,128,0,106653:0:0:0:0:
36,192,106218,128,0,106979:0:0:0:0:
256,192,106327,1,0,0:0:0:0:
109,192,106436,1,0,0:0:0:0:
182,192,106653,1,0,0:0:0:0:
109,192,106653,1,4,0:0:0:0:
256,192,106762,1,0,0:0:0:0:
182,192,106871,128,0,106979:0:0:0:0:
329,192,106871,1,8,0:0:0:0:
402,192,106871,1,0,0:0:0:0:
475,192,106871,128,0,107523:0:0:0:0:
329,192,107088,128,0,107523:0:0:0:0:
402,192,107088,128,0,107523:0:0:0:0:
36,192,107088,1,0,0:0:0:0:
109,192,107088,1,4,0:0:0:0:
182,192,107088,1,0,0:0:0:0:
109,192,107305,1,0,0:0:0:0:
36,192,107523,128,0,107957:0:0:0:0:
256,192,107523,128,0,107957:0:0:0:0:
182,192,107523,1,4,0:0:0:0:
109,192,107740,128,0,108175:0:0:0:0:
329,192,107740,128,0,108175:0:0:0:0:
402,192,107740,1,8,0:0:0:0:
475,192,107740,1,0,0:0:0:0:
182,192,107957,128,0,108392:0:0:0:0:
402,192,107957,128,0,108392:0:0:0:0:
36,192,108175,1,0,0:0:0:0:
256,192,108284,1,0,0:0:0:0:
475,192,108392,1,4,0:0:0:0:
36,192,108392,128,0,108610:0:0:0:0:
109,192,108392,1,0,0:0:0:0:
329,192,108610,1,0,0:0:0:0:
475,192,108610,1,8,0:0:0:0:
402,192,108610,1,0,0:0:0:0:
182,192,108827,1,4,0:0:0:0:
36,192,108827,1,0,0:0:0:0:
329,192,108827,128,0,110349:0:0:0:0:
182,192,109044,128,0,110349:0:0:0:0:
36,192,109044,1,0,0:0:0:70:cymbol.wav
109,192,109044,1,4,0:0:0:0:
402,192,109044,1,0,0:0:0:0:
475,192,109044,1,0,0:0:0:0:
36,192,109479,1,8,0:0:0:0:
256,192,109479,1,0,0:0:0:0:
475,192,109479,1,0,0:0:0:0:
475,192,109697,1,0,0:0:0:0:
402,192,109697,1,0,0:0:0:0:
109,192,109697,1,0,0:0:0:70:cymbol.wav
36,192,109697,1,4,0:0:0:0:
256,192,109914,1,0,0:0:0:0:
109,192,110131,1,0,0:0:0:0:
36,192,110131,1,4,0:0:0:0:
475,192,110131,128,0,110349:0:0:0:0:
36,192,110349,1,8,0:0:0:0:
109,192,110349,1,0,0:0:0:0:
402,192,110349,1,0,0:0:0:0:
256,192,110349,128,0,110566:0:0:0:0:
109,192,110566,1,0,0:0:0:70:cymbol.wav
36,192,110566,1,4,0:0:0:0:
402,192,110566,128,0,111218:0:0:0:0:
475,192,110566,128,0,111218:0:0:0:0:
109,192,111001,1,0,0:0:0:0:
182,192,111001,1,4,0:0:0:0:
36,192,111218,1,0,0:0:0:0:
109,192,111218,1,0,0:0:0:0:
256,192,111218,1,0,0:0:0:0:
329,192,111218,1,8,0:0:0:0:
109,192,111436,1,0,0:0:0:0:
182,192,111436,1,0,0:0:0:0:
329,192,111436,1,4,0:0:0:0:
402,192,111436,1,0,0:0:0:0:
36,192,111653,1,0,0:0:0:0:
109,192,111653,1,0,0:0:0:0:
402,192,111653,1,0,0:0:0:0:
475,192,111653,1,4,0:0:0:0:
256,192,111871,1,0,0:0:0:0:
109,192,111871,1,8,0:0:0:0:
36,192,111871,1,0,0:0:0:0:
402,192,111871,1,0,0:0:0:0:
475,192,111871,1,4,0:0:0:0:
109,192,112088,1,0,0:0:0:0:
36,192,112088,1,0,0:0:0:0:
182,192,112088,1,4,0:0:0:0:
329,192,112197,1,4,0:0:0:0:
475,192,112197,1,0,0:0:0:0:
182,192,112305,1,4,0:0:0:0:
36,192,112305,1,0,0:0:0:0:
475,192,112414,1,0,0:0:0:0:
329,192,112414,1,4,0:0:0:0:
475,192,112523,128,0,113175:0:0:0:0:
36,192,112523,128,4,112849:0:0:0:0:
182,192,112523,128,0,112849:0:0:0:70:cymbol.wav
329,192,112523,128,0,112849:0:0:0:70:01.wav
329,192,112957,1,0,0:0:0:0:
182,192,112957,1,0,0:0:0:0:
36,192,112957,1,8,0:0:0:0:
109,192,113175,1,4,0:0:0:0:
256,192,113175,1,0,0:0:0:0:
402,192,113175,128,0,113827:0:0:0:0:
36,192,113392,1,0,0:0:0:0:
109,192,113392,1,4,0:0:0:0:
256,192,113501,1,4,0:0:0:0:
329,192,113501,1,0,0:0:0:0:
109,192,113610,1,4,0:0:0:0:
36,192,113610,1,0,0:0:0:0:
329,192,113827,128,0,114262:0:0:0:0:
182,192,113827,1,8,0:0:0:0:
256,192,113827,1,0,0:0:0:0:
475,192,113827,1,0,0:0:0:0:
475,192,114044,128,0,114262:0:0:0:70:hihat.wav
36,192,114044,128,0,114262:0:0:0:0:
109,192,114044,1,0,0:0:0:0:
256,192,114153,1,0,0:0:0:0:
402,192,114262,1,0,0:0:0:0:
182,192,114262,128,0,114914:0:0:0:0:
109,192,114262,1,4,0:0:0:0:
36,192,114479,1,0,0:0:0:0:
256,192,114479,1,0,0:0:0:0:
402,192,114588,1,4,0:0:0:0:
475,192,114588,1,0,0:0:0:0:
36,192,114697,1,0,0:0:0:0:
256,192,114697,1,0,0:0:0:0:
329,192,114697,1,8,0:0:0:0:
36,192,114914,128,0,115566:0:0:0:0:
475,192,114914,128,0,115131:0:0:0:70:hihat.wav
329,192,114914,1,0,0:0:0:0:
109,192,114914,128,0,115131:0:0:0:0:
402,192,115131,1,0,0:0:0:0:
256,192,115131,1,4,0:0:0:0:
182,192,115240,1,4,0:0:0:0:
329,192,115240,1,0,0:0:0:0:
402,192,115349,128,0,115566:0:0:0:0:
475,192,115349,128,0,115566:0:0:0:70:hihat.wav
256,192,115349,1,0,0:0:0:0:
109,192,115349,1,4,0:0:0:0:
109,192,115566,128,0,116001:0:0:0:0:
182,192,115566,1,0,0:0:0:0:
329,192,115566,1,8,0:0:0:0:
182,192,115784,128,0,116001:0:0:0:0:
402,192,115784,1,4,0:0:0:0:
475,192,115784,1,0,0:0:0:0:
36,192,116001,1,4,0:0:0:0:
256,192,116001,1,0,0:0:0:0:
329,192,116001,128,0,116436:0:0:0:0:
182,192,116110,1,0,0:0:0:0:
402,192,116218,128,0,116436:0:0:0:0:
109,192,116218,1,0,0:0:0:0:
475,192,116436,128,0,116871:0:0:0:0:
36,192,116436,1,8,0:0:0:0:
182,192,116436,1,0,0:0:0:0:
256,192,116436,1,0,0:0:0:0:
329,192,116653,128,0,116871:0:0:0:0:
109,192,116653,1,4,0:0:0:0:
36,192,116871,128,0,117088:0:0:0:0:
182,192,116871,1,0,0:0:0:0:
256,192,116979,1,0,0:0:0:0:
109,192,117088,128,0,117305:0:0:0:0:
329,192,117088,1,4,0:0:0:0:
475,192,117088,128,0,117305:0:0:0:70:hihat.wav
182,192,117305,128,0,117740:0:0:0:0:
36,192,117305,1,0,0:0:0:0:
402,192,117305,1,0,0:0:0:0:
256,192,117305,1,8,0:0:0:0:
329,192,117414,1,0,0:0:0:0:
109,192,117523,128,0,117740:0:0:0:0:
402,192,117523,1,0,0:0:0:0:
475,192,117740,128,0,118610:0:0:0:0:
329,192,117740,1,4,0:0:0:0:
36,192,117740,1,0,0:0:0:0:
182,192,117957,1,0,0:0:0:0:
256,192,118066,1,0,0:0:0:0:
329,192,118175,1,8,0:0:0:0:
402,192,118175,1,0,0:0:0:0:
109,192,118175,1,0,0:0:0:0:
36,192,118392,128,0,118610:0:0:0:70:hihat.wav
109,192,118392,128,0,118610:0:0:0:0:
182,192,118392,1,0,0:0:0:0:
402,192,118501,1,0,0:0:0:0:
329,192,118501,1,0,0:0:0:0:
256,192,118610,1,0,0:0:0:0:
182,192,118610,128,0,118827:0:0:0:0:
329,192,118718,1,0,0:0:0:0:
256,192,118827,128,0,119044:0:0:0:0:
36,192,118827,128,0,119044:0:0:0:70:hihat.wav
475,192,118827,128,0,119044:0:0:0:0:
402,192,118827,1,4,0:0:0:0:
109,192,119044,128,0,119262:0:0:0:0:
182,192,119044,1,8,0:0:0:0:
329,192,119044,1,0,0:0:0:0:
36,192,119262,128,0,119479:0:0:0:70:hihat.wav
329,192,119262,128,0,119479:0:0:0:0:
475,192,119262,1,4,0:0:0:0:
182,192,119262,1,0,0:0:0:0:
109,192,119479,1,0,0:0:0:0:
182,192,119479,1,0,0:0:0:0:
402,192,119479,1,0,0:0:0:70:cymbol.wav
475,192,119479,1,4,0:0:0:0:
256,192,119479,128,0,120131:0:0:0:0:
36,192,119914,1,0,0:0:0:0:
182,192,119914,1,8,0:0:0:0:
475,192,119914,1,0,0:0:0:0:
36,192,120131,128,0,120784:0:0:0:0:
109,192,120131,1,4,0:0:0:0:
402,192,120131,1,0,0:0:0:0:
182,192,120349,1,0,0:0:0:0:
329,192,120349,1,0,0:0:0:0:
256,192,120457,1,0,0:0:0:0:
402,192,120457,1,0,0:0:0:0:
329,192,120566,1,4,0:0:0:0:
475,192,120566,1,0,0:0:0:0:
402,192,120784,128,0,121218:0:0:0:0:
109,192,120784,1,8,0:0:0:0:
256,192,120784,1,0,0:0:0:0:
329,192,120784,1,0,0:0:0:0:
182,192,120892,1,0,0:0:0:0:
475,192,121001,128,0,121218:0:0:0:70:hihat.wav
256,192,121001,1,0,0:0:0:0:
36,192,121001,1,0,0:0:0:0:
182,192,121218,128,0,121871:0:0:0:0:
109,192,121218,1,0,0:0:0:0:
36,192,121218,1,4,0:0:0:0:
329,192,121246,128,0,121871:0:0:0:0:
256,192,121436,1,0,0:0:0:0:
402,192,121544,1,4,0:0:0:0:
475,192,121544,1,0,0:0:0:0:
256,192,121653,1,8,0:0:0:0:
36,192,121653,1,0,0:0:0:0:
109,192,121653,1,0,0:0:0:0:
36,192,121871,128,0,122523:0:0:0:0:
402,192,121871,1,0,0:0:0:0:
475,192,121871,128,0,122088:0:0:0:70:hihat.wav
329,192,122088,1,0,0:0:0:0:
256,192,122088,1,4,0:0:0:0:
109,192,122197,1,0,0:0:0:0:
182,192,122197,1,4,0:0:0:0:
329,192,122305,1,0,0:0:0:0:
402,192,122305,128,0,122523:0:0:0:70:hihat.wav
475,192,122305,128,0,122523:0:0:0:0:
256,192,122305,1,4,0:0:0:0:
109,192,122523,1,0,0:0:0:0:
182,192,122523,1,8,0:0:0:0:
256,192,122523,128,0,122957:0:0:0:0:
329,192,122740,128,0,122957:0:0:0:0:
475,192,122740,128,0,122957:0:0:0:70:hihat.wav
36,192,122740,1,4,0:0:0:0:
109,192,122740,1,0,0:0:0:0:
182,192,122957,128,0,123610:0:0:0:0:
36,192,122957,1,0,0:0:0:0:
402,192,122957,1,4,0:0:0:0:
329,192,123066,1,0,0:0:0:0:
109,192,123175,128,0,123610:0:0:0:0:
256,192,123175,1,4,0:0:0:0:
475,192,123175,1,0,0:0:0:0:
36,192,123392,128,0,123610:0:0:0:0:
329,192,123392,1,8,0:0:0:0:
402,192,123392,1,0,0:0:0:0:
475,192,123392,1,0,0:0:0:0:
329,192,123610,1,4,0:0:0:0:
475,192,123610,1,0,0:0:0:0:
402,192,123827,128,0,124044:0:0:0:0:
36,192,123827,1,0,0:0:0:0:
182,192,123827,1,4,0:0:0:0:
109,192,123936,1,0,0:0:0:0:
256,192,123936,1,4,0:0:0:0:
182,192,124044,1,0,0:0:0:0:
329,192,124044,1,4,0:0:0:0:
475,192,124044,128,0,124262:0:0:0:70:hihat.wav
36,192,124044,128,0,124262:0:0:0:0:
182,192,124262,128,0,124479:0:0:0:0:
402,192,124479,1,0,0:0:0:70:cymbol.wav
475,192,124479,1,0,0:0:0:0:
36,192,124479,1,0,0:0:0:0:
256,192,124479,128,0,124914:0:0:0:0:
329,192,124479,1,4,0:0:0:0:
109,192,124588,1,0,0:0:0:0:
182,192,124697,1,0,0:0:0:0:
109,192,124914,1,0,0:0:0:0:
36,192,124914,1,4,0:0:0:0:
329,192,124914,128,0,125131:0:0:0:0:
402,192,125131,128,0,125349:0:0:0:0:
36,192,125131,1,8,0:0:0:0:
109,192,125131,1,0,0:0:0:70:cymbol.wav
182,192,125131,1,0,0:0:0:0:
475,192,125131,1,0,0:0:0:0:
256,192,125349,128,0,125566:0:0:0:0:
475,192,125349,1,0,0:0:0:0:
182,192,125349,1,4,0:0:0:0:
109,192,125457,1,4,0:0:0:0:
36,192,125457,1,0,0:0:0:0:
402,192,125457,1,0,0:0:0:0:
329,192,125566,1,0,0:0:0:0:
182,192,125566,1,4,0:0:0:0:
475,192,125566,128,0,126001:0:0:0:0:
109,192,125675,1,4,0:0:0:0:
256,192,125675,1,0,0:0:0:0:
402,192,125784,128,0,126001:0:0:0:0:
182,192,125784,1,0,0:0:0:0:
36,192,125784,1,4,0:0:0:0:
36,192,126001,1,0,0:0:0:0:
182,192,126001,1,4,0:0:0:0:
109,192,126001,1,0,0:0:0:0:
329,192,126110,1,0,0:0:0:0:
256,192,126110,1,4,0:0:0:0:
109,192,126218,1,0,0:0:0:0:
182,192,126218,1,4,0:0:0:0:
256,192,126327,1,4,0:0:0:0:
329,192,126327,1,0,0:0:0:0:
402,192,126436,1,4,0:0:0:0:
475,192,126436,1,0,0:0:0:70:cymbol.wav
36,192,126436,128,0,127088:0:0:0:0:
182,192,126436,128,0,127088:0:0:0:0:
329,192,126871,1,8,0:0:0:0:
402,192,126871,1,0,0:0:0:0:
475,192,126871,1,0,0:0:0:0:
109,192,127088,128,0,127740:0:0:0:0:
402,192,127088,1,0,0:0:0:0:
256,192,127305,1,0,0:0:0:0:
329,192,127305,1,4,0:0:0:0:
402,192,127414,1,4,0:0:0:0:
475,192,127414,1,0,0:0:0:0:
182,192,127523,1,0,0:0:0:0:
256,192,127523,1,4,0:0:0:0:
329,192,127740,1,8,0:0:0:0:
402,192,127740,1,0,0:0:0:0:
475,192,127740,1,0,0:0:0:0:
36,192,127740,128,0,128175:0:0:0:0:
182,192,127957,128,0,128175:0:0:0:0:
475,192,127957,128,0,128175:0:0:0:70:hihat.wav
329,192,128175,128,0,128827:0:0:0:0:
402,192,128175,128,0,128827:0:0:0:0:
109,192,128175,1,4,0:0:0:0:
256,192,128175,1,0,0:0:0:0:
36,192,128392,1,0,0:0:0:0:
109,192,128392,1,4,0:0:0:0:
256,192,128501,1,4,0:0:0:0:
475,192,128501,1,0,0:0:0:0:
109,192,128610,1,0,0:0:0:0:
36,192,128610,1,0,0:0:0:0:
182,192,128610,1,8,0:0:0:0:
475,192,128827,128,0,129479:0:0:0:0:
256,192,128827,128,0,129044:0:0:0:0:
36,192,128827,128,0,129044:0:0:0:70:hihat.wav
182,192,129044,1,4,0:0:0:0:
402,192,129044,1,0,0:0:0:0:
256,192,129153,1,4,0:0:0:0:
329,192,129153,1,0,0:0:0:0:
109,192,129262,128,0,129479:0:0:0:70:hihat.wav
36,192,129262,128,0,129479:0:0:0:0:
182,192,129262,1,4,0:0:0:0:
402,192,129262,1,0,0:0:0:0:
329,192,129479,128,0,129914:0:0:0:0:
182,192,129479,1,8,0:0:0:0:
402,192,129479,1,0,0:0:0:0:
475,192,129697,128,0,129914:0:0:0:0:
36,192,129697,1,0,0:0:0:0:
109,192,129697,1,4,0:0:0:0:
402,192,129697,128,0,129914:0:0:0:70:hihat.wav
182,192,129914,128,0,130784:0:0:0:0:
36,192,129914,1,4,0:0:0:0:
109,192,129914,1,0,0:0:0:0:
329,192,130349,1,8,0:0:0:0:
475,192,130349,1,0,0:0:0:0:
402,192,130349,1,0,0:0:0:0:
109,192,130566,128,0,131001:0:0:0:0:
329,192,130566,1,4,0:0:0:0:
402,192,130566,1,0,0:0:0:0:
36,192,130784,128,0,131218:0:0:0:0:
256,192,130784,1,0,0:0:0:0:
475,192,130784,1,0,0:0:0:0:
329,192,130892,1,0,0:0:0:0:
402,192,130892,1,0,0:0:0:0:
182,192,131001,128,0,131653:0:0:0:0:
256,192,131001,1,4,0:0:0:0:
475,192,131001,128,0,131218:0:0:0:70:hihat.wav
109,192,131218,128,0,131653:0:0:0:0:
256,192,131218,1,0,0:0:0:0:
329,192,131218,1,0,0:0:0:0:
402,192,131218,1,8,0:0:0:0:
36,192,131436,128,0,131653:0:0:0:0:
329,192,131436,1,0,0:0:0:0:
256,192,131653,1,4,0:0:0:0:
402,192,131653,1,0,0:0:0:0:
475,192,131653,128,0,132523:0:0:0:0:
36,192,131871,1,0,0:0:0:0:
256,192,131871,1,4,0:0:0:0:
109,192,131979,1,0,0:0:0:0:
329,192,131979,1,4,0:0:0:0:
402,192,132088,1,8,0:0:0:0:
182,192,132088,1,0,0:0:0:0:
36,192,132088,1,0,0:0:0:0:
36,192,132305,128,0,132523:0:0:0:0:
182,192,132305,128,0,132523:0:0:0:70:hihat.wav
329,192,132305,1,0,0:0:0:0:
256,192,132414,1,0,0:0:0:0:
402,192,132414,1,0,0:0:0:0:
329,192,132523,128,0,132957:0:0:0:0:
109,192,132523,1,0,0:0:0:0:
256,192,132631,1,0,0:0:0:0:
182,192,132740,128,0,133175:0:0:0:0:
402,192,132740,1,4,0:0:0:0:
475,192,132740,1,0,0:0:0:0:
36,192,132740,128,0,132957:0:0:0:70:hihat.wav
475,192,132957,128,0,133392:0:0:0:0:
402,192,132957,1,0,0:0:0:0:
109,192,132957,1,8,0:0:0:0:
256,192,133175,128,0,133392:0:0:0:0:
36,192,133175,1,4,0:0:0:0:
109,192,133175,1,0,0:0:0:0:
329,192,133284,1,4,0:0:0:0:
402,192,133284,1,0,0:0:0:0:
36,192,133392,1,0,0:0:0:0:
109,192,133392,1,0,0:0:0:0:
329,192,133392,1,4,0:0:0:0:
402,192,133392,1,0,0:0:0:70:cymbol.wav
182,192,133392,128,0,134044:0:0:0:0:
329,192,133827,1,8,0:0:0:0:
402,192,133827,1,0,0:0:0:0:
475,192,133827,1,0,0:0:0:0:
256,192,134044,128,0,134697:0:0:0:0:
36,192,134044,1,0,0:0:0:0:
109,192,134044,1,4,0:0:0:0:
329,192,134262,1,4,0:0:0:0:
475,192,134262,1,0,0:0:0:0:
182,192,134371,1,4,0:0:0:0:
36,192,134371,1,0,0:0:0:0:
329,192,134479,1,4,0:0:0:0:
475,192,134479,1,0,0:0:0:0:
36,192,134697,1,0,0:0:0:0:
109,192,134697,1,0,0:0:0:0:
182,192,134697,1,8,0:0:0:0:
402,192,134697,128,0,135131:0:0:0:0:
329,192,134914,128,0,135131:0:0:0:70:hihat.wav
36,192,134914,128,0,135131:0:0:0:0:
475,192,135131,128,0,135784:0:0:0:0:
109,192,135131,1,0,0:0:0:0:
182,192,135131,1,4,0:0:0:0:
402,192,135349,1,0,0:0:0:0:
329,192,135349,1,0,0:0:0:0:
36,192,135457,1,0,0:0:0:0:
109,192,135457,1,4,0:0:0:0:
182,192,135566,1,8,0:0:0:0:
329,192,135566,1,0,0:0:0:0:
402,192,135566,1,0,0:0:0:0:
256,192,135784,128,0,136436:0:0:0:0:
109,192,135784,1,0,0:0:0:0:
36,192,135784,128,0,136001:0:0:0:70:hihat.wav
402,192,136001,1,4,0:0:0:0:
475,192,136001,1,0,0:0:0:0:
36,192,136110,1,0,0:0:0:0:
109,192,136110,1,4,0:0:0:0:
475,192,136218,128,0,136436:0:0:0:70:hihat.wav
182,192,136218,1,4,0:0:0:0:
109,192,136436,128,0,136871:0:0:0:0:
36,192,136436,1,0,0:0:0:0:
329,192,136436,1,0,0:0:0:0:
402,192,136436,1,8,0:0:0:0:
182,192,136653,128,0,136871:0:0:0:0:
475,192,136653,128,0,136871:0:0:0:0:
402,192,136653,1,4,0:0:0:0:
256,192,136871,1,0,0:0:0:0:
36,192,136871,128,0,137305:0:0:0:0:
329,192,136871,1,4,0:0:0:0:
109,192,137088,128,0,137523:0:0:0:0:
475,192,137088,1,0,0:0:0:0:
402,192,137088,1,4,0:0:0:0:
182,192,137305,128,0,137740:0:0:0:0:
475,192,137305,1,0,0:0:0:0:
256,192,137305,1,0,0:0:0:0:
329,192,137305,1,8,0:0:0:0:
36,192,137523,128,0,138066:0:0:0:0:
475,192,137523,1,0,0:0:0:0:
402,192,137523,1,4,0:0:0:0:
109,192,137740,128,0,138066:0:0:0:0:
256,192,137740,128,0,137849:0:0:0:0:
329,192,137849,128,0,137957:0:0:0:0:
182,192,137957,128,0,138066:0:0:0:0:
475,192,137957,128,0,138175:0:0:0:70:hihat.wav
402,192,137957,1,4,0:0:0:0:
256,192,138066,128,0,138175:0:0:0:0:
36,192,138175,1,0,0:0:0:0:
109,192,138175,1,8,0:0:0:0:
182,192,138175,1,0,0:0:0:0:
329,192,138175,128,0,138827:0:0:0:0:
109,192,138392,1,0,0:0:0:0:
36,192,138392,1,0,0:0:0:0:
475,192,138392,1,0,0:0:0:70:cymbol.wav
402,192,138392,1,4,0:0:0:0:
182,192,138392,128,0,138827:0:0:0:0:
475,192,138610,1,0,0:0:0:0:
36,192,138827,1,0,0:0:0:0:
109,192,138827,1,0,0:0:0:0:
475,192,138827,1,8,0:0:0:0:
256,192,138827,128,0,139262:0:0:0:0:
36,192,139044,1,0,0:0:0:0:
109,192,139044,1,0,0:0:0:0:
402,192,139044,1,0,0:0:0:70:cymbol.wav
475,192,139044,1,8,0:0:0:0:
109,192,139262,128,0,139697:0:0:0:0:
402,192,139262,128,0,139697:0:0:0:0:
182,192,139262,1,0,0:0:0:0:
329,192,139262,1,4,0:0:0:0:
36,192,139479,1,0,0:0:0:0:
475,192,139479,1,8,0:0:0:0:
182,192,139588,1,0,0:0:0:0:
329,192,139588,1,8,0:0:0:0:
256,192,139697,1,4,0:0:0:0:
36,192,139697,128,0,140349:0:0:0:0:
475,192,139697,128,0,140349:0:0:0:0:
109,192,139914,1,0,0:0:0:0:
402,192,139914,128,0,140349:0:0:0:0:
182,192,139914,1,8,0:0:0:0:
182,192,140023,1,8,0:0:0:0:
109,192,140023,1,0,0:0:0:0:
329,192,140131,1,0,0:0:0:0:
256,192,140131,1,4,0:0:0:0:
109,192,140349,1,0,0:0:0:70:cymbol.wav
182,192,140349,1,4,0:0:0:0:
329,192,140349,1,0,0:0:0:0:
256,192,140349,1,0,0:0:0:0:
475,192,140566,1,0,0:0:0:0:
36,192,140784,1,4,0:0:0:0:
182,192,140784,1,0,0:0:0:0:
329,192,141001,1,0,0:0:0:0:
182,192,141218,1,0,0:0:0:0:
36,192,141218,1,4,0:0:0:0:
402,192,141436,1,0,0:0:0:0:
182,192,141653,1,0,0:0:0:0:
36,192,141653,1,4,0:0:0:0:
329,192,141653,128,0,142088:0:0:0:0:
256,192,141871,1,0,0:0:0:0:
402,192,142088,1,0,0:0:0:0:
475,192,142088,1,4,0:0:0:0:
182,192,142088,128,0,142740:0:0:0:0:
109,192,142305,1,0,0:0:0:0:
329,192,142523,128,0,142740:0:0:0:0:
402,192,142523,1,0,0:0:0:0:
475,192,142523,1,4,0:0:0:0:
256,192,142740,128,0,143175:0:0:0:0:
36,192,142740,1,0,0:0:0:0:
402,192,142957,1,0,0:0:0:0:
475,192,142957,1,4,0:0:0:0:
329,192,143175,128,0,144044:0:0:0:0:
182,192,143175,1,0,0:0:0:0:
475,192,143392,1,4,0:0:0:0:
402,192,143392,1,0,0:0:0:0:
182,192,143610,128,0,144044:0:0:0:0:
256,192,143610,1,0,0:0:0:0:
475,192,143827,1,4,0:0:0:0:
402,192,143827,1,0,0:0:0:70:cymbol.wav
109,192,143827,1,0,0:0:0:0:
36,192,143827,1,0,0:0:0:0:
256,192,144044,128,0,144697:0:0:0:0:
36,192,144044,1,0,0:0:0:0:
475,192,144262,1,4,0:0:0:0:
402,192,144262,1,0,0:0:0:0:
109,192,144479,1,0,0:0:0:0:
182,192,144697,1,0,0:0:0:0:
36,192,144697,1,4,0:0:0:0:
475,192,144914,1,0,0:0:0:0:
329,192,145131,128,0,145566:0:0:0:0:
182,192,145131,1,0,0:0:0:0:
36,192,145131,1,4,0:0:0:0:
402,192,145349,128,0,145566:0:0:0:0:
256,192,145349,1,0,0:0:0:0:
475,192,145566,128,0,146218:0:0:0:0:
109,192,145566,1,0,0:0:0:0:
36,192,145566,1,4,0:0:0:0:
256,192,145784,1,0,0:0:0:0:
329,192,146001,128,0,146218:0:0:0:0:
109,192,146001,1,4,0:0:0:0:
182,192,146001,1,0,0:0:0:0:
36,192,146218,1,0,0:0:0:0:
402,192,146218,128,0,146436:0:0:0:0:
182,192,146436,1,0,0:0:0:0:
475,192,146436,128,0,146762:0:0:0:0:
109,192,146436,1,4,0:0:0:0:
329,192,146653,128,0,146762:0:0:0:0:
182,192,146653,1,0,0:0:0:0:
475,192,146871,128,0,147088:0:0:0:0:
109,192,146871,1,4,0:0:0:0:
36,192,146871,1,0,0:0:0:0:
256,192,147088,1,0,0:0:0:0:
329,192,147088,128,0,147305:0:0:0:0:
475,192,147305,1,0,0:0:0:0:
402,192,147305,1,0,0:0:0:0:
109,192,147305,1,0,0:0:0:70:cymbol.wav
36,192,147305,1,4,0:0:0:0:
182,192,147305,128,0,148175:0:0:0:0:
329,192,147523,128,0,148175:0:0:0:0:
475,192,147523,1,0,0:0:0:0:
475,192,147740,128,0,148175:0:0:0:0:
109,192,147740,1,0,0:0:0:0:
36,192,147740,1,4,0:0:0:0:
256,192,147957,1,0,0:0:0:0:
36,192,148175,1,4,0:0:0:0:
109,192,148175,1,0,0:0:0:0:
475,192,148392,1,0,0:0:0:0:
402,192,148610,1,4,0:0:0:0:
182,192,148610,1,0,0:0:0:0:
36,192,148610,128,0,149262:0:0:0:0:
109,192,148827,128,0,149262:0:0:0:0:
256,192,148827,1,0,0:0:0:0:
475,192,149044,1,4,0:0:0:0:
329,192,149044,1,0,0:0:0:0:
182,192,149262,1,0,0:0:0:0:
475,192,149262,128,0,149914:0:0:0:0:
256,192,149479,1,0,0:0:0:0:
36,192,149479,1,4,0:0:0:0:
402,192,149697,128,0,149914:0:0:0:0:
329,192,149697,1,0,0:0:0:0:
182,192,149914,1,0,0:0:0:0:
109,192,149914,1,4,0:0:0:0:
329,192,150131,1,0,0:0:0:0:
36,192,150349,128,0,150784:0:0:0:0:
256,192,150349,1,0,0:0:0:0:
475,192,150349,1,4,0:0:0:0:
182,192,150566,1,0,0:0:0:0:
109,192,150784,1,0,0:0:0:0:
256,192,150784,1,0,0:0:0:0:
475,192,150784,1,4,0:0:0:0:
402,192,150784,1,0,0:0:0:70:cymbol.wav
329,192,150784,128,0,151436:0:0:0:0:
36,192,151001,1,0,0:0:0:0:
182,192,151218,128,0,151436:0:0:0:0:
402,192,151218,1,0,0:0:0:0:
475,192,151218,1,4,0:0:0:0:
36,192,151436,128,0,151653:0:0:0:0:
109,192,151436,1,0,0:0:0:0:
475,192,151653,1,4,0:0:0:0:
256,192,151653,1,0,0:0:0:0:
402,192,151762,1,0,0:0:0:0:
329,192,151871,1,0,0:0:0:0:
182,192,151871,128,0,153392:0:0:0:0:
475,192,152088,1,4,0:0:0:0:
36,192,152088,1,0,0:0:0:0:
109,192,152305,128,0,153392:0:0:0:0:
256,192,152305,1,0,0:0:0:0:
329,192,152414,1,0,0:0:0:0:
402,192,152523,1,0,0:0:0:0:
475,192,152523,1,4,0:0:0:0:
36,192,152740,128,0,153392:0:0:0:0:
256,192,152740,1,0,0:0:0:0:
475,192,152957,1,4,0:0:0:0:
402,192,152957,1,0,0:0:0:0:
329,192,153175,1,0,0:0:0:0:
475,192,153175,128,0,153392:0:0:0:0:
329,192,153392,1,4,0:0:0:0:
402,192,153392,1,0,0:0:0:0:
36,192,153610,1,0,0:0:0:0:
109,192,153610,1,0,0:0:0:0:
256,192,153610,1,8,0:0:0:0:
182,192,153827,1,0,0:0:0:0:
329,192,153827,1,4,0:0:0:0:
256,192,154044,1,0,0:0:0:0:
402,192,154044,1,4,0:0:0:0:
182,192,154153,128,0,155566:0:0:0:0:
109,192,154207,128,0,155566:0:0:0:0:
475,192,154262,1,4,0:0:0:0:
402,192,154262,1,0,0:0:0:70:cymbol.wav
36,192,154262,128,0,155566:0:0:0:0:
329,192,154262,1,0,0:0:0:0:
256,192,154697,1,0,0:0:0:0:
329,192,154697,1,0,0:0:0:0:
475,192,154697,1,8,0:0:0:0:
402,192,154914,1,0,0:0:0:0:
329,192,155023,1,0,0:0:0:0:
256,192,155131,1,0,0:0:0:0:
329,192,155240,1,0,0:0:0:0:
402,192,155349,1,0,0:0:0:0:
475,192,155349,1,4,0:0:0:0:
256,192,155566,128,0,156001:0:0:0:0:
329,192,155566,1,0,0:0:0:0:
109,192,155784,128,0,156001:0:0:0:0:
36,192,155784,128,0,156001:0:0:0:70:hihat.wav
402,192,155784,1,0,0:0:0:0:
475,192,155784,1,4,0:0:0:0:
329,192,156001,128,0,156436:0:0:0:0:
475,192,156001,1,0,0:0:0:0:
36,192,156218,1,4,0:0:0:0:
109,192,156218,1,0,0:0:0:0:
182,192,156436,128,0,157088:0:0:0:0:
402,192,156436,1,0,0:0:0:0:
475,192,156436,1,0,0:0:0:0:
36,192,156436,1,8,0:0:0:0:
256,192,156653,128,0,157088:0:0:0:0:
329,192,156653,1,0,0:0:0:0:
475,192,156762,1,0,0:0:0:0:
402,192,156871,1,0,0:0:0:0:
36,192,156979,1,0,0:0:0:0:
329,192,157088,128,0,157523:0:0:0:0:
109,192,157088,1,4,0:0:0:0:
475,192,157088,1,0,0:0:0:0:
36,192,157305,1,8,0:0:0:0:
109,192,157305,1,0,0:0:0:0:
182,192,157305,1,0,0:0:0:0:
182,192,157414,1,0,0:0:0:0:
109,192,157414,1,0,0:0:0:0:
36,192,157414,1,8,0:0:0:0:
402,192,157523,1,0,0:0:0:0:
475,192,157523,1,4,0:0:0:0:
256,192,157523,128,0,158066:0:0:0:0:
109,192,157740,1,4,0:0:0:0:
182,192,157740,1,0,0:0:0:0:
36,192,157957,128,0,158066:0:0:0:0:
402,192,157957,1,0,0:0:0:0:
475,192,157957,1,0,0:0:0:0:
329,192,158066,1,0,0:0:0:0:
182,192,158175,1,8,0:0:0:0:
475,192,158175,1,0,0:0:0:0:
36,192,158175,1,0,0:0:0:0:
402,192,158175,128,0,158610:0:0:0:0:
109,192,158392,1,0,0:0:0:0:
182,192,158501,1,0,0:0:0:0:
329,192,158610,1,0,0:0:0:0:
256,192,158718,1,0,0:0:0:0:
36,192,158827,1,4,0:0:0:0:
182,192,158827,1,0,0:0:0:0:
329,192,159044,128,0,159479:0:0:0:0:
475,192,159044,1,0,0:0:0:0:
182,192,159262,1,4,0:0:0:0:
36,192,159262,128,0,159479:0:0:0:70:hihat.wav
402,192,159479,128,0,160131:0:0:0:0:
109,192,159479,1,0,0:0:0:0:
256,192,159697,1,4,0:0:0:0:
329,192,159697,1,0,0:0:0:0:
475,192,159914,128,0,160131:0:0:0:0:
36,192,159914,1,0,0:0:0:0:
109,192,159914,1,0,0:0:0:0:
182,192,159914,1,8,0:0:0:0:
329,192,160131,128,0,160566:0:0:0:0:
36,192,160131,1,0,0:0:0:0:
182,192,160349,1,0,0:0:0:0:
256,192,160566,128,0,161001:0:0:0:0:
109,192,160566,1,4,0:0:0:0:
36,192,160566,1,0,0:0:0:0:
329,192,160784,1,0,0:0:0:0:
475,192,160784,1,8,0:0:0:0:
402,192,160784,1,0,0:0:0:0:
402,192,160892,1,0,0:0:0:0:
329,192,160892,1,0,0:0:0:0:
475,192,160892,1,8,0:0:0:0:
182,192,161001,128,0,161218:0:0:0:0:
109,192,161001,1,0,0:0:0:0:
36,192,161001,1,4,0:0:0:0:
329,192,161218,128,0,161871:0:0:0:0:
36,192,161218,1,4,0:0:0:0:
109,192,161218,1,0,0:0:0:70:cymbol.wav
402,192,161218,1,0,0:0:0:0:
475,192,161218,1,0,0:0:0:0:
182,192,161436,128,0,161871:0:0:0:0:
402,192,161436,1,0,0:0:0:0:
36,192,161653,128,0,161871:0:0:0:0:
256,192,161653,1,8,0:0:0:0:
109,192,161653,1,0,0:0:0:0:
475,192,161653,1,0,0:0:0:0:
475,192,161871,128,0,162088:0:0:0:0:
402,192,161871,1,0,0:0:0:0:
109,192,161979,1,0,0:0:0:0:
182,192,162088,1,0,0:0:0:0:
329,192,162197,1,0,0:0:0:0:
475,192,162305,1,4,0:0:0:0:
402,192,162305,1,0,0:0:0:0:
109,192,162305,128,0,162740:0:0:0:0:
36,192,162523,128,0,162740:0:0:0:0:
329,192,162523,1,0,0:0:0:0:
182,192,162740,128,0,163175:0:0:0:0:
256,192,162740,1,4,0:0:0:0:
475,192,162740,128,0,162957:0:0:0:70:hihat.wav
402,192,162957,1,0,0:0:0:0:
109,192,163175,1,0,0:0:0:0:
36,192,163175,1,4,0:0:0:0:
329,192,163392,1,8,0:0:0:0:
402,192,163392,1,0,0:0:0:0:
475,192,163392,1,0,0:0:0:0:
182,192,163610,1,0,0:0:0:0:
256,192,163718,1,0,0:0:0:0:
329,192,163827,1,0,0:0:0:0:
475,192,163827,128,0,164697:0:0:0:0:
182,192,163936,1,0,0:0:0:0:
36,192,164044,1,4,0:0:0:0:
109,192,164044,1,0,0:0:0:0:
329,192,164262,128,0,164697:0:0:0:0:
36,192,164262,1,8,0:0:0:0:
109,192,164262,1,0,0:0:0:0:
182,192,164262,1,0,0:0:0:0:
182,192,164371,1,0,0:0:0:0:
36,192,164371,1,8,0:0:0:0:
109,192,164371,1,0,0:0:0:0:
256,192,164479,1,4,0:0:0:0:
402,192,164479,1,0,0:0:0:0:
36,192,164697,128,0,165131:0:0:0:0:
109,192,164697,1,4,0:0:0:0:
182,192,164697,1,0,0:0:0:0:
402,192,164914,1,0,0:0:0:0:
256,192,165023,1,4,0:0:0:0:
182,192,165023,1,0,0:0:0:0:
109,192,165131,128,0,165784:0:0:0:0:
329,192,165131,1,8,0:0:0:0:
402,192,165131,1,0,0:0:0:0:
475,192,165131,1,0,0:0:0:0:
182,192,165349,128,0,165784:0:0:0:0:
329,192,165349,1,0,0:0:0:0:
475,192,165457,1,0,0:0:0:0:
256,192,165566,1,0,0:0:0:0:
402,192,165675,1,0,0:0:0:0:
36,192,165784,1,4,0:0:0:0:
256,192,165784,1,0,0:0:0:0:
475,192,165784,128,0,166436:0:0:0:0:
109,192,166001,1,0,0:0:0:0:
329,192,166218,128,0,166436:0:0:0:70:hihat.wav
402,192,166218,128,0,166436:0:0:0:0:
36,192,166218,128,0,166871:0:0:0:0:
182,192,166218,1,4,0:0:0:0:
182,192,166436,1,0,0:0:0:0:
109,192,166653,128,0,166871:0:0:0:0:
329,192,166653,1,4,0:0:0:0:
402,192,166653,1,0,0:0:0:0:
256,192,166871,1,0,0:0:0:0:
182,192,166871,1,8,0:0:0:0:
475,192,166871,1,0,0:0:0:0:
329,192,166871,128,0,167088:0:0:0:0:
36,192,167088,1,0,0:0:0:0:
109,192,167088,1,4,0:0:0:0:
402,192,167088,128,0,167305:0:0:0:0:
256,192,167305,1,8,0:0:0:0:
329,192,167305,1,0,0:0:0:0:
475,192,167305,1,0,0:0:0:0:
36,192,167305,128,0,167523:0:0:0:0:
256,192,167523,1,4,0:0:0:0:
182,192,167523,1,0,0:0:0:0:
109,192,167523,128,0,167740:0:0:0:0:
329,192,167740,1,0,0:0:0:0:
402,192,167740,1,0,0:0:0:0:
475,192,167740,1,8,0:0:0:0:
182,192,167740,128,0,168175:0:0:0:0:
329,192,167849,1,0,0:0:0:0:
402,192,167849,1,0,0:0:0:0:
475,192,167849,1,8,0:0:0:0:
109,192,167957,1,0,0:0:0:0:
36,192,167957,1,4,0:0:0:0:
256,192,167957,128,0,168175:0:0:0:0:
109,192,168175,1,0,0:0:0:0:
402,192,168175,1,4,0:0:0:0:
475,192,168175,1,0,0:0:0:70:cymbol.wav
329,192,168175,128,0,169044:0:0:0:0:
36,192,168175,128,0,168610:0:0:0:0:
402,192,168610,128,0,169044:0:0:0:0:
109,192,168610,1,0,0:0:0:0:
182,192,168610,1,8,0:0:0:0:
475,192,168827,128,0,169044:0:0:0:0:
36,192,168827,1,0,0:0:0:0:
182,192,168936,128,0,169044:0:0:0:0:
256,192,169044,128,0,169479:0:0:0:0:
109,192,169044,128,0,169262:0:0:0:0:
36,192,169262,128,0,169479:0:0:0:0:
475,192,169262,1,4,0:0:0:0:
402,192,169262,1,0,0:0:0:0:
182,192,169479,128,0,169914:0:0:0:0:
329,192,169479,1,0,0:0:0:0:
475,192,169479,1,8,0:0:0:0:
402,192,169479,1,0,0:0:0:0:
109,192,169697,128,0,169914:0:0:0:70:hihat.wav
329,192,169697,1,4,0:0:0:0:
36,192,169697,128,0,170349:0:0:0:0:
402,192,169914,1,0,0:0:0:0:
475,192,169914,1,0,0:0:0:0:
109,192,170131,1,4,0:0:0:0:
182,192,170131,128,0,170566:0:0:0:0:
329,192,170349,1,8,0:0:0:0:
402,192,170349,1,0,0:0:0:0:
475,192,170349,1,0,0:0:0:0:
36,192,170566,128,0,171001:0:0:0:0:
109,192,170566,128,0,170784:0:0:0:0:
329,192,170566,1,0,0:0:0:0:
329,192,170784,128,0,171001:0:0:0:0:
475,192,170784,1,0,0:0:0:0:
402,192,170892,1,0,0:0:0:0:
182,192,171001,128,0,171436:0:0:0:0:
475,192,171001,128,0,171436:0:0:0:0:
256,192,171001,1,4,0:0:0:0:
109,192,171001,1,0,0:0:0:0:
36,192,171218,128,0,171436:0:0:0:0:
329,192,171218,128,0,171436:0:0:0:0:
402,192,171218,1,8,0:0:0:0:
109,192,171436,128,0,171653:0:0:0:0:
402,192,171436,128,0,171653:0:0:0:0:
256,192,171436,1,4,0:0:0:0:
182,192,171653,128,0,172088:0:0:0:0:
475,192,171653,128,0,172305:0:0:0:0:
36,192,171653,1,0,0:0:0:0:
329,192,171653,1,4,0:0:0:0:
329,192,172088,128,0,172305:0:0:0:0:
36,192,172088,1,0,0:0:0:0:
109,192,172088,1,0,0:0:0:0:
256,192,172088,1,8,0:0:0:0:
402,192,172305,128,0,172740:0:0:0:0:
109,192,172305,128,0,172740:0:0:0:0:
182,192,172305,1,0,0:0:0:0:
256,192,172414,1,0,0:0:0:0:
329,192,172523,1,0,0:0:0:0:
36,192,172740,128,0,173175:0:0:0:0:
475,192,172740,128,0,173175:0:0:0:0:
182,192,172740,1,4,0:0:0:0:
329,192,172740,1,0,0:0:0:0:
256,192,172849,1,0,0:0:0:0:
402,192,172957,1,0,0:0:0:0:
182,192,172957,1,0,0:0:0:0:
329,192,172957,1,8,0:0:0:0:
182,192,173175,128,0,173610:0:0:0:0:
329,192,173175,128,0,173610:0:0:0:0:
256,192,173175,1,0,0:0:0:0:
109,192,173175,1,4,0:0:0:0:
36,192,173392,1,0,0:0:0:0:
475,192,173392,1,0,0:0:0:0:
256,192,173501,128,0,173610:0:0:0:0:
109,192,173610,128,0,174044:0:0:0:0:
402,192,173610,128,0,174044:0:0:0:0:
36,192,173610,1,4,0:0:0:0:
475,192,173610,1,0,0:0:0:0:
475,192,173827,128,0,174044:0:0:0:0:
36,192,173827,1,0,0:0:0:0:
182,192,173827,1,8,0:0:0:0:
329,192,173827,1,0,0:0:0:0:
329,192,174044,128,0,174479:0:0:0:0:
182,192,174044,1,0,0:0:0:0:
109,192,174262,128,0,174479:0:0:0:0:
182,192,174262,1,0,0:0:0:0:
256,192,174371,1,0,0:0:0:0:
402,192,174479,1,4,0:0:0:0:
475,192,174479,1,0,0:0:0:0:
182,192,174479,128,0,174697:0:0:0:0:
36,192,174479,128,0,174697:0:0:0:0:
256,192,174697,128,0,175131:0:0:0:0:
329,192,174697,1,0,0:0:0:0:
475,192,174697,1,8,0:0:0:0:
402,192,174697,1,0,0:0:0:0:
402,192,174805,1,0,0:0:0:0:
329,192,174805,1,0,0:0:0:0:
475,192,174805,1,8,0:0:0:0:
109,192,174914,1,4,0:0:0:0:
36,192,174914,1,0,0:0:0:0:
182,192,174914,128,0,175566:0:0:0:0:
36,192,175131,1,0,0:0:0:70:cymbol.wav
109,192,175131,1,4,0:0:0:0:
402,192,175131,1,0,0:0:0:0:
475,192,175131,1,0,0:0:0:0:
329,192,175131,128,0,175566:0:0:0:0:
475,192,175349,128,0,175566:0:0:0:0:
36,192,175566,1,0,0:0:0:0:
109,192,175566,1,8,0:0:0:0:
256,192,175566,128,0,176218:0:0:0:0:
402,192,175566,128,0,176436:0:0:0:0:
36,192,175784,128,0,176218:0:0:0:0:
182,192,175784,1,0,0:0:0:0:
475,192,175784,128,0,176436:0:0:0:0:
109,192,175892,1,0,0:0:0:0:
182,192,176001,1,0,0:0:0:0:
329,192,176218,128,0,176653:0:0:0:0:
109,192,176218,1,4,0:0:0:0:
182,192,176327,1,0,0:0:0:0:
256,192,176436,1,8,0:0:0:0:
36,192,176436,128,0,176762:0:0:0:0:
402,192,176653,128,0,177088:0:0:0:0:
109,192,176653,128,0,176762:0:0:0:0:
475,192,176653,1,0,0:0:0:0:
182,192,176653,1,4,0:0:0:0:
182,192,176871,128,0,177305:0:0:0:0:
475,192,177088,128,0,177523:0:0:0:0:
36,192,177088,128,0,177305:0:0:0:0:
329,192,177088,1,4,0:0:0:0:
109,192,177305,128,0,177523:0:0:0:0:
402,192,177305,1,0,0:0:0:0:
256,192,177305,1,8,0:0:0:0:
329,192,177305,128,0,177740:0:0:0:0:
36,192,177523,128,0,177957:0:0:0:0:
402,192,177523,128,0,177740:0:0:0:0:
182,192,177523,1,4,0:0:0:0:
256,192,177740,128,0,178175:0:0:0:0:
109,192,177740,1,0,0:0:0:0:
182,192,177849,1,0,0:0:0:0:
329,192,177957,128,0,178392:0:0:0:0:
475,192,177957,1,4,0:0:0:0:
402,192,178175,128,0,178610:0:0:0:0:
36,192,178175,1,8,0:0:0:0:
109,192,178175,1,0,0:0:0:0:
182,192,178175,1,0,0:0:0:0:
256,192,178392,1,0,0:0:0:0:
109,192,178392,1,4,0:0:0:0:
475,192,178392,128,0,179914:0:0:0:0:
329,192,178610,1,0,0:0:0:70:cymbol.wav
182,192,178610,1,4,0:0:0:0:
36,192,178610,128,0,179914:0:0:0:0:
109,192,179044,1,0,0:0:0:0:
256,192,179044,1,0,0:0:0:0:
402,192,179044,1,8,0:0:0:0:
109,192,179262,1,0,0:0:0:0:
182,192,179262,1,0,0:0:0:0:
402,192,179262,1,0,0:0:0:70:cymbol.wav
329,192,179262,1,4,0:0:0:0:
256,192,179479,1,0,0:0:0:0:
182,192,179697,128,0,179914:0:0:0:0:
329,192,179697,128,0,179914:0:0:0:0:
109,192,179914,1,0,0:0:0:0:
402,192,179914,1,0,0:0:0:0:
182,192,180023,1,0,0:0:0:0:
329,192,180023,1,0,0:0:0:0:
36,192,180131,1,0,0:0:0:0:
475,192,180131,1,0,0:0:0:70:cymbol.wav
256,192,180131,128,0,180566:0:0:0:0:
109,192,180131,1,0,0:0:0:0:
402,192,180131,1,4,0:0:0:0:
36,192,180566,1,0,0:0:0:0:
109,192,180566,1,4,0:0:0:0:
475,192,180566,1,0,0:0:0:0:
329,192,180566,1,0,0:0:0:0:
36,192,180784,1,0,0:0:0:0:
109,192,180784,1,8,0:0:0:0:
402,192,180784,1,0,0:0:0:0:
475,192,180784,1,0,0:0:0:0:
109,192,181001,1,4,0:0:0:0:
182,192,181001,1,0,0:0:0:0:
329,192,181001,1,0,0:0:0:0:
402,192,181001,1,0,0:0:0:0:
109,192,181218,1,4,0:0:0:0:
182,192,181218,1,0,0:0:0:0:
402,192,181218,1,0,0:0:0:0:
475,192,181218,1,0,0:0:0:0:
36,192,181436,1,0,0:0:0:0:
109,192,181436,1,4,0:0:0:0:
402,192,181436,1,0,0:0:0:70:cymbol.wav
475,192,181436,1,0,0:0:0:0:
256,192,181436,1,0,0:0:0:0:
329,192,181653,1,8,0:0:0:0:
402,192,181653,1,0,0:0:0:0:
475,192,181653,1,0,0:0:0:0:
182,192,181762,1,4,0:0:0:0:
36,192,181762,1,0,0:0:0:0:
329,192,181871,1,4,0:0:0:0:
475,192,181871,1,0,0:0:0:0:
182,192,181979,1,4,0:0:0:0:
36,192,181979,1,0,0:0:0:0:
475,192,182088,128,0,182523:0:0:0:70:cymbol.wav
36,192,182088,128,0,182414:0:0:0:0:
182,192,182088,128,0,182414:0:0:0:70:01.wav
329,192,182088,1,4,0:0:0:0:
329,192,182305,128,0,182523:0:0:0:0:
36,192,182523,1,0,0:0:0:0:
109,192,182523,1,0,0:0:0:0:
182,192,182523,1,8,0:0:0:0:
402,192,182523,128,0,183175:0:0:0:0:
36,192,182740,128,0,183175:0:0:0:0:
256,192,182740,1,4,0:0:0:0:
329,192,182740,1,0,0:0:0:0:
109,192,182957,1,0,0:0:0:0:
182,192,182957,1,4,0:0:0:0:
256,192,183066,1,4,0:0:0:0:
329,192,183066,1,0,0:0:0:0:
182,192,183175,1,4,0:0:0:0:
109,192,183175,1,0,0:0:0:0:
329,192,183392,1,8,0:0:0:0:
475,192,183392,1,0,0:0:0:0:
182,192,183392,128,0,183827:0:0:0:0:
402,192,183392,1,0,0:0:0:0:
329,192,183610,128,0,183827:0:0:0:0:
475,192,183610,128,0,183827:0:0:0:70:hihat.wav
109,192,183610,1,0,0:0:0:0:
36,192,183827,128,0,184479:0:0:0:0:
256,192,183827,1,4,0:0:0:0:
402,192,183827,1,0,0:0:0:0:
475,192,184044,1,0,0:0:0:0:
402,192,184044,1,4,0:0:0:0:
109,192,184044,128,0,184479:0:0:0:0:
256,192,184153,1,4,0:0:0:0:
182,192,184153,1,0,0:0:0:0:
402,192,184262,1,0,0:0:0:0:
475,192,184262,1,0,0:0:0:0:
329,192,184262,1,8,0:0:0:0:
182,192,184479,128,0,185131:0:0:0:0:
475,192,184479,128,0,184697:0:0:0:70:hihat.wav
329,192,184479,1,0,0:0:0:0:
36,192,184697,1,0,0:0:0:0:
109,192,184697,1,4,0:0:0:0:
329,192,184805,1,4,0:0:0:0:
402,192,184805,1,0,0:0:0:0:
256,192,184914,128,0,185349:0:0:0:0:
109,192,184914,1,4,0:0:0:0:
36,192,184914,1,0,0:0:0:0:
329,192,185131,128,0,185566:0:0:0:0:
402,192,185131,1,8,0:0:0:0:
475,192,185131,1,0,0:0:0:0:
36,192,185131,1,0,0:0:0:0:
182,192,185349,1,4,0:0:0:0:
36,192,185349,128,0,185784:0:0:0:0:
475,192,185349,128,0,185784:0:0:0:0:
109,192,185566,1,4,0:0:0:0:
256,192,185566,1,0,0:0:0:0:
182,192,185675,1,4,0:0:0:0:
329,192,185675,1,0,0:0:0:0:
256,192,185784,1,4,0:0:0:0:
402,192,185784,1,0,0:0:0:0:
329,192,186001,1,8,0:0:0:0:
475,192,186001,1,0,0:0:0:0:
109,192,186001,1,0,0:0:0:0:
182,192,186218,128,0,186871:0:0:0:0:
36,192,186218,1,4,0:0:0:0:
402,192,186436,1,0,0:0:0:0:
475,192,186436,1,4,0:0:0:0:
329,192,186544,1,4,0:0:0:0:
256,192,186544,1,0,0:0:0:0:
36,192,186653,128,0,186871:0:0:0:70:hihat.wav
109,192,186653,128,0,186871:0:0:0:0:
402,192,186653,1,0,0:0:0:0:
475,192,186653,1,4,0:0:0:0:
256,192,186871,128,0,187305:0:0:0:0:
402,192,186871,1,0,0:0:0:0:
329,192,186871,1,8,0:0:0:0:
475,192,186871,1,0,0:0:0:0:
36,192,187088,128,0,187305:0:0:0:0:
182,192,187088,1,4,0:0:0:0:
329,192,187197,1,0,0:0:0:0:
475,192,187305,1,0,0:0:0:0:
402,192,187305,1,4,0:0:0:0:
182,192,187305,128,0,187849:0:0:0:0:
109,192,187523,128,0,187849:0:0:0:0:
329,192,187523,1,0,0:0:0:0:
402,192,187631,1,4,0:0:0:0:
475,192,187631,1,0,0:0:0:0:
36,192,187740,128,0,187849:0:0:0:0:
329,192,187740,1,8,0:0:0:0:
256,192,187740,1,0,0:0:0:0:
402,192,187957,1,4,0:0:0:0:
475,192,187957,1,0,0:0:0:0:
329,192,187957,128,0,188392:0:0:0:0:
36,192,188066,1,0,0:0:0:0:
182,192,188066,1,8,0:0:0:0:
109,192,188066,1,0,0:0:0:0:
402,192,188175,128,0,188392:0:0:0:0:
475,192,188175,1,4,0:0:0:0:
36,192,188284,1,0,0:0:0:0:
109,192,188284,1,4,0:0:0:0:
182,192,188392,128,0,188827:0:0:0:0:
256,192,188392,1,4,0:0:0:0:
475,192,188392,128,0,188610:0:0:0:70:hihat.wav
109,192,188610,1,0,0:0:0:0:
36,192,188610,1,8,0:0:0:0:
329,192,188610,1,0,0:0:0:0:
402,192,188827,1,0,0:0:0:0:
475,192,188827,1,4,0:0:0:0:
256,192,188827,128,0,189044:0:0:0:0:
36,192,188936,1,0,0:0:0:0:
109,192,188936,1,4,0:0:0:0:
475,192,189044,1,4,0:0:0:0:
402,192,189044,1,0,0:0:0:0:
109,192,189044,1,0,0:0:0:70:cymbol.wav
36,192,189044,1,0,0:0:0:0:
329,192,189044,128,0,189697:0:0:0:0:
36,192,189479,128,0,189697:0:0:0:0:
109,192,189479,1,0,0:0:0:0:
182,192,189479,1,8,0:0:0:0:
475,192,189479,1,0,0:0:0:0:
402,192,189697,1,0,0:0:0:0:
475,192,189697,1,4,0:0:0:0:
256,192,189697,128,0,190349:0:0:0:0:
402,192,189914,1,0,0:0:0:0:
475,192,189914,1,4,0:0:0:0:
36,192,190023,1,0,0:0:0:0:
182,192,190023,1,4,0:0:0:0:
109,192,190131,128,0,190349:0:0:0:0:
475,192,190131,1,4,0:0:0:0:
329,192,190131,1,0,0:0:0:0:
182,192,190349,128,0,191001:0:0:0:0:
329,192,190349,1,0,0:0:0:0:
402,192,190349,1,0,0:0:0:0:
475,192,190349,1,8,0:0:0:0:
36,192,190566,1,0,0:0:0:0:
475,192,190566,128,0,190784:0:0:0:70:hihat.wav
36,192,190784,1,4,0:0:0:0:
256,192,190784,1,0,0:0:0:0:
329,192,190784,128,0,191001:0:0:0:0:
109,192,191001,128,0,191436:0:0:0:0:
475,192,191001,1,0,0:0:0:0:
402,192,191110,1,4,0:0:0:0:
256,192,191110,1,0,0:0:0:0:
475,192,191218,128,0,191653:0:0:0:0:
182,192,191218,1,0,0:0:0:0:
36,192,191218,1,0,0:0:0:0:
329,192,191218,1,8,0:0:0:0:
36,192,191436,128,0,192088:0:0:0:0:
402,192,191436,128,0,191653:0:0:0:70:hihat.wav
329,192,191436,1,4,0:0:0:0:
182,192,191436,1,0,0:0:0:0:
109,192,191653,1,0,0:0:0:0:
256,192,191653,1,4,0:0:0:0:
402,192,191762,1,4,0:0:0:0:
475,192,191762,1,0,0:0:0:0:
329,192,191871,128,0,192088:0:0:0:70:hihat.wav
109,192,191871,1,4,0:0:0:0:
182,192,191871,128,0,192088:0:0:0:0:
256,192,192088,1,8,0:0:0:0:
402,192,192088,1,0,0:0:0:0:
475,192,192088,1,0,0:0:0:0:
182,192,192305,128,0,193392:0:0:0:0:
475,192,192305,128,0,192523:0:0:0:70:hihat.wav
402,192,192305,1,4,0:0:0:0:
329,192,192523,128,0,193392:0:0:0:0:
36,192,192523,1,4,0:0:0:0:
109,192,192523,1,0,0:0:0:0:
402,192,192631,1,4,0:0:0:0:
475,192,192631,1,0,0:0:0:0:
109,192,192740,1,0,0:0:0:0:
36,192,192740,1,4,0:0:0:0:
256,192,192957,1,0,0:0:0:0:
402,192,192957,1,8,0:0:0:0:
475,192,192957,1,0,0:0:0:0:
36,192,193175,1,0,0:0:0:0:
109,192,193175,1,0,0:0:0:0:
402,192,193392,1,4,0:0:0:0:
475,192,193392,1,0,0:0:0:0:
109,192,193501,1,4,0:0:0:0:
36,192,193501,1,0,0:0:0:0:
256,192,193501,1,0,0:0:0:0:
402,192,193610,1,4,0:0:0:0:
475,192,193610,1,0,0:0:0:0:
329,192,193610,128,0,194044:0:0:0:0:
36,192,193827,1,0,0:0:0:0:
109,192,193827,1,0,0:0:0:0:
475,192,193827,1,8,0:0:0:0:
182,192,193827,128,0,194044:0:0:0:0:
402,192,194044,1,4,0:0:0:0:
475,192,194044,1,0,0:0:0:70:cymbol.wav
109,192,194044,1,0,0:0:0:0:
256,192,194044,1,0,0:0:0:0:
36,192,194044,128,0,194697:0:0:0:0:
329,192,194479,1,8,0:0:0:0:
402,192,194479,1,0,0:0:0:0:
475,192,194479,1,0,0:0:0:0:
402,192,194697,1,0,0:0:0:0:
475,192,194697,1,0,0:0:0:0:
182,192,194697,1,4,0:0:0:0:
109,192,194697,1,0,0:0:0:70:cymbol.wav
256,192,194914,1,4,0:0:0:0:
36,192,194914,1,0,0:0:0:0:
329,192,195023,1,8,0:0:0:0:
402,192,195023,1,0,0:0:0:0:
475,192,195023,1,0,0:0:0:0:
109,192,195131,128,0,195566:0:0:0:0:
182,192,195131,1,4,0:0:0:0:
256,192,195240,1,4,0:0:0:0:
402,192,195349,128,0,195784:0:0:0:0:
329,192,195349,1,4,0:0:0:0:
36,192,195566,128,0,195892:0:0:0:0:
256,192,195566,1,4,0:0:0:0:
329,192,195566,1,0,0:0:0:0:
182,192,195675,1,4,0:0:0:0:
109,192,195675,1,0,0:0:0:0:
475,192,195784,128,0,196001:0:0:0:0:
256,192,195784,1,4,0:0:0:0:
329,192,195784,1,0,0:0:0:0:
182,192,195892,1,4,0:0:0:0:
109,192,195892,1,0,0:0:0:0:
329,192,196001,1,4,0:0:0:0:
402,192,196001,1,0,0:0:0:70:cymbol.wav
36,192,196001,1,0,0:0:0:0:
256,192,196001,128,0,196436:0:0:0:0:
36,192,196436,1,0,0:0:0:0:
402,192,196436,1,8,0:0:0:0:
475,192,196436,1,0,0:0:0:0:
109,192,196436,128,0,197088:0:0:0:0:
402,192,196653,128,0,197088:0:0:0:0:
182,192,196653,1,4,0:0:0:0:
256,192,196653,1,0,0:0:0:0:
329,192,196871,1,4,0:0:0:0:
475,192,196871,1,0,0:0:0:0:
182,192,196979,1,4,0:0:0:0:
36,192,196979,1,0,0:0:0:0:
329,192,197088,1,4,0:0:0:0:
475,192,197088,1,0,0:0:0:0:
182,192,197305,128,0,197740:0:0:0:0:
109,192,197305,1,0,0:0:0:0:
402,192,197305,1,8,0:0:0:0:
475,192,197305,1,0,0:0:0:0:
475,192,197523,128,0,197740:0:0:0:70:cymbol.wav
402,192,197523,128,0,197740:0:0:0:0:
256,192,197523,1,0,0:0:0:0:
109,192,197740,128,0,198175:0:0:0:0:
329,192,197740,1,4,0:0:0:0:
36,192,197740,1,0,0:0:0:0:
182,192,197957,128,0,198175:0:0:0:0:
329,192,197957,1,0,0:0:0:0:
402,192,198066,1,4,0:0:0:0:
475,192,198066,1,0,0:0:0:0:
256,192,198175,1,0,0:0:0:0:
329,192,198175,1,8,0:0:0:0:
36,192,198175,1,0,0:0:0:0:
475,192,198392,128,0,199044:0:0:0:0:
402,192,198392,1,4,0:0:0:0:
109,192,198392,1,0,0:0:0:0:
182,192,198392,128,0,198610:0:0:0:70:hihat.wav
256,192,198610,1,0,0:0:0:0:
36,192,198610,1,4,0:0:0:0:
329,192,198718,1,0,0:0:0:0:
109,192,198718,1,4,0:0:0:0:
402,192,198827,128,0,199044:0:0:0:0:
182,192,198827,128,0,199044:0:0:0:70:hihat.wav
329,192,199044,128,0,199697:0:0:0:0:
36,192,199044,1,8,0:0:0:0:
109,192,199044,1,0,0:0:0:0:
36,192,199262,128,0,199479:0:0:0:70:hihat.wav
475,192,199262,128,0,199697:0:0:0:0:
109,192,199262,1,4,0:0:0:0:
182,192,199479,1,4,0:0:0:0:
256,192,199479,1,0,0:0:0:0:
36,192,199588,1,0,0:0:0:0:
109,192,199588,1,4,0:0:0:0:
256,192,199697,1,0,0:0:0:0:
182,192,199697,1,4,0:0:0:0:
329,192,199914,1,8,0:0:0:0:
402,192,199914,1,0,0:0:0:0:
475,192,199914,1,0,0:0:0:0:
182,192,200131,1,4,0:0:0:0:
329,192,200131,1,0,0:0:0:0:
36,192,200131,128,0,200784:0:0:0:0:
475,192,200349,1,0,0:0:0:0:
402,192,200349,1,4,0:0:0:0:
182,192,200457,1,0,0:0:0:0:
256,192,200457,1,4,0:0:0:0:
109,192,200566,128,0,200784:0:0:0:70:hihat.wav
475,192,200566,1,0,0:0:0:0:
329,192,200566,1,4,0:0:0:0:
182,192,200784,128,0,201218:0:0:0:0:
256,192,200784,1,0,0:0:0:0:
402,192,200784,1,0,0:0:0:0:
475,192,200784,1,8,0:0:0:0:
475,192,201001,128,0,201218:0:0:0:0:
329,192,201001,1,4,0:0:0:0:
109,192,201218,1,0,0:0:0:0:
36,192,201218,128,0,201653:0:0:0:0:
329,192,201218,1,4,0:0:0:0:
109,192,201436,128,0,201653:0:0:0:0:
256,192,201436,1,4,0:0:0:0:
402,192,201544,1,0,0:0:0:0:
329,192,201544,1,4,0:0:0:0:
475,192,201653,128,0,202088:0:0:0:0:
182,192,201653,1,0,0:0:0:0:
256,192,201653,1,8,0:0:0:0:
402,192,201871,128,0,202305:0:0:0:0:
256,192,201871,1,4,0:0:0:0:
36,192,201871,128,0,202088:0:0:0:70:hihat.wav
182,192,201979,1,4,0:0:0:0:
329,192,202088,128,0,202523:0:0:0:0:
109,192,202088,1,4,0:0:0:0:
256,192,202197,1,4,0:0:0:0:
475,192,202305,128,0,202740:0:0:0:0:
182,192,202305,1,4,0:0:0:0:
36,192,202305,128,0,202523:0:0:0:70:hihat.wav
256,192,202523,1,0,0:0:0:0:
182,192,202523,1,0,0:0:0:0:
109,192,202523,1,8,0:0:0:0:
256,192,202740,1,4,0:0:0:0:
36,192,202740,1,0,0:0:0:0:
109,192,202849,1,0,0:0:0:0:
329,192,202849,1,4,0:0:0:0:
256,192,202957,1,0,0:0:0:0:
402,192,202957,1,4,0:0:0:0:
475,192,202957,1,0,0:0:0:70:cymbol.wav
182,192,202957,128,0,203392:0:0:0:0:
36,192,202957,1,0,0:0:0:0:
109,192,203392,128,0,203610:0:0:0:0:
329,192,203392,1,8,0:0:0:0:
402,192,203392,1,0,0:0:0:0:
475,192,203392,1,0,0:0:0:0:
36,192,203610,128,0,204479:0:0:0:0:
256,192,203610,1,4,0:0:0:0:
475,192,203610,1,0,0:0:0:0:
475,192,203827,1,0,0:0:0:0:
182,192,203827,1,4,0:0:0:0:
256,192,203936,1,4,0:0:0:0:
402,192,203936,1,0,0:0:0:0:
182,192,204044,128,0,204479:0:0:0:0:
329,192,204044,1,4,0:0:0:0:
109,192,204044,1,0,0:0:0:0:
402,192,204262,1,0,0:0:0:0:
475,192,204262,1,0,0:0:0:0:
329,192,204262,1,8,0:0:0:0:
329,192,204479,128,0,205240:0:0:0:0:
256,192,204479,1,0,0:0:0:70:hihat.wav
402,192,204697,128,0,205240:0:0:0:0:
36,192,204697,1,4,0:0:0:0:
182,192,204697,1,0,0:0:0:0:
475,192,204914,128,0,205240:0:0:0:0:
36,192,204914,1,4,0:0:0:0:
109,192,204914,1,0,0:0:0:0:
182,192,205023,1,0,0:0:0:0:
256,192,205023,1,0,0:0:0:0:
109,192,205131,1,0,0:0:0:0:
36,192,205131,1,8,0:0:0:0:
329,192,205349,1,8,0:0:0:0:
402,192,205349,1,0,0:0:0:0:
475,192,205349,1,0,0:0:0:0:
182,192,205349,128,0,206001:0:0:0:0:
36,192,205349,128,0,205566:0:0:0:70:hihat.wav
402,192,205566,1,4,0:0:0:0:
475,192,205566,1,0,0:0:0:0:
256,192,205675,1,0,0:0:0:0:
329,192,205675,1,4,0:0:0:0:
109,192,205784,128,0,206001:0:0:0:70:hihat.wav
402,192,205784,1,4,0:0:0:0:
475,192,205784,1,0,0:0:0:0:
36,192,206001,1,0,0:0:0:0:
329,192,206001,1,8,0:0:0:0:
475,192,206001,1,0,0:0:0:0:
256,192,206218,1,4,0:0:0:0:
475,192,206218,1,0,0:0:0:0:
182,192,206436,1,4,0:0:0:0:
36,192,206436,1,0,0:0:0:0:
475,192,206436,128,0,207957:0:0:0:0:
256,192,206544,1,0,0:0:0:0:
329,192,206653,1,0,0:0:0:0:
109,192,206653,1,4,0:0:0:0:
36,192,206871,1,8,0:0:0:0:
402,192,206871,1,0,0:0:0:0:
182,192,206871,1,0,0:0:0:0:
256,192,207088,1,4,0:0:0:0:
402,192,207088,1,0,0:0:0:0:
36,192,207305,1,0,0:0:0:0:
109,192,207305,1,4,0:0:0:0:
329,192,207414,1,4,0:0:0:0:
402,192,207414,1,0,0:0:0:0:
182,192,207523,128,0,207740:0:0:0:70:hihat.wav
256,192,207523,1,4,0:0:0:0:
36,192,207523,1,0,0:0:0:0:
329,192,207740,128,0,207957:0:0:0:0:
402,192,207740,1,0,0:0:0:0:
36,192,207740,1,8,0:0:0:0:
109,192,207740,1,0,0:0:0:0:
36,192,207957,1,4,0:0:0:0:
109,192,207957,1,0,0:0:0:70:cymbol.wav
256,192,207957,1,0,0:0:0:0:
182,192,207957,1,0,0:0:0:0:
402,192,207957,128,0,209479:0:0:0:0:
182,192,208175,1,0,0:0:0:0:
329,192,208392,1,0,0:0:0:0:
36,192,208392,1,8,0:0:0:0:
475,192,208392,1,0,0:0:0:0:
36,192,208610,1,4,0:0:0:0:
109,192,208610,1,0,0:0:0:70:cymbol.wav
256,192,208610,1,0,0:0:0:0:
475,192,208610,1,0,0:0:0:0:
475,192,208827,1,0,0:0:0:0:
182,192,208827,1,4,0:0:0:0:
329,192,208827,1,0,0:0:0:0:
109,192,208827,1,0,0:0:0:0:
36,192,209044,1,8,0:0:0:0:
182,192,209044,1,0,0:0:0:0:
109,192,209044,1,0,0:0:0:0:
182,192,209153,1,0,0:0:0:0:
109,192,209153,1,0,0:0:0:0:
36,192,209153,1,8,0:0:0:0:
329,192,209262,1,4,0:0:0:0:
475,192,209262,1,0,0:0:0:0:
109,192,209479,1,0,0:0:0:0:
182,192,209479,1,0,0:0:0:0:
36,192,209479,1,8,0:0:0:0:
256,192,209479,128,0,209914:0:0:0:0:
182,192,209588,1,0,0:0:0:0:
109,192,209588,1,0,0:0:0:0:
36,192,209588,1,8,0:0:0:0:
402,192,209697,1,4,0:0:0:0:
475,192,209697,1,0,0:0:0:0:
36,192,209914,1,0,0:0:0:70:cymbol.wav
109,192,209914,1,4,0:0:0:0:
402,192,209914,1,0,0:0:0:0:
475,192,209914,1,0,0:0:0:0:
109,192,210349,1,0,0:0:0:0:
36,192,210349,1,4,0:0:0:0:
109,192,210784,1,0,0:0:0:0:
36,192,210784,1,4,0:0:0:0:
256,192,211001,128,0,211436:0:0:0:0:
109,192,211218,1,0,0:0:0:0:
36,192,211218,1,4,0:0:0:0:
329,192,211218,128,0,211653:0:0:0:0:
402,192,211436,128,0,211871:0:0:0:0:
109,192,211653,1,0,0:0:0:0:
36,192,211653,1,4,0:0:0:0:
475,192,211653,128,0,212088:0:0:0:0:
329,192,211871,128,0,212088:0:0:0:0:
109,192,212088,1,0,0:0:0:0:
36,192,212088,1,4,0:0:0:0:
402,192,212088,128,0,212305:0:0:0:0:
475,192,212305,128,0,212740:0:0:0:0:
109,192,212523,1,0,0:0:0:0:
36,192,212523,1,4,0:0:0:0:
329,192,212523,128,0,212957:0:0:0:0:
182,192,212740,128,0,213392:0:0:0:0:
109,192,212957,1,0,0:0:0:0:
36,192,212957,1,4,0:0:0:0:
329,192,213175,128,0,213392:0:0:0:0:
256,192,213392,1,0,0:0:0:0:
475,192,213392,1,4,0:0:0:0:
402,192,213392,1,0,0:0:0:70:cymbol.wav
36,192,213392,128,0,213827:0:0:0:0:
109,192,213392,1,0,0:0:0:0:
402,192,213827,1,0,0:0:0:0:
475,192,213827,1,4,0:0:0:0:
182,192,214044,128,0,214697:0:0:0:0:
402,192,214262,1,0,0:0:0:0:
475,192,214262,1,4,0:0:0:0:
36,192,214262,128,0,214697:0:0:0:0:
402,192,214697,1,0,0:0:0:0:
475,192,214697,1,4,0:0:0:0:
109,192,214697,128,0,215349:0:0:0:0:
182,192,214914,128,0,215349:0:0:0:0:
402,192,215131,1,0,0:0:0:0:
475,192,215131,1,4,0:0:0:0:
256,192,215349,128,0,216001:0:0:0:0:
402,192,215566,1,0,0:0:0:0:
475,192,215566,1,4,0:0:0:0:
36,192,215566,128,0,216001:0:0:0:0:
402,192,216001,1,0,0:0:0:0:
475,192,216001,1,4,0:0:0:0:
36,192,216218,128,0,216653:0:0:0:0:
475,192,216436,1,4,0:0:0:0:
402,192,216436,1,0,0:0:0:0:
182,192,216436,128,0,216871:0:0:0:0:
329,192,216653,128,0,217088:0:0:0:0:
36,192,216871,1,0,0:0:0:0:
109,192,216871,1,0,0:0:0:0:
475,192,216871,1,4,0:0:0:0:
402,192,216871,1,0,0:0:0:70:cymbol.wav
256,192,217088,1,0,0:0:0:0:
109,192,217305,1,0,0:0:0:0:
36,192,217305,1,4,0:0:0:0:
402,192,217305,128,0,217957:0:0:0:0:
475,192,217523,128,0,217957:0:0:0:0:
109,192,217740,1,0,0:0:0:0:
36,192,217740,1,4,0:0:0:0:
329,192,217957,128,0,218392:0:0:0:0:
109,192,218175,1,0,0:0:0:0:
36,192,218175,1,4,0:0:0:0:
256,192,218392,128,0,218610:0:0:0:0:
109,192,218610,1,0,0:0:0:0:
36,192,218610,1,4,0:0:0:0:
402,192,218827,128,0,219479:0:0:0:0:
109,192,219044,1,0,0:0:0:0:
36,192,219044,1,4,0:0:0:0:
329,192,219044,128,0,219479:0:0:0:0:
109,192,219479,1,0,0:0:0:0:
36,192,219479,1,4,0:0:0:0:
182,192,219697,128,0,220131:0:0:0:0:
109,192,219914,1,0,0:0:0:0:
36,192,219914,1,4,0:0:0:0:
329,192,219914,128,0,220349:0:0:0:0:
475,192,220131,128,0,220566:0:0:0:0:
36,192,220349,1,4,0:0:0:0:
109,192,220349,1,0,0:0:0:70:cymbol.wav
402,192,220349,1,0,0:0:0:0:
182,192,220349,1,0,0:0:0:0:
256,192,220566,1,0,0:0:0:0:
109,192,220784,1,0,0:0:0:0:
475,192,220784,1,4,0:0:0:0:
256,192,220784,128,0,221436:0:0:0:0:
36,192,221001,128,0,221436:0:0:0:0:
402,192,221218,1,0,0:0:0:0:
475,192,221218,1,4,0:0:0:0:
109,192,221436,128,0,221653:0:0:0:0:
402,192,221653,1,0,0:0:0:0:
475,192,221653,1,4,0:0:0:0:
182,192,221871,128,0,222957:0:0:0:0:
36,192,221871,1,0,0:0:0:0:
256,192,221979,1,0,0:0:0:0:
402,192,222088,1,0,0:0:0:0:
475,192,222088,1,4,0:0:0:0:
109,192,222305,128,0,222957:0:0:0:0:
329,192,222305,1,8,0:0:0:0:
256,192,222305,1,0,0:0:0:0:
36,192,222523,128,0,222957:0:0:0:0:
402,192,222523,1,0,0:0:0:0:
475,192,222523,1,4,0:0:0:0:
329,192,222740,1,8,0:0:0:0:
402,192,222740,1,0,0:0:0:0:
475,192,222740,1,0,0:0:0:0:
256,192,222957,1,4,0:0:0:0:
329,192,222957,1,0,0:0:0:0:
182,192,223175,1,8,0:0:0:0:
256,192,223175,1,0,0:0:0:0:
475,192,223175,1,0,0:0:0:0:
402,192,223175,1,0,0:0:0:0:
109,192,223392,1,4,0:0:0:0:
182,192,223392,1,0,0:0:0:0:
402,192,223392,1,0,0:0:0:0:
475,192,223392,1,0,0:0:0:0:
329,192,223392,1,0,0:0:0:70:hihat.wav
109,192,223610,1,0,0:0:0:0:
36,192,223610,1,4,0:0:0:0:
329,192,223610,1,0,0:0:0:0:
36,192,223827,1,4,0:0:0:0:
109,192,223827,1,0,0:0:0:70:cymbol.wav
402,192,223827,1,0,0:0:0:0:
475,192,223827,1,0,0:0:0:0:
182,192,223827,128,0,224262:0:0:0:0:
329,192,223827,128,0,224262:0:0:0:0:
256,192,224262,1,8,0:0:0:0:
36,192,224262,1,0,0:0:0:0:
475,192,224262,1,0,0:0:0:0:
402,192,224479,128,0,224697:0:0:0:0:
109,192,224479,128,0,224697:0:0:0:0:
36,192,224479,1,4,0:0:0:0:
475,192,224479,1,0,0:0:0:0:
182,192,224697,1,0,0:0:0:0:
329,192,224697,1,0,0:0:0:0:
256,192,224805,1,0,0:0:0:0:
109,192,224914,1,4,0:0:0:0:
402,192,224914,1,0,0:0:0:0:
36,192,224914,128,0,225566:0:0:0:0:
475,192,224914,128,0,225566:0:0:0:0:
329,192,225131,128,0,225784:0:0:0:0:
182,192,225349,128,0,225784:0:0:0:0:
402,192,225349,1,4,0:0:0:0:
109,192,225349,1,0,0:0:0:0:
109,192,225566,1,0,0:0:0:0:
402,192,225566,1,0,0:0:0:0:
256,192,225784,128,0,226218:0:0:0:0:
36,192,225784,128,0,226218:0:0:0:0:
475,192,225784,128,4,226218:0:0:0:0:
402,192,226001,1,8,0:0:0:0:
109,192,226001,1,0,0:0:0:0:
329,192,226001,1,0,0:0:0:0:
182,192,226218,128,4,226436:0:0:0:0:
329,192,226218,128,0,226871:0:0:0:0:
109,192,226436,1,0,0:0:0:0:
182,192,226544,1,0,0:0:0:0:
402,192,226544,1,0,0:0:0:0:
36,192,226653,128,0,227088:0:0:0:0:
256,192,226653,1,4,0:0:0:0:
475,192,226653,1,0,0:0:0:0:
475,192,226871,128,0,227305:0:0:0:0:
109,192,226871,1,0,0:0:0:0:
402,192,226871,1,8,0:0:0:0:
256,192,226871,1,0,0:0:0:0:
109,192,227088,128,0,227305:0:0:0:0:
329,192,227088,1,4,0:0:0:0:
182,192,227088,1,0,0:0:0:0:
402,192,227305,1,0,0:0:0:0:
36,192,227305,1,0,0:0:0:70:cymbol.wav
182,192,227305,128,0,227740:0:0:0:0:
329,192,227305,128,0,227740:0:0:0:0:
256,192,227305,1,4,0:0:0:0:
36,192,227740,1,0,0:0:0:0:
256,192,227740,1,8,0:0:0:0:
475,192,227740,1,0,0:0:0:0:
402,192,227957,128,0,228175:0:0:0:0:
109,192,227957,128,0,228175:0:0:0:0:
36,192,227957,1,4,0:0:0:0:
475,192,227957,1,0,0:0:0:0:
182,192,228175,1,0,0:0:0:0:
329,192,228175,1,0,0:0:0:0:
256,192,228284,1,0,0:0:0:0:
36,192,228392,1,4,0:0:0:0:
182,192,228392,128,0,228827:0:0:0:0:
329,192,228392,128,0,228827:0:0:0:0:
475,192,228392,1,0,0:0:0:0:
109,192,228610,128,0,228827:0:0:0:0:
402,192,228610,128,0,228827:0:0:0:0:
256,192,228827,1,4,0:0:0:0:
475,192,228827,128,0,229044:0:0:0:0:
36,192,228827,128,0,229044:0:0:0:0:
256,192,229044,128,0,229262:0:0:0:0:
402,192,229262,128,4,229479:0:0:0:0:
109,192,229262,128,0,229479:0:0:0:0:
36,192,229479,1,0,0:0:0:0:
256,192,229479,1,0,0:0:0:0:
475,192,229479,1,8,0:0:0:0:
36,192,229697,128,0,230131:0:0:0:0:
475,192,229697,128,0,230131:0:0:0:0:
109,192,229697,1,0,0:0:0:0:
182,192,229697,1,0,0:0:0:70:cymbol.wav
329,192,229697,1,4,0:0:0:0:
402,192,229697,1,0,0:0:0:0:
329,192,229914,1,4,0:0:0:0:
402,192,229914,1,0,0:0:0:0:
109,192,230023,1,0,0:0:0:0:
182,192,230023,1,4,0:0:0:0:
329,192,230131,1,4,0:0:0:0:
402,192,230131,1,0,0:0:0:0:
256,192,230131,128,0,230349:0:0:0:0:
36,192,230349,1,0,0:0:0:0:
182,192,230349,1,8,0:0:0:0:
109,192,230349,1,0,0:0:0:0:
329,192,230566,1,0,0:0:0:0:
475,192,230566,1,4,0:0:0:0:
402,192,230784,1,4,0:0:0:0:
256,192,230784,1,0,0:0:0:70:cymbol.wav
109,192,230784,128,0,231218:0:0:0:0:
36,192,230784,128,0,231218:0:0:0:0:
182,192,230784,1,0,0:0:0:0:
329,192,231218,1,8,0:0:0:0:
402,192,231218,1,0,0:0:0:0:
475,192,231218,1,0,0:0:0:0:
402,192,231436,1,4,0:0:0:0:
475,192,231436,1,0,0:0:0:0:
109,192,231436,128,0,231762:0:0:0:0:
36,192,231436,128,0,231762:0:0:0:0:
402,192,231653,1,4,0:0:0:0:
256,192,231653,1,0,0:0:0:0:
182,192,231762,1,0,0:0:0:0:
329,192,231762,1,4,0:0:0:0:
475,192,231871,128,0,232088:0:0:0:0:
402,192,231871,128,0,232088:0:0:0:0:
109,192,231871,1,0,0:0:0:0:
256,192,231871,1,4,0:0:0:0:
36,192,232088,1,0,0:0:0:0:
182,192,232088,1,0,0:0:0:0:
256,192,232088,1,8,0:0:0:0:
182,192,232305,1,0,0:0:0:0:
329,192,232305,1,0,0:0:0:0:
402,192,232305,1,4,0:0:0:0:
475,192,232305,1,0,0:0:0:70:cymbol.wav
36,192,232305,128,0,233175:0:0:0:0:
109,192,232305,128,0,233175:0:0:0:0:
182,192,232523,1,0,0:0:0:0:
256,192,232631,1,0,0:0:0:0:
402,192,232631,1,8,0:0:0:0:
475,192,232631,1,0,0:0:0:0:
182,192,232740,1,0,0:0:0:0:
329,192,232740,1,4,0:0:0:0:
475,192,232957,128,0,233610:0:0:0:0:
182,192,232957,1,8,0:0:0:0:
402,192,232957,1,0,0:0:0:0:
329,192,232957,1,0,0:0:0:0:
329,192,233175,128,0,233610:0:0:0:0:
402,192,233175,128,0,233610:0:0:0:0:
182,192,233175,1,4,0:0:0:0:
256,192,233175,1,0,0:0:0:0:
109,192,233392,1,4,0:0:0:0:
36,192,233392,1,0,0:0:0:0:
182,192,233501,1,4,0:0:0:0:
256,192,233501,1,0,0:0:0:0:
36,192,233610,128,0,234044:0:0:0:0:
109,192,233610,128,4,234044:0:0:0:0:
329,192,233827,1,8,0:0:0:0:
402,192,233827,1,0,0:0:0:0:
475,192,233827,1,0,0:0:0:0:
475,192,234044,1,0,0:0:0:0:
402,192,234044,1,0,0:0:0:0:
256,192,234044,1,4,0:0:0:0:
182,192,234044,1,0,0:0:0:70:cymbol.wav
475,192,234371,1,0,0:0:0:0:
182,192,234371,1,4,0:0:0:0:
402,192,234479,1,0,0:0:0:0:
109,192,234479,1,4,0:0:0:0:
36,192,234697,1,4,0:0:0:0:
329,192,234697,1,0,0:0:0:0:
475,192,234697,1,0,0:0:0:0:
182,192,234697,1,0,0:0:0:70:cymbol.wav
36,192,234914,1,0,0:0:0:0:
329,192,234914,1,4,0:0:0:0:
109,192,235023,1,0,0:0:0:0:
402,192,235023,1,0,0:0:0:0:
182,192,235131,1,0,0:0:0:0:
475,192,235131,1,0,0:0:0:0:
256,192,235240,1,0,0:0:0:0:
109,192,235240,1,8,0:0:0:0:
36,192,235240,1,0,0:0:0:0:
329,192,235349,1,0,0:0:0:0:
475,192,235349,1,0,0:0:0:0:
182,192,235349,1,8,0:0:0:0:
182,192,235566,128,0,236001:0:0:0:0:
402,192,235566,1,8,0:0:0:0:
475,192,235566,1,0,0:0:0:0:
36,192,235566,1,0,0:0:0:0:
256,192,235784,128,0,236001:0:0:0:0:
36,192,235784,1,4,0:0:0:0:
109,192,235784,1,0,0:0:0:0:
475,192,235784,1,0,0:0:0:0:
329,192,236001,128,0,236653:0:0:0:0:
402,192,236001,1,0,0:0:0:0:
109,192,236218,1,0,0:0:0:0:
36,192,236218,1,4,0:0:0:0:
182,192,236436,128,0,236653:0:0:0:0:
402,192,236436,1,0,0:0:0:0:
36,192,236436,1,4,0:0:0:0:
475,192,236436,1,0,0:0:0:0:
109,192,236436,1,0,0:0:0:70:cymbol.wav
256,192,236653,128,0,239479:0:0:0:0:
36,192,236653,128,0,236871:0:0:0:0:
475,192,236653,128,0,236871:0:0:0:0:
109,192,236871,1,0,0:0:0:0:
182,192,236871,1,0,0:0:0:0:
402,192,236871,1,8,0:0:0:0:
329,192,237088,1,0,0:0:0:0:
402,192,237088,1,4,0:0:0:0:
36,192,237197,1,0,0:0:0:0:
109,192,237197,1,4,0:0:0:0:
402,192,237305,1,4,0:0:0:0:
475,192,237305,1,0,0:0:0:0:
182,192,237305,128,0,237740:0:0:0:0:
36,192,237414,1,0,0:0:0:0:
109,192,237414,1,4,0:0:0:0:
329,192,237523,1,4,0:0:0:0:
402,192,237523,1,0,0:0:0:0:
36,192,237631,1,0,0:0:0:0:
109,192,237631,1,4,0:0:0:0:
329,192,237740,1,4,0:0:0:0:
402,192,237740,1,0,0:0:0:70:cymbol.wav
36,192,237740,128,0,239914:0:0:0:0:
475,192,237740,128,0,239914:0:0:0:0:
182,192,238175,1,8,0:0:0:0:
329,192,238175,1,0,0:0:0:0:
402,192,238175,1,0,0:0:0:0:
329,192,238392,1,4,0:0:0:0:
402,192,238392,1,0,0:0:0:0:
109,192,238610,1,4,0:0:0:0:
182,192,238610,1,0,0:0:0:0:
329,192,238718,1,4,0:0:0:0:
402,192,238718,1,0,0:0:0:0:
182,192,238827,1,0,0:0:0:0:
109,192,238827,1,4,0:0:0:0:
329,192,239044,1,0,0:0:0:0:
402,192,239044,1,0,0:0:0:0:
109,192,239044,1,8,0:0:0:0:
182,192,239262,128,0,239479:0:0:0:70:hihat.wav
329,192,239262,128,0,239479:0:0:0:0:
109,192,239479,1,4,0:0:0:0:
402,192,239479,1,0,0:0:0:0:
182,192,239697,1,4,0:0:0:0:
329,192,239697,1,0,0:0:0:0:
256,192,239805,1,4,0:0:0:0:
109,192,239914,128,0,240349:0:0:0:0:
402,192,239914,128,0,240349:0:0:0:0:
182,192,239914,1,8,0:0:0:0:
329,192,239914,1,0,0:0:0:0:
182,192,240131,128,0,240349:0:0:0:70:hihat.wav
329,192,240131,128,4,240349:0:0:0:0:
36,192,240349,128,0,240784:0:0:0:0:
475,192,240349,128,0,240784:0:0:0:0:
256,192,240349,1,0,0:0:0:0:
109,192,240566,128,0,240784:0:0:0:70:hihat.wav
402,192,240566,128,4,240784:0:0:0:0:
182,192,240784,128,0,241110:0:0:0:0:
329,192,240784,128,0,241110:0:0:0:0:
256,192,240784,1,8,0:0:0:0:
109,192,241001,1,0,0:0:0:70:hihat.wav
402,192,241001,1,4,0:0:0:0:
36,192,241001,128,0,242523:0:0:0:0:
475,192,241001,128,0,242523:0:0:0:0:
109,192,241218,128,0,242523:0:0:0:0:
402,192,241218,128,0,242523:0:0:0:0:
182,192,241218,1,4,0:0:0:0:
329,192,241218,1,0,0:0:0:0:
256,192,241327,1,0,0:0:0:0:
182,192,241436,1,0,0:0:0:0:
256,192,241653,1,0,0:0:0:0:
329,192,241653,1,8,0:0:0:0:
182,192,241871,1,4,0:0:0:0:
256,192,241871,1,0,0:0:0:0:
182,192,242088,1,0,0:0:0:0:
329,192,242088,1,0,0:0:0:0:
256,192,242197,1,0,0:0:0:0:
329,192,242305,1,4,0:0:0:0:
329,192,242523,128,0,242957:0:0:0:0:
182,192,242523,128,0,242957:0:0:0:0:
256,192,242523,1,8,0:0:0:0:
36,192,242740,1,0,0:0:0:0:
475,192,242740,1,0,0:0:0:0:
109,192,242957,128,0,243392:0:0:0:0:
402,192,242957,128,0,243392:0:0:0:0:
256,192,242957,1,4,0:0:0:0:
256,192,243175,128,0,243392:0:0:0:0:
36,192,243175,1,0,0:0:0:0:
475,192,243175,1,4,0:0:0:0:
182,192,243392,128,0,243827:0:0:0:0:
329,192,243392,128,0,243827:0:0:0:0:
475,192,243392,1,8,0:0:0:0:
36,192,243392,1,0,0:0:0:0:
402,192,243610,1,4,0:0:0:0:
109,192,243610,1,0,0:0:0:0:
256,192,243718,1,0,0:0:0:0:
36,192,243827,128,0,244262:0:0:0:0:
475,192,243827,128,0,244262:0:0:0:0:
109,192,243827,1,4,0:0:0:0:
402,192,243827,1,0,0:0:0:0:
182,192,243936,1,4,0:0:0:0:
329,192,243936,1,0,0:0:0:0:
109,192,244044,128,0,244262:0:0:0:0:
402,192,244044,128,0,244262:0:0:0:0:
256,192,244044,1,4,0:0:0:0:
182,192,244262,128,0,244697:0:0:0:0:
329,192,244262,128,0,244697:0:0:0:0:
256,192,244262,1,8,0:0:0:0:
109,192,244479,128,0,244697:0:0:0:0:
402,192,244479,128,0,244697:0:0:0:0:
36,192,244479,1,0,0:0:0:0:
475,192,244479,1,4,0:0:0:0:
256,192,244697,128,0,245131:0:0:0:0:
475,192,244697,1,4,0:0:0:0:
36,192,244697,1,0,0:0:0:70:cymbol.wav
36,192,244914,128,0,245131:0:0:0:0:
402,192,245131,128,0,245784:0:0:0:0:
329,192,245131,1,0,0:0:0:0:
475,192,245131,1,0,0:0:0:0:
182,192,245131,1,8,0:0:0:0:
36,192,245349,128,0,245784:0:0:0:0:
182,192,245566,1,4,0:0:0:0:
109,192,245566,1,0,0:0:0:0:
329,192,245675,1,0,0:0:0:0:
256,192,245675,1,4,0:0:0:0:
475,192,245784,128,0,246218:0:0:0:0:
182,192,245784,1,4,0:0:0:0:
109,192,245784,1,0,0:0:0:0:
256,192,246001,1,8,0:0:0:0:
329,192,246001,1,0,0:0:0:0:
36,192,246001,1,0,0:0:0:0:
402,192,246218,128,0,246653:0:0:0:0:
109,192,246218,128,0,246436:0:0:0:70:hihat.wav
182,192,246436,1,0,0:0:0:0:
36,192,246436,1,4,0:0:0:0:
329,192,246653,128,0,247523:0:0:0:0:
109,192,246653,1,0,0:0:0:0:
36,192,246653,1,4,0:0:0:0:
182,192,246762,1,4,0:0:0:0:
256,192,246762,1,0,0:0:0:0:
402,192,246871,128,0,247523:0:0:0:0:
109,192,246871,1,0,0:0:0:0:
36,192,246871,1,8,0:0:0:0:
475,192,247088,128,0,247523:0:0:0:0:
109,192,247088,128,0,247305:0:0:0:70:hihat.wav
182,192,247305,1,4,0:0:0:0:
256,192,247305,1,0,0:0:0:0:
109,192,247414,1,4,0:0:0:0:
36,192,247414,1,0,0:0:0:0:
182,192,247523,1,4,0:0:0:0:
256,192,247523,1,0,0:0:0:0:
36,192,247740,1,0,0:0:0:0:
329,192,247740,1,8,0:0:0:0:
402,192,247740,1,0,0:0:0:0:
109,192,247957,1,0,0:0:0:0:
402,192,247957,1,4,0:0:0:0:
475,192,247957,1,0,0:0:0:0:
256,192,248175,128,0,248827:0:0:0:0:
36,192,248175,1,0,0:0:0:0:
475,192,248175,1,4,0:0:0:0:
402,192,248284,1,0,0:0:0:0:
329,192,248392,1,4,0:0:0:0:
182,192,248392,1,0,0:0:0:0:
182,192,248610,128,0,248827:0:0:0:0:
402,192,248610,1,8,0:0:0:0:
475,192,248610,1,0,0:0:0:0:
36,192,248610,1,0,0:0:0:0:
329,192,248827,128,0,249479:0:0:0:0:
109,192,248827,1,4,0:0:0:0:
475,192,249044,1,0,0:0:0:0:
402,192,249044,1,4,0:0:0:0:
36,192,249153,1,0,0:0:0:0:
109,192,249153,1,4,0:0:0:0:
182,192,249262,128,0,249479:0:0:0:70:hihat.wav
402,192,249262,1,4,0:0:0:0:
475,192,249262,1,0,0:0:0:0:
36,192,249479,128,0,250131:0:0:0:0:
256,192,249479,1,8,0:0:0:0:
109,192,249479,1,0,0:0:0:0:
475,192,249479,1,0,0:0:0:0:
475,192,249697,1,0,0:0:0:0:
182,192,249697,1,0,0:0:0:0:
329,192,249697,1,4,0:0:0:0:
402,192,249697,1,0,0:0:0:70:cymbol.wav
256,192,250131,1,0,0:0:0:0:
182,192,250131,1,4,0:0:0:0:
329,192,250131,128,0,250566:0:0:0:0:
402,192,250349,128,0,250566:0:0:0:0:
36,192,250349,1,0,0:0:0:0:
109,192,250349,1,0,0:0:0:0:
182,192,250349,1,8,0:0:0:0:
475,192,250566,128,0,250784:0:0:0:0:
36,192,250566,1,0,0:0:0:0:
256,192,250566,1,4,0:0:0:0:
109,192,250675,1,0,0:0:0:0:
329,192,250675,1,4,0:0:0:0:
256,192,250784,128,0,251218:0:0:0:0:
402,192,250784,1,4,0:0:0:0:
182,192,250784,1,0,0:0:0:0:
109,192,250892,1,0,0:0:0:0:
329,192,250892,1,4,0:0:0:0:
475,192,251001,1,0,0:0:0:0:
36,192,251001,128,0,251218:0:0:0:0:
402,192,251001,1,4,0:0:0:0:
329,192,251218,1,0,0:0:0:0:
402,192,251218,1,0,0:0:0:0:
475,192,251218,1,8,0:0:0:0:
182,192,251218,128,0,251653:0:0:0:0:
329,192,251327,1,0,0:0:0:0:
402,192,251327,1,0,0:0:0:0:
475,192,251327,1,8,0:0:0:0:
256,192,251436,1,4,0:0:0:0:
36,192,251436,1,0,0:0:0:0:
109,192,251436,128,0,251653:0:0:0:0:
36,192,251653,1,0,0:0:0:70:cymbol.wav
256,192,251653,1,4,0:0:0:0:
475,192,251653,128,0,253175:0:0:0:0:
402,192,251653,128,0,251871:0:0:0:0:
329,192,251871,128,0,252088:0:0:0:0:
402,192,252088,128,0,252305:0:0:0:0:
109,192,252088,1,0,0:0:0:0:
36,192,252088,1,8,0:0:0:0:
182,192,252088,1,0,0:0:0:0:
329,192,252305,128,0,252523:0:0:0:0:
182,192,252305,1,4,0:0:0:0:
402,192,252523,128,0,252740:0:0:0:0:
36,192,252523,1,0,0:0:0:0:
256,192,252523,1,4,0:0:0:0:
182,192,252631,1,4,0:0:0:0:
329,192,252740,128,0,252957:0:0:0:0:
36,192,252740,1,0,0:0:0:0:
109,192,252740,1,4,0:0:0:0:
256,192,252957,128,0,253175:0:0:0:0:
36,192,252957,1,0,0:0:0:0:
109,192,252957,1,8,0:0:0:0:
182,192,252957,1,0,0:0:0:0:
182,192,253175,128,0,253610:0:0:0:0:
402,192,253175,1,0,0:0:0:70:hihat.wav
36,192,253175,128,0,255131:0:0:0:0:
329,192,253392,1,4,0:0:0:0:
475,192,253392,1,0,0:0:0:0:
109,192,253610,128,0,253827:0:0:0:0:
256,192,253610,1,0,0:0:0:0:
402,192,253610,1,4,0:0:0:0:
329,192,253718,1,4,0:0:0:0:
182,192,253827,128,0,254044:0:0:0:0:
402,192,253827,1,8,0:0:0:0:
475,192,253827,1,0,0:0:0:0:
256,192,253827,1,0,0:0:0:0:
109,192,254044,128,0,254262:0:0:0:0:
475,192,254044,1,0,0:0:0:0:
329,192,254044,1,0,0:0:0:70:hihat.wav
402,192,254262,1,4,0:0:0:0:
182,192,254262,128,0,254479:0:0:0:0:
329,192,254371,1,4,0:0:0:0:
256,192,254479,128,0,254697:0:0:0:0:
475,192,254479,1,4,0:0:0:0:
402,192,254479,1,0,0:0:0:70:hihat.wav
329,192,254697,128,0,254914:0:0:0:0:
109,192,254697,1,0,0:0:0:0:
402,192,254697,1,0,0:0:0:0:
475,192,254697,1,8,0:0:0:0:
182,192,254914,128,0,255131:0:0:0:0:
475,192,254914,1,4,0:0:0:0:
402,192,254914,1,0,0:0:0:70:hihat.wav
109,192,255131,128,0,255349:0:0:0:0:
256,192,255131,128,0,256436:0:0:0:0:
329,192,255131,1,4,0:0:0:0:
475,192,255131,1,0,0:0:0:0:
402,192,255240,1,0,0:0:0:0:
36,192,255349,128,0,255566:0:0:0:0:
475,192,255349,1,0,0:0:0:0:
109,192,255566,1,0,0:0:0:0:
182,192,255566,1,8,0:0:0:0:
475,192,255566,128,0,255784:0:0:0:0:
329,192,255784,128,0,256436:0:0:0:0:
36,192,255784,1,0,0:0:0:0:
182,192,255784,1,0,0:0:0:0:
36,192,256001,1,4,0:0:0:0:
109,192,256001,1,0,0:0:0:0:
402,192,256110,1,4,0:0:0:0:
475,192,256110,1,0,0:0:0:0:
109,192,256218,1,0,0:0:0:0:
36,192,256218,1,4,0:0:0:0:
182,192,256218,128,0,256436:0:0:0:0:
36,192,256436,1,0,0:0:0:0:
402,192,256436,1,8,0:0:0:0:
475,192,256436,1,0,0:0:0:0:
475,192,256653,128,0,257957:0:0:0:0:
36,192,256653,1,0,0:0:0:0:
402,192,256653,1,0,0:0:0:0:
109,192,256653,128,0,258610:0:0:0:0:
329,192,256762,1,0,0:0:0:0:
256,192,256871,1,0,0:0:0:0:
36,192,256871,1,4,0:0:0:0:
402,192,257088,128,0,257957:0:0:0:0:
182,192,257088,1,4,0:0:0:0:
36,192,257088,1,0,0:0:0:0:
329,192,257197,1,0,0:0:0:0:
256,192,257197,1,4,0:0:0:0:
182,192,257305,1,8,0:0:0:0:
36,192,257305,1,0,0:0:0:0:
329,192,257523,128,0,257957:0:0:0:0:
182,192,257523,1,4,0:0:0:0:
36,192,257631,1,4,0:0:0:0:
256,192,257740,1,4,0:0:0:0:
182,192,257849,1,4,0:0:0:0:
36,192,257957,128,0,258175:0:0:0:0:
256,192,257957,1,4,0:0:0:0:
329,192,258175,1,0,0:0:0:0:
402,192,258175,1,8,0:0:0:0:
475,192,258175,1,0,0:0:0:0:
182,192,258175,128,0,258392:0:0:0:0:
36,192,258392,128,0,258610:0:0:0:0:
402,192,258392,1,4,0:0:0:0:
329,192,258392,1,0,0:0:0:0:
402,192,258501,1,4,0:0:0:0:
329,192,258501,1,0,0:0:0:0:
182,192,258610,1,0,0:0:0:0:
475,192,258610,1,0,0:0:0:0:
402,192,258610,1,8,0:0:0:0:
256,192,258610,128,0,259044:0:0:0:0:
329,192,258610,1,0,0:0:0:0:
182,192,259044,128,0,259914:0:0:0:0:
475,192,259044,1,0,0:0:0:0:
36,192,259044,1,8,0:0:0:0:
109,192,259044,1,0,0:0:0:0:
329,192,259262,128,0,259914:0:0:0:0:
109,192,259262,1,0,0:0:0:0:
36,192,259262,1,4,0:0:0:0:
475,192,259479,1,8,0:0:0:0:
402,192,259479,1,0,0:0:0:0:
256,192,259479,1,0,0:0:0:0:
475,192,259588,1,8,0:0:0:0:
402,192,259588,1,0,0:0:0:0:
256,192,259588,1,0,0:0:0:0:
36,192,259697,1,4,0:0:0:0:
109,192,259697,1,0,0:0:0:0:
256,192,259914,128,0,260349:0:0:0:0:
475,192,259914,1,0,0:0:0:0:
109,192,259914,1,0,0:0:0:0:
36,192,259914,1,8,0:0:0:0:
182,192,260131,1,0,0:0:0:0:
402,192,260131,128,0,260566:0:0:0:0:
36,192,260349,1,4,0:0:0:0:
109,192,260349,1,0,0:0:0:0:
182,192,260457,1,8,0:0:0:0:
256,192,260457,1,0,0:0:0:0:
329,192,260457,1,0,0:0:0:0:
475,192,260566,128,0,260784:0:0:0:0:
36,192,260566,1,4,0:0:0:0:
109,192,260566,1,0,0:0:0:0:
256,192,260675,1,4,0:0:0:0:
329,192,260675,1,0,0:0:0:0:
109,192,260784,1,8,0:0:0:0:
182,192,260784,1,0,0:0:0:0:
36,192,260784,1,0,0:0:0:0:
402,192,260784,128,0,261436:0:0:0:0:
329,192,261001,128,0,261436:0:0:0:0:
36,192,261001,1,4,0:0:0:0:
109,192,261001,1,0,0:0:0:70:cymbol.wav
182,192,261001,1,0,0:0:0:0:
475,192,261001,1,0,0:0:0:0:
36,192,261218,1,4,0:0:0:0:
109,192,261218,1,0,0:0:0:0:
182,192,261327,1,4,0:0:0:0:
256,192,261327,1,0,0:0:0:0:
109,192,261436,1,0,0:0:0:0:
36,192,261436,1,4,0:0:0:0:
475,192,261436,128,0,262523:0:0:0:0:
182,192,261653,1,8,0:0:0:0:
256,192,261653,1,0,0:0:0:0:
329,192,261653,1,0,0:0:0:0:
109,192,261871,1,0,0:0:0:0:
36,192,261871,1,4,0:0:0:0:
402,192,261871,128,0,262523:0:0:0:0:
36,192,262088,1,4,0:0:0:0:
109,192,262088,1,0,0:0:0:0:
182,192,262197,1,4,0:0:0:0:
256,192,262197,1,0,0:0:0:0:
329,192,262305,128,0,262523:0:0:0:0:
36,192,262305,1,4,0:0:0:0:
109,192,262305,1,0,0:0:0:0:
182,192,262523,1,0,0:0:0:0:
109,192,262523,1,0,0:0:0:0:
36,192,262523,1,8,0:0:0:0:
256,192,262523,128,0,263175:0:0:0:0:
402,192,262740,1,0,0:0:0:0:
475,192,262740,1,4,0:0:0:0:
329,192,262740,128,0,263175:0:0:0:0:
475,192,262957,1,4,0:0:0:0:
402,192,262957,1,0,0:0:0:0:
36,192,263066,1,0,0:0:0:0:
109,192,263066,1,4,0:0:0:0:
402,192,263175,1,0,0:0:0:0:
475,192,263175,1,0,0:0:0:0:
109,192,263175,1,4,0:0:0:0:
36,192,263175,1,0,0:0:0:0:
182,192,263175,128,0,263610:0:0:0:0:
475,192,263392,1,0,0:0:0:0:
329,192,263392,1,0,0:0:0:0:
329,192,263610,1,4,0:0:0:0:
402,192,263610,1,0,0:0:0:70:cymbol.wav
475,192,263610,1,0,0:0:0:0:
36,192,263610,1,0,0:0:0:0:
256,192,263610,128,0,264479:0:0:0:0:
36,192,264044,1,0,0:0:0:0:
109,192,264044,1,4,0:0:0:0:
182,192,264262,128,0,264697:0:0:0:0:
329,192,264262,1,0,0:0:0:0:
402,192,264262,1,0,0:0:0:0:
475,192,264262,1,8,0:0:0:0:
36,192,264262,1,0,0:0:0:70:cymbol.wav
329,192,264479,128,0,264697:0:0:0:0:
475,192,264479,1,0,0:0:0:0:
402,192,264479,1,4,0:0:0:0:
36,192,264588,1,0,0:0:0:0:
109,192,264588,1,4,0:0:0:0:
475,192,264697,1,0,0:0:0:0:
402,192,264697,1,4,0:0:0:0:
256,192,264697,128,0,264914:0:0:0:0:
109,192,264805,1,0,0:0:0:0:
36,192,264805,1,4,0:0:0:0:
402,192,264914,1,4,0:0:0:0:
475,192,264914,1,0,0:0:0:0:
182,192,264914,128,0,267305:0:0:0:0:
256,192,265131,128,0,267305:0:0:0:0:
36,192,265131,1,4,0:0:0:0:
109,192,265131,1,0,0:0:0:0:
329,192,265349,128,0,267305:0:0:0:0:
36,192,265349,1,0,0:0:0:70:cymbol.wav
402,192,265349,1,4,0:0:0:0:
475,192,265349,1,0,0:0:0:0:
475,192,267305,1,0,0:0:0:0:
182,192,267957,1,0,0:0:0:0:
256,192,268610,1,0,0:0:0:0:
475,192,268827,1,0,0:0:0:0:
256,192,269044,1,0,0:0:0:0:
182,192,269697,1,0,0:0:0:0:
109,192,270349,1,0,0:0:0:0:
36,192,270784,1,0,0:0:0:0:
109,192,271001,1,0,0:0:0:0:
182,192,271218,1,0,0:0:0:0:
256,192,271436,1,0,0:0:0:0:
182,192,271871,1,0,0:0:0:0:
475,192,272088,1,0,0:0:0:0:
402,192,272305,1,0,0:0:0:0:
109,192,272740,1,0,0:0:0:0:
182,192,272957,1,0,0:0:0:0:
256,192,273175,1,0,0:0:0:0:
329,192,273392,1,0,0:0:0:0:
402,192,273610,1,0,0:0:0:0:
256,192,273827,1,0,0:0:0:0:
109,192,274044,1,0,0:0:0:0:
475,192,274262,1,0,0:0:0:0:
329,192,274479,1,0,0:0:0:0:
182,192,274697,1,0,0:0:0:0:
402,192,274914,1,0,0:0:0:0:
36,192,275566,1,0,0:0:0:0:
329,192,275784,1,0,0:0:0:0:
182,192,276001,1,0,0:0:0:0:
256,192,276218,1,0,0:0:0:0:
329,192,276436,1,0,0:0:0:0:
402,192,276653,1,0,0:0:0:0:
109,192,277305,1,0,0:0:0:0:
475,192,277523,1,0,0:0:0:0:
256,192,277740,1,0,0:0:0:0:
182,192,277957,1,0,0:0:0:0:
109,192,278175,1,0,0:0:0:0:
256,192,278392,1,0,0:0:0:0:
402,192,278610,1,0,0:0:0:0:
329,192,278827,1,0,0:0:0:0:
109,192,278827,128,0,279262:0:0:0:0:
182,192,279044,128,0,279262:0:0:0:0:
402,192,279044,128,0,279262:0:0:0:0:
256,192,279044,1,0,0:0:0:0:
475,192,279262,128,0,279588:0:0:0:0:
329,192,279262,128,4,279588:0:0:0:0:
36,192,279262,128,0,279697:0:0:0:0:
329,192,279697,1,0,0:0:0:0:
475,192,279697,1,4,0:0:0:0:
182,192,279697,1,0,0:0:0:0:
109,192,279697,1,0,0:0:0:0:
329,192,279914,1,0,0:0:0:0:
475,192,279914,1,4,0:0:0:0:
182,192,279914,1,0,0:0:0:0:
109,192,279914,1,0,0:0:0:0:
329,192,280131,1,0,0:0:0:0:
475,192,280131,1,4,0:0:0:0:
402,192,280131,1,0,0:0:0:0:
36,192,280131,1,0,0:0:0:70:cymbol.wav
109,192,280131,1,0,0:0:0:0:
182,192,280349,1,0,0:0:0:0:
402,192,280349,1,0,0:0:0:0:
256,192,280349,128,0,281218:0:0:0:0:
475,192,280349,1,4,0:0:0:0:
36,192,280566,1,0,0:0:0:0:
109,192,280566,1,0,0:0:0:0:
475,192,280566,1,4,0:0:0:0:
402,192,280566,1,0,0:0:0:0:
182,192,280784,1,0,0:0:0:0:
36,192,280784,1,8,0:0:0:0:
109,192,280784,1,0,0:0:0:0:
329,192,280892,1,8,0:0:0:0:
402,192,280892,1,0,0:0:0:0:
475,192,280892,1,0,0:0:0:0:
182,192,281001,1,0,0:0:0:0:
109,192,281001,1,0,0:0:0:0:
36,192,281001,1,8,0:0:0:0:
402,192,281110,1,0,0:0:0:0:
329,192,281110,1,8,0:0:0:0:
475,192,281110,1,0,0:0:0:0:
329,192,281218,1,4,0:0:0:0:
402,192,281218,1,0,0:0:0:70:cymbol.wav
475,192,281218,1,0,0:0:0:70:01.wav
36,192,281218,128,0,281653:0:0:0:0:
182,192,281218,128,0,281871:0:0:0:0:
109,192,281218,1,0,0:0:0:0:
109,192,281436,128,0,281653:0:0:0:0:
475,192,281653,128,0,282305:0:0:0:0:
256,192,281653,1,0,0:0:0:0:
329,192,281653,1,8,0:0:0:0:
402,192,281653,1,0,0:0:0:0:
402,192,281871,128,0,282305:0:0:0:0:
36,192,281871,128,0,282523:0:0:0:0:
329,192,281871,1,0,0:0:0:0:
256,192,281871,1,4,0:0:0:0:
109,192,282088,1,0,0:0:0:0:
182,192,282088,1,4,0:0:0:0:
256,192,282197,1,4,0:0:0:0:
329,192,282197,1,0,0:0:0:0:
109,192,282305,1,0,0:0:0:0:
182,192,282305,1,4,0:0:0:0:
256,192,282523,128,0,282957:0:0:0:0:
109,192,282523,1,8,0:0:0:0:
402,192,282523,1,0,0:0:0:0:
329,192,282523,1,0,0:0:0:0:
475,192,282523,128,0,283175:0:0:0:0:
182,192,282740,128,0,282957:0:0:0:70:hihat.wav
402,192,282740,128,0,283175:0:0:0:0:
36,192,282957,128,0,283610:0:0:0:0:
109,192,282957,1,0,0:0:0:0:
329,192,282957,1,4,0:0:0:0:
182,192,283175,1,0,0:0:0:0:
256,192,283175,1,4,0:0:0:0:
109,192,283175,128,0,283610:0:0:0:0:
329,192,283284,1,4,0:0:0:0:
402,192,283392,1,8,0:0:0:0:
475,192,283392,1,0,0:0:0:0:
182,192,283392,1,0,0:0:0:0:
475,192,283610,128,0,284262:0:0:0:0:
329,192,283610,128,0,284044:0:0:0:0:
36,192,283827,1,0,0:0:0:0:
109,192,283827,1,4,0:0:0:0:
182,192,283936,1,4,0:0:0:0:
256,192,283936,1,0,0:0:0:0:
402,192,284044,128,0,284262:0:0:0:70:hihat.wav
36,192,284044,1,0,0:0:0:0:
109,192,284044,1,4,0:0:0:0:
36,192,284262,128,0,284697:0:0:0:0:
109,192,284262,1,0,0:0:0:0:
256,192,284262,1,8,0:0:0:0:
329,192,284262,1,0,0:0:0:0:
182,192,284262,128,0,284479:0:0:0:0:
402,192,284479,128,0,284697:0:0:0:70:hihat.wav
475,192,284479,128,0,285131:0:0:0:0:
109,192,284697,128,0,285349:0:0:0:0:
182,192,284697,1,0,0:0:0:0:
329,192,284697,1,4,0:0:0:0:
256,192,284805,1,0,0:0:0:0:
402,192,284805,1,4,0:0:0:0:
182,192,284914,1,0,0:0:0:0:
329,192,284914,1,4,0:0:0:0:
36,192,285131,1,0,0:0:0:0:
329,192,285131,1,8,0:0:0:0:
402,192,285131,1,0,0:0:0:0:
475,192,285349,128,0,286001:0:0:0:0:
329,192,285349,1,4,0:0:0:0:
402,192,285349,1,0,0:0:0:0:
182,192,285349,128,0,285566:0:0:0:0:
256,192,285566,1,0,0:0:0:0:
402,192,285566,1,4,0:0:0:0:
182,192,285675,1,0,0:0:0:0:
329,192,285675,1,4,0:0:0:0:
36,192,285784,128,0,286218:0:0:0:0:
402,192,285784,128,0,286001:0:0:0:70:hihat.wav
256,192,285784,1,4,0:0:0:0:
109,192,285784,1,0,0:0:0:0:
109,192,286001,128,0,286218:0:0:0:0:
329,192,286001,128,0,286218:0:0:0:0:
182,192,286001,1,0,0:0:0:0:
256,192,286001,1,8,0:0:0:0:
182,192,286218,128,0,286436:0:0:0:0:
402,192,286218,128,0,286436:0:0:0:0:
256,192,286436,128,0,287305:0:0:0:0:
109,192,286436,1,0,0:0:0:0:
36,192,286436,1,4,0:0:0:0:
475,192,286436,128,0,286762:0:0:0:0:
36,192,286653,1,4,0:0:0:0:
402,192,286653,128,0,286762:0:0:0:0:
109,192,286653,1,0,0:0:0:0:
109,192,286762,1,0,0:0:0:0:
36,192,286762,1,4,0:0:0:0:
329,192,286871,1,0,0:0:0:0:
402,192,286871,1,8,0:0:0:0:
475,192,286871,1,0,0:0:0:0:
109,192,287088,1,4,0:0:0:0:
182,192,287088,1,0,0:0:0:0:
36,192,287088,128,0,287414:0:0:0:70:hihat.wav
475,192,287197,1,0,0:0:0:0:
402,192,287197,1,4,0:0:0:0:
109,192,287305,1,4,0:0:0:0:
182,192,287305,1,0,0:0:0:0:
329,192,287305,128,0,287523:0:0:0:0:
475,192,287414,1,0,0:0:0:0:
402,192,287414,1,4,0:0:0:0:
109,192,287523,1,4,0:0:0:0:
36,192,287523,1,0,0:0:0:0:
256,192,287523,128,0,287740:0:0:0:0:
182,192,287523,128,0,287740:0:0:0:70:hihat.wav
329,192,287740,1,8,0:0:0:0:
402,192,287740,1,0,0:0:0:0:
475,192,287740,1,0,0:0:0:0:
36,192,287740,128,0,287957:0:0:0:0:
475,192,287957,128,0,288175:0:0:0:0:
402,192,287957,1,0,0:0:0:0:
256,192,287957,1,4,0:0:0:0:
109,192,287957,128,0,288066:0:0:0:0:
329,192,288066,1,0,0:0:0:0:
182,192,288066,1,4,0:0:0:0:
402,192,288175,128,0,288827:0:0:0:0:
109,192,288175,1,4,0:0:0:0:
256,192,288175,1,0,0:0:0:0:
36,192,288175,1,0,0:0:0:70:cymbol.wav
329,192,288610,128,0,288827:0:0:0:0:
36,192,288610,1,8,0:0:0:0:
109,192,288610,1,0,0:0:0:0:
182,192,288610,1,0,0:0:0:0:
36,192,288827,1,4,0:0:0:0:
109,192,288827,1,0,0:0:0:0:
182,192,288827,128,0,289479:0:0:0:0:
475,192,288827,128,0,289479:0:0:0:0:
36,192,289044,1,4,0:0:0:0:
109,192,289044,1,0,0:0:0:0:
256,192,289153,1,4,0:0:0:0:
329,192,289153,1,0,0:0:0:0:
109,192,289262,1,0,0:0:0:0:
36,192,289262,1,4,0:0:0:0:
402,192,289262,128,0,289479:0:0:0:0:
256,192,289479,1,8,0:0:0:0:
329,192,289479,1,0,0:0:0:0:
36,192,289479,1,0,0:0:0:0:
109,192,289479,128,0,289914:0:0:0:0:
402,192,289697,128,0,289914:0:0:0:70:hihat.wav
475,192,289697,128,0,290349:0:0:0:0:
182,192,289914,128,0,290566:0:0:0:0:
36,192,289914,1,4,0:0:0:0:
329,192,289914,1,0,0:0:0:0:
36,192,290131,1,4,0:0:0:0:
109,192,290131,1,0,0:0:0:0:
329,192,290131,128,0,290566:0:0:0:0:
256,192,290240,1,4,0:0:0:0:
402,192,290240,1,0,0:0:0:0:
109,192,290349,1,0,0:0:0:0:
36,192,290349,1,8,0:0:0:0:
402,192,290566,128,0,291001:0:0:0:0:
475,192,290566,128,0,291218:0:0:0:0:
36,192,290784,1,0,0:0:0:0:
182,192,290784,1,4,0:0:0:0:
109,192,290892,1,0,0:0:0:0:
256,192,290892,1,4,0:0:0:0:
182,192,291001,1,0,0:0:0:0:
329,192,291001,1,4,0:0:0:0:
36,192,291001,128,0,291218:0:0:0:70:hihat.wav
109,192,291218,1,0,0:0:0:0:
329,192,291218,1,8,0:0:0:0:
402,192,291218,1,0,0:0:0:0:
182,192,291218,128,0,291653:0:0:0:0:
36,192,291436,128,0,291653:0:0:0:70:hihat.wav
109,192,291436,128,0,291653:0:0:0:0:
402,192,291436,1,0,0:0:0:0:
329,192,291436,1,0,0:0:0:0:
475,192,291653,128,0,293066:0:0:0:0:
256,192,291653,128,0,292088:0:0:0:0:
402,192,291653,1,4,0:0:0:0:
329,192,291653,1,0,0:0:0:0:
182,192,291871,128,0,292305:0:0:0:0:
36,192,291871,1,0,0:0:0:0:
109,192,291871,1,4,0:0:0:0:
329,192,292088,128,0,292523:0:0:0:0:
36,192,292088,1,0,0:0:0:0:
109,192,292088,1,8,0:0:0:0:
402,192,292088,1,0,0:0:0:0:
256,192,292305,128,0,292740:0:0:0:0:
36,192,292305,128,0,292957:0:0:0:0:
109,192,292305,1,4,0:0:0:0:
402,192,292305,1,0,0:0:0:0:
182,192,292523,128,4,292957:0:0:0:0:
329,192,292740,128,0,293066:0:0:0:0:
109,192,292740,128,4,292957:0:0:0:0:
402,192,292957,128,0,293066:0:0:0:0:
256,192,292957,128,8,293066:0:0:0:0:
329,192,293175,1,4,0:0:0:0:
402,192,293175,1,0,0:0:0:70:cymbol.wav
475,192,293175,1,0,0:0:0:0:
36,192,293175,128,0,295131:0:0:0:0:
109,192,293175,128,0,293610:0:0:0:0:
256,192,293175,128,0,293392:0:0:0:0:
475,192,293392,128,0,293610:0:0:0:0:
182,192,293610,128,0,294044:0:0:0:0:
329,192,293610,1,4,0:0:0:0:
329,192,293827,1,0,0:0:0:0:
402,192,293827,1,0,0:0:0:0:
475,192,293827,1,8,0:0:0:0:
475,192,294044,1,4,0:0:0:0:
256,192,294044,128,0,294479:0:0:0:0:
329,192,294044,1,0,0:0:0:0:
402,192,294153,1,4,0:0:0:0:
109,192,294153,128,0,294371:0:0:0:0:
329,192,294262,1,4,0:0:0:0:
182,192,294262,128,0,294371:0:0:0:0:
402,192,294371,1,4,0:0:0:0:
109,192,294479,128,0,295131:0:0:0:0:
475,192,294479,1,4,0:0:0:0:
182,192,294479,1,0,0:0:0:0:
329,192,294697,1,0,0:0:0:0:
402,192,294697,1,0,0:0:0:0:
475,192,294697,1,8,0:0:0:0:
475,192,294805,1,8,0:0:0:0:
402,192,294805,1,0,0:0:0:0:
329,192,294805,1,0,0:0:0:0:
256,192,294914,1,0,0:0:0:0:
182,192,294914,1,4,0:0:0:0:
402,192,295131,128,0,295784:0:0:0:0:
475,192,295131,128,0,295784:0:0:0:0:
182,192,295131,1,4,0:0:0:0:
256,192,295131,1,0,0:0:0:70:cymbol.wav
329,192,295131,128,0,295566:0:0:0:0:
182,192,295349,128,0,295566:0:0:0:0:
256,192,295566,128,0,295784:0:0:0:0:
36,192,295566,1,0,0:0:0:0:
109,192,295566,1,8,0:0:0:0:
36,192,295784,128,0,296110:0:0:0:0:
109,192,295784,128,0,296110:0:0:0:0:
182,192,295784,128,0,296110:0:0:0:0:
475,192,296001,1,0,0:0:0:0:
402,192,296001,1,4,0:0:0:0:
329,192,296110,1,4,0:0:0:0:
256,192,296110,1,0,0:0:0:0:
402,192,296218,1,4,0:0:0:0:
475,192,296218,1,0,0:0:0:0:
182,192,296218,128,0,296544:0:0:0:0:
109,192,296218,128,0,296544:0:0:0:0:
36,192,296218,128,0,296544:0:0:0:0:
329,192,296436,1,8,0:0:0:0:
402,192,296436,1,0,0:0:0:0:
475,192,296436,1,0,0:0:0:0:
182,192,296653,128,0,296871:0:0:0:0:
109,192,296653,128,0,296871:0:0:0:0:
36,192,296653,128,0,296871:0:0:0:0:
256,192,296871,128,0,297305:0:0:0:0:
402,192,296871,1,4,0:0:0:0:
475,192,296871,1,0,0:0:0:0:
329,192,297088,128,0,297305:0:0:0:0:
36,192,297088,1,0,0:0:0:0:
109,192,297088,1,4,0:0:0:0:
475,192,297197,1,0,0:0:0:0:
402,192,297197,1,4,0:0:0:0:
109,192,297305,1,8,0:0:0:0:
402,192,297305,128,0,297523:0:0:0:0:
475,192,297305,128,0,297523:0:0:0:0:
182,192,297305,1,0,0:0:0:0:
36,192,297305,1,0,0:0:0:0:
36,192,297523,128,0,297849:0:0:0:0:
109,192,297523,128,0,297849:0:0:0:0:
182,192,297523,128,0,297849:0:0:0:0:
402,192,297740,1,0,0:0:0:0:
475,192,297740,1,4,0:0:0:0:
475,192,297849,1,4,0:0:0:0:
402,192,297849,1,0,0:0:0:0:
182,192,297957,128,0,298284:0:0:0:0:
109,192,297957,128,0,298284:0:0:0:0:
256,192,297957,128,0,298284:0:0:0:0:
402,192,297957,1,4,0:0:0:0:
475,192,297957,1,0,0:0:0:0:
329,192,297957,1,0,0:0:0:0:
329,192,298175,1,0,0:0:0:0:
402,192,298175,1,0,0:0:0:0:
475,192,298175,1,8,0:0:0:0:
36,192,298392,128,0,298610:0:0:0:0:
329,192,298392,128,0,298610:0:0:0:0:
182,192,298392,128,0,298610:0:0:0:0:
475,192,298392,1,4,0:0:0:0:
402,192,298392,1,0,0:0:0:0:
475,192,298610,128,0,299914:0:0:0:0:
109,192,298610,1,4,0:0:0:0:
256,192,298610,1,0,0:0:0:0:
182,192,298718,1,4,0:0:0:0:
329,192,298718,1,0,0:0:0:0:
402,192,298827,128,0,299697:0:0:0:0:
109,192,298827,1,4,0:0:0:0:
256,192,298827,1,0,0:0:0:0:
329,192,299044,128,0,299479:0:0:0:0:
36,192,299044,1,8,0:0:0:0:
109,192,299044,1,0,0:0:0:0:
182,192,299044,1,0,0:0:0:0:
256,192,299262,128,0,299697:0:0:0:0:
109,192,299262,1,0,0:0:0:0:
36,192,299262,1,4,0:0:0:0:
109,192,299479,1,0,0:0:0:0:
36,192,299479,1,4,0:0:0:0:
109,192,299588,1,0,0:0:0:0:
36,192,299588,1,4,0:0:0:0:
329,192,299697,128,0,300131:0:0:0:0:
36,192,299697,1,4,0:0:0:0:
109,192,299697,1,0,0:0:0:0:
182,192,299697,1,0,0:0:0:0:
402,192,299914,128,0,300349:0:0:0:0:
182,192,299914,1,0,0:0:0:0:
256,192,299914,1,0,0:0:0:0:
36,192,299914,1,8,0:0:0:0:
109,192,299914,128,0,300131:0:0:0:0:
475,192,300131,128,0,301327:0:0:0:0:
182,192,300131,128,0,300566:0:0:0:0:
256,192,300349,1,0,0:0:0:0:
36,192,300349,1,4,0:0:0:0:
402,192,300566,128,0,301327:0:0:0:0:
36,192,300566,1,4,0:0:0:0:
109,192,300566,1,0,0:0:0:0:
256,192,300675,1,4,0:0:0:0:
329,192,300675,1,0,0:0:0:0:
182,192,300784,1,8,0:0:0:0:
109,192,300784,1,0,0:0:0:0:
36,192,300784,1,0,0:0:0:0:
329,192,301001,128,0,301327:0:0:0:0:
109,192,301001,1,0,0:0:0:0:
182,192,301001,1,0,0:0:0:0:
36,192,301001,1,4,0:0:0:0:
109,192,301110,1,0,0:0:0:0:
182,192,301110,1,0,0:0:0:0:
36,192,301110,1,8,0:0:0:0:
256,192,301218,1,4,0:0:0:0:
109,192,301327,1,4,0:0:0:0:
36,192,301327,1,0,0:0:0:0:
36,192,301436,128,0,302088:0:0:0:0:
475,192,301436,128,0,301979:0:0:0:0:
329,192,301436,128,0,301653:0:0:0:0:
402,192,301436,128,0,301653:0:0:0:0:
182,192,301436,1,4,0:0:0:0:
256,192,301436,1,0,0:0:0:0:
109,192,301653,1,8,0:0:0:0:
182,192,301653,1,0,0:0:0:0:
256,192,301653,1,0,0:0:0:0:
109,192,301871,128,0,302088:0:0:0:0:
182,192,301871,128,0,302088:0:0:0:0:
329,192,301871,1,4,0:0:0:0:
402,192,301871,1,0,0:0:0:0:
256,192,302088,1,0,0:0:0:70:cymbol.wav
329,192,302088,1,4,0:0:0:0:
402,192,302088,1,0,0:0:0:0:
475,192,302088,1,0,0:0:0:0:
109,192,302305,1,0,0:0:0:0:
182,192,302305,1,4,0:0:0:0:
329,192,302523,1,8,0:0:0:0:
402,192,302523,1,0,0:0:0:0:
475,192,302523,1,0,0:0:0:0:
36,192,302523,128,0,303066:0:0:0:0:
402,192,302740,128,0,303175:0:0:0:0:
475,192,302740,128,0,303175:0:0:0:0:
329,192,302740,1,4,0:0:0:0:
109,192,302740,1,0,0:0:0:0:
182,192,302957,1,4,0:0:0:0:
109,192,302957,1,0,0:0:0:0:
329,192,303066,1,0,0:0:0:0:
256,192,303066,1,4,0:0:0:0:
182,192,303175,1,4,0:0:0:0:
109,192,303175,1,0,0:0:0:0:
36,192,303175,128,0,303827:0:0:0:0:
402,192,303392,128,0,303827:0:0:0:0:
109,192,303392,1,0,0:0:0:0:
329,192,303392,1,0,0:0:0:0:
256,192,303392,1,8,0:0:0:0:
329,192,303610,128,0,303827:0:0:0:0:
256,192,303610,1,0,0:0:0:0:
182,192,303610,1,4,0:0:0:0:
182,192,303827,1,4,0:0:0:0:
109,192,303827,1,0,0:0:0:0:
475,192,303827,128,0,304262:0:0:0:0:
182,192,304044,128,0,304479:0:0:0:0:
36,192,304044,1,0,0:0:0:0:
109,192,304044,1,4,0:0:0:0:
329,192,304153,1,0,0:0:0:0:
256,192,304153,1,4,0:0:0:0:
402,192,304262,128,0,304479:0:0:0:0:
36,192,304262,1,0,0:0:0:0:
109,192,304262,1,8,0:0:0:0:
475,192,304479,128,0,305131:0:0:0:0:
36,192,304479,128,0,305131:0:0:0:0:
109,192,304479,1,0,0:0:0:0:
329,192,304479,1,0,0:0:0:0:
256,192,304479,1,8,0:0:0:0:
182,192,304697,1,4,0:0:0:0:
329,192,304697,1,0,0:0:0:0:
256,192,304805,1,4,0:0:0:0:
329,192,304914,128,0,305131:0:0:0:0:
402,192,304914,128,0,305131:0:0:0:0:
109,192,304914,1,4,0:0:0:0:
182,192,304914,1,0,0:0:0:0:
109,192,305131,1,4,0:0:0:0:
256,192,305131,1,0,0:0:0:0:
182,192,305131,128,0,305349:0:0:0:0:
109,192,305349,128,0,305566:0:0:0:0:
475,192,305349,128,0,305566:0:0:0:0:
402,192,305349,1,0,0:0:0:0:
329,192,305349,1,4,0:0:0:0:
329,192,305566,1,4,0:0:0:0:
182,192,305566,1,0,0:0:0:0:
36,192,305566,128,0,305784:0:0:0:0:
402,192,305675,1,4,0:0:0:0:
256,192,305675,1,0,0:0:0:0:
329,192,305784,1,0,0:0:0:0:
475,192,305784,1,4,0:0:0:0:
109,192,305784,128,0,306218:0:0:0:0:
182,192,305784,128,0,306218:0:0:0:0:
402,192,306001,128,0,306436:0:0:0:0:
329,192,306001,128,0,306436:0:0:0:0:
256,192,306001,1,8,0:0:0:0:
475,192,306001,1,0,0:0:0:0:
36,192,306218,128,0,306871:0:0:0:0:
475,192,306218,128,0,306871:0:0:0:0:
182,192,306436,1,4,0:0:0:0:
109,192,306436,1,0,0:0:0:0:
256,192,306544,1,4,0:0:0:0:
402,192,306653,128,0,306871:0:0:0:0:
109,192,306653,128,0,306871:0:0:0:0:
329,192,306653,1,0,0:0:0:0:
182,192,306653,1,4,0:0:0:0:
182,192,306871,128,0,307305:0:0:0:0:
256,192,306871,1,8,0:0:0:0:
329,192,306871,1,0,0:0:0:0:
109,192,307088,1,0,0:0:0:70:cymbol.wav
36,192,307088,1,4,0:0:0:0:
402,192,307088,1,0,0:0:0:0:
475,192,307088,1,0,0:0:0:0:
329,192,307088,128,0,307305:0:0:0:0:
256,192,307305,128,0,307740:0:0:0:0:
402,192,307523,128,0,307740:0:0:0:0:
36,192,307523,1,4,0:0:0:0:
109,192,307523,1,0,0:0:0:0:
329,192,307740,128,0,308175:0:0:0:0:
182,192,307740,1,0,0:0:0:0:
475,192,307740,1,0,0:0:0:0:
36,192,307740,1,4,0:0:0:0:
109,192,307740,1,0,0:0:0:70:cymbol.wav
402,192,307957,128,0,308392:0:0:0:0:
36,192,307957,1,4,0:0:0:0:
109,192,307957,1,0,0:0:0:0:
182,192,308066,1,0,0:0:0:0:
256,192,308066,1,0,0:0:0:0:
475,192,308175,128,0,308610:0:0:0:0:
36,192,308175,1,4,0:0:0:0:
109,192,308175,1,0,0:0:0:0:
182,192,308284,1,0,0:0:0:0:
256,192,308284,1,0,0:0:0:0:
329,192,308392,128,0,308936:0:0:0:0:
36,192,308392,1,4,0:0:0:0:
109,192,308392,1,0,0:0:0:0:
402,192,308610,128,0,308936:0:0:0:0:
36,192,308610,1,4,0:0:0:0:
109,192,308610,1,0,0:0:0:0:
256,192,308718,1,0,0:0:0:0:
182,192,308718,1,0,0:0:0:0:
475,192,308827,128,0,308936:0:0:0:0:
36,192,308827,1,4,0:0:0:0:
109,192,308827,1,0,0:0:0:0:
256,192,308936,1,0,0:0:0:0:
182,192,308936,1,0,0:0:0:0:
36,192,309044,1,4,0:0:0:0:
109,192,309044,1,0,0:0:0:70:cymbol.wav
329,192,309044,1,0,0:0:0:0:
402,192,309044,1,0,0:0:0:0:
475,192,309044,128,0,310349:0:0:0:0:
36,192,309479,1,8,0:0:0:0:
109,192,309479,1,0,0:0:0:0:
182,192,309479,1,0,0:0:0:0:
256,192,309697,1,4,0:0:0:0:
329,192,309697,1,0,0:0:0:0:
402,192,309697,128,0,310349:0:0:0:0:
36,192,309914,1,0,0:0:0:0:
182,192,309914,1,4,0:0:0:0:
109,192,310023,1,0,0:0:0:0:
256,192,310023,1,4,0:0:0:0:
182,192,310131,1,4,0:0:0:0:
329,192,310131,1,0,0:0:0:0:
329,192,310349,128,0,311653:0:0:0:0:
36,192,310349,1,8,0:0:0:0:
182,192,310349,1,0,0:0:0:0:
109,192,310349,1,0,0:0:0:0:
402,192,310566,128,0,310784:0:0:0:70:hihat.wav
475,192,310566,128,0,310784:0:0:0:0:
36,192,310784,1,4,0:0:0:0:
109,192,310784,1,0,0:0:0:0:
475,192,311001,128,0,311653:0:0:0:0:
36,192,311001,1,4,0:0:0:0:
182,192,311001,1,0,0:0:0:0:
109,192,311110,1,4,0:0:0:0:
256,192,311110,1,0,0:0:0:0:
36,192,311218,1,8,0:0:0:0:
182,192,311218,1,0,0:0:0:0:
402,192,311218,1,0,0:0:0:0:
109,192,311436,128,0,311653:0:0:0:0:
36,192,311436,128,0,311653:0:0:0:70:hihat.wav
182,192,311653,128,0,311871:0:0:0:0:
329,192,311871,128,0,312305:0:0:0:0:
256,192,311871,1,0,0:0:0:70:hihat.wav
402,192,311871,1,0,0:0:0:0:
475,192,311871,1,4,0:0:0:0:
182,192,312088,128,0,312523:0:0:0:0:
36,192,312088,1,8,0:0:0:0:
109,192,312088,1,0,0:0:0:0:
475,192,312088,1,0,0:0:0:0:
402,192,312305,128,0,312523:0:0:0:70:hihat.wav
475,192,312305,128,0,312523:0:0:0:0:
36,192,312523,128,0,313610:0:0:0:0:
109,192,312523,1,4,0:0:0:0:
329,192,312523,1,0,0:0:0:0:
182,192,312631,1,4,0:0:0:0:
402,192,312631,1,0,0:0:0:0:
475,192,312740,1,0,0:0:0:0:
256,192,312740,1,4,0:0:0:0:
329,192,312957,1,8,0:0:0:0:
402,192,312957,1,0,0:0:0:0:
475,192,312957,1,0,0:0:0:0:
109,192,313175,128,0,313610:0:0:0:0:
256,192,313175,1,4,0:0:0:0:
182,192,313175,1,0,0:0:0:0:
402,192,313392,1,4,0:0:0:0:
475,192,313392,1,0,0:0:0:0:
329,192,313501,1,4,0:0:0:0:
256,192,313501,1,0,0:0:0:0:
182,192,313610,128,0,314479:0:0:0:0:
402,192,313610,128,0,313827:0:0:0:70:hihat.wav
475,192,313610,128,0,313827:0:0:0:0:
36,192,313827,1,0,0:0:0:0:
109,192,313827,1,0,0:0:0:0:
329,192,313827,1,8,0:0:0:0:
402,192,313936,1,4,0:0:0:0:
475,192,313936,1,0,0:0:0:0:
36,192,314044,128,0,314479:0:0:0:0:
109,192,314044,1,0,0:0:0:0:
256,192,314044,1,4,0:0:0:0:
329,192,314153,1,4,0:0:0:0:
402,192,314262,1,4,0:0:0:0:
475,192,314262,1,0,0:0:0:0:
329,192,314479,1,4,0:0:0:0:
475,192,314479,1,0,0:0:0:0:
109,192,314479,128,0,314914:0:0:0:0:
402,192,314588,1,0,0:0:0:0:
256,192,314588,1,4,0:0:0:0:
182,192,314697,1,8,0:0:0:0:
329,192,314697,1,0,0:0:0:0:
36,192,314697,1,0,0:0:0:0:
182,192,314914,128,0,315784:0:0:0:0:
402,192,314914,128,0,315131:0:0:0:70:hihat.wav
475,192,314914,128,0,315131:0:0:0:0:
256,192,315023,1,4,0:0:0:0:
329,192,315023,1,0,0:0:0:0:
109,192,315131,1,4,0:0:0:0:
36,192,315131,1,0,0:0:0:0:
329,192,315240,1,0,0:0:0:0:
256,192,315240,1,4,0:0:0:0:
402,192,315349,128,0,315566:0:0:0:70:hihat.wav
475,192,315349,128,0,315566:0:0:0:0:
36,192,315349,128,0,316001:0:0:0:0:
109,192,315566,1,0,0:0:0:0:
329,192,315566,1,8,0:0:0:0:
256,192,315566,1,0,0:0:0:0:
475,192,315784,1,4,0:0:0:0:
402,192,315784,1,0,0:0:0:0:
109,192,315784,128,0,316001:0:0:0:70:hihat.wav
475,192,315892,1,4,0:0:0:0:
402,192,315892,1,0,0:0:0:0:
182,192,316001,1,0,0:0:0:0:
402,192,316001,1,0,0:0:0:0:
475,192,316001,1,4,0:0:0:0:
329,192,316001,1,0,0:0:0:70:cymbol.wav
256,192,316001,128,0,317305:0:0:0:0:
36,192,316436,1,8,0:0:0:0:
109,192,316436,1,0,0:0:0:0:
182,192,316436,1,0,0:0:0:0:
182,192,316653,128,0,317305:0:0:0:0:
402,192,316653,1,4,0:0:0:0:
475,192,316653,1,0,0:0:0:0:
36,192,316871,1,4,0:0:0:0:
109,192,316871,1,0,0:0:0:0:
402,192,316979,1,4,0:0:0:0:
475,192,316979,1,0,0:0:0:0:
36,192,317088,1,4,0:0:0:0:
109,192,317088,1,0,0:0:0:0:
329,192,317305,128,0,318610:0:0:0:0:
36,192,317305,1,0,0:0:0:0:
475,192,317305,1,8,0:0:0:0:
402,192,317305,1,0,0:0:0:0:
109,192,317523,128,0,317740:0:0:0:0:
182,192,317523,128,0,317740:0:0:0:70:hihat.wav
402,192,317740,1,0,0:0:0:0:
475,192,317740,1,4,0:0:0:0:
182,192,317957,128,0,318610:0:0:0:0:
36,192,317957,1,0,0:0:0:0:
109,192,317957,1,4,0:0:0:0:
402,192,318066,1,4,0:0:0:0:
475,192,318066,1,0,0:0:0:0:
256,192,318175,1,8,0:0:0:0:
109,192,318175,1,0,0:0:0:0:
36,192,318175,1,0,0:0:0:0:
36,192,318392,128,0,318610:0:0:0:70:hihat.wav
402,192,318392,1,4,0:0:0:0:
475,192,318392,1,0,0:0:0:0:
475,192,318610,128,0,319044:0:0:0:0:
402,192,318610,1,0,0:0:0:0:
256,192,318610,1,4,0:0:0:0:
182,192,318718,1,4,0:0:0:0:
402,192,318827,128,0,319044:0:0:0:0:
329,192,318827,128,0,319044:0:0:0:70:hihat.wav
256,192,318827,128,0,319262:0:0:0:0:
109,192,318827,1,4,0:0:0:0:
36,192,318827,1,0,0:0:0:0:
182,192,319044,128,0,319479:0:0:0:0:
109,192,319044,1,0,0:0:0:0:
36,192,319044,1,8,0:0:0:0:
475,192,319262,128,0,319479:0:0:0:0:
329,192,319262,128,0,319479:0:0:0:70:hihat.wav
36,192,319262,1,4,0:0:0:0:
402,192,319262,1,0,0:0:0:0:
109,192,319479,1,4,0:0:0:0:
36,192,319479,1,0,0:0:0:0:
329,192,319697,1,0,0:0:0:0:
402,192,319697,1,0,0:0:0:0:
475,192,319697,1,8,0:0:0:0:
329,192,319914,1,0,0:0:0:0:
402,192,319914,1,0,0:0:0:0:
475,192,319914,1,8,0:0:0:0:
36,192,320131,1,0,0:0:0:0:
256,192,320131,1,4,0:0:0:0:
109,192,320240,1,0,0:0:0:0:
329,192,320240,1,4,0:0:0:0:
182,192,320349,1,0,0:0:0:0:
402,192,320349,1,8,0:0:0:0:
475,192,320349,1,0,0:0:0:0:
256,192,320566,1,8,0:0:0:0:
36,192,320566,128,0,320784:0:0:0:0:
475,192,320566,128,0,320784:0:0:0:70:hihat.wav
329,192,320566,1,4,0:0:0:0:
182,192,320566,1,0,0:0:0:0:
109,192,320784,1,0,0:0:0:0:
402,192,320784,1,4,0:0:0:0:
182,192,321001,128,0,321436:0:0:0:0:
329,192,321001,128,0,321436:0:0:0:0:
475,192,321001,128,0,321762:0:0:0:0:
36,192,321001,128,0,321871:0:0:0:0:
109,192,321001,1,0,0:0:0:70:cymbol.wav
402,192,321001,1,4,0:0:0:0:
256,192,321218,1,0,0:0:0:0:
256,192,321436,128,4,321653:0:0:0:0:
109,192,321653,128,0,321871:0:0:0:0:
402,192,321653,128,0,321762:0:0:0:70:cymbol.wav
329,192,321653,1,12,0:0:0:0:
182,192,321653,1,0,0:0:0:0:
402,192,321871,1,4,0:0:0:0:
475,192,321871,1,0,0:0:0:0:
256,192,321871,128,0,322631:0:0:0:0:
36,192,321979,1,0,0:0:0:0:
109,192,321979,1,8,0:0:0:0:
182,192,321979,1,0,0:0:0:0:
402,192,322088,1,4,0:0:0:0:
475,192,322088,1,0,0:0:0:0:
182,192,322197,1,0,0:0:0:0:
109,192,322197,1,8,0:0:0:0:
36,192,322197,1,0,0:0:0:0:
329,192,322305,1,4,0:0:0:0:
402,192,322305,1,0,0:0:0:0:
182,192,322523,1,0,0:0:0:0:
109,192,322523,1,0,0:0:0:0:
36,192,322523,1,8,0:0:0:0:
182,192,322631,1,0,0:0:0:0:
109,192,322631,1,0,0:0:0:0:
36,192,322631,1,8,0:0:0:0:
402,192,322740,128,0,322885:0:0:0:0:
475,192,322740,1,4,0:0:0:0:
329,192,322813,128,0,322957:0:0:0:0:
256,192,322885,128,0,323030:0:0:0:0:
36,192,322957,128,0,331653:0:0:0:70:cymbol.wav
182,192,322957,128,4,323175:0:0:0:0:
475,192,322957,128,0,331653:0:0:0:70:01.wav
109,192,323175,128,0,323392:0:0:0:0:
402,192,323392,128,0,323610:0:0:0:0:
329,192,323610,128,0,323827:0:0:0:0:
109,192,323827,128,0,324044:0:0:0:0:
256,192,324044,128,0,324262:0:0:0:0:
109,192,324262,128,0,325131:0:0:0:0:
182,192,324479,128,0,325131:0:0:0:0:
256,192,324697,128,0,325131:0:0:0:0:
402,192,325131,128,0,325349:0:0:0:0:
329,192,325349,128,0,325566:0:0:0:0:
256,192,325566,128,0,325784:0:0:0:0:
109,192,325784,128,0,326001:0:0:0:0:
182,192,326001,128,0,326218:0:0:0:0:
256,192,326218,128,0,326436:0:0:0:0:
402,192,326436,128,0,326653:0:0:0:0:
329,192,326653,128,0,326871:0:0:0:0:
256,192,326871,128,0,327088:0:0:0:0:
109,192,327088,128,0,327305:0:0:0:0:
182,192,327305,128,0,327523:0:0:0:0:
256,192,327523,128,0,327740:0:0:0:0:
402,192,327740,128,0,331653:0:0:0:0:
109,192,327957,128,0,331653:0:0:0:0:
