osu file format v14

[General]
AudioFilename: innocent.mp3
AudioLeadIn: 0
PreviewTime: 78714
Countdown: 0
SampleSet: Soft
StackLeniency: 0.7
Mode: 0
LetterboxInBreaks: 0
WidescreenStoryboard: 0

[Editor]
DistanceSpacing: 1
BeatDivisor: 4
GridSize: 4
TimelineZoom: 2

[Metadata]
Title:Innocent Eyes
TitleUnicode:Innocent Eyes
Artist:FELT
ArtistUnicode:FELT
Creator:Yohanes
Version:Lunatic
Source:東方地霊殿 ~ Subterranean Animism.
Tags:東方project Touhou Toho Stand Up Rebirth Story II 2 舞花 Maika 古明地 さとり Satori Maiden Komeji Stand Up 3rd Eye Japanese Rock J-Rock video game Naitoshi PandaHero Bor yaldo_27 blacksocks [alt][F4] pyroflayer borborygmos _83 102335 HalfsIashed Meat Inspector big fan Irresistible I love apples Lego man In your heart type 1 if cute free hong kong anna apple
BeatmapID:1826868
BeatmapSetID:874026

[Difficulty]
HPDrainRate:7
CircleSize:4.2
OverallDifficulty:8
ApproachRate:9
SliderMultiplier:1.8
SliderTickRate:1

[Events]
//Background and Video events
0,0,"BG.jpg",0,0
//Break Periods
2,188234,192767
//Storyboard Layer 0 (Background)
//Storyboard Layer 1 (Fail)
//Storyboard Layer 2 (Pass)
//Storyboard Layer 3 (Foreground)
//Storyboard Layer 4 (Overlay)
//Storyboard Sound Samples

[TimingPoints]
56,333.292597571408,4,2,1,80,1,0
11888,333.292597571408,4,2,1,80,1,0
22720,333.292597571408,4,2,1,80,1,0
22720,-200,4,2,1,60,0,0
23719,-142.857142857143,4,2,1,60,0,0
44052,333.293333333333,4,2,1,80,1,0
44052,-100,4,2,1,80,0,0
46551,-100,4,2,1,60,0,0
46718,-100,4,2,1,80,0,0
49218,-100,4,2,1,60,0,0
49384,-100,4,2,1,80,0,0
54550,-100,4,2,1,60,0,0
54717,-100,4,2,1,80,0,0
57217,-100,4,2,1,60,0,0
57383,-100,4,2,1,80,0,0
68382,-100,4,2,1,60,0,0
68549,-100,4,2,1,80,0,0
70715,-125,4,2,1,80,0,0
79047,-100,4,2,1,80,0,0
79214,-100,4,2,1,80,0,0
79547,-200,4,2,1,80,0,0
79881,-100,4,2,1,80,0,1
85130,-100,4,2,1,80,0,0
85213,-100,4,2,1,80,0,1
90463,-100,4,2,1,80,0,0
90546,-100,4,2,1,80,0,1
95879,-100,4,2,1,60,0,1
96045,-125,4,2,1,80,0,1
101378,-100,4,2,1,80,0,0
105711,-100,4,2,1,60,0,0
106711,-142.857142857143,4,2,1,50,0,0
107960,-142.857142857143,4,2,1,5,0,0
108044,-142.857142857143,4,2,1,38,0,0
108294,-142.857142857143,4,2,1,5,0,0
108377,-142.857142857143,4,2,1,38,0,0
108627,-142.857142857143,4,2,1,5,0,0
108710,-142.857142857143,4,2,1,38,0,0
108960,-142.857142857143,4,2,1,5,0,0
109044,-142.857142857143,4,2,1,38,0,0
109294,-142.857142857143,4,2,1,5,0,0
109377,-142.857142857143,4,2,1,38,0,0
125375,-142.857142857143,4,2,1,48,0,0
127541,-100,4,2,1,58,0,0
127708,-100,4,2,2,68,0,0
128041,-100,4,2,1,70,0,0
132041,-100,4,2,2,60,0,0
132208,-100,4,2,1,70,0,0
133374,-125,4,2,1,70,0,0
141373,-100,4,2,1,70,0,0
141706,-100,4,2,1,70,0,0
142206,-200,4,2,1,70,0,0
142540,-100,4,2,1,80,0,1
147789,-100,4,2,1,80,0,0
147872,-100,4,2,1,80,0,1
153122,-100,4,2,1,80,0,0
153205,-100,4,2,1,80,0,1
158538,-100,4,2,1,60,0,1
158704,-125,4,2,1,80,0,1
163954,-100,4,2,1,80,0,0
164037,-100,4,2,1,80,0,1
164120,-100,4,2,1,80,0,0
174702,-100,4,2,1,80,0,1
174786,-100,4,2,1,80,0,0
175036,-100,4,2,1,80,0,0
175536,-100,4,2,1,80,0,0
175869,-100,4,2,1,80,0,0
176369,-100,4,2,1,80,0,0
177036,-100,4,2,2,80,0,0
177202,-100,4,2,1,80,0,0
177369,-100,4,2,1,80,0,1
177452,-100,4,2,1,80,0,0
177869,-100,4,2,1,80,0,0
178202,-100,4,2,1,80,0,0
178535,-100,4,2,1,80,0,1
178619,-100,4,2,1,80,0,0
179035,-100,4,2,1,80,0,0
179369,-100,4,2,1,80,0,0
179702,-100,4,2,2,80,0,0
179869,-100,4,2,1,80,0,0
180035,-125,4,2,1,80,0,0
182702,-100,4,2,1,80,0,0
186534,-100,4,2,2,80,0,0
186701,-100,4,2,1,80,0,0
188034,-100,4,2,1,20,0,0
193200,-142.857142857143,4,2,1,60,0,0
198533,-100,4,2,1,80,0,1
204032,-125,4,2,1,80,0,1
206615,-100,4,2,1,80,0,0
206699,-100,4,2,1,80,0,1
207699,-100,4,2,1,80,0,1
209198,-100,4,2,1,80,0,1
209365,-100,4,2,1,80,0,0
220030,-125,4,2,1,80,0,1
220114,-125,4,2,1,60,0,0
222697,-125,4,1,2,60,0,0
222780,-125,4,2,1,60,0,0
225363,-100,4,2,1,70,0,0
229196,335.195530726257,4,2,1,70,1,0
229196,-100,4,2,1,80,0,1
229279,-100,4,2,1,70,0,0
229363,335.195530726257,4,2,1,70,1,0
230200,363.636363636364,4,2,1,70,1,0
238927,-100,4,2,1,5,0,0

[Colours]
Combo1 : 255,94,55
Combo2 : 173,255,95
Combo3 : 17,254,176
Combo4 : 255,88,100

[HitObjects]
120,70,11554,5,8,0:0:0:0:
120,70,11888,2,0,P|202:59|301:81,1,180,6|0,0:1|0:0,0:0:0:0:
390,130,12387,2,0,P|401:85|385:28,1,90,8|0,0:0|0:0,0:0:0:0:
291,187,12721,1,2,1:2:0:0:
291,187,12887,2,0,P|336:210|382:244,1,90
264,328,13221,6,0,P|180:320|76:328,1,180,8|0,0:0|0:0,0:0:0:0:
44,245,13721,2,0,P|66:284|84:326,1,90,8|0,0:0|0:0,0:0:0:0:
28,156,14054,1,0,0:0:0:0:
158,238,14221,2,0,P|141:197|119:158,1,90
16,60,14554,6,0,P|96:52|120:56,1,90,2|0,0:0|0:0,0:0:0:0:
256,124,14887,1,0,0:0:0:0:
372,16,15054,2,0,L|352:112,1,90,8|0,0:0|0:0,0:0:0:0:
296,220,15387,2,0,L|256:28,1,180,2|0,1:2|0:0,0:0:0:0:
104,168,15887,6,0,P|164:180|192:196,1,90,8|0,0:0|0:0,0:0:0:0:
161,334,16220,2,0,P|146:291|120:256,1,90,2|0,1:2|0:0,0:0:0:0:
284,192,16554,2,0,P|266:233|237:267,1,90,2|0,1:2|0:0,0:0:0:0:
230,115,16887,1,2,1:2:0:0:
353,104,17054,1,8,0:0:0:0:
452,176,17220,6,0,P|464:96|444:-4,1,180,4|0,0:1|0:0,0:0:0:0:
360,244,17720,2,0,L|460:276,1,90,8|0,0:0|0:0,0:0:0:0:
353,104,18053,2,0,L|253:136,1,90,2|0,1:2|0:0,0:0:0:0:
452,176,18387,1,0,0:0:0:0:
296,24,18553,6,0,L|92:40,1,180,8|0,0:0|0:0,0:0:0:0:
9,207,19053,2,0,L|213:191,1,180,8|0,0:0|0:0,0:0:0:0:
440,292,19553,1,0,0:0:0:0:
344,316,19720,1,0,0:0:0:0:
267,254,19887,6,0,P|249:295|248:340,1,90,0|0,1:0|0:0,0:0:0:0:
430,183,20220,1,0,0:0:0:0:
430,183,20386,2,0,P|370:208|332:206,1,90,8|0,0:0|0:0,0:0:0:0:
204,104,20720,2,0,P|255:142|273:176,1,90,2|0,1:2|0:0,0:0:0:0:
365,31,21053,1,0,0:0:0:0:
365,31,21220,6,0,P|357:94|337:126,1,90,8|0,0:0|0:0,0:0:0:0:
188,192,21553,1,4,0:3:0:0:
344,316,21720,1,4,0:3:0:0:
345,116,21886,1,4,0:3:0:0:
172,288,22053,2,0,P|192:332|224:364,1,90,4|0,0:3|0:0,0:0:0:0:
404,208,22386,2,0,L|300:224,1,90,8|0,0:0|0:0,0:0:0:0:
102,338,22720,6,0,P|78:258|83:150,1,180,4|0,0:1|0:0,0:0:0:0:
81,163,23719,6,0,L|65:83,1,62.9999980773926
104,28,24053,2,0,L|184:12,1,62.9999980773926,0|4,0:0|0:3,0:0:0:0:
214,185,24386,2,0,L|153:198,1,62.9999980773926,8|0,0:0|0:0,0:0:0:0:
239,51,24719,2,0,L|251:112,1,62.9999980773926,0|8,1:0|0:3,0:0:0:0:
307,242,25053,2,0,L|294:180,1,62.9999980773926,0|2,0:0|3:0,0:0:0:0:
344,24,25386,6,0,L|368:147,1,125.999996154785,4|8,1:2|0:0,0:0:0:0:
294,180,25886,1,2,0:3:0:0:
251,112,26052,2,0,P|203:80|117:88,1,125.999996154785,8|0,0:0|0:0,0:0:0:0:
152,198,26552,1,4,0:3:0:0:
220,252,26719,2,0,P|272:268|352:252,1,125.999996154785,0|8,0:0|0:0,0:0:0:0:
456,172,27219,1,8,0:0:0:0:
324,114,27386,1,2,1:3:0:0:
428,352,27719,5,0,3:0:0:0:
504,316,27886,1,4,0:3:0:0:
408,212,28052,2,0,L|424:68,1,125.999996154785,4|0,0:1|0:0,0:0:0:0:
264,145,28719,2,0,P|240:68|120:72,1,188.999994232178,0|4,1:0|0:3,0:0:0:0:
72,96,29385,5,0,0:0:0:0:
108,216,29552,1,4,0:3:0:0:
108,216,29635,1,0,0:0:0:0:
108,216,29719,1,8,0:0:0:0:
52,280,29885,1,0,0:0:0:0:
24,192,30052,1,0,1:0:0:0:
192,228,30219,2,0,P|170:270|144:288,1,62.9999980773926,8|0,0:3|0:0,0:0:0:0:
179,144,30552,1,4,0:3:0:0:
260,180,30719,6,0,P|274:225|268:256,1,62.9999980773926,6|4,0:0|0:3,0:0:0:0:
102,351,31052,2,0,P|132:359|164:359,1,62.9999980773926,0|0,0:0|0:0,0:0:0:0:
350,348,31385,2,0,P|296:317|234:314,1,125.999996154785,0|0,1:0|0:0,0:0:0:0:
408,280,31885,1,4,0:3:0:0:
408,280,32052,6,0,L|400:192,1,62.9999980773926,0|0,0:0|0:0,0:0:0:0:
392,88,32385,1,8,0:0:0:0:
484,148,32552,1,8,0:0:0:0:
264,104,32718,1,0,1:0:0:0:
264,104,33052,2,0,P|264:152|268:176,1,62.9999980773926,8|0,0:0|0:0,0:0:0:0:
289,338,33385,5,4,0:0:0:0:
289,338,33552,2,0,B|366:268|477:288|477:288|428:262,1,251.999992309571,0|0,0:0|3:0,0:0:0:0:
266,166,34385,2,0,L|273:228,1,62.9999980773926,0|0,0:0|1:0,0:0:0:0:
196,216,34718,2,0,L|186:278,1,62.9999980773926,0|0,0:0|1:0,0:0:0:0:
115,246,35051,2,0,L|89:303,1,62.9999980773926,8|4,0:0|0:3,0:0:0:0:
56,85,35385,6,0,L|64:148,1,62.9999980773926,8|8,1:2|0:3,0:0:0:0:
142,35,35718,2,0,L|134:98,1,62.9999980773926,0|4,0:0|0:3,0:0:0:0:
215,68,36051,2,0,P|268:28|344:28,1,125.999996154785,6|0,0:0|1:0,0:0:0:0:
472,96,36551,1,0,0:0:0:0:
408,152,36718,2,0,P|346:145|297:107,1,125.999996154785,0|0,1:0|0:0,0:0:0:0:
488,172,37218,6,0,L|496:240,1,62.9999980773926,4|0,0:3|1:0,0:0:0:0:
399,364,37551,1,0,0:2:0:0:
308,296,37718,1,0,1:2:0:0:
412,252,37884,1,8,1:2:0:0:
212,188,38051,1,4,1:3:0:0:
212,188,38384,1,0,1:0:0:0:
212,188,38718,6,0,P|216:124|208:44,1,125.999996154785,4|0,0:1|0:0,0:0:0:0:
92,28,39217,2,0,P|88:92|96:172,2,125.999996154785,0|4|4,0:0|0:3|0:3,0:0:0:0:
176,268,40217,6,0,L|144:292,2,31.4999990386963,0|0|8,0:0|0:0|0:0,0:0:0:0:
248,212,40551,1,0,0:0:0:0:
248,212,40634,1,0,0:0:0:0:
248,212,40717,2,0,L|212:156,1,62.9999980773926,0|8,1:0|0:3,0:0:0:0:
372,216,41051,1,0,0:0:0:0:
336,128,41217,1,4,0:3:0:0:
372,216,41384,6,0,P|364:276|328:340,1,125.999996154785,6|0,0:0|1:0,0:0:0:0:
248,360,41884,2,0,L|164:348,1,62.9999980773926,0|0,0:0|1:0,0:0:0:0:
248,212,42217,2,0,P|264:260|264:288,1,62.9999980773926,0|0,1:0|0:0,0:0:0:0:
75,267,42550,2,0,L|90:122,1,125.999996154785,4|4,0:3|0:3,0:0:0:0:
88,142,43050,6,0,P|68:104|48:88,1,62.9999980773926,8|0,0:0|0:0,0:0:0:0:
218,88,43384,2,0,P|210:118|192:144,1,62.9999980773926,8|0,0:0|0:0,0:0:0:0:
140,24,43717,1,0,0:0:0:0:
384,104,43884,1,4,0:3:0:0:
307,16,44052,6,0,P|299:100|319:200,1,180,4|8,0:0|0:0,0:0:0:0:
227,265,44551,2,0,P|235:181|215:81,1,180,0|0,0:0|1:0,0:0:0:0:
64,40,45051,2,0,P|132:44|168:32,1,90,0|12,0:0|0:0,0:0:0:0:
406,191,45385,2,0,P|338:187|302:199,1,90,0|0,0:0|0:0,0:0:0:0:
84,212,45718,5,8,0:0:0:0:
168,252,45885,1,0,0:0:0:0:
161,160,46051,1,0,0:0:0:0:
6,271,46218,2,0,P|40:301|100:309,1,90,0|0,1:0|0:0,0:0:0:0:
77,120,46551,1,4,0:0:0:0:
0,172,46718,1,4,0:1:0:0:
168,252,46884,6,0,P|224:256|264:252,1,90,0|8,0:0|0:0,0:0:0:0:
336,192,47218,1,2,0:0:0:0:
347,284,47384,2,0,P|318:318|284:348,1,90,2|0,0:0|1:0,0:0:0:0:
212,120,47718,1,0,0:0:0:0:
302,141,47884,1,8,0:0:0:0:
388,107,48051,1,0,0:0:0:0:
452,32,48218,6,0,P|480:76|444:192,1,180,2|2,1:2|1:2,0:0:0:0:
302,141,48718,2,0,P|345:131|385:110,1,90
212,120,49051,2,0,P|168:129|129:151,1,90,8|4,0:0|0:0,0:0:0:0:
308,292,49384,6,0,P|296:240|164:232,1,180,4|8,0:1|0:0,0:0:0:0:
104,256,49884,1,0,0:0:0:0:
32,200,50051,2,0,P|28:148|44:104,2,90,2|0|0,1:2|1:0|0:0,0:0:0:0:
180,336,50551,6,0,P|124:308|-12:296,1,180,8|0,0:0|0:0,0:0:0:0:
280,324,51051,2,0,P|236:278|113:220,1,180,8|0,0:0|0:0,0:0:0:0:
378,346,51551,2,0,P|353:288|256:191,1,180,0|2,0:0|1:2,0:0:0:0:
192,148,52051,5,0,0:0:0:0:
340,140,52217,2,0,L|304:40,1,90,0|8,1:0|0:0,0:0:0:0:
184,68,52550,5,0,0:0:0:0:
424,144,52717,2,0,L|388:44,1,90,2|0,1:2|0:0,0:0:0:0:
240,8,53050,5,0,0:0:0:0:
508,148,53217,2,0,L|472:48,1,90,8|0,0:0|0:0,0:0:0:0:
328,274,53550,2,0,L|432:292,1,90,2|0,1:2|0:0,0:0:0:0:
309,55,53884,2,0,L|240:136,1,90,2|0,1:2|0:0,0:0:0:0:
188,196,54217,1,0,0:0:0:0:
477,63,54384,1,8,0:0:0:0:
477,63,54717,6,0,P|464:140|352:172,1,180,4|8,0:1|0:0,0:0:0:0:
296,132,55217,1,0,0:0:0:0:
148,32,55383,2,0,P|67:63|48:147,1,180,2|0,1:2|0:0,0:0:0:0:
208,152,55883,2,0,P|160:120|108:124,1,90,12|0,0:0|0:0,0:0:0:0:
127,301,56217,1,0,0:0:0:0:
60,240,56383,2,0,P|95:214|139:209,1,90,8|0,0:0|0:0,0:0:0:0:
300,272,56717,1,0,0:0:0:0:
388,296,56883,1,0,0:0:0:0:
452,231,57050,1,0,0:0:0:0:
426,142,57217,1,2,1:2:0:0:
276,185,57383,5,4,0:1:0:0:
434,53,57550,2,0,L|426:149,1,90,0|8,0:0|0:0,0:0:0:0:
212,120,57883,5,2,0:0:0:0:
352,16,58050,2,0,L|344:112,1,90,2|0,0:0|1:0,0:0:0:0:
300,272,58383,2,0,P|244:240|208:236,1,90,0|8,0:0|0:0,0:0:0:0:
144,356,58716,2,0,P|200:324|236:320,1,90,0|2,0:0|1:2,0:0:0:0:
309,358,59050,5,0,0:0:0:0:
128,264,59216,2,0,L|120:160,1,90,2|0,1:2|0:0,0:0:0:0:
216,8,59550,1,0,0:0:0:0:
162,84,59716,1,8,0:0:0:0:
75,56,59883,1,4,0:0:0:0:
254,94,60050,6,0,P|264:160|244:280,2,180,4|8|2,0:1|0:0|1:2,0:0:0:0:
316,20,60883,2,0,L|414:8,1,90,0|0,1:0|0:0,0:0:0:0:
171,153,61216,2,0,L|71:143,1,90,8|0,0:0|0:0,0:0:0:0:
232,16,61549,5,0,0:0:0:0:
376,104,61716,2,0,P|352:164|240:212,1,180,8|0,0:0|0:0,0:0:0:0:
47,261,62216,2,0,P|71:201|183:153,1,180,0|2,0:0|0:0,0:0:0:0:
360,242,62716,5,0,0:0:0:0:
260,250,62883,1,0,0:0:0:0:
244,344,63049,1,8,0:0:0:0:
344,336,63216,1,0,0:0:0:0:
376,148,63383,1,2,1:2:0:0:
276,156,63549,1,0,0:0:0:0:
452,208,63716,5,0,0:0:0:0:
260,250,63882,2,0,L|164:242,1,90,8|0,0:0|0:0,0:0:0:0:
32,160,64216,6,0,L|40:64,1,90,10|2,0:3|0:0,0:0:0:0:
39,70,64549,2,0,L|135:78,1,90,4|8,0:3|0:0,0:0:0:0:
396,60,64882,1,0,0:0:0:0:
368,152,65049,1,0,0:0:0:0:
276,184,65216,1,0,1:0:0:0:
186,148,65382,6,0,P|160:208|182:324,1,180,4|8,0:1|0:0,0:0:0:0:
305,375,65882,2,0,P|321:327|321:275,1,90,2|0,1:2|0:0,0:0:0:0:
453,271,66216,2,0,P|419:233|374:207,1,90,2|0,1:2|0:0,0:0:0:0:
436,90,66549,6,0,P|373:95|273:159,1,180,2|0,1:2|0:0,0:0:0:0:
99,184,67049,2,0,P|187:197|259:249,1,180,12|0,0:0|1:0,0:0:0:0:
60,328,67549,1,0,3:0:0:0:
0,256,67715,2,0,L|8:152,1,90,0|0,1:0|0:0,0:0:0:0:
192,40,68049,5,2,0:0:0:0:
124,104,68215,1,0,0:0:0:0:
36,76,68382,1,12,0:0:0:0:
104,13,68549,1,0,1:0:0:0:
208,128,68715,2,0,P|212:184|204:228,1,90,8|0,0:0|0:0,0:0:0:0:
352,116,69048,2,0,P|301:91|267:62,1,90,2|0,0:0|0:0,0:0:0:0:
290,246,69382,2,0,P|336:214|378:199,1,90
416,360,69715,5,4,0:1:0:0:
256,324,69882,1,0,0:0:0:0:
96,360,70048,1,0,1:0:0:0:
161,273,70215,1,8,0:0:0:0:
145,165,70382,1,0,3:0:0:0:
58,100,70548,1,0,0:0:0:0:
58,100,70632,1,0,0:0:0:0:
58,100,70715,6,0,P|144:96|200:36,1,144,4|0,0:0|0:0,0:0:0:0:
360,60,71215,1,0,0:0:0:0:
280,12,71382,2,0,L|260:160,1,144,8|2,0:0|0:0,0:0:0:0:
340,202,71881,2,0,L|360:60,1,144,0|0,0:0|0:0,0:0:0:0:
192,256,72381,6,0,P|236:236|272:236,1,72,2|0,0:0|0:0,0:0:0:0:
444,352,72715,2,0,L|368:340,1,72,8|0,0:0|0:0,0:0:0:0:
488,272,73048,2,0,L|412:260,1,72,2|0,0:0|0:0,0:0:0:0:
281,376,73381,6,0,L|257:224,1,144,4|2,0:1|0:0,0:0:0:0:
100,48,74048,2,0,L|122:190,1,144,8|2,0:0|0:0,0:0:0:0:
412,48,74714,2,0,L|389:190,1,144,0|2,0:0|0:0,0:0:0:0:
188,104,75381,5,8,0:0:0:0:
255,255,75714,1,4,0:0:0:0:
324,104,76048,1,0,0:0:0:0:
324,104,76214,6,0,P|327:60|309:21,1,72,2|0,0:0|1:0,0:0:0:0:
422,123,76548,2,0,P|407:163|374:192,1,72,8|0,0:0|0:0,0:0:0:0:
226,79,76881,6,0,P|182:75|142:91,1,72,0|0,1:0|0:0,0:0:0:0:
151,247,77214,2,0,P|165:206|199:179,1,72,8|0,0:0|0:0,0:0:0:0:
316,240,77547,5,0,0:0:0:0:
60,328,77714,1,4,1:0:0:0:
256,192,77797,12,4,78714,0:0:0:0:
144,68,79047,5,8,0:0:0:0:
140,97,79131,1,8,0:0:0:0:
135,123,79214,1,8,0:0:0:0:
130,151,79297,1,8,0:0:0:0:
125,177,79381,1,0,1:0:0:0:
236,40,79547,2,0,L|244:124,1,67.5,0|0,1:0|0:0,0:0:0:0:
224,184,79881,6,0,P|288:152|320:156,1,90,6|0,1:0|0:0,0:0:0:0:
400,172,80214,1,0,0:0:0:0:
240,320,80380,1,8,0:0:0:0:
328,360,80547,2,0,P|396:352|476:268,1,180,0|0,1:0|0:0,0:0:0:0:
480,184,81047,1,8,0:0:0:0:
360,4,81214,2,0,P|356:64|368:112,1,90,0|0,0:0|0:0,0:0:0:0:
232,232,81547,5,0,0:0:0:0:
304,152,81714,1,8,0:0:0:0:
240,64,81880,2,0,P|148:64|96:140,1,180,0|0,1:0|0:0,0:0:0:0:
128,296,82380,1,8,0:0:0:0:
32,247,82547,1,0,0:0:0:0:
129,206,82714,6,0,P|131:251|128:296,1,90,0|0,1:0|0:0,0:0:0:0:
238,153,83047,2,0,P|236:108|240:64,1,90,8|2,0:0|1:2,0:0:0:0:
420,272,83380,1,0,0:0:0:0:
316,308,83547,1,0,0:0:0:0:
212,340,83713,1,10,0:0:0:0:
352,208,83880,6,0,P|415:180|504:233,1,180,6|0,2:1|0:0,0:0:0:0:
316,308,84380,1,8,0:0:0:0:
245,236,84547,2,0,P|219:150|228:116,1,90,0|0,1:0|0:0,0:0:0:0:
352,36,84880,2,0,L|244:40,1,90,0|8,1:0|0:0,0:0:0:0:
32,136,85213,1,6,0:1:0:0:
90,218,85380,6,0,P|147:245|246:238,1,135,0|0,1:0|0:0,0:0:0:0:
245,236,85713,2,0,P|253:287|253:337,1,90,8|0,0:0|1:0,0:0:0:0:
436,172,86046,1,0,0:0:0:0:
347,275,86213,1,0,0:0:0:0:
473,326,86380,2,0,P|483:264|456:191,1,135,8|0,0:0|0:0,0:0:0:0:
436,172,86713,6,0,P|384:188|324:180,1,90,2|0,0:0|1:0,0:0:0:0:
289,48,87046,2,0,L|374:80,1,90,8|0,0:0|1:0,0:0:0:0:
200,92,87380,2,0,L|237:174,1,90
106,61,87713,2,0,L|73:146,1,90,8|6,0:0|0:0,0:0:0:0:
184,344,88046,6,0,P|132:276|24:292,1,180,0|6,1:0|0:1,0:0:0:0:
256,296,88546,2,0,P|308:280|344:256,1,90,0|0,1:0|0:0,0:0:0:0:
396,188,88879,1,0,0:0:0:0:
200,92,89046,2,0,P|148:108|112:132,1,90,8|0,0:0|0:0,0:0:0:0:
304,152,89379,6,0,L|296:52,1,90,0|0,1:0|0:0,0:0:0:0:
295,28,89629,1,0,0:0:0:0:
295,28,89713,2,0,P|351:44|403:48,1,90,8|0,0:0|1:0,0:0:0:0:
500,295,90046,1,4,1:2:0:0:
478,273,90129,1,0,1:0:0:0:
453,258,90213,1,0,1:0:0:0:
424,248,90296,1,4,1:2:0:0:
395,246,90379,1,8,0:0:0:0:
365,250,90463,1,8,0:0:0:0:
337,260,90546,6,0,P|224:264|148:228,1,180,6|0,1:0|0:0,0:0:0:0:
108,44,91046,1,8,0:0:0:0:
218,22,91213,2,0,L|228:112,1,90,0|0,1:0|0:0,0:0:0:0:
53,225,91546,2,0,L|44:136,1,90,0|8,0:0|0:0,0:0:0:0:
272,216,91879,6,0,P|240:156|124:140,1,180,0|0,0:0|0:0,0:0:0:0:
336,332,92379,1,8,0:0:0:0:
232,312,92546,2,0,P|264:252|380:236,1,180,0|0,1:0|0:0,0:0:0:0:
452,276,93046,1,8,0:0:0:0:
512,60,93212,1,0,0:0:0:0:
416,64,93379,6,0,L|300:68,1,90,0|0,1:0|0:0,0:0:0:0:
182,212,93712,2,0,L|298:216,1,90,8|2,0:0|1:2,0:0:0:0:
504,176,94045,1,0,0:0:0:0:
408,156,94212,1,0,0:0:0:0:
484,272,94379,1,10,0:0:0:0:
388,252,94545,6,0,P|320:280|268:372,1,180,12|0,0:0|0:0,0:0:0:0:
120,236,95045,2,0,P|163:248|207:257,1,90,8|0,0:0|1:0,0:0:0:0:
320,120,95379,2,0,P|276:132|232:141,1,90,0|0,1:0|0:0,0:0:0:0:
16,80,95712,1,4,0:3:0:0:
136,16,95879,1,4,0:0:0:0:
136,16,95962,1,0,0:0:0:0:
136,16,96045,6,0,L|96:172,1,144,4|0,0:1|0:0,0:0:0:0:
108,284,96545,1,0,1:0:0:0:
16,164,96712,2,0,L|24:248,1,72,8|0,0:0|0:0,0:0:0:0:
182,211,97045,2,0,L|190:295,1,72,0|0,0:0|0:0,0:0:0:0:
284,356,97378,6,0,P|284:284|336:208,1,144,0|4,1:0|0:0,0:0:0:0:
478,276,97878,2,0,P|442:280|408:272,1,72,0|0,1:0|0:0,0:0:0:0:
488,180,98212,1,0,0:0:0:0:
400,24,98378,1,0,0:0:0:0:
328,112,98545,1,4,0:1:0:0:
184,16,98712,6,0,P|168:76|184:172,1,144,0|8,1:0|0:0,0:0:0:0:
256,256,99212,2,0,B|224:232|180:236,1,72,0|8,1:0|0:0,0:0:0:0:
64,256,99545,2,0,B|100:240|119:200,1,72,0|8,0:0|0:0,0:0:0:0:
264,352,99878,6,0,P|212:320|108:320,1,144
336,168,100378,2,0,P|324:236|332:328,1,144,8|8,0:0|0:0,0:0:0:0:
344,328,100795,1,0,0:0:0:0:
344,328,100878,2,0,P|396:320|432:324,1,72,8|8,0:3|0:3,0:0:0:0:
496,352,101211,1,0,0:0:0:0:
425,132,101378,6,0,P|379:81|259:113,1,180,4|8,0:1|0:0,0:0:0:0:
172,264,101878,2,0,L|184:380,1,90,0|0,0:0|0:0,0:0:0:0:
336,168,102211,5,0,0:0:0:0:
296,264,102378,1,8,0:0:0:0:
84,176,102544,2,0,L|96:292,1,90,0|0,0:0|0:0,0:0:0:0:
384,244,102878,5,0,0:0:0:0:
248,188,103044,1,8,0:0:0:0:
181,353,103211,1,0,0:0:0:0:
8,128,103378,2,0,P|36:100|100:92,1,90,0|0,0:0|0:0,0:0:0:0:
212,16,103711,2,0,L|222:108,1,90,4|0,1:0|0:0,0:0:0:0:
476,200,104044,6,0,P|420:208|384:196,1,90,0|0,0:0|0:0,0:0:0:0:
304,80,104378,5,8,0:0:0:0:
412,312,104544,1,0,0:0:0:0:
416,96,104711,5,8,0:0:0:0:
295,341,104878,2,0,P|242:326|200:275,1,90,0|0,1:0|0:0,0:0:0:0:
476,200,105211,1,0,1:0:0:0:
476,200,105544,5,0,1:0:0:0:
83,88,105711,1,12,0:0:0:0:
256,192,105794,12,2,106711,0:0:0:0:
148,120,107711,6,0,P|124:180|126:249,2,125.999996154785,0|2|0,0:0|0:0|0:0,0:0:0:0:
232,72,108544,1,0,0:0:0:0:
296,116,108710,2,0,P|376:100|420:76,1,125.999996154785
242,277,109377,6,0,P|162:261|118:237,2,125.999996154785,2|0|0,0:0|0:0|0:0,0:0:0:0:
125,79,110377,5,0,0:0:0:0:
159,160,110544,1,0,0:0:0:0:
0,293,110710,2,0,P|76:305|132:345,1,125.999996154785,2|0,0:0|0:0,0:0:0:0:
192,364,111210,2,0,P|252:348|314:358,1,125.999996154785,0|0,0:0|0:0,0:0:0:0:
396,344,111710,2,0,P|449:352|477:348,1,62.9999980773926,2|0,0:0|0:0,0:0:0:0:
512,240,112043,6,0,P|440:276|380:264,1,125.999996154785,2|0,0:0|0:0,0:0:0:0:
292,72,112710,2,0,P|270:130|282:191,1,125.999996154785,0|0,0:0|0:0,0:0:0:0:
464,100,113377,2,0,P|392:84|454:180,1,251.999992309571
296,280,114376,5,0,0:0:0:0:
296,280,114543,2,0,P|232:264|156:264,1,125.999996154785,2|0,0:0|0:0,0:0:0:0:
96,204,115043,2,0,P|157:189|220:188,1,125.999996154785,0|2,0:0|0:0,0:0:0:0:
121,328,115710,1,0,0:0:0:0:
121,328,116043,6,0,P|109:276|93:192,1,125.999996154785,2|0,0:0|0:0,0:0:0:0:
122,82,116543,2,0,P|110:134|94:218,1,125.999996154785,2|0,0:0|0:0,0:0:0:0:
245,260,117043,2,0,B|175:252,1,62.9999980773926,0|0,0:0|0:0,0:0:0:0:
199,164,117376,6,0,L|324:178,2,125.999996154785,2|0|0,0:0|0:0|0:0,0:0:0:0:
312,20,118376,1,0,0:0:0:0:
312,20,118709,6,0,P|276:108|380:72,1,251.999992309571,2|0,0:0|0:0,0:0:0:0:
504,216,119709,1,0,0:0:0:0:
400,356,120042,2,0,P|352:356|272:336,1,125.999996154785,2|0,0:0|0:0,0:0:0:0:
200,352,120542,2,0,P|184:288|196:208,1,125.999996154785,2|0,0:0|0:0,0:0:0:0:
236,160,121042,2,0,L|224:84,1,62.9999980773926,0|0,0:0|0:0,0:0:0:0:
156,16,121376,6,0,P|224:68|332:56,1,188.999994232178,2|0,0:0|0:0,0:0:0:0:
393,142,122042,2,0,P|325:90|217:102,1,188.999994232178,0|0,0:0|0:0,0:0:0:0:
280,176,122709,6,0,P|136:68|320:116,2,503.999984619141,2|0|2,0:0|0:0|0:0,0:0:0:0:
452,260,125708,5,0,0:0:0:0:
452,260,125875,2,0,P|388:272|344:316,1,125.999996154785,2|0,0:0|0:0,0:0:0:0:
288,256,126375,1,0,0:0:0:0:
176,344,126542,2,0,P|112:332|68:288,1,125.999996154785,2|4,0:0|0:0,0:0:0:0:
64,205,127042,2,0,P|68:133|60:61,1,125.999996154785
64,80,127541,5,8,0:0:0:0:
144,24,127708,1,8,0:0:0:0:
208,216,127875,1,0,0:0:0:0:
344,116,128041,6,0,P|276:96|160:112,1,180,6|8,1:0|0:0,0:0:0:0:
339,193,128541,2,0,L|369:292,1,90,2|0,1:2|0:0,0:0:0:0:
208,216,128875,2,0,L|212:320,1,90,2|0,1:2|0:0,0:0:0:0:
90,153,129208,2,0,L|44:357,1,180,2|0,1:2|0:0,0:0:0:0:
30,89,129708,6,0,P|87:66|117:68,1,90,12|0,0:0|0:0,0:0:0:0:
340,129,130041,1,0,1:0:0:0:
340,129,130125,1,0,1:0:0:0:
340,129,130208,2,0,L|354:180,1,45,0|0,1:0|0:0,0:0:0:0:
259,109,130374,2,0,L|221:146,1,45,0|0,1:0|0:0,0:0:0:0:
235,28,130541,2,0,L|183:14,1,45,0|0,0:0|0:0,0:0:0:0:
90,153,130708,6,0,P|124:206|240:235,1,180,0|4,1:0|0:0,0:0:0:0:
412,68,131208,1,0,1:0:0:0:
340,129,131374,2,0,P|330:201|335:249,1,90,0|0,0:0|0:0,0:0:0:0:
497,324,131708,1,2,0:0:0:0:
424,262,131874,2,0,P|416:218|414:174,1,90,0|8,0:0|1:2,0:0:0:0:
277,353,132208,6,0,P|334:308|378:288,1,90,0|2,1:0|3:0,0:0:0:0:
231,236,132541,1,4,0:1:0:0:
33,296,132708,1,0,0:0:0:0:
142,320,132874,1,0,1:0:0:0:
32,160,133041,1,8,0:0:0:0:
141,184,133207,1,4,0:0:0:0:
31,24,133374,6,0,P|69:63|166:62,1,144,4|0,0:1|0:0,0:0:0:0:
354,32,133874,1,0,0:0:0:0:
262,14,134041,2,0,P|246:78|246:106,1,72,8|0,0:0|0:0,0:0:0:0:
170,238,134374,2,0,P|165:202|153:168,1,72,2|0,0:0|0:0,0:0:0:0:
354,32,134707,6,0,P|336:62|339:177,1,144,0|2,0:0|0:0,0:0:0:0:
388,245,135207,1,0,0:0:0:0:
153,168,135374,2,0,P|208:212|224:216,1,72,8|0,0:0|0:0,0:0:0:0:
248,228,135624,1,8,0:0:0:0:
248,228,135707,2,0,P|249:272|236:312,1,72,2|8,0:0|0:0,0:0:0:0:
28,344,136040,6,0,P|86:337|191:348,1,144,4|2,0:1|0:0,0:0:0:0:
334,168,136540,1,0,0:0:0:0:
248,228,136707,2,0,P|190:235|85:224,1,144,8|2,0:0|0:0,0:0:0:0:
101,35,137207,1,0,0:0:0:0:
101,35,137374,6,0,P|119:73|128:116,1,72,0|0,0:0|0:0,0:0:0:0:
248,36,137707,2,0,P|247:71|238:106,1,72,2|0,0:0|0:0,0:0:0:0:
368,268,138040,6,0,P|403:264|436:250,1,72,8|0,0:0|0:0,0:0:0:0:
333,167,138374,2,0,P|359:142|378:112,1,72,4|0,0:1|0:0,0:0:0:0:
278,237,138707,6,0,P|217:231|145:168,1,144
367,40,139207,2,0,L|381:130,1,72,10|0,0:0|0:0,0:0:0:0:
145,344,139540,2,0,L|131:253,1,72,2|0,1:2|0:0,0:0:0:0:
219,18,139873,6,0,P|262:72|228:161,1,144,8|0,0:0|0:0,0:0:0:0:
16,59,140373,1,8,0:0:0:0:
256,192,140457,12,4,141373,0:0:0:0:
305,89,141706,5,8,0:0:0:0:
305,89,141790,1,0,1:0:0:0:
305,89,141873,2,0,L|321:136,1,45,0|0,1:0|0:0,0:0:0:0:
199,182,142040,2,0,L|214:224,1,45,0|0,1:0|0:0,0:0:0:0:
303,292,142206,6,0,L|374:282,1,67.5,0|0,1:0|0:0,0:0:0:0:
408,304,142540,6,0,P|429:245|430:203,1,90,6|0,1:0|0:0,0:0:0:0:
395,86,142873,1,0,0:0:0:0:
215,225,143040,1,8,0:0:0:0:
132,94,143206,2,0,L|240:107,1,90,0|0,1:0|0:0,0:0:0:0:
132,273,143540,2,0,L|24:260,1,90,0|8,0:0|0:0,0:0:0:0:
51,17,143873,6,0,P|33:68|99:201,1,180,4|0,0:0|0:0,0:0:0:0:
348,199,144373,1,8,0:0:0:0:
240,236,144539,1,0,1:0:0:0:
131,273,144706,2,0,P|132:317|142:361,1,90
250,147,145039,6,0,P|240:191|240:236,1,90,8|0,0:0|0:0,0:0:0:0:
406,362,145373,2,0,B|342:304|347:197,1,180,0|8,1:0|0:0,0:0:0:0:
414,28,145873,2,0,L|422:134,1,90,2|0,1:2|0:0,0:0:0:0:
250,147,146206,1,0,0:0:0:0:
346,198,146373,1,10,0:0:0:0:
283,62,146539,2,0,P|231:57|179:82,1,90,6|0,0:1|0:0,0:0:0:0:
6,196,146872,5,0,0:0:0:0:
114,214,147039,1,8,0:0:0:0:
222,231,147206,2,0,L|126:253,1,90,0|0,1:0|0:0,0:0:0:0:
26,92,147539,2,0,L|148:120,1,90,0|8,0:0|0:0,0:0:0:0:
380,226,147872,5,6,0:1:0:0:
298,159,148039,2,0,P|273:67|319:-2,1,180,0|8,1:0|0:0,0:0:0:0:
222,231,148539,2,0,P|136:189|114:109,1,180,0|0,1:0|0:0,0:0:0:0:
362,86,149039,6,0,L|465:100,1,90,8|2,0:0|0:0,0:0:0:0:
150,298,149372,2,0,L|47:284,1,90,0|0,1:0|0:0,0:0:0:0:
228,33,149705,1,8,0:0:0:0:
246,139,149872,1,0,1:0:0:0:
264,245,150039,1,0,0:0:0:0:
282,351,150205,1,0,0:0:0:0:
365,283,150372,5,0,0:0:0:0:
163,207,150539,1,6,0:0:0:0:
330,71,150705,2,0,L|432:80,1,90,0|0,1:0|0:0,0:0:0:0:
460,312,151039,1,4,1:0:0:0:
460,312,151205,6,0,P|460:276|432:212,1,90,0|0,1:0|0:0,0:0:0:0:
198,323,151539,1,0,0:0:0:0:
281,255,151705,2,0,P|325:261|365:283,1,90,8|0,0:0|0:0,0:0:0:0:
163,207,152039,2,0,L|56:216,1,90,0|0,1:0|0:0,0:0:0:0:
36,192,152289,1,0,0:0:0:0:
36,192,152372,2,0,P|28:140|36:92,1,90,0|0,0:0|1:0,0:0:0:0:
288,12,152705,5,4,1:2:0:0:
266,32,152788,1,0,1:0:0:0:
249,57,152872,1,0,1:0:0:0:
239,85,152955,1,4,1:2:0:0:
235,115,153038,1,8,0:0:0:0:
238,144,153122,1,8,0:0:0:0:
247,173,153205,6,0,P|264:248|212:340,1,180,6|0,1:0|0:0,0:0:0:0:
120,136,153705,5,8,0:0:0:0:
331,121,153872,2,0,P|383:177|384:283,1,180,0|0,1:0|0:0,0:0:0:0:
172,200,154372,5,8,0:0:0:0:
376,34,154538,2,0,P|449:56|503:147,1,180
247,173,155038,5,8,0:0:0:0:
120,136,155205,2,0,L|8:128,1,90,0|0,1:0|0:0,0:0:0:0:
264,4,155538,2,0,L|276:104,1,90,0|8,0:0|0:0,0:0:0:0:
206,314,155871,1,0,0:0:0:0:
319,271,156038,6,0,P|265:208|165:201,1,180,0|8,1:0|0:0,0:0:0:0:
284,360,156538,2,0,L|384:352,1,90,2|0,1:2|0:0,0:0:0:0:
104,276,156871,2,0,L|4:284,1,90,0|10,0:0|0:0,0:0:0:0:
184,72,157205,6,0,P|288:136|368:104,1,180,12|0,0:0|0:0,0:0:0:0:
94,81,157705,2,0,P|47:122|33:160,1,90,8|0,0:0|1:0,0:0:0:0:
200,281,158038,2,0,P|177:242|172:198,1,90,0|0,1:0|0:0,0:0:0:0:
260,24,158371,1,4,0:3:0:0:
337,124,158538,1,4,0:0:0:0:
337,124,158621,1,0,0:0:0:0:
337,124,158704,6,0,L|484:108,1,144,4|0,0:1|0:0,0:0:0:0:
368,36,159204,1,0,1:0:0:0:
492,196,159371,2,0,L|408:192,1,72,8|0,0:0|0:0,0:0:0:0:
244,288,159704,2,0,L|328:284,1,72,0|0,1:0|0:0,0:0:0:0:
380,332,160038,6,0,P|336:284|348:196,1,144,0|4,1:0|0:0,0:0:0:0:
456,120,160538,2,0,P|408:130|380:156,1,72,0|0,1:0|0:0,0:0:0:0:
453,218,160871,1,0,0:0:0:0:
264,156,161037,1,0,0:0:0:0:
272,48,161204,1,4,0:0:0:0:
136,184,161371,6,0,P|85:172|45:143,1,72,0|0,1:0|0:0,0:0:0:0:
0,76,161704,1,8,0:0:0:0:
83,21,161871,1,0,1:0:0:0:
220,216,162037,1,8,0:0:0:0:
137,271,162204,1,0,0:0:0:0:
389,282,162371,1,8,0:0:0:0:
307,88,162537,6,0,P|304:160|320:248,1,144,0|0,0:0|0:0,0:0:0:0:
249,356,163037,2,0,P|215:292|211:274,1,72,8|0,0:0|0:0,0:0:0:0:
390,143,163371,1,8,0:0:0:0:
220,48,163537,1,0,1:0:0:0:
220,48,163620,1,0,1:0:0:0:
220,48,163704,1,0,1:0:0:0:
152,164,163870,1,8,0:3:0:0:
84,280,164037,6,0,P|24:240|56:144,1,180,6|8,0:1|0:0,0:0:0:0:
240,165,164537,2,0,P|188:170|139:159,1,90,0|0,1:0|0:0,0:0:0:0:
112,48,164870,1,0,0:0:0:0:
296,88,165037,5,8,0:0:0:0:
188,260,165204,2,0,P|188:316|200:356,1,90,0|0,0:0|0:0,0:0:0:0:
379,118,165537,2,0,P|379:62|367:22,1,90,0|8,0:0|0:0,0:0:0:0:
152,164,165870,2,0,P|220:168|340:244,1,180,0|0,1:0|0:0,0:0:0:0:
368,316,166370,5,8,0:0:0:0:
447,63,166537,2,0,P|404:88|379:119,1,90,4|0,0:0|0:0,0:0:0:0:
456,284,166870,5,0,0:0:0:0:
368,316,167037,1,8,0:0:0:0:
304,44,167203,2,0,P|279:87|273:126,1,90,0|0,1:0|0:0,0:0:0:0:
496,196,167537,5,0,1:0:0:0:
456,284,167703,1,8,0:0:0:0:
180,96,167870,2,0,P|180:145|195:183,1,90,0|0,0:0|0:0,0:0:0:0:
368,316,168203,2,0,P|325:291|285:285,1,90,0|8,0:0|0:0,0:0:0:0:
496,196,168537,6,0,P|453:183|308:206,1,180,0|0,1:0|0:0,0:0:0:0:
200,272,169036,1,8,0:0:0:0:
280,8,169203,1,4,0:1:0:0:
121,157,169370,5,2,0:0:0:0:
324,117,169536,1,0,0:0:0:0:
185,57,169703,1,8,0:0:0:0:
285,285,169870,2,0,P|233:313|185:317,1,90,0|0,1:0|0:0,0:0:0:0:
121,254,170203,5,0,0:0:0:0:
324,200,170370,1,8,0:0:0:0:
208,141,170536,1,0,1:0:0:0:
280,8,170703,5,0,0:0:0:0:
324,200,170870,1,2,0:0:0:0:
440,44,171036,1,8,0:0:0:0:
440,44,171120,1,2,0:3:0:0:
440,44,171203,1,0,1:0:0:0:
432,164,171370,6,0,L|428:276,1,90,2|0,0:0|0:0,0:0:0:0:
176,360,171703,1,8,0:0:0:0:
146,344,171786,1,0,0:0:0:0:
125,318,171869,1,0,0:0:0:0:
116,286,171953,1,0,0:0:0:0:
121,253,172036,6,0,L|152:160,1,90,4|0,1:0|0:0,0:0:0:0:
344,84,172369,1,8,0:0:0:0:
290,238,172536,1,0,1:0:0:0:
188,24,172703,2,0,P|240:16|280:16,1,90,0|0,0:0|0:0,0:0:0:0:
439,79,173036,1,8,0:0:0:0:
290,238,173203,6,0,L|284:328,1,90
402,249,173536,2,0,L|396:160,1,90,0|8,0:0|0:0,0:0:0:0:
109,134,173869,6,0,L|116:224,1,90,0|8,1:0|0:0,0:0:0:0:
222,146,174203,2,0,L|229:57,1,90,0|8,1:0|0:3,0:0:0:0:
48,300,174536,1,6,1:2:0:0:
48,300,174619,1,0,0:0:0:0:
48,300,174702,6,0,P|120:244|208:248,1,180,6|8,1:0|0:0,0:0:0:0:
409,341,175202,2,0,P|337:323|298:300,1,90,2|0,1:0|0:0,0:0:0:0:
461,133,175536,2,0,P|409:187|370:209,1,90,2|0,1:0|0:0,0:0:0:0:
283,0,175869,2,0,P|303:71|276:182,1,180,4|0,1:0|0:0,0:0:0:0:
47,68,176369,6,0,L|143:83,1,90,4|0,0:0|0:0,0:0:0:0:
157,84,176619,1,0,0:0:0:0:
179,87,176702,1,8,0:0:0:0:
352,250,176869,6,0,L|346:294,1,45,8|0,0:0|0:0,0:0:0:0:
235,192,177036,2,0,L|240:147,1,45,8|0,0:3|0:0,0:0:0:0:
376,235,177202,6,0,L|367:301,1,45,10|0,0:3|0:0,0:0:0:0:
260,178,177369,2,0,L|287:-40,1,180,6|4,1:0|0:0,0:0:0:0:
491,133,177869,2,0,P|416:117|352:172,1,135,2|0,1:0|0:0,0:0:0:0:
437,199,178202,2,0,P|389:245|386:311,1,135,0|0,1:0|0:0,0:0:0:0:
454,370,178535,6,0,P|364:335|254:335,1,180,6|0,1:0|0:0,0:0:0:0:
254,336,178952,1,0,0:0:0:0:
229,349,179035,1,8,0:0:0:0:
131,283,179202,1,0,0:0:0:0:
34,366,179369,2,0,P|8:301|5:260,1,90,8|0,0:0|0:0,0:0:0:0:
185,165,179702,2,0,P|211:230|214:271,1,90,8|4,0:0|0:0,0:0:0:0:
74,217,180035,6,0,L|94:75,1,144,6|0,1:0|0:0,0:0:0:0:
411,256,180702,2,0,L|430:113,1,144,12|0,0:0|1:0,0:0:0:0:
379,17,181202,1,8,0:0:0:0:
379,17,181368,6,0,P|343:17|307:25,1,72,0|0,1:0|0:0,0:0:0:0:
430,114,181702,2,0,P|394:102|359:98,1,72
192,41,182035,2,0,P|250:83|286:145,1,144,8|0,0:0|1:0,0:0:0:0:
277,257,182535,1,4,0:0:0:0:
0,244,182702,6,0,P|70:205|181:222,1,180,4|8,1:0|0:0,0:0:0:0:
364,309,183201,1,0,1:0:0:0:
276,358,183368,1,0,0:0:0:0:
277,257,183535,1,8,0:3:0:0:
364,309,183701,2,0,L|467:320,1,90,8|0,0:0|0:0,0:0:0:0:
441,76,184035,6,0,P|419:180|357:227,1,180,2|8,0:0|0:0,0:0:0:0:
243,175,184535,1,0,1:2:0:0:
155,280,184701,2,0,P|165:323|186:364,1,90,0|2,0:0|1:2,0:0:0:0:
356,103,185035,2,0,P|346:60|326:20,1,90,0|4,0:0|1:2,0:0:0:0:
120,45,185368,6,0,L|210:54,1,90,0|0,0:0|0:0,0:0:0:0:
153,164,185701,2,0,L|243:175,1,90,6|0,1:0|0:0,0:0:0:0:
326,20,186034,2,0,L|343:116,1,90,0|8,1:0|0:3,0:0:0:0:
486,26,186368,2,0,L|462:222,1,180,0|6,1:0|0:0,0:0:0:0:
256,192,186784,12,0,188034,0:0:0:0:
400,217,193367,6,0,B|329:231|362:266|281:282,1,125.999996154785,2|0,0:0|0:0,0:0:0:0:
122,243,193867,2,0,P|179:267|209:322,1,125.999996154785,2|0,0:0|0:0,0:0:0:0:
56,348,194367,2,0,L|125:333,1,62.9999980773926,2|0,0:0|0:0,0:0:0:0:
216,171,194700,6,0,L|72:156,1,125.999996154785,2|0,0:0|0:0,0:0:0:0:
303,141,195200,2,0,L|211:28,1,125.999996154785,2|0,0:0|0:0,0:0:0:0:
385,181,195700,1,2,0:0:0:0:
232,260,195867,1,0,1:0:0:0:
304,340,196033,5,0,1:0:0:0:
340,256,196200,1,8,0:0:0:0:
294,178,196367,1,0,0:0:0:0:
204,160,196533,1,8,0:0:0:0:
132,216,196700,1,0,0:0:0:0:
385,181,196866,1,8,0:3:0:0:
385,181,197200,6,4,P|396:100|384:28,1,125.999996154785,4|0,0:0|0:0,0:0:0:0:
240,32,197700,2,0,P|236:92|240:124,1,62.9999980773926,8|0,0:0|0:0,0:0:0:0:
294,178,198033,1,8,0:0:0:0:
48,336,198200,1,8,1:3:0:0:
48,336,198533,6,0,P|160:312|248:344,1,180,6|0,1:0|0:0,0:0:0:0:
312,372,199033,1,8,0:0:0:0:
153,228,199200,2,0,P|125:168|113:120,1,90,0|0,1:0|0:0,0:0:0:0:
329,178,199533,2,0,P|299:212|275:250,1,90,0|8,0:0|0:0,0:0:0:0:
381,21,199866,6,0,P|284:52|212:116,1,180
408,264,200366,1,8,0:0:0:0:
488,176,200533,2,0,L|476:60,1,90,0|0,1:0|0:0,0:0:0:0:
276,251,200866,2,0,L|288:367,1,90,0|8,0:0|0:0,0:0:0:0:
304,140,201199,1,0,0:0:0:0:
304,140,201283,1,0,0:0:0:0:
304,140,201366,6,0,P|268:220|160:236,1,180,4|8,1:0|0:0,0:0:0:0:
64,312,201866,2,0,L|44:204,1,90,2|0,1:2|0:0,0:0:0:0:
301,47,202199,1,0,0:0:0:0:
168,80,202366,1,8,0:0:0:0:
35,113,202532,6,0,P|124:148|156:244,1,180,4|0,0:0|0:0,0:0:0:0:
167,335,203032,1,8,0:0:0:0:
336,152,203199,2,0,P|320:216|292:256,1,90,0|0,1:0|0:0,0:0:0:0:
195,41,203532,2,0,P|228:97|237:145,1,90,0|8,0:0|0:0,0:0:0:0:
272,352,203866,1,6,1:2:0:0:
272,352,203949,1,0,0:0:0:0:
272,352,204032,6,0,P|340:328|420:332,1,144,4|0,1:0|0:0,0:0:0:0:
496,220,204532,1,0,1:0:0:0:
496,220,204699,2,0,L|508:316,1,72,8|0,0:0|0:0,0:0:0:0:
412,164,205032,2,0,L|398:259,1,72,0|8,0:0|0:0,0:0:0:0:
345,88,205365,6,0,L|284:231,1,144,0|0,1:0|0:0,0:0:0:0:
216,284,205865,1,0,1:0:0:0:
60,184,206032,2,0,L|202:201,1,144,0|0,0:0|0:0,0:0:0:0:
48,292,206532,1,0,0:0:0:0:
252,108,206699,6,0,P|197:98|160:108,1,90,4|2,1:0|0:0,0:0:0:0:
216,284,207032,1,0,0:0:0:0:
360,128,207199,2,0,P|298:43|213:20,1,180,4|0,0:0|0:0,0:0:0:0:
60,184,207699,1,0,0:0:0:0:
208,372,207865,2,0,P|285:334|291:248,1,180,6|8,0:1|0:0,0:0:0:0:
164,106,208365,5,8,0:0:0:0:
394,232,208532,1,8,0:0:0:0:
216,284,208698,5,8,0:0:0:0:
342,54,208865,1,0,0:0:0:0:
342,54,209198,6,0,L|452:72,1,90,4|0,0:1|0:0,0:0:0:0:
394,232,209532,1,0,0:0:0:0:
481,256,209698,5,8,0:0:0:0:
307,209,209865,1,0,0:0:0:0:
418,320,210032,5,0,0:0:0:0:
371,146,210198,1,0,0:0:0:0:
330,295,210365,5,8,0:0:0:0:
458,169,210532,2,0,P|452:108|424:72,1,90,0|0,0:0|0:0,0:0:0:0:
192,88,210865,5,0,0:0:0:0:
288,132,211031,1,8,0:0:0:0:
100,48,211198,2,0,L|112:164,1,90,0|0,0:0|0:0,0:0:0:0:
232,200,211531,5,0,0:0:0:0:
16,100,211698,2,0,L|25:189,1,90,8|0,0:0|0:0,0:0:0:0:
176,340,212031,6,0,P|88:280|4:304,1,180,0|8,0:0|0:0,0:0:0:0:
147,215,212531,1,0,0:0:0:0:
270,359,212698,5,2,0:0:0:0:
365,330,212865,1,0,0:0:0:0:
336,108,213031,1,8,0:0:0:0:
228,263,213198,1,0,0:0:0:0:
401,180,213365,5,2,0:0:0:0:
306,200,213531,1,0,0:0:0:0:
184,117,213698,1,8,0:0:0:0:
365,330,213864,1,0,0:0:0:0:
147,215,214031,5,2,0:0:0:0:
401,180,214198,1,0,0:0:0:0:
184,312,214364,1,8,0:0:0:0:
244,44,214531,1,4,0:0:0:0:
258,165,214698,6,0,L|282:349,2,180,4|8|2,1:0|0:0|0:0,0:0:0:0:
127,119,215531,5,0,0:0:0:0:
239,79,215698,1,8,0:0:0:0:
127,119,215864,5,0,0:0:0:0:
315,127,216031,1,0,0:0:0:0:
127,119,216198,5,0,0:0:0:0:
319,38,216364,1,8,0:0:0:0:
127,119,216531,5,2,1:2:0:0:
395,86,216697,2,0,L|379:187,1,90
139,327,217031,2,0,L|155:226,1,90,8|0,0:0|0:0,0:0:0:0:
456,292,217364,6,0,P|400:216|304:240,1,180,0|10,1:0|0:0,0:0:0:0:
252,296,217864,1,0,0:0:0:0:
52,136,218031,2,0,P|108:60|204:84,1,180,2|8,0:0|0:0,0:0:0:0:
371,296,218531,1,2,0:0:0:0:
236,200,218697,6,0,P|168:176|132:176,1,90,0|2,1:0|0:0,0:0:0:0:
412,256,219030,2,0,P|430:216|437:171,1,90,8|0,0:0|1:0,0:0:0:0:
293,114,219364,2,0,P|320:150|336:192,1,90,8|8,0:0|0:3,0:0:0:0:
384,64,219697,1,0,3:0:0:0:
207,276,219864,1,4,3:0:0:0:
150,175,220030,6,0,P|128:104|128:20,1,144,4|4,1:0|0:0,0:0:0:0:
126,34,220530,1,0,0:0:0:0:
336,192,220697,2,0,P|333:263|312:332,2,144,8|4|0,0:0|0:0|0:0,0:0:0:0:
288,104,221530,5,0,0:0:0:0:
71,230,221697,1,4,0:0:0:0:
150,175,221863,1,0,0:0:0:0:
158,271,222030,2,0,L|166:351,1,72,8|0,0:0|0:0,0:0:0:0:
300,228,222363,2,0,L|220:220,1,72,4|0,0:2|0:0,0:0:0:0:
296,332,222697,6,0,P|324:268|408:220,1,144,4|4,2:2|0:0,0:0:0:0:
452,288,223197,1,0,0:0:0:0:
512,172,223363,2,0,P|484:108|400:60,1,144,8|0,0:0|1:0,0:0:0:0:
328,28,223863,6,0,L|340:104,1,72,4|0,0:0|0:0,0:0:0:0:
247,175,224197,2,0,L|236:104,1,72,8|4,0:0|0:0,0:0:0:0:
144,180,224530,1,0,0:0:0:0:
172,358,224696,1,8,0:0:0:0:
313,245,224863,1,0,1:0:0:0:
112,276,225030,1,0,1:0:0:0:
112,276,225363,6,0,P|102:191|1:130,1,180,4|10,1:0|0:0,0:0:0:0:
253,17,225863,2,0,P|245:85|225:121,1,90
12,240,226196,1,0,0:0:0:0:
254,295,226363,1,10,0:0:0:0:
130,39,226530,6,0,L|138:135,1,90,0|0,0:0|0:0,0:0:0:0:
254,295,226863,2,0,L|246:205,1,90,0|10,0:0|0:0,0:0:0:0:
50,127,227196,6,0,L|58:223,1,90
334,207,227529,2,0,L|326:117,1,90,0|10,0:0|0:0,0:0:0:0:
130,39,227863,5,4,0:0:0:0:
130,39,227946,1,0,0:0:0:0:
130,39,228029,2,0,L|246:63,1,90,0|0,1:0|0:0,0:0:0:0:
341,39,228363,5,8,0:0:0:0:
217,295,228529,1,0,0:0:0:0:
389,127,228696,5,8,0:0:0:0:
129,243,228863,1,0,0:0:0:0:
369,225,229029,5,8,0:0:0:0:
95,147,229196,2,0,P|92:81|118:44,1,90,4|0,1:0|0:0,0:0:0:0:
305,119,229530,5,0,0:0:0:0:
209,163,229698,1,8,0:0:0:0:
218,57,229865,1,0,1:0:0:0:
413,179,230033,5,0,1:0:0:0:
60,290,230200,1,8,0:3:0:0:
218,57,230381,5,2,0:0:0:0:
305,364,230563,1,6,0:1:0:0:
256,192,230654,12,0,238927,0:0:0:0:
