osu file format v14

[General]
AudioFilename: innocent.mp3
AudioLeadIn: 0
PreviewTime: 78714
Countdown: 0
SampleSet: Soft
StackLeniency: 0.7
Mode: 0
LetterboxInBreaks: 0
WidescreenStoryboard: 1

[Editor]
DistanceSpacing: 1
BeatDivisor: 4
GridSize: 4
TimelineZoom: 1.3

[Metadata]
Title:Innocent Eyes
TitleUnicode:Innocent Eyes
Artist:FELT
ArtistUnicode:FELT
Creator:Yohanes
Version:Hard
Source:東方地霊殿 ~ Subterranean Animism.
Tags:東方project Touhou Toho Stand Up Rebirth Story II 2 舞花 Maika 古明地 さとり Satori Maiden Komeji Stand Up 3rd Eye Japanese Rock J-Rock video game Naitoshi PandaHero Bor yaldo_27 blacksocks [alt][F4] pyroflayer borborygmos _83 102335 HalfsIashed Meat Inspector big fan Irresistible I love apples Lego man In your heart type 1 if cute free hong kong anna apple
BeatmapID:1894745
BeatmapSetID:874026

[Difficulty]
HPDrainRate:5
CircleSize:3.8
OverallDifficulty:6
ApproachRate:7.5
SliderMultiplier:1.4
SliderTickRate:1

[Events]
//Background and Video events
0,0,"BG.jpg",0,0
//Break Periods
2,125575,126642
2,188234,192467
//Storyboard Layer 0 (Background)
//Storyboard Layer 1 (Fail)
//Storyboard Layer 2 (Pass)
//Storyboard Layer 3 (Foreground)
//Storyboard Layer 4 (Overlay)
//Storyboard Sound Samples

[TimingPoints]
56,333.292597571408,4,2,1,80,1,0
11888,333.292597571408,4,2,1,80,1,0
22720,333.292597571408,4,2,1,80,1,0
22720,-133.333333333333,4,2,1,60,0,0
44052,333.293333333333,4,2,1,80,1,0
44383,-100,4,2,1,60,0,0
78714,-133.333333333333,4,2,1,80,0,0
79881,-100,4,2,1,80,0,1
85130,-100,4,2,1,80,0,0
85213,-100,4,2,1,80,0,1
90463,-100,4,2,1,80,0,0
90546,-100,4,2,1,80,0,1
95879,-100,4,2,1,60,0,1
96044,-125,4,2,1,80,0,1
101378,-100,4,2,1,80,0,0
105711,-100,4,2,1,60,0,0
106711,-133.333333333333,4,2,1,50,0,0
107960,-133.333333333333,4,2,1,5,0,0
108044,-133.333333333333,4,2,1,38,0,0
108294,-133.333333333333,4,2,1,5,0,0
108377,-133.333333333333,4,2,1,38,0,0
108627,-133.333333333333,4,2,1,5,0,0
108710,-133.333333333333,4,2,1,38,0,0
108960,-133.333333333333,4,2,1,5,0,0
109044,-133.333333333333,4,2,1,38,0,0
109294,-133.333333333333,4,2,1,5,0,0
109377,-133.333333333333,4,2,1,38,0,0
116043,-133.333333333333,4,2,1,38,0,0
125375,-133.333333333333,4,2,1,48,0,0
127541,-133.333333333333,4,2,1,58,0,0
127708,-133.333333333333,4,2,2,68,0,0
128040,-100,4,2,1,80,0,0
132041,-100,4,2,2,60,0,0
132208,-100,4,2,1,80,0,0
141371,-133.333333333333,4,2,1,80,0,0
142540,-100,4,2,1,80,0,1
147789,-100,4,2,1,80,0,0
147872,-100,4,2,1,80,0,1
153122,-100,4,2,1,80,0,0
153205,-100,4,2,1,80,0,1
158538,-100,4,2,1,60,0,1
158703,-125,4,2,1,80,0,1
163954,-100,4,2,1,80,0,0
164037,-100,4,2,1,80,0,1
164120,-100,4,2,1,70,0,0
174702,-100,4,2,1,80,0,1
174786,-100,4,2,1,80,0,0
177036,-100,4,2,2,80,0,0
177202,-100,4,2,1,80,0,0
177369,-100,4,2,1,80,0,1
177452,-100,4,2,1,80,0,0
178535,-100,4,2,1,80,0,1
178619,-100,4,2,1,80,0,0
179702,-100,4,2,2,80,0,0
179869,-100,4,2,1,80,0,0
186534,-100,4,2,2,80,0,0
186701,-100,4,2,1,80,0,0
188034,-100,4,2,1,20,0,0
193200,-100,4,2,1,60,0,0
193365,-125,4,2,1,60,0,0
198533,-100,4,2,1,80,0,1
204030,-125,4,2,1,80,0,1
206615,-125,4,2,1,80,0,0
206699,-100,4,2,1,80,0,1
207699,-100,4,2,1,80,0,1
209198,-100,4,2,1,80,0,1
209365,-100,4,2,1,80,0,0
220030,-100,4,2,1,80,0,1
220114,-100,4,2,1,70,0,0
222697,-100,4,1,2,70,0,0
222780,-100,4,2,1,70,0,0
229196,335.195530726257,4,2,1,80,1,1
229196,-100,4,2,1,70,0,1
229279,-100,4,2,1,70,0,0
229363,335.195530726257,4,2,1,70,1,0
230200,363.636363636364,4,2,1,70,1,0
238927,-100,4,2,1,5,0,0

[Colours]
Combo1 : 255,94,55
Combo2 : 173,255,95
Combo3 : 17,254,176
Combo4 : 255,88,100

[HitObjects]
112,88,11554,5,8,0:0:0:0:
112,88,11887,2,0,P|96:154|105:233,1,140,6|0,0:1|0:0,0:0:0:0:
183,274,12387,2,0,P|199:208|190:129,1,140,8|2,0:0|1:2,0:0:0:0:
194,45,12887,2,0,P|231:66|266:78,1,70
382,74,13220,6,0,P|319:126|273:192,1,140,8|0,0:0|0:0,0:0:0:0:
322,272,13720,2,0,P|354:210|401:158,1,140,8|0,0:0|0:0,0:0:0:0:
482,252,14220,2,0,P|438:260|402:288,1,70,0|0,0:0|0:0,0:0:0:0:
314,364,14554,6,0,P|358:356|394:328,1,70,2|0,0:0|0:0,0:0:0:0:
322,272,14887,1,0,0:0:0:0:
234,320,15053,2,0,P|194:280|114:224,2,140,8|2|0,0:0|1:2|0:0,0:0:0:0:
248,216,15887,6,0,P|292:180|324:160,1,70,8|0,0:0|0:0,0:0:0:0:
234,111,16220,2,0,P|266:95|299:83,1,70,2|0,1:2|0:0,0:0:0:0:
391,83,16553,2,0,P|424:96|455:110,1,70,2|0,1:2|0:0,0:0:0:0:
388,171,16887,2,0,P|416:191|443:215,1,70,2|8,1:2|0:0,0:0:0:0:
391,291,17220,6,0,P|345:247|300:292,1,140,4|0,0:1|0:0,0:0:0:0:
335,368,17720,2,0,P|279:372|255:362,1,70,8|0,0:0|0:0,0:0:0:0:
208,300,18053,2,0,P|164:316|132:332,1,70,2|0,1:2|0:0,0:0:0:0:
300,292,18386,1,0,0:0:0:0:
240,216,18553,6,0,P|224:160|232:72,1,140,8|0,0:0|0:0,0:0:0:0:
312,140,19053,2,0,P|340:89|408:32,1,140,8|0,0:0|0:0,0:0:0:0:
464,117,19553,2,0,P|428:177|375:222,1,140,0|0,0:0|1:0,0:0:0:0:
136,352,20220,5,0,0:0:0:0:
208,300,20386,2,0,P|260:308|288:328,1,70,8|0,0:0|0:0,0:0:0:0:
128,268,20719,2,0,P|112:216|132:132,1,140,2|0,1:2|0:0,0:0:0:0:
216,64,21219,6,0,P|168:56|128:40,1,70,8|0,0:0|0:0,0:0:0:0:
44,8,21553,2,0,L|56:84,1,70,0|0,0:0|0:0,0:0:0:0:
130,134,21886,1,0,0:0:0:0:
20,208,22053,1,0,0:0:0:0:
20,208,22386,2,0,L|28:280,1,70,8|0,0:0|0:0,0:0:0:0:
92,344,22720,6,0,B|168:272|288:288|288:288|236:260,1,262.500010013581,4|0,0:1|0:0,0:0:0:0:
184,200,23719,2,0,P|176:160|180:128,1,52.5000020027161
232,72,24053,2,0,P|184:56|112:40,2,105.000004005432,0|8|0,0:0|0:0|1:0,0:0:0:0:
312,112,24886,1,0,0:0:0:0:
396,144,25053,2,0,P|448:148|468:144,1,52.5000020027161
512,216,25386,6,0,P|448:240|388:368,1,210.000008010865,0|0,1:0|0:0,0:0:0:0:
388,360,26386,2,0,P|348:328|324:320,1,52.5000020027161
268,296,26719,2,0,P|220:295|152:328,1,105.000004005432,0|8,0:0|0:0,0:0:0:0:
104,372,27219,1,8,0:0:0:0:
87,288,27386,1,2,1:3:0:0:
87,288,27719,6,0,L|75:228,1,52.5000020027161,0|4,3:0|0:3,0:0:0:0:
51,164,28052,2,0,P|103:196|163:208,1,105.000004005432,4|0,0:1|0:0,0:0:0:0:
234,194,28552,2,0,P|283:158|318:108,2,105.000004005432
148,37,29552,5,0,0:0:0:0:
148,37,29719,2,0,L|132:109,1,52.5000020027161,8|0,0:0|0:0,0:0:0:0:
59,131,30052,1,0,1:0:0:0:
134,178,30219,2,0,P|186:174|250:206,1,105.000004005432
288,260,30719,5,2,0:0:0:0:
252,340,30885,1,0,0:0:0:0:
168,364,31052,2,0,P|124:360|96:352,1,52.5000020027161
92,268,31385,1,0,1:0:0:0:
92,268,31552,2,0,P|144:288|204:284,2,105.000004005432
16,176,32385,6,0,L|76:192,1,52.5000020027161,8|8,0:0|0:0,0:0:0:0:
108,112,32718,2,0,L|96:40,1,52.5000020027161,0|0,1:0|0:0,0:0:0:0:
188,84,33052,2,0,L|200:156,1,52.5000020027161,8|0,0:0|0:0,0:0:0:0:
284,158,33385,2,0,L|264:41,2,105.000004005432,4|0|0,0:1|0:0|0:0,0:0:0:0:
424,336,34385,6,0,L|356:328,1,52.5000020027161,0|0,0:0|1:0,0:0:0:0:
288,348,34718,2,0,L|220:340,1,52.5000020027161
120,272,35051,2,0,L|188:280,1,52.5000020027161,8|0,0:0|0:0,0:0:0:0:
256,260,35385,2,0,L|324:268,1,52.5000020027161,0|0,1:0|0:0,0:0:0:0:
192,196,35718,2,0,P|183:167|180:136,1,52.5000020027161,0|4,0:0|0:3,0:0:0:0:
132,64,36051,6,0,P|192:64|248:48,1,105.000004005432,2|0,0:0|0:0,0:0:0:0:
308,8,36551,1,0,0:0:0:0:
400,20,36718,2,0,P|380:48|372:72,2,52.5000020027161
464,80,37218,2,0,P|456:120|464:200,1,105.000004005432
508,264,37718,5,0,1:0:0:0:
420,288,37884,1,8,0:0:0:0:
332,312,38051,2,0,L|277:327,1,52.5000020027161,4|0,1:3|0:0,0:0:0:0:
208,272,38384,1,0,1:0:0:0:
208,272,38718,6,0,B|104:256|40:324|40:324|72:328,1,210.000008010865,4|0,0:1|0:0,0:0:0:0:
4,248,39551,2,0,B|-4:216|4:180,1,52.5000020027161
96,104,39884,2,0,P|78:162|77:226,1,105.000004005432
166,237,40384,6,0,P|170:197|166:173,1,52.5000020027161,8|0,0:0|0:0,0:0:0:0:
236,288,40717,2,0,P|250:250|252:226,2,52.5000020027161,0|0|0,1:0|0:0|0:0,0:0:0:0:
168,348,41217,1,0,0:0:0:0:
168,348,41384,6,0,P|108:332|52:332,1,105.000004005432,2|0,0:0|0:0,0:0:0:0:
8,192,42050,2,0,P|68:176|124:176,1,105.000004005432
168,256,42550,6,0,P|199:221|208:152,1,105.000004005432
241,75,43050,2,0,P|197:71|177:75,1,52.5000020027161,8|0,0:0|0:0,0:0:0:0:
293,147,43384,2,0,P|337:151|357:147,1,52.5000020027161,8|0,0:0|0:0,0:0:0:0:
441,83,43717,2,0,P|429:143|425:211,1,105.000004005432,0|4,0:0|0:0,0:0:0:0:
316,352,44385,6,0,P|260:320|164:312,1,140,8|0,0:0|0:0,0:0:0:0:
99,356,44885,2,0,P|91:308|95:272,1,70,0|0,1:0|0:0,0:0:0:0:
166,216,45218,6,0,P|104:189|46:116,1,140,12|0,0:0|0:0,0:0:0:0:
176,133,45718,2,0,P|135:78|122:-13,1,140,8|0,0:0|0:0,0:0:0:0:
221,32,46218,2,0,P|272:48|372:48,1,140,0|4,1:0|0:0,0:0:0:0:
428,108,46718,5,4,0:1:0:0:
356,156,46885,2,0,P|356:216|364:244,1,70,0|8,0:0|0:0,0:0:0:0:
416,288,47218,1,2,0:0:0:0:
340,328,47385,2,0,P|280:328|252:336,1,70,2|0,0:0|1:0,0:0:0:0:
196,368,47718,1,0,0:0:0:0:
198,274,47885,6,0,L|162:134,2,140,8|2|2,0:0|1:2|1:2,0:0:0:0:
512,100,48885,1,0,0:0:0:0:
440,148,49051,2,0,P|396:140|368:124,1,70,8|4,0:0|0:0,0:0:0:0:
380,32,49385,6,0,P|320:52|232:52,1,140,4|8,0:1|0:0,0:0:0:0:
160,28,49885,1,0,0:0:0:0:
52,136,50051,2,0,P|112:116|200:116,1,140,2|0,1:2|0:0,0:0:0:0:
276,148,50551,2,0,L|284:224,1,70,8|0,0:0|0:0,0:0:0:0:
200,272,50884,6,0,L|192:196,2,70,0|8|0,0:0|0:0|0:0,0:0:0:0:
260,340,51384,1,0,0:0:0:0:
260,340,51551,2,0,L|120:321,1,140,0|2,0:0|1:2,0:0:0:0:
40,360,52051,5,0,0:0:0:0:
32,273,52218,2,0,L|24:197,1,70,0|8,1:0|0:0,0:0:0:0:
92,128,52551,1,0,0:0:0:0:
92,128,52718,2,0,P|44:104|16:104,2,70,2|0|0,1:2|0:0|0:0,0:0:0:0:
156,196,53217,6,0,L|240:188,1,70,8|0,0:0|0:0,0:0:0:0:
320,216,53551,2,0,L|312:132,1,70,2|0,1:2|0:0,0:0:0:0:
270,58,53884,2,0,L|340:52,1,70,2|0,1:2|0:0,0:0:0:0:
182,101,54217,1,0,0:0:0:0:
182,101,54384,2,0,L|176:32,1,70,8|0,0:0|0:0,0:0:0:0:
224,188,54717,6,0,P|171:147|88:144,1,140,4|8,0:1|0:0,0:0:0:0:
36,200,55217,1,0,0:0:0:0:
150,277,55384,2,0,L|306:257,1,140,2|0,1:2|0:0,0:0:0:0:
372,212,55884,6,0,P|384:252|380:288,1,70,12|0,0:0|0:0,0:0:0:0:
288,259,56217,1,0,0:0:0:0:
224,188,56384,2,0,L|204:36,1,140,8|0,0:0|0:0,0:0:0:0:
292,12,56884,2,0,L|312:164,1,140,0|2,0:0|1:2,0:0:0:0:
460,184,57384,5,4,0:1:0:0:
420,60,57550,2,0,P|396:116|396:148,1,70,0|8,0:0|0:0,0:0:0:0:
335,215,57884,1,2,0:0:0:0:
335,215,58050,2,0,P|327:180|310:150,1,70,2|0,0:0|1:0,0:0:0:0:
224,112,58384,1,0,0:0:0:0:
136,156,58550,6,0,P|96:152|56:140,1,70,8|0,0:0|0:0,0:0:0:0:
172,228,58883,2,0,P|132:234|90:233,1,70,2|0,1:2|0:0,0:0:0:0:
225,288,59217,2,0,P|188:304|147:314,1,70,2|0,1:2|0:0,0:0:0:0:
256,206,59550,1,0,0:0:0:0:
336,248,59717,2,0,P|380:256|416:252,1,70,8|4,0:0|0:0,0:0:0:0:
472,180,60050,6,0,P|488:248|512:324,2,140,4|8|2,0:1|0:0|1:2,0:0:0:0:
464,72,60883,1,0,1:0:0:0:
464,72,61217,6,0,P|428:28|332:48,1,140,8|0,0:0|0:0,0:0:0:0:
280,88,61716,2,0,P|212:95|166:47,1,140,8|0,0:0|0:0,0:0:0:0:
68,8,62216,2,0,P|88:72|108:160,1,140,0|2,0:0|0:0,0:0:0:0:
72,228,62716,5,0,0:0:0:0:
72,228,62883,1,0,0:0:0:0:
164,212,63050,2,0,P|220:212|252:216,1,70,8|0,0:0|0:0,0:0:0:0:
320,256,63383,2,0,P|320:200|324:168,2,70,2|0|0,1:2|0:0|0:0,0:0:0:0:
303,360,63883,6,0,P|344:306|412:292,1,140,8|0,0:0|0:0,0:0:0:0:
464,72,64549,1,0,0:0:0:0:
484,160,64716,2,0,L|497:229,2,70,8|0|0,0:0|0:0|0:0,0:0:0:0:
396,132,65216,1,0,1:0:0:0:
340,60,65383,6,0,P|264:84|188:96,1,140,4|8,0:1|0:0,0:0:0:0:
164,172,65883,2,0,P|124:144|104:120,1,70,2|0,1:2|0:0,0:0:0:0:
29,163,66216,2,0,P|20:114|23:83,1,70,2|0,1:2|0:0,0:0:0:0:
92,232,66549,6,0,P|48:272|4:364,1,140,2|0,1:2|0:0,0:0:0:0:
152,288,67049,2,0,P|144:328|152:372,1,70,12|0,0:0|0:0,0:0:0:0:
240,276,67382,1,0,1:0:0:0:
240,276,67549,1,0,3:0:0:0:
324,304,67716,2,0,L|404:324,1,70,0|0,1:0|0:0,0:0:0:0:
480,200,68049,6,0,P|420:240|348:224,1,140,2|12,0:0|0:0,0:0:0:0:
403,149,68549,1,0,1:0:0:0:
326,98,68716,2,0,P|386:58|458:74,1,140,8|2,0:0|0:0,0:0:0:0:
288,176,69216,6,0,P|224:164|132:156,1,140,0|0,0:0|0:0,0:0:0:0:
60,200,69715,2,0,P|40:164|24:124,1,70,4|0,0:1|0:0,0:0:0:0:
100,80,70049,1,0,1:0:0:0:
156,236,70215,1,8,0:0:0:0:
80,291,70382,1,0,3:0:0:0:
80,291,70715,6,0,P|160:320|240:312,1,140,4|0,0:0|0:0,0:0:0:0:
290,208,71215,2,0,P|210:237|130:229,1,140,0|0,0:0|0:0,0:0:0:0:
96,149,71715,2,0,L|100:77,1,70,2|0,0:0|0:0,0:0:0:0:
192,136,72049,6,0,P|220:80|312:44,1,140,0|2,0:0|0:0,0:0:0:0:
504,152,72715,2,0,P|456:164|424:160,1,70,8|0,0:0|0:0,0:0:0:0:
415,251,73048,2,0,P|383:235|359:210,1,70,2|0,0:0|0:0,0:0:0:0:
314,134,73382,6,0,P|272:189|281:257,1,140,4|2,0:1|0:0,0:0:0:0:
352,322,73882,1,0,0:0:0:0:
352,322,74048,2,0,P|257:314|180:312,1,140,8|2,0:0|0:0,0:0:0:0:
37,113,74715,6,0,L|119:122,1,70,0|0,0:0|0:0,0:0:0:0:
83,38,75048,2,0,L|165:47,1,70,2|0,0:0|0:0,0:0:0:0:
248,127,75381,2,0,L|240:57,1,70,8|0,0:0|0:0,0:0:0:0:
323,81,75715,2,0,L|315:11,1,70,4|0,0:0|0:0,0:0:0:0:
420,57,76048,5,0,0:0:0:0:
420,57,76215,2,0,L|407:210,1,140,2|8,0:0|0:0,0:0:0:0:
293,350,76881,1,0,1:0:0:0:
373,307,77048,1,0,0:0:0:0:
296,260,77215,2,0,P|254:271|216:300,1,70,8|0,0:0|0:0,0:0:0:0:
160,332,77548,5,0,0:0:0:0:
61,178,77715,1,4,1:0:0:0:
61,178,78714,5,4,0:0:0:0:
61,178,79048,2,0,L|48:114,2,52.5000020027161,8|8|0,0:0|0:0|1:0,0:0:0:0:
37,268,79548,2,0,P|97:253|134:245,1,78.7500030040742,0|0,1:0|0:0,0:0:0:0:
144,240,79881,6,0,P|196:256|280:204,1,140,6|0,1:0|0:0,0:0:0:0:
280,52,80381,1,8,0:0:0:0:
198,93,80547,2,0,P|194:128|196:163,1,70,0|0,1:0|0:0,0:0:0:0:
144,240,80881,2,0,L|64:232,1,70,0|8,0:0|0:0,0:0:0:0:
236,252,81214,6,0,L|375:265,1,140,0|0,0:0|0:0,0:0:0:0:
440,328,81714,1,8,0:0:0:0:
496,256,81881,2,0,P|504:200|472:100,1,140,0|0,1:0|0:0,0:0:0:0:
424,48,82381,1,8,0:0:0:0:
340,84,82547,1,0,0:0:0:0:
260,40,82714,6,0,L|92:64,1,140,0|8,1:0|0:0,0:0:0:0:
224,124,83214,2,0,L|154:133,1,70,2|0,1:2|0:0,0:0:0:0:
64,204,83547,2,0,L|156:216,1,70,0|10,0:0|0:0,0:0:0:0:
264,200,83880,6,0,P|216:236|248:324,1,140,6|0,2:1|0:0,0:0:0:0:
360,368,84380,1,8,0:0:0:0:
335,281,84547,2,0,P|336:232|375:137,1,140,0|0,1:0|1:0,0:0:0:0:
440,92,85047,2,0,P|496:100|520:112,1,70,8|6,0:0|0:1,0:0:0:0:
356,56,85380,6,0,P|296:68|196:48,1,140,0|8,1:0|0:0,0:0:0:0:
132,32,85880,2,0,P|52:52|24:124,1,140,0|0,1:0|0:0,0:0:0:0:
104,164,86380,2,0,P|144:144|184:136,1,70,8|0,0:0|0:0,0:0:0:0:
264,104,86713,6,0,P|296:128|400:160,1,140,2|8,0:0|0:0,0:0:0:0:
464,216,87213,2,0,P|462:260|450:299,2,70,0|0|0,1:0|0:0|0:0,0:0:0:0:
376,252,87713,1,8,0:0:0:0:
376,252,87880,1,6,0:0:0:0:
388,348,88047,6,0,B|323:339|323:339|312:341|312:341|249:334,1,140,0|6,1:0|0:1,0:0:0:0:
152,244,88547,2,0,B|216:252|216:252|227:250|227:250|290:257,1,140,0|0,1:0|0:0,0:0:0:0:
204,172,89046,2,0,P|188:140|168:84,1,70,8|0,0:0|0:0,0:0:0:0:
124,28,89380,6,0,P|168:48|268:48,2,140,0|8|4,1:0|0:0|1:2,0:0:0:0:
39,68,90213,1,0,1:0:0:0:
24,160,90380,1,8,0:0:0:0:
64,244,90546,6,0,P|136:276|224:268,1,140,6|0,1:0|0:0,0:0:0:0:
279,240,91046,1,8,0:0:0:0:
368,336,91213,2,0,P|380:277|416:196,1,140,0|0,1:0|0:0,0:0:0:0:
464,128,91713,1,8,0:0:0:0:
332,168,91879,6,0,P|317:99|288:35,1,140,0|0,0:0|0:0,0:0:0:0:
160,28,92379,1,8,0:0:0:0:
220,96,92546,2,0,P|205:165|176:229,1,140,0|0,1:0|0:0,0:0:0:0:
36,268,93046,1,8,0:0:0:0:
128,300,93213,1,0,0:0:0:0:
220,332,93379,6,0,L|384:316,1,140,0|8,1:0|0:0,0:0:0:0:
452,356,93879,2,0,P|460:308|480:272,1,70,2|0,1:2|0:0,0:0:0:0:
512,212,94212,2,0,P|468:189|440:159,1,70,0|10,0:0|0:0,0:0:0:0:
392,112,94546,6,0,P|357:146|263:178,1,140,12|0,0:0|0:0,0:0:0:0:
192,148,95046,2,0,P|152:148|108:160,1,70,8|0,0:0|1:0,0:0:0:0:
48,196,95379,1,0,1:0:0:0:
0,52,95546,2,0,P|64:76|148:72,1,140,0|4,0:0|0:0,0:0:0:0:
224,48,96046,6,0,P|292:40|348:48,1,112,4|0,0:1|0:0,0:0:0:0:
376,128,96546,2,0,P|308:114|252:117,1,112,0|0,1:0|0:0,0:0:0:0:
184,144,97045,2,0,P|152:160|124:168,1,56,4|0,0:0|0:0,0:0:0:0:
248,196,97379,6,0,P|232:244|184:304,1,112,0|4,1:0|0:0,0:0:0:0:
332,196,97879,2,0,P|358:239|373:314,1,112,0|0,1:0|0:0,0:0:0:0:
256,348,98379,2,0,P|304:348|324:356,1,56,0|4,0:0|0:1,0:0:0:0:
196,293,98712,6,0,P|152:320|92:333,1,112,0|8,1:0|0:0,0:0:0:0:
24,276,99212,1,0,1:0:0:0:
76,200,99379,2,0,P|76:164|64:128,1,56,8|0,0:0|0:0,0:0:0:0:
147,96,99712,2,0,P|121:70|87:53,1,56,8|0,0:0|0:0,0:0:0:0:
168,184,100045,6,0,P|232:144|284:136,1,112,0|8,0:0|0:0,0:0:0:0:
352,124,100545,1,0,0:0:0:0:
444,152,100712,2,0,L|436:84,2,56,8|0|0,0:0|0:0|0:0,0:0:0:0:
452,240,101212,1,0,0:0:0:0:
392,308,101378,6,0,P|328:320|244:288,2,140,4|8|0,0:1|0:0|0:0,0:0:0:0:
368,224,102212,1,0,0:0:0:0:
292,176,102378,2,0,P|248:176|212:184,1,70,8|0,0:0|0:0,0:0:0:0:
144,216,102711,6,0,L|126:139,2,70,0|0|8,0:0|0:0|0:0,0:0:0:0:
208,280,103211,1,0,0:0:0:0:
145,345,103378,2,0,P|188:369|216:372,1,70,0|0,0:0|0:0,0:0:0:0:
292,332,103711,2,0,P|340:296|432:240,1,140,4|0,1:0|0:0,0:0:0:0:
464,192,104211,5,0,0:0:0:0:
384,80,104378,2,0,P|380:124|388:156,1,70,8|0,0:0|0:0,0:0:0:0:
296,120,104711,2,0,P|304:163|320:192,1,70,8|0,0:0|1:0,0:0:0:0:
222,181,105044,1,0,0:0:0:0:
196,97,105211,2,0,P|215:57|238:34,1,70,0|0,1:0|0:0,0:0:0:0:
324,12,105544,5,0,1:0:0:0:
324,12,105711,1,12,0:0:0:0:
256,192,105794,12,2,106711,0:0:0:0:
420,356,107711,6,0,P|376:336|312:328,1,105.000004005432,0|2,0:0|0:0,0:0:0:0:
116,336,108377,1,0,0:0:0:0:
116,336,108711,2,0,P|167:328|215:307,1,105.000004005432,2|0,0:0|0:0,0:0:0:0:
232,72,109377,2,0,P|216:140|296:256,1,210.000008010865,2|0,0:0|0:0,0:0:0:0:
488,80,110377,2,0,L|496:144,1,52.5000020027161,0|0,0:0|0:0,0:0:0:0:
436,184,110710,6,0,B|352:192|296:112|296:112|284:136|248:144,1,210.000008010865,2|0,0:0|0:0,0:0:0:0:
16,196,111710,2,0,P|52:200|80:208,1,52.5000020027161,0|0,0:0|0:0,0:0:0:0:
112,276,112044,2,0,P|112:216|144:56,2,210.000008010865,2|0|0,0:0|0:0|0:0,0:0:0:0:
224,352,113710,6,0,P|284:340|348:344,1,105.000004005432,2|0,0:0|0:0,0:0:0:0:
508,248,114377,1,0,0:0:0:0:
508,248,114543,2,0,P|476:272|380:212,1,157.500006008148,2|0,0:0|0:0,0:0:0:0:
328,60,115377,2,0,L|308:172,1,105.000004005432
223,263,116043,6,0,P|179:231|128:224,1,105.000004005432,2|0,0:0|0:0,0:0:0:0:
52,256,116543,2,0,L|24:148,1,105.000004005432,2|0,0:0|0:0,0:0:0:0:
16,60,117043,2,0,P|41:71|72:76,1,52.5000020027161
138,131,117376,2,0,B|162:107|158:71|158:71|232:116|312:92,1,210.000008010865,2|0,0:0|0:0,0:0:0:0:
464,32,118376,1,0,0:0:0:0:
448,171,118709,6,0,P|423:65|336:12,1,210.000008010865,2|0,0:0|0:0,0:0:0:0:
208,40,119709,1,0,0:0:0:0:
112,124,120043,2,0,L|88:288,2,157.500006008148,2|2|0,0:0|0:0|0:0,0:0:0:0:
216,264,121376,6,0,P|272:296|368:304,1,157.500006008148,2|0,0:0|0:0,0:0:0:0:
440,256,122042,2,0,P|436:196|452:84,1,157.500006008148,0|0,0:0|0:0,0:0:0:0:
367,75,122709,6,0,B|307:60|307:60|241:96|241:96|34:40|34:40|99:10,2,420.000016021729,2|0|2,0:0|0:0|0:0,0:0:0:0:
367,75,127542,5,8,0:0:0:0:
312,148,127708,1,8,0:0:0:0:
312,148,128042,6,0,P|252:128|168:132,1,140,6|8,1:0|0:0,0:0:0:0:
97,163,128542,2,0,P|61:163|25:151,1,70,2|0,1:2|0:0,0:0:0:0:
168,216,128875,2,0,P|201:205|236:205,1,70,2|0,1:2|0:0,0:0:0:0:
320,332,129208,2,0,P|268:288|180:292,1,140,2|0,1:2|0:0,0:0:0:0:
136,360,129708,6,0,P|112:299|63:221,1,140,12|0,0:0|1:0,0:0:0:0:
12,164,130208,1,0,1:0:0:0:
77,98,130375,2,0,P|117:114|153:122,1,70,0|0,1:0|0:0,0:0:0:0:
216,180,130708,6,0,P|248:156|352:136,1,140,0|4,1:0|0:0,0:0:0:0:
436,164,131208,1,0,1:0:0:0:
416,76,131375,2,0,L|400:0,1,70,0|0,0:0|0:0,0:0:0:0:
320,48,131708,2,0,P|268:44|236:32,1,70,2|0,0:0|0:0,0:0:0:0:
172,59,132041,6,0,P|120:39|32:71,1,140,8|2,1:2|3:0,0:0:0:0:
108,136,132541,2,0,P|64:160|44:244,1,140,4|0,0:1|1:0,0:0:0:0:
193,223,133041,2,0,P|137:215|109:215,1,70,8|4,0:0|0:0,0:0:0:0:
52,320,133374,6,0,P|164:304|220:304,1,140,4|0,0:1|0:0,0:0:0:0:
280,336,133874,1,0,0:0:0:0:
280,336,134041,2,0,L|264:260,1,70,8|0,0:0|0:0,0:0:0:0:
368,344,134374,2,0,L|352:268,1,70,2|0,0:0|0:0,0:0:0:0:
264,188,134708,6,0,L|416:208,1,140,0|2,0:0|0:0,0:0:0:0:
402,206,135374,2,0,P|401:156|409:125,1,70,8|0,0:0|0:0,0:0:0:0:
444,56,135707,2,0,P|478:20|506:4,1,70,2|8,0:0|0:0,0:0:0:0:
358,63,136041,6,0,P|310:47|206:43,1,140,4|2,0:1|0:0,0:0:0:0:
160,116,136541,1,0,0:0:0:0:
160,116,136707,2,0,P|208:132|312:136,1,140,8|2,0:0|0:0,0:0:0:0:
512,224,137374,6,0,P|508:268|484:304,1,70,0|0,0:0|0:0,0:0:0:0:
422,238,137707,2,0,P|425:193|450:158,1,70,2|0,0:0|0:0,0:0:0:0:
360,292,138040,2,0,P|340:248|340:208,1,70,8|0,0:0|0:0,0:0:0:0:
320,364,138374,2,0,P|288:336|272:296,1,70,4|0,0:1|0:0,0:0:0:0:
248,228,138707,5,0,0:0:0:0:
248,228,138874,2,0,P|192:216|140:220,1,105,0|0,0:0|0:0,0:0:0:0:
112,228,139207,2,0,P|72:220|40:196,1,70,10|0,0:0|0:0,0:0:0:0:
20,120,139540,2,0,P|28:80|52:48,1,70,2|0,1:2|0:0,0:0:0:0:
124,16,139874,6,0,P|156:48|256:52,1,140,8|0,0:0|0:0,0:0:0:0:
340,8,140374,1,8,0:0:0:0:
340,8,141373,5,4,0:0:0:0:
344,164,141707,2,0,L|348:224,2,52.5000020027161,8|0|0,0:0|1:0|1:0,0:0:0:0:
260,148,142207,2,0,L|172:132,1,78.7500030040742,0|0,1:0|0:0,0:0:0:0:
140,128,142540,6,0,P|180:192|168:252,1,140,6|0,1:0|0:0,0:0:0:0:
89,205,143040,1,8,0:0:0:0:
38,282,143207,2,0,P|-2:218|10:158,1,140,0|0,1:0|0:0,0:0:0:0:
60,80,143706,1,8,0:0:0:0:
140,128,143873,6,0,P|200:132|288:116,1,140,4|0,0:0|0:0,0:0:0:0:
348,72,144373,1,8,0:0:0:0:
396,208,144540,2,0,P|327:195|257:199,1,140,0|0,1:0|0:0,0:0:0:0:
168,224,145040,1,8,0:0:0:0:
235,292,145206,1,0,0:0:0:0:
168,224,145373,6,0,P|112:216|72:220,1,70,0|0,1:0|0:0,0:0:0:0:
16,316,145706,1,8,0:0:0:0:
16,316,145873,2,0,P|84:296|160:300,1,140,2|0,1:2|0:0,0:0:0:0:
296,352,146373,1,10,0:0:0:0:
242,276,146539,6,0,L|268:133,1,140,6|0,0:1|0:0,0:0:0:0:
246,4,147039,1,8,0:0:0:0:
321,53,147206,2,0,P|266:92|190:77,1,140,0|0,1:0|0:0,0:0:0:0:
116,44,147706,2,0,L|32:60,1,70,8|6,0:0|0:1,0:0:0:0:
4,188,148039,6,0,P|56:140|136:136,1,140,0|8,1:0|0:0,0:0:0:0:
212,260,148539,2,0,P|157:217|88:216,1,140,0|0,1:0|0:0,0:0:0:0:
64,312,149039,2,0,P|98:308|129:293,1,70,8|2,0:0|0:0,0:0:0:0:
204,356,149372,6,0,L|360:372,1,140,0|8,1:0|0:0,0:0:0:0:
460,328,149872,2,0,P|404:316|364:236,1,140,0|0,1:0|0:0,0:0:0:0:
408,140,150372,1,0,0:0:0:0:
320,172,150539,1,6,0:0:0:0:
232,204,150706,6,0,P|180:200|148:188,1,70,0|0,1:0|0:0,0:0:0:0:
103,102,151039,1,4,1:0:0:0:
103,102,151206,2,0,L|60:242,1,140,0|0,1:0|0:0,0:0:0:0:
5,336,151705,2,0,P|50:319|79:317,1,70,8|0,0:0|0:0,0:0:0:0:
211,293,152039,6,0,P|176:287|144:273,1,70,0|0,1:0|0:0,0:0:0:0:
232,204,152372,2,0,P|266:209|298:223,1,70,0|0,0:0|1:0,0:0:0:0:
360,288,152705,1,4,1:2:0:0:
441,250,152872,1,0,1:0:0:0:
430,162,153039,1,8,0:0:0:0:
342,145,153205,6,0,P|320:84|316:0,1,140,6|0,1:0|0:0,0:0:0:0:
225,12,153705,1,8,0:0:0:0:
149,105,153872,2,0,P|95:142|15:167,1,140,0|0,1:0|0:0,0:0:0:0:
239,117,154372,1,8,0:0:0:0:
239,117,154538,6,0,P|211:175|154:237,1,140,0|0,0:0|0:0,0:0:0:0:
74,269,155038,1,8,0:0:0:0:
206,340,155205,2,0,P|255:307|350:278,1,140,0|0,1:0|0:0,0:0:0:0:
496,260,155705,1,8,0:0:0:0:
436,196,155872,1,0,0:0:0:0:
346,185,156038,6,0,P|338:121|366:25,1,140,0|8,1:0|0:0,0:0:0:0:
254,40,156538,2,0,P|246:89|234:126,1,70,2|0,1:2|0:0,0:0:0:0:
162,43,156871,2,0,P|140:71|115:96,1,70,0|10,0:0|0:0,0:0:0:0:
184,176,157205,6,0,P|104:184|36:216,1,140,12|0,0:0|0:0,0:0:0:0:
8,296,157705,2,0,P|60:304|88:300,1,70,8|0,0:0|1:0,0:0:0:0:
160,276,158038,1,0,1:0:0:0:
252,232,158205,2,0,L|276:392,1,140,0|4,0:0|0:0,0:0:0:0:
352,304,158705,6,0,P|412:292|484:296,1,112,4|0,0:1|0:0,0:0:0:0:
400,212,159204,2,0,P|460:213|530:235,1,112
461,129,159704,2,0,P|445:88|442:62,1,56,4|0,0:0|1:0,1:0:0:0:
351,32,160038,2,0,P|339:96|335:168,1,112,0|4,1:0|0:0,0:0:0:0:
233,240,160538,2,0,P|244:185|249:129,1,112,0|0,1:0|0:0,0:0:0:0:
108,143,161038,6,0,P|140:147|172:159,1,56,0|4,0:0|0:0,0:0:0:0:
69,269,161371,2,0,P|53:219|7:157,1,112,0|8,1:0|0:0,0:0:0:0:
6,81,161871,1,0,1:0:0:0:
92,44,162038,2,0,P|136:24|152:4,1,56,8|0,0:0|0:0,0:0:0:0:
224,72,162371,2,0,P|228:23|219:0,1,56,8|0,0:0|0:0,0:0:0:0:
316,80,162704,6,0,P|364:96|436:100,1,112,0|8,0:0|0:0,0:0:0:0:
512,68,163204,1,0,0:0:0:0:
504,160,163371,2,0,P|496:196|472:224,1,56,8|0,0:0|1:0,0:0:0:0:
396,224,163704,2,0,P|344:200|340:200,1,56,0|0,1:0|0:0,0:0:0:0:
228,296,164037,6,0,P|290:268|356:286,2,140,6|8|0,0:1|0:0|0:0,0:0:0:0:
160,352,164871,2,0,P|108:352|80:344,1,70,0|8,0:0|0:0,0:0:0:0:
40,272,165204,2,0,P|32:208|20:124,1,140,0|0,0:0|0:0,0:0:0:0:
8,48,165704,5,8,0:0:0:0:
132,76,165870,2,0,P|122:145|113:214,1,140,0|0,1:0|0:0,0:0:0:0:
208,184,166370,1,8,0:0:0:0:
296,148,166537,6,0,P|344:156|360:260,1,140,4|0,0:0|0:0,0:0:0:0:
357,330,167037,2,0,P|309:322|293:218,1,140,8|0,0:0|0:0,0:0:0:0:
181,252,167537,1,0,1:0:0:0:
86,260,167704,1,8,0:0:0:0:
40,184,167870,6,0,B|35:144|42:108,1,70
124,108,168203,2,0,B|119:147|126:183,1,70,0|8,0:0|0:0,0:0:0:0:
224,208,168537,2,0,P|208:168|216:68,1,140,0|0,1:0|0:0,0:0:0:0:
292,136,169037,1,8,0:0:0:0:
292,136,169203,6,0,P|312:96|404:52,1,140,4|0,0:1|0:0,0:0:0:0:
500,172,169703,2,0,P|464:136|376:140,1,140,8|0,0:0|0:0,0:0:0:0:
336,212,170203,2,0,L|324:288,1,70,0|8,0:0|0:0,0:0:0:0:
371,353,170536,6,0,P|291:321|211:309,1,140,0|2,1:0|0:0,0:0:0:0:
144,328,171036,2,0,L|120:244,2,70,8|0|2,0:0|1:0|0:0,0:0:0:0:
292,108,171703,1,8,0:0:0:0:
212,148,171870,1,0,0:0:0:0:
124,156,172036,6,0,P|80:148|52:132,1,70,4|0,1:0|0:0,0:0:0:0:
0,229,172370,2,0,P|84:229|136:277,1,140,8|0,0:0|0:0,0:0:0:0:
156,344,172870,1,0,0:0:0:0:
223,288,173036,6,0,P|292:284|349:323,2,140,8|0|8,0:0|0:0|0:0,0:0:0:0:
56,68,174036,2,0,P|64:124|76:156,1,70,8|0,0:0|1:0,0:0:0:0:
168,56,174369,2,0,P|146:108|141:142,1,70,8|6,0:3|1:2,0:0:0:0:
270,101,174703,6,0,P|223:140|184:232,1,140,6|8,1:0|0:0,0:0:0:0:
368,176,175203,2,0,L|344:32,2,140,2|2|4,1:0|1:0|1:0,0:0:0:0:
372,180,176202,5,0,0:0:0:0:
412,272,176369,2,0,P|378:261|343:260,1,70,4|0,0:0|0:0,0:0:0:0:
296,352,176702,2,0,P|329:341|364:340,1,70,8|8,0:0|0:0,0:0:0:0:
268,216,177036,2,0,L|252:292,1,70,8|10,0:3|0:3,0:0:0:0:
176,364,177369,6,0,P|160:304|80:256,1,140,6|4,1:0|0:0,0:0:0:0:
20,208,177869,2,0,P|4:152|12:56,2,140,2|0|6,1:0|1:0|1:0,0:0:0:0:
204,96,178869,5,0,0:0:0:0:
204,96,179035,2,0,P|252:68|340:100,1,140,8|8,0:0|0:0,0:0:0:0:
270,154,179535,1,0,0:0:0:0:
320,224,179702,2,0,B|360:244|400:240,1,70,8|0,0:3|0:0,0:0:0:0:
272,296,180035,6,0,P|204:284|108:276,1,140,6|0,1:0|0:0,0:0:0:0:
65,77,180702,2,0,P|133:89|229:97,1,140,12|0,0:0|1:0,0:0:0:0:
288,64,181202,1,8,0:0:0:0:
288,64,181369,6,0,P|320:52|360:48,1,70,0|0,1:0|0:0,0:0:0:0:
440,64,181702,2,0,P|468:84|490:111,1,70,0|0,0:0|0:0,0:0:0:0:
445,211,182035,2,0,P|416:149|353:122,1,140,8|0,0:0|1:0,0:0:0:0:
353,122,182702,6,0,L|281:250,1,140,4|8,1:0|0:0,0:0:0:0:
272,332,183202,2,0,P|244:256|180:224,1,140,0|8,1:0|0:3,0:0:0:0:
112,252,183702,2,0,P|61:250|28:236,1,70,8|0,0:0|0:0,0:0:0:0:
16,148,184035,6,0,P|72:172|164:160,1,140,2|8,0:0|0:0,0:0:0:0:
224,124,184535,1,0,1:2:0:0:
298,81,184701,2,0,P|367:74|432:99,2,140,2|8|4,0:0|0:0|0:0,0:0:0:0:
200,272,185701,6,0,P|192:312|208:356,1,70,6|0,1:0|0:0,0:0:0:0:
276,308,186035,2,0,P|284:268|268:224,1,70,0|8,1:0|0:3,0:0:0:0:
208,184,186368,1,0,1:0:0:0:
208,184,186534,1,0,0:0:0:0:
208,184,186701,1,6,0:0:0:0:
256,192,186785,12,0,188034,0:0:0:0:
192,84,193367,6,0,P|208:141|222:218,1,112,2|0,0:0|0:0,0:0:0:0:
314,171,193867,2,0,P|298:228|284:305,1,112,2|0,0:0|0:0,0:0:0:0:
214,345,194367,2,0,P|204:306|192:274,1,56,2|0,0:0|0:0,0:0:0:0:
34,212,194700,6,0,L|150:224,1,112,2|0,0:0|0:0,0:0:0:0:
212,164,195200,2,0,P|240:124|312:96,1,112,2|0,0:0|0:0,0:0:0:0:
372,136,195700,1,2,0:0:0:0:
452,100,195867,6,0,P|501:115|494:166,1,112,0|8,1:0|0:0,0:0:0:0:
424,208,196367,1,0,0:0:0:0:
426,290,196533,1,8,0:0:0:0:
353,250,196700,1,0,0:0:0:0:
313,322,196867,1,8,0:3:0:0:
313,322,197200,6,0,B|218:306|126:305,1,168,4|8,0:0|0:0,0:0:0:0:
145,305,198033,5,8,0:0:0:0:
228,216,198200,1,8,1:3:0:0:
228,216,198533,6,0,P|232:160|216:68,1,140,6|0,1:0|0:0,0:0:0:0:
112,24,199033,1,8,0:0:0:0:
60,100,199200,2,0,P|56:152|64:180,1,70,0|0,1:0|0:0,0:0:0:0:
153,264,199533,2,0,P|103:246|74:247,1,70,0|8,0:0|0:0,0:0:0:0:
120,348,199866,6,0,P|180:304|272:304,1,140,0|0,0:0|0:0,0:0:0:0:
332,324,200366,1,8,0:0:0:0:
436,247,200533,2,0,P|376:203|284:203,1,140,0|0,1:0|0:0,0:0:0:0:
220,220,201033,1,8,0:0:0:0:
196,128,201199,1,0,0:0:0:0:
288,105,201366,6,0,P|344:64|372:1,1,140,4|8,1:0|0:0,0:0:0:0:
456,48,201866,2,0,P|428:84|420:116,1,70,2|0,1:2|0:0,0:0:0:0:
512,120,202199,2,0,P|505:165|514:196,1,70,0|8,0:0|0:0,0:0:0:0:
411,208,202532,6,0,P|343:192|268:196,1,140,4|0,0:0|0:0,0:0:0:0:
188,228,203033,1,8,0:0:0:0:
128,156,203199,2,0,P|100:196|118:292,1,140,0|0,1:0|0:0,0:0:0:0:
188,228,203699,1,8,0:0:0:0:
260,296,203866,1,6,1:2:0:0:
260,296,204032,6,0,P|336:280|392:280,1,112,4|0,1:0|0:0,0:0:0:0:
456,304,204532,1,0,1:0:0:0:
428,220,204699,2,0,P|420:176|424:148,1,56,8|0,0:0|0:0,0:0:0:0:
332,156,205032,2,0,P|347:113|364:91,1,56,0|8,0:0|0:0,0:0:0:0:
456,40,205366,6,0,L|328:24,1,112,0|0,1:0|0:0,0:0:0:0:
256,64,205866,1,0,1:0:0:0:
256,64,206032,2,0,L|144:50,1,112,0|0,0:0|0:0,0:0:0:0:
144,50,206699,6,0,P|152:94|144:130,1,70,4|2,1:0|0:0,0:0:0:0:
84,184,207032,1,0,0:0:0:0:
156,240,207199,2,0,B|224:268|228:232|320:260,1,140,4|0,0:0|0:0,0:0:0:0:
380,288,207699,1,0,0:0:0:0:
500,168,207865,6,0,B|448:216|368:200,1,140,6|8,0:1|0:0,0:0:0:0:
296,136,208365,2,0,L|304:64,1,70,8|8,0:0|0:0,0:0:0:0:
396,28,208698,2,0,L|388:100,1,70,8|0,0:0|0:0,0:0:0:0:
16,228,209198,6,0,P|56:260|152:264,1,140,4|0,0:1|0:0,0:0:0:0:
220,220,209698,1,8,0:0:0:0:
304,292,209865,2,0,P|312:240|340:148,1,140,0|0,0:0|0:0,0:0:0:0:
396,28,210365,1,8,0:0:0:0:
316,72,210532,6,0,P|252:84|224:84,1,70,0|0,0:0|0:0,0:0:0:0:
165,149,210865,2,0,P|229:161|257:161,1,70,0|8,0:0|0:0,0:0:0:0:
163,59,211198,2,0,P|129:50|94:46,1,70
11,136,211531,2,0,P|45:127|80:123,1,70,0|8,0:0|0:0,0:0:0:0:
152,248,211865,1,0,0:0:0:0:
152,248,212031,6,0,P|104:208|28:220,1,140,0|8,0:0|0:0,0:0:0:0:
63,337,212531,1,0,0:0:0:0:
63,337,212698,2,0,L|139:325,1,70,2|0,0:0|0:0,0:0:0:0:
220,352,213031,2,0,P|240:312|240:264,1,70,8|0,0:0|0:0,0:0:0:0:
200,180,213365,6,0,L|276:192,1,70,2|0,0:0|0:0,0:0:0:0:
357,165,213698,2,0,P|377:205|377:253,1,70,8|0,0:0|0:0,0:0:0:0:
288,108,214031,2,0,P|293:73|310:43,1,70,2|0,0:0|0:0,0:0:0:0:
398,69,214364,2,0,L|467:58,1,70,8|4,0:0|0:0,0:0:0:0:
493,178,214698,6,0,P|426:160|356:165,2,140,4|8|2,1:0|0:0|0:0,0:0:0:0:
464,264,215531,1,0,0:0:0:0:
384,308,215698,6,0,P|340:324|316:352,1,70,8|0,0:0|0:0,0:0:0:0:
292,248,216031,2,0,P|261:283|255:320,1,70,0|0,0:0|0:0,0:0:0:0:
182,242,216364,2,0,P|173:288|186:322,1,70,8|2,0:0|1:2,0:0:0:0:
84,291,216698,2,0,P|100:335|127:359,1,70,0|0,0:0|0:0,0:0:0:0:
79,206,217031,2,0,P|35:222|11:249,1,70,8|0,0:0|0:0,0:0:0:0:
148,140,217364,6,0,P|212:164|296:168,1,140,0|10,1:0|0:0,0:0:0:0:
340,88,217864,1,0,0:0:0:0:
340,88,218031,2,0,P|271:94|189:76,1,140,2|8,0:0|0:0,0:0:0:0:
132,36,218531,1,2,0:0:0:0:
60,80,218697,6,0,L|40:172,1,70,0|2,1:0|0:0,0:0:0:0:
80,232,219031,2,0,P|120:216|160:216,1,70,8|0,0:0|1:0,0:0:0:0:
232,236,219364,1,8,0:0:0:0:
296,176,219531,1,8,0:3:0:0:
382,217,219697,2,0,P|354:237|334:266,1,70,0|4,3:0|3:0,0:0:0:0:
384,330,220030,6,0,P|432:280|496:252,2,140,4|4|8,1:0|0:0|0:0,0:0:0:0:
180,264,221030,2,0,P|184:296|208:336,1,70,4|0,0:0|0:0,0:0:0:0:
120,356,221364,6,0,P|96:300|104:220,1,140,0|4,0:0|0:0,0:0:0:0:
156,148,221864,1,0,0:0:0:0:
236,104,222030,2,0,L|392:120,1,140,8|4,0:0|0:2,0:0:0:0:
84,16,222697,6,0,P|56:88|76:152,2,140,4|4|8,2:2|0:0|0:0,0:0:0:0:
375,118,223697,1,0,1:0:0:0:
312,184,223863,6,0,P|310:218|321:251,1,70,4|0,0:0|0:0,0:0:0:0:
398,202,224197,2,0,P|410:235|409:270,1,70,8|4,0:0|0:0,0:0:0:0:
349,339,224530,1,0,0:0:0:0:
260,320,224697,2,0,P|216:332|192:356,2,70,8|0|0,0:0|1:0|1:0,0:0:0:0:
260,320,225363,6,0,P|200:280|120:240,1,140,4|10,1:0|0:0,0:0:0:0:
136,144,225863,2,0,P|196:184|276:224,1,140,0|0,0:0|0:0,0:0:0:0:
336,264,226363,2,0,P|348:228|372:184,2,70,10|0|0,0:0|0:0|0:0,0:0:0:0:
360,352,226863,5,0,0:0:0:0:
425,288,227030,2,0,P|462:280|512:279,2,70,10|0|0,0:0|0:0|0:0,0:0:0:0:
360,352,227530,1,0,0:0:0:0:
264,360,227696,2,0,P|204:344|152:280,1,140,10|0,0:0|1:0,0:0:0:0:
268,42,228363,6,0,P|301:31|336:32,1,70,8|0,0:0|0:0,0:0:0:0:
384,120,228696,2,0,P|344:108|300:112,1,70,8|0,0:0|0:0,0:0:0:0:
232,128,229029,1,8,0:0:0:0:
226,232,229196,6,0,P|283:191|352:188,1,140,4|0,1:0|0:0,0:0:0:0:
306,270,229698,2,0,P|281:294|270:327,2,70,8|0|0,0:0|1:0|1:0,0:0:0:0:
357,341,230200,5,8,0:3:0:0:
79,206,230563,1,6,0:1:0:0:
256,192,230654,12,0,238927,0:0:0:0:
