osu file format v14

[General]
AudioFilename: audio.mp3
AudioLeadIn: 0
PreviewTime: 1271
Countdown: 1
SampleSet: Soft
StackLeniency: 0.3
Mode: 0
LetterboxInBreaks: 0
WidescreenStoryboard: 1

[Editor]
Bookmarks: 12907,24543,30361
DistanceSpacing: 2
BeatDivisor: 2
GridSize: 16
TimelineZoom: 1.7

[Metadata]
Title:In my room
TitleUnicode:In my room
Artist:FELT
ArtistUnicode:FELT
Creator:ylvy
Version:Normal
Source:
Tags:nagi☆ grow color comiket85
BeatmapID:1416684
BeatmapSetID:647072

[Difficulty]
HPDrainRate:3.3
CircleSize:3.5
OverallDifficulty:4
ApproachRate:6.2
SliderMultiplier:0.85000000596046
SliderTickRate:1

[Events]
//Background and Video events
0,0,"not water.jpg",0,0
//Break Periods
//Storyboard Layer 0 (Background)
//Storyboard Layer 1 (Fail)
//Storyboard Layer 2 (Pass)
//Storyboard Layer 3 (Foreground)
//Storyboard Sound Samples

[TimingPoints]
1271,363.636363636364,4,2,1,26,1,0
4180,-100,4,2,1,30,0,0
4361,-100,4,2,1,26,0,0
5634,-100,4,2,1,30,0,0
5816,-100,4,2,1,26,0,0
7089,-100,4,2,1,30,0,0
7271,-100,4,2,1,26,0,0
12907,-100,4,2,1,29,0,0
13452,-100,4,2,1,26,0,0
15089,-100,4,2,1,32,0,0
15271,-100,4,2,1,26,0,0
15816,-100,4,2,1,17,0,0
16361,-100,4,2,1,26,0,0
18725,-100,4,2,1,17,0,0
19271,-100,4,2,1,26,0,0
20725,-100,4,2,1,14,0,0
20907,-100,4,2,1,32,0,0
21089,-100,4,2,1,26,0,0
21634,-100,4,2,1,17,0,0
22180,-100,4,2,1,26,0,0
26725,-100,4,2,1,32,0,0
26907,-100,4,2,1,26,0,0
27452,-100,4,2,1,19,0,0
27998,-100,4,2,1,26,0,0

[Colours]
Combo1 : 140,152,232
Combo2 : 208,135,248
Combo3 : 167,207,248
Combo4 : 254,193,133

[HitObjects]
66,76,1271,6,0,L|159:81,1,85.000000596046
189,113,1816,1,0,0:0:0:0:
189,113,1998,2,0,L|284:109,1,85.000000596046
372,165,2725,2,0,L|366:211,2,42.500000298023
291,228,3452,2,0,L|305:273,2,42.500000298023
203,160,4180,6,0,L|193:256,1,85.000000596046,2|0,0:0|0:0,0:0:0:0:
200,299,4725,1,0,0:0:0:0:
200,299,4907,2,0,P|137:325|102:325,1,85.000000596046
31,260,5634,6,0,L|22:160,1,85.000000596046,2|0,0:0|0:0,0:0:0:0:
51,120,6180,1,0,0:0:0:0:
51,120,6361,2,0,L|55:68,2,42.500000298023
159,96,7089,6,0,L|252:101,1,85.000000596046,2|0,0:0|0:0,0:0:0:0:
282,133,7634,1,0,0:0:0:0:
282,133,7816,2,0,L|377:129,1,85.000000596046
465,185,8543,2,0,L|459:231,2,42.500000298023
384,248,9270,2,0,L|398:293,2,42.500000298023
256,192,9998,5,2,0:3:0:0:
256,192,10089,12,0,12180,0:0:0:0:
414,51,12907,6,0,P|428:125|415:185,1,127.500000894069,0|0,3:0|0:0,0:0:0:0:
345,219,13634,2,0,L|284:222,1,42.500000298023
224,185,13998,1,0,0:0:0:0:
309,55,14361,6,0,L|304:13,2,42.500000298023
211,192,15089,2,0,L|229:271,2,42.500000298023,2|0|0,0:3|0:0|0:0,0:0:0:0:
126,184,15634,1,0,0:0:0:0:
126,184,15816,6,0,P|122:238|133:317,1,127.500000894069,0|0,3:0|0:0,0:0:0:0:
201,358,16543,2,0,P|214:339|225:307,1,42.500000298023
229,235,16907,1,0,0:0:0:0:
110,89,17271,6,0,L|95:47,2,42.500000298023
197,128,17816,1,0,0:0:0:0:
197,128,17998,2,0,L|190:170,2,42.500000298023
279,82,18543,1,0,0:0:0:0:
279,82,18725,6,0,P|340:69|400:89,1,127.500000894069,0|0,3:0|0:0,0:0:0:0:
449,162,19452,2,0,L|451:230,1,42.500000298023
395,270,19816,1,0,0:0:0:0:
228,233,20180,6,0,L|183:238,2,42.500000298023,2|0|0,0:0|0:0|0:0,0:0:0:0:
302,80,20907,2,0,L|282:23,2,42.500000298023,2|0|0,0:3|0:3|0:0,0:0:0:0:
351,161,21452,1,0,0:0:0:0:
351,161,21634,6,0,P|347:215|358:294,1,127.500000894069,0|0,3:0|0:0,0:0:0:0:
424,338,22361,2,0,P|448:310|459:278,1,42.500000298023
453,219,22725,1,0,0:0:0:0:
285,181,23089,6,0,L|277:232,2,42.500000298023,2|0|0,0:0|0:0|0:0,0:0:0:0:
188,253,23634,1,0,0:0:0:0:
188,253,23816,2,0,L|200:293,2,42.500000298023
149,167,24361,1,0,0:0:0:0:
60,137,24543,6,0,B|67:201|67:201|47:268,1,127.500000894069,8|0,3:3|0:0,0:0:0:0:
13,343,25271,2,0,L|57:345,1,42.500000298023
136,307,25634,1,8,0:1:0:0:
286,350,25998,6,0,L|274:310,2,42.500000298023,8|0|0,0:1|0:0|0:0,0:0:0:0:
421,233,26725,2,0,L|411:295,2,42.500000298023,2|0|0,0:3|0:0|0:3,0:0:0:0:
501,192,27271,1,0,0:0:0:0:
501,192,27452,6,0,P|430:143|363:164,1,127.500000894069,0|0,3:0|0:0,0:0:0:0:
309,181,28180,2,0,P|272:186|242:179,1,42.500000298023
185,149,28543,1,8,0:1:0:0:
112,260,28907,6,0,L|117:321,2,42.500000298023,8|0|0,0:1|0:0|0:0,0:0:0:0:
204,305,29452,1,0,0:0:0:0:
204,305,29634,2,0,L|197:347,2,42.500000298023,2|0|0,0:0|0:0|0:0,0:0:0:0:
286,259,30180,1,0,0:0:0:0:
310,169,30361,6,0,B|331:75|331:75|364:29,1,127.500000894069,4|0,0:0|0:0,0:0:0:0:
427,101,31089,2,0,L|416:149,1,42.500000298023
397,233,31452,1,8,0:1:0:0:
226,156,31816,6,0,L|220:112,2,42.500000298023,8|0|0,0:1|0:0|0:0,0:0:0:0:
82,276,32543,2,0,L|78:337,2,42.500000298023,2|0|0,0:3|0:0|0:3,0:0:0:0:
9,216,33089,1,0,0:0:0:0:
9,216,33270,6,0,P|96:182|131:197,1,127.500000894069,0|0,3:0|0:0,0:0:0:0:
208,232,33999,2,0,P|242:238|272:234,1,42.500000298023
338,207,34362,1,8,0:1:0:0:
356,68,34725,6,0,L|314:65,2,42.500000298023,8|0|0,0:1|0:0|0:0,0:0:0:0:
452,82,35271,1,0,0:0:0:0:
452,82,35452,2,0,L|508:87,2,42.500000298023
415,153,35998,1,0,0:0:0:0:
431,232,36180,5,2,0:0:0:0:
