osu file format v14

[General]
AudioFilename: audio.mp3
AudioLeadIn: 0
PreviewTime: 1271
Countdown: 1
SampleSet: Soft
StackLeniency: 0.3
Mode: 0
LetterboxInBreaks: 0
WidescreenStoryboard: 0

[Editor]
Bookmarks: 12907,24543,30361
DistanceSpacing: 0.4
BeatDivisor: 4
GridSize: 4
TimelineZoom: 1.7

[Metadata]
Title:In my room
TitleUnicode:In my room
Artist:FELT
ArtistUnicode:FELT
Creator:ylvy
Version:Insane
Source:
Tags:nagi☆ grow color comiket85
BeatmapID:1427074
BeatmapSetID:647072

[Difficulty]
HPDrainRate:5.4
CircleSize:4.7
OverallDifficulty:6.2
ApproachRate:8.2
SliderMultiplier:0.5
SliderTickRate:1

[Events]
//Background and Video events
0,0,"not water.jpg",0,0
//Break Periods
//Storyboard Layer 0 (Background)
//Storyboard Layer 1 (Fail)
//Storyboard Layer 2 (Pass)
//Storyboard Layer 3 (Foreground)
//Storyboard Sound Samples

[TimingPoints]
1271,363.636363636364,4,2,1,26,1,0
4180,-100,4,2,1,30,0,0
4361,-100,4,2,1,26,0,0
5634,-100,4,2,1,30,0,0
5816,-100,4,2,1,26,0,0
6180,-100,4,2,1,16,0,0
6271,-100,4,2,1,21,0,0
6361,-100,4,2,1,26,0,0
7089,-100,4,2,1,30,0,0
7271,-100,4,2,1,26,0,0
9998,-100,4,3,1,27,0,0
10180,-100,4,2,1,26,0,0
10543,-100,4,2,1,22,0,0
10725,-100,4,2,1,21,0,0
11089,-100,4,2,1,20,0,0
11271,-100,4,2,1,22,0,0
11816,-100,4,2,1,29,0,0
11998,-100,4,2,1,19,0,0
12089,-100,4,2,1,24,0,0
12180,-100,4,2,1,29,0,0
12361,-100,4,2,1,20,0,0
12907,-100,4,2,1,29,0,0
13452,-100,4,2,1,26,0,0
15089,-100,4,2,1,32,0,0
15271,-100,4,2,1,26,0,0
15816,-100,4,2,1,17,0,0
16361,-100,4,2,1,26,0,0
17816,-100,4,2,1,16,0,0
17907,-100,4,2,1,21,0,0
17998,-100,4,2,1,26,0,0
18725,-100,4,2,1,17,0,0
19271,-100,4,2,1,26,0,0
20725,-100,4,2,1,14,0,0
20907,-100,4,2,1,32,0,0
21089,-100,4,2,1,26,0,0
21634,-100,4,2,1,17,0,0
22180,-100,4,2,1,26,0,0
23634,-100,4,2,1,14,0,0
23725,-100,4,2,1,17,0,0
23816,-100,4,2,1,26,0,0
26725,-100,4,2,1,32,0,0
26907,-100,4,2,1,26,0,0
27452,-100,4,2,1,19,0,0
27998,-100,4,2,1,26,0,0
29452,-100,4,2,1,16,0,0
29543,-100,4,2,1,21,0,0
29634,-100,4,2,1,26,0,0
35271,-100,4,2,1,16,0,0
35361,-100,4,2,1,21,0,0
35452,-100,4,2,1,26,0,0
36361,-100,4,2,1,10,0,0
36543,-133.333333333333,4,2,1,14,0,0
36725,-133.333333333333,4,2,1,10,0,0
36907,-200,4,2,1,5,0,0

[Colours]
Combo1 : 140,152,232
Combo2 : 208,135,248
Combo3 : 167,207,248
Combo4 : 254,193,133

[HitObjects]
408,367,1271,5,0,0:0:0:0:
407,376,1452,1,0,0:0:0:0:
470,359,1634,1,0,0:0:0:0:
512,296,1816,1,0,0:0:0:0:
501,162,1998,5,0,0:0:0:0:
504,171,2180,1,0,0:0:0:0:
448,228,2361,5,0,0:0:0:0:
446,237,2543,1,0,0:0:0:0:
363,163,2725,5,0,0:0:0:0:
358,287,2907,1,0,0:0:0:0:
355,231,3089,1,0,0:0:0:0:
352,175,3271,1,0,0:0:0:0:
251,345,3452,5,0,0:1:0:0:
220,283,3634,1,0,0:1:0:0:
362,150,3816,1,0,0:1:0:0:
355,214,3998,1,0,0:1:0:0:
189,221,4180,5,2,0:0:0:0:
407,376,4361,5,0,0:0:0:0:
470,359,4543,1,0,0:0:0:0:
512,296,4725,1,0,0:0:0:0:
501,162,4907,5,0,0:0:0:0:
504,171,5089,1,0,0:0:0:0:
448,228,5270,5,0,0:0:0:0:
446,237,5452,1,0,0:0:0:0:
501,162,5634,5,2,0:0:0:0:
342,294,5816,5,0,0:0:0:0:
292,237,5998,1,0,0:0:0:0:
371,173,6180,1,0,3:0:0:0:
371,173,6271,1,0,3:0:0:0:
371,173,6361,1,0,3:0:0:0:
344,296,6543,1,0,0:0:0:0:
290,235,6725,1,0,0:0:0:0:
346,300,6907,1,0,0:0:0:0:
234,170,7089,5,2,0:0:0:0:
404,372,7270,5,0,0:0:0:0:
467,355,7452,1,0,0:0:0:0:
509,292,7634,1,0,0:0:0:0:
498,158,7816,5,0,0:0:0:0:
501,167,7998,1,0,0:0:0:0:
445,224,8179,5,0,0:0:0:0:
443,233,8361,1,0,0:0:0:0:
363,163,8543,5,0,0:0:0:0:
358,287,8725,1,0,0:0:0:0:
355,231,8907,1,0,0:0:0:0:
352,175,9089,1,0,0:0:0:0:
248,341,9270,5,0,0:1:0:0:
217,279,9452,1,0,0:1:0:0:
359,146,9634,1,0,0:1:0:0:
352,210,9816,1,0,0:1:0:0:
132,102,9998,5,0,0:3:0:0:
226,118,10180,1,0,0:0:0:0:
165,191,10361,1,0,0:0:0:0:
198,44,10543,5,2,0:0:0:0:
259,69,10725,1,0,0:0:0:0:
206,109,10906,1,0,0:0:0:0:
335,40,11089,5,2,0:0:0:0:
337,49,11271,1,0,0:0:0:0:
414,41,11452,5,0,0:0:0:0:
392,168,11634,1,2,0:0:0:0:
342,112,11816,1,2,0:0:0:0:
421,48,11998,1,10,0:0:0:0:
421,48,12089,1,10,0:0:0:0:
421,48,12180,1,10,0:0:0:0:
394,171,12361,1,0,0:0:0:0:
340,110,12543,1,0,0:0:0:0:
397,176,12725,1,0,0:0:0:0:
392,168,12907,6,0,P|358:155|318:159,1,75.0000008940697,0|0,3:0|0:0,0:0:0:0:
162,262,13634,5,0,0:0:0:0:
165,271,13816,1,0,0:0:0:0:
246,304,13998,5,0,0:0:0:0:
243,313,14180,1,0,0:0:0:0:
241,210,14361,5,0,0:0:0:0:
83,314,14543,1,0,0:0:0:0:
167,356,14725,1,0,0:0:0:0:
176,355,14907,1,0,0:0:0:0:
236,117,15089,5,2,0:3:0:0:
241,210,15271,1,0,0:1:0:0:
78,220,15452,1,0,0:1:0:0:
73,126,15634,1,0,0:1:0:0:
73,115,15816,6,0,P|39:100|-2:105,1,75.0000008940696,0|0,3:0|0:0,0:0:0:0:
121,204,16543,5,0,0:0:0:0:
124,213,16725,1,0,0:0:0:0:
203,156,16907,5,0,0:0:0:0:
206,147,17089,1,0,0:0:0:0:
190,43,17271,5,0,0:0:0:0:
222,251,17452,1,0,0:0:0:0:
305,186,17634,1,0,0:0:0:0:
212,155,17816,1,0,3:0:0:0:
212,155,17907,1,0,3:0:0:0:
212,155,17998,5,0,3:0:0:0:
236,357,18180,1,0,0:0:0:0:
319,292,18361,1,0,0:0:0:0:
231,363,18543,1,0,0:0:0:0:
227,367,18725,6,0,P|193:382|152:377,1,75.0000008940696,0|0,3:0|0:0,0:0:0:0:
18,279,19452,5,0,0:0:0:0:
15,270,19634,1,0,0:0:0:0:
95,214,19816,5,0,0:0:0:0:
98,205,19998,1,0,0:0:0:0:
112,309,20180,5,2,0:0:0:0:
84,101,20361,1,0,0:0:0:0:
83,91,20543,1,0,0:0:0:0:
181,140,20725,1,4,2:0:0:0:
292,283,20907,5,2,0:3:0:0:
278,179,21089,1,0,0:1:0:0:
98,205,21271,1,0,0:1:0:0:
112,309,21453,1,0,0:1:0:0:
107,318,21634,6,0,P|74:336|37:336,1,75.0000008940696,0|0,3:0|0:0,0:0:0:0:
118,207,22361,5,0,0:0:0:0:
125,200,22543,1,0,0:0:0:0:
191,268,22725,5,0,0:0:0:0:
198,275,22907,1,0,0:0:0:0:
169,376,23089,5,2,0:0:0:0:
227,174,23271,1,0,0:0:0:0:
300,250,23453,1,0,0:0:0:0:
205,282,23634,1,0,3:0:0:0:
203,281,23725,1,0,3:0:0:0:
203,281,23816,5,0,3:0:0:0:
329,149,23998,1,0,0:0:0:0:
299,254,24180,1,0,0:0:0:0:
331,140,24361,1,0,0:0:0:0:
64,99,24543,6,0,B|104:106|104:106|142:99,1,75.0000008940696,8|0,3:3|0:0,0:0:0:0:
240,41,25271,5,0,0:0:0:0:
314,45,25452,1,0,0:0:0:0:
220,162,25634,5,8,0:1:0:0:
145,172,25816,1,0,0:0:0:0:
314,45,25998,5,8,0:1:0:0:
368,184,26180,1,0,0:0:0:0:
220,162,26362,1,0,0:0:0:0:
300,124,26543,1,0,0:0:0:0:
145,172,26725,5,2,0:3:0:0:
300,124,26907,1,0,0:0:0:0:
348,279,27089,1,0,0:0:0:0:
193,327,27271,1,0,0:0:0:0:
360,284,27452,6,0,P|399:287|439:278,1,75.0000008940696,0|0,3:0|0:0,0:0:0:0:
331,112,28180,5,0,0:0:0:0:
258,128,28361,1,0,0:0:0:0:
202,272,28543,5,8,0:1:0:0:
271,300,28725,1,0,0:0:0:0:
128,80,28907,5,8,0:1:0:0:
331,112,29089,1,0,0:0:0:0:
202,272,29271,1,0,0:0:0:0:
287,63,29452,5,0,3:0:0:0:
287,63,29543,1,0,3:0:0:0:
287,63,29634,1,4,3:0:0:0:
261,227,29816,1,0,0:0:0:0:
225,161,29998,1,0,0:0:0:0:
264,231,30180,1,0,0:0:0:0:
76,22,30361,5,6,0:0:0:0:
58,94,30543,1,0,0:0:0:0:
88,161,30725,1,0,0:0:0:0:
154,195,30907,1,0,0:0:0:0:
74,275,31089,5,0,0:0:0:0:
0,263,31270,1,0,0:0:0:0:
132,382,31452,5,8,0:1:0:0:
205,365,31634,1,0,0:0:0:0:
363,206,31816,5,8,0:1:0:0:
179,245,31998,1,0,0:0:0:0:
258,233,32180,1,0,0:0:0:0:
339,224,32362,1,0,0:0:0:0:
270,60,32543,5,2,0:3:0:0:
238,176,32725,1,0,0:0:0:0:
471,322,32907,1,0,0:0:0:0:
441,212,33089,2,0,L|414:210,1,25.0000002980232
103,325,33452,5,0,0:0:0:0:
171,341,33634,1,0,0:0:0:0:
235,310,33816,1,0,0:0:0:0:
306,208,33998,5,0,0:0:0:0:
248,183,34179,1,0,0:0:0:0:
351,321,34361,5,8,0:1:0:0:
412,301,34543,1,0,0:0:0:0:
478,74,34725,5,8,0:1:0:0:
399,110,34907,1,0,0:0:0:0:
471,157,35089,1,0,0:0:0:0:
485,80,35271,1,0,3:0:0:0:
485,80,35361,1,0,3:0:0:0:
485,80,35452,5,0,3:0:0:0:
471,157,35634,1,0,0:0:0:0:
399,110,35816,1,0,0:0:0:0:
479,165,35998,1,0,0:0:0:0:
486,252,36180,6,0,L|457:247,1,25.0000002980232,2|0,0:0|0:0,0:0:0:0:
462,325,36543,2,0,L|445:316,1,18.7500009387732,0|2,0:0|0:0,0:0:0:0:
414,384,36907,2,0,L|407:368,1,12.5000001490116,0|2,0:0|0:2,0:0:0:0:
