osu file format v14

[General]
AudioFilename: audio.mp3
AudioLeadIn: 0
PreviewTime: 1271
Countdown: 1
SampleSet: Soft
StackLeniency: 0.3
Mode: 0
LetterboxInBreaks: 0
WidescreenStoryboard: 1

[Editor]
Bookmarks: 12907,24543,30361
DistanceSpacing: 1.6
BeatDivisor: 2
GridSize: 4
TimelineZoom: 1.7

[Metadata]
Title:In my room
TitleUnicode:In my room
Artist:FELT
ArtistUnicode:FELT
Creator:ylvy
Version:Hard
Source:
Tags:nagi☆ grow color comiket85
BeatmapID:1416683
BeatmapSetID:647072

[Difficulty]
HPDrainRate:4.3
CircleSize:4
OverallDifficulty:4.4
ApproachRate:7.5
SliderMultiplier:1.00000000596046
SliderTickRate:1

[Events]
//Background and Video events
0,0,"not water.jpg",0,0
//Break Periods
//Storyboard Layer 0 (Background)
//Storyboard Layer 1 (Fail)
//Storyboard Layer 2 (Pass)
//Storyboard Layer 3 (Foreground)
//Storyboard Sound Samples

[TimingPoints]
1271,363.636363636364,4,2,1,26,1,0
4180,-100,4,2,1,30,0,0
4361,-100,4,2,1,26,0,0
5634,-100,4,2,1,30,0,0
5816,-100,4,2,1,26,0,0
7089,-100,4,2,1,30,0,0
7271,-100,4,2,1,26,0,0
9998,-100,4,3,1,27,0,0
10180,-100,4,2,1,26,0,0
10543,-100,4,2,1,22,0,0
10725,-100,4,2,1,21,0,0
11089,-100,4,2,1,20,0,0
11271,-100,4,2,1,22,0,0
11816,-100,4,2,1,29,0,0
11998,-100,4,2,1,19,0,0
12180,-100,4,2,1,29,0,0
12361,-100,4,2,1,20,0,0
12907,-100,4,2,1,29,0,0
13452,-100,4,2,1,26,0,0
15089,-100,4,2,1,32,0,0
15271,-100,4,2,1,26,0,0
15816,-100,4,2,1,17,0,0
16361,-100,4,2,1,26,0,0
18725,-100,4,2,1,17,0,0
19271,-100,4,2,1,26,0,0
20725,-100,4,2,1,14,0,0
20907,-100,4,2,1,32,0,0
21089,-100,4,2,1,26,0,0
21634,-100,4,2,1,17,0,0
22180,-100,4,2,1,26,0,0
26725,-100,4,2,1,32,0,0
26907,-100,4,2,1,26,0,0
27452,-100,4,2,1,19,0,0
27998,-100,4,2,1,26,0,0

[Colours]
Combo1 : 140,152,232
Combo2 : 208,135,248
Combo3 : 167,207,248
Combo4 : 254,193,133

[HitObjects]
58,104,1271,6,0,L|53:169,1,50.000000298023
128,183,1634,2,0,L|133:248,1,50.000000298023
70,284,1998,2,0,L|59:343,2,50.000000298023
137,241,2543,1,0,0:0:0:0:
201,289,2725,6,0,P|176:287|153:278,2,50.000000298023
279,271,3271,1,0,0:0:0:0:
330,213,3452,5,0,0:0:0:0:
330,213,3634,1,0,0:0:0:0:
330,213,3816,1,0,0:0:0:0:
330,213,3998,1,0,0:0:0:0:
330,213,4180,6,0,L|394:207,1,50.000000298023,2|0,0:0|0:0,0:0:0:0:
377,128,4543,2,0,L|441:122,1,50.000000298023
424,43,4908,2,0,L|488:37,2,50.000000298023
384,112,5452,1,0,0:0:0:0:
324,58,5634,6,0,P|298:51|258:55,2,50.000000298023,2|0|0,0:0|0:0|0:0,0:0:0:0:
288,130,6180,1,0,0:0:0:0:
217,106,6361,5,0,0:0:0:0:
217,106,6543,1,0,0:0:0:0:
217,106,6725,1,0,0:0:0:0:
217,106,6907,1,0,0:0:0:0:
217,106,7090,6,0,P|186:103|147:102,1,50.000000298023,2|0,0:0|0:0,0:0:0:0:
172,181,7452,2,0,P|140:183|102:189,1,50.000000298023
141,263,7816,2,0,P|110:270|73:283,2,50.000000298023
220,256,8361,1,0,0:0:0:0:
287,299,8543,6,0,P|262:297|239:288,2,50.000000298023
365,281,9089,1,0,0:0:0:0:
416,223,9270,5,0,0:0:0:0:
416,223,9452,1,0,0:0:0:0:
416,223,9634,1,0,0:0:0:0:
416,223,9816,1,0,0:0:0:0:
416,223,9998,6,0,L|494:200,2,50.000000298023,2|0|0,0:0|0:0|0:0,0:0:0:0:
335,220,10543,2,0,L|400:260,2,50.000000298023,2|0|0,0:0|0:0|0:0,0:0:0:0:
259,192,11089,2,0,L|209:198,1,50.000000298023,2|0,0:0|0:0,0:0:0:0:
225,120,11452,2,0,L|175:126,2,50.000000298023,0|2|2,0:0|0:0|0:0,0:0:0:0:
304,132,11998,1,2,3:0:0:0:
360,74,12180,2,0,L|366:10,1,50.000000298023,2|0,3:0|0:0,0:0:0:0:
367,88,12543,2,0,L|371:38,1,50.000000298023
435,133,12907,6,0,P|446:87|446:62,2,50.000000298023,0|0|0,3:0|0:0|0:0,0:0:0:0:
350,181,13452,1,0,0:0:0:0:
336,86,13634,6,0,P|302:88|273:98,1,50.000000298023
258,183,13998,2,0,L|262:250,1,50.000000298023
347,272,14361,2,0,P|371:277|396:278,2,50.000000298023
273,333,14907,1,0,0:0:0:0:
197,274,15089,5,2,0:3:0:0:
193,264,15271,1,0,0:0:0:0:
189,254,15452,1,0,0:0:0:0:
185,244,15634,1,0,0:0:0:0:
181,234,15816,6,0,L|114:242,2,50.000000298023,0|0|0,3:0|0:0|0:0,0:0:0:0:
276,237,16361,1,0,0:0:0:0:
228,154,16543,2,0,P|219:120|222:84,1,50.000000298023
313,91,16907,2,0,P|322:57|342:27,1,50.000000298023
407,98,17271,6,0,L|456:90,2,50.000000298023
313,112,17816,1,0,0:0:0:0:
228,68,17998,5,0,0:0:0:0:
217,68,18180,1,0,0:0:0:0:
207,68,18361,1,0,0:0:0:0:
196,68,18543,1,0,0:0:0:0:
185,68,18725,6,0,L|170:4,2,50.000000298023,0|0|0,3:0|0:0|0:0,0:0:0:0:
116,135,19271,1,0,0:0:0:0:
30,88,19452,6,0,L|21:149,1,50.000000298023
88,206,19816,2,0,L|92:264,1,50.000000298023
37,334,20180,6,0,P|63:343|105:345,2,50.000000298023,2|0|0,0:0|0:0|0:0,0:0:0:0:
102,265,20725,1,4,0:0:0:0:
184,311,20907,5,2,0:3:0:0:
194,311,21089,1,0,0:0:0:0:
204,311,21271,1,0,0:0:0:0:
213,311,21452,1,0,0:0:0:0:
223,311,21634,6,0,L|211:244,2,50.000000298023,0|0|0,3:0|0:0|0:0,0:0:0:0:
309,353,22180,1,0,0:0:0:0:
371,278,22361,6,0,P|382:255|400:238,1,50.000000298023
303,197,22725,2,0,P|297:172|300:147,1,50.000000298023
376,91,23089,6,0,L|445:86,2,50.000000298023,2|0|0,0:0|0:0|0:0,0:0:0:0:
292,137,23634,1,0,0:0:0:0:
220,74,23816,5,0,0:0:0:0:
211,68,23998,1,0,0:0:0:0:
202,61,24180,2,0,P|199:104|204:123,1,50.000000298023
210,235,24543,6,0,B|144:205|144:205|69:233,1,150.000000894069,8|0,3:0|0:0,0:0:0:0:
33,326,25271,6,0,P|49:350|71:364,1,50.000000298023
174,381,25634,2,0,P|208:380|230:371,1,50.000000298023,8|0,0:1|0:0,0:0:0:0:
314,312,25998,6,0,L|368:315,2,50.000000298023,8|0|0,0:1|0:0|0:0,0:0:0:0:
235,234,26543,1,0,0:0:0:0:
321,165,26725,5,2,0:3:0:0:
322,150,26907,1,0,0:0:0:0:
323,135,27089,2,0,B|348:137|369:152,1,50.000000298023
390,254,27452,6,0,P|445:243|472:154,1,150.000000894069
442,61,28180,2,0,P|406:63|388:67,1,50.000000298023
296,109,28543,2,0,P|267:112|239:108,1,50.000000298023,8|0,0:1|0:0,0:0:0:0:
158,50,28907,6,0,L|167:-16,2,50.000000298023,8|0|0,0:1|0:0|0:0,0:0:0:0:
171,154,29452,1,0,0:0:0:0:
73,114,29634,5,2,0:0:0:0:
75,128,29816,1,0,0:0:0:0:
76,142,29998,2,0,P|70:192|65:210,1,50.000000298023
44,325,30361,6,0,L|52:379,2,50.000000298023,6|0|0,0:0|0:0|0:0,0:0:0:0:
115,261,30907,1,0,0:0:0:0:
207,302,31089,6,0,P|234:312|260:310,1,50.000000298023
350,283,31452,2,0,P|383:275|406:278,1,50.000000298023,8|0,0:1|0:0,0:0:0:0:
490,317,31816,6,0,L|481:384,2,50.000000298023,8|0|0,0:1|0:0|0:0,0:0:0:0:
403,262,32361,1,0,0:0:0:0:
482,154,32543,5,2,0:3:0:0:
430,119,32725,1,0,0:0:0:0:
370,108,32907,1,0,0:0:0:0:
313,132,33089,1,0,0:0:0:0:
284,128,33271,6,0,L|281:191,2,50.000000298023
199,64,33816,1,0,0:0:0:0:
104,103,33998,6,0,P|101:143|108:171,1,50.000000298023
166,235,34361,2,8,P|170:271|168:293,1,50.000000298023,8|0,0:1|0:0,0:1:0:0:
97,360,34725,2,0,P|68:361|47:356,2,50.000000298023,8|0|0,0:1|0:0|0:0,0:0:0:0:
183,296,35271,1,0,0:0:0:0:
292,350,35452,5,0,0:0:0:0:
351,303,35634,1,0,0:0:0:0:
425,291,35816,1,0,0:0:0:0:
500,317,35998,1,0,0:0:0:0:
505,329,36180,5,2,0:0:0:0:
