osu file format v14

[General]
AudioFilename: audio.mp3
AudioLeadIn: 0
PreviewTime: 13096
Countdown: 0
SampleSet: Soft
StackLeniency: 0.7
Mode: 2
LetterboxInBreaks: 0
WidescreenStoryboard: 0

[Editor]
Bookmarks: 36732
DistanceSpacing: 1.5
BeatDivisor: 4
GridSize: 8
TimelineZoom: 1

[Metadata]
Title:In my room
TitleUnicode:In my room
Artist:FELT
ArtistUnicode:FELT
Creator:wonjae
Version:Cup
Source:
Tags:NAGI☆ Grow Color Comiket85 piano instrumental paranoid grapes
BeatmapID:1619012
BeatmapSetID:755596

[Difficulty]
HPDrainRate:3
CircleSize:3
OverallDifficulty:5.3
ApproachRate:5.3
SliderMultiplier:1
SliderTickRate:1

[Events]
//Background and Video events
0,0,"artist room.jpg",0,0
//Break Periods
//Storyboard Layer 0 (Background)
//Storyboard Layer 1 (Fail)
//Storyboard Layer 2 (Pass)
//Storyboard Layer 3 (Foreground)
//Storyboard Layer 4 (Overlay)
//Storyboard Sound Samples

[TimingPoints]
1460,363.636363636364,4,2,1,45,1,0
13096,-100,4,2,1,60,0,0
36732,-100,4,1,0,5,0,0

[Colours]
Combo1 : 174,174,174
Combo2 : 164,0,82
Combo3 : 186,62,20
Combo4 : 255,128,0

[HitObjects]
302,320,1460,6,0,P|402:272|419:186,1,200,6|2,0:0|0:0,0:0:0:0:
285,193,2550,1,0,0:0:0:0:
160,190,2914,2,0,B|77:182|53:162|42:125|168:113,1,200,2|2,0:0|0:0,0:0:0:0:
285,111,4005,1,0,0:0:0:0:
144,120,4369,6,0,B|80:152|72:160|48:240|152:248,1,200,2|2,0:0|0:0,0:0:0:0:
264,264,5460,1,0,0:0:0:0:
448,288,5823,2,0,P|456:152|448:128,1,150,8|0,0:0|0:0,0:0:0:0:
432,112,6550,1,2,0:0:0:0:
296,120,6914,1,0,0:0:0:0:
128,216,7278,6,0,B|80:192|48:160|16:136|120:72,1,200,8|2,0:0|0:0,0:0:0:0:
240,96,8369,1,0,0:0:0:0:
376,208,8732,2,0,L|160:224,1,200,2|2,0:0|0:0,0:0:0:0:
312,288,9823,1,0,0:0:0:0:
128,328,10187,6,0,P|48:272|72:184,1,200,8|2,0:0|0:0,0:0:0:0:
208,144,11278,1,0,0:0:0:0:
352,168,11641,2,0,P|400:112|360:32,1,150,2|0,0:0|0:0,0:0:0:0:
344,40,12369,1,2,0:0:0:0:
208,96,12732,1,0,0:0:0:0:
392,168,13096,6,0,L|480:216,2,100,12|0|2,0:0|0:0|0:0,0:0:0:0:
272,232,14187,1,0,0:0:0:0:
96,276,14550,2,0,L|16:340,2,100,2|0|2,0:0|0:0|0:0,0:0:0:0:
216,256,15641,1,2,0:0:0:0:
391,207,16005,6,0,L|391:87,1,100,6|0,0:0|0:0,0:0:0:0:
248,136,16732,2,0,L|128:136,1,100,2|0,0:0|0:0,0:0:0:0:
288,216,17460,6,0,L|408:216,1,100,2|0,0:0|0:0,0:0:0:0:
248,240,18187,2,0,L|232:296,2,50,10|0|2,0:0|0:0|0:0,0:0:0:0:
424,192,18914,6,0,L|312:192,1,100,6|0,0:0|0:0,0:0:0:0:
192,160,19641,1,2,0:0:0:0:
327,135,20005,1,0,0:0:0:0:
158,154,20369,6,0,L|278:154,1,100,8|0,0:0|0:0,0:0:0:0:
408,224,21096,1,2,0:0:0:0:
272,240,21460,1,2,0:0:0:0:
112,296,21823,6,0,L|80:184,1,100,6|0,0:0|0:0,0:0:0:0:
216,168,22550,1,2,0:0:0:0:
64,128,22914,1,0,0:0:0:0:
224,120,23278,6,0,L|344:120,1,100,2|0,0:0|0:0,0:0:0:0:
416,224,24005,1,2,0:0:0:0:
360,224,24187,1,0,0:0:0:0:
304,224,24369,1,0,0:0:0:0:
136,288,24732,6,0,L|132:178,1,100,4|2,0:0|0:0,0:0:0:0:
220,149,25278,1,0,0:0:0:0:
316,140,25460,2,0,L|316:68,1,50,2|0,0:0|0:0,0:0:0:0:
222,46,25823,6,0,L|106:50,2,100,12|2|2,0:0|0:0|0:0,0:0:0:0:
352,116,26914,1,2,0:0:0:0:
278,153,27096,1,0,0:0:0:0:
204,192,27278,1,2,0:0:0:0:
380,300,27641,6,0,L|492:299,1,100,6|2,0:0|0:0,0:0:0:0:
401,254,28187,1,0,0:0:0:0:
327,217,28369,2,0,L|263:216,1,50,2|0,0:0|0:0,0:0:0:0:
225,146,28732,6,0,L|222:31,1,100,12|2,0:0|0:0,0:0:0:0:
380,53,29460,1,2,0:0:0:0:
232,240,29823,1,2,0:0:0:0:
172,276,30005,1,0,0:0:0:0:
174,319,30187,1,2,0:0:0:0:
366,354,30550,6,0,L|468:348,1,100,12|2,0:0|0:0,0:0:0:0:
402,299,31096,1,0,0:0:0:0:
320,304,31278,1,2,0:0:0:0:
164,187,31641,6,0,L|61:191,1,100,12|2,0:0|0:0,0:0:0:0:
125,130,32187,1,0,0:0:0:0:
201,105,32369,1,2,0:0:0:0:
347,172,32732,1,2,0:0:0:0:
409,210,32914,1,0,0:0:0:0:
405,276,33096,1,2,0:0:0:0:
234,333,33460,6,0,L|135:325,1,100,6|2,0:0|0:0,0:0:0:0:
54,262,34005,1,0,0:0:0:0:
131,203,34187,1,2,0:0:0:0:
278,168,34550,5,12,0:0:0:0:
103,160,34914,2,0,L|97:59,1,100,2|0,0:0|0:0,0:0:0:0:
271,235,35641,2,0,L|303:275,3,50,2|0|2|0,0:0|0:0|0:0|0:0,0:0:0:0:
256,192,36732,12,0,38187,0:0:0:0:
