osu file format v14

[General]
AudioFilename: audio.mp3
AudioLeadIn: 0
PreviewTime: 12915
Countdown: 0
SampleSet: Soft
StackLeniency: 0.7
Mode: 0
LetterboxInBreaks: 0
WidescreenStoryboard: 0
SamplesMatchPlaybackRate: 1

[Editor]
Bookmarks: 19097
DistanceSpacing: 1.5
BeatDivisor: 4
GridSize: 4
TimelineZoom: 2.1

[Metadata]
Title:In my room
TitleUnicode:In my room
Artist:FELT
ArtistUnicode:FELT
Creator:dopaminos
Version:Insane
Source:
Tags:NAGI☆ Grow Color NAGI Comic market Comiket 85 C85 コミケ85 コミックマーケット85 Original Track Doujin instrumental electronic golo golo- kegare kegare- lemonv2
BeatmapID:3098232
BeatmapSetID:1513200

[Difficulty]
HPDrainRate:5
CircleSize:4
OverallDifficulty:8
ApproachRate:8.5
SliderMultiplier:1.4
SliderTickRate:1

[Events]
//Background and Video events
0,0,"output (1).jpg",0,0
//Break Periods
//Storyboard Layer 0 (Background)
//Storyboard Layer 1 (Fail)
//Storyboard Layer 2 (Pass)
//Storyboard Layer 3 (Foreground)
//Storyboard Layer 4 (Overlay)
//Storyboard Sound Samples

[TimingPoints]
1279,363.636363636364,4,2,1,30,1,0
1460,-100,4,2,2,30,0,0
1642,-100,4,2,3,30,0,0
1824,-100,4,2,4,30,0,0
2006,-100,4,2,5,30,0,0
2187,-100,4,2,3,30,0,0
2369,-100,4,2,5,30,0,0
2551,-100,4,2,6,30,0,0
2733,-100,4,2,3,30,0,0
2914,-100,4,2,6,30,0,0
3097,-100,4,2,7,30,0,0
3278,-100,4,2,8,30,0,0
3642,-100,4,2,2,30,0,0
3824,-100,4,2,3,30,0,0
4006,-100,4,2,9,30,0,0
4188,-100,4,2,3,30,0,0
4369,-100,4,2,2,30,0,0
4551,-100,4,2,3,30,0,0
4732,-100,4,2,4,30,0,0
4915,-100,4,2,5,30,0,0
5278,-100,4,2,3,30,0,0
5460,-100,4,2,6,30,0,0
5642,-100,4,2,3,30,0,0
5823,-100,4,2,6,30,0,0
6006,-100,4,2,4,30,0,0
6187,-100,4,2,8,30,0,0
6369,-100,4,2,3,30,0,0
6551,-100,4,2,2,30,0,0
6733,-100,4,2,9,30,0,0
6915,-100,4,2,2,30,0,0
7097,-100,4,2,9,30,0,0
7278,-100,4,2,2,30,0,0
7460,-100,4,2,3,30,0,0
7642,-100,4,2,4,30,0,0
7824,-100,4,2,5,30,0,0
8005,-100,4,2,3,30,0,0
8187,-100,4,2,5,30,0,0
8369,-100,4,2,6,30,0,0
8551,-100,4,2,3,30,0,0
8732,-100,4,2,6,30,0,0
8915,-100,4,2,7,30,0,0
9096,-100,4,2,8,30,0,0
9460,-100,4,2,2,30,0,0
9642,-100,4,2,3,30,0,0
9824,-100,4,2,9,30,0,0
10006,-100,4,2,4,30,0,0
10188,-100,4,2,2,30,0,0
10369,-100,4,2,3,30,0,0
10551,-100,4,2,4,30,0,0
10733,-100,4,2,5,30,0,0
11096,-100,4,2,3,30,0,0
11279,-100,4,2,6,30,0,0
11460,-100,4,2,3,30,0,0
11641,-100,4,2,6,30,0,0
11824,-100,4,2,7,30,0,0
12005,-100,4,2,8,30,0,0
12188,-100,4,2,3,30,0,0
12369,-100,4,2,2,30,0,0
12551,-100,4,2,9,30,0,0
12732,-100,4,2,2,30,0,0
12915,-100,4,2,9,40,0,1
13097,-100,4,2,2,40,0,1
13279,-90.9090909090909,4,2,3,40,0,1
13460,-90.9090909090909,4,2,4,40,0,1
13642,-90.9090909090909,4,2,5,40,0,1
13823,-90.9090909090909,4,2,3,40,0,1
14006,-90.9090909090909,4,2,5,40,0,1
14188,-90.9090909090909,4,2,6,40,0,1
14369,-90.9090909090909,4,2,3,40,0,1
14550,-90.9090909090909,4,2,6,40,0,1
14733,-90.9090909090909,4,2,7,40,0,1
14914,-90.9090909090909,4,2,8,40,0,1
15097,-90.9090909090909,4,2,1,40,0,1
15279,-90.9090909090909,4,2,2,40,0,1
15460,-90.9090909090909,4,2,3,40,0,1
15642,-90.9090909090909,4,2,9,40,0,1
15824,-90.9090909090909,4,2,3,40,0,1
16005,-90.9090909090909,4,2,2,40,0,1
16188,-90.9090909090909,4,2,3,40,0,1
16369,-90.9090909090909,4,2,4,40,0,1
16551,-90.9090909090909,4,2,5,40,0,1
16914,-90.9090909090909,4,2,3,40,0,1
17097,-90.9090909090909,4,2,6,40,0,1
17279,-90.9090909090909,4,2,3,40,0,1
17460,-90.9090909090909,4,2,6,40,0,1
17642,-90.9090909090909,4,2,7,40,0,1
17823,-90.9090909090909,4,2,8,40,0,1
18006,-90.9090909090909,4,2,3,40,0,1
18188,-90.9090909090909,4,2,2,40,0,1
18369,-90.9090909090909,4,2,9,40,0,1
18551,-90.9090909090909,4,2,2,40,0,1
18733,-90.9090909090909,4,2,10,40,0,1
18914,-90.9090909090909,4,2,2,40,0,1
19097,-90.9090909090909,4,2,3,40,0,1
19278,-90.9090909090909,4,2,4,40,0,1
19460,-90.9090909090909,4,2,5,40,0,1
19641,-90.9090909090909,4,2,3,40,0,1
19823,-90.9090909090909,4,2,5,40,0,1
20006,-90.9090909090909,4,2,6,40,0,1
20188,-90.9090909090909,4,2,3,40,0,1
20369,-90.9090909090909,4,2,6,40,0,1
20551,-90.9090909090909,4,2,7,40,0,1
20733,-90.9090909090909,4,2,8,40,0,1
20915,-90.9090909090909,4,2,1,40,0,1
21096,-90.9090909090909,4,2,2,40,0,1
21279,-90.9090909090909,4,2,3,40,0,1
21460,-90.9090909090909,4,2,9,40,0,1
21642,-90.9090909090909,4,2,4,40,0,1
21823,-90.9090909090909,4,2,2,40,0,1
22006,-90.9090909090909,4,2,3,40,0,1
22187,-90.9090909090909,4,2,4,40,0,1
22369,-90.9090909090909,4,2,5,40,0,1
22732,-90.9090909090909,4,2,3,40,0,1
22915,-90.9090909090909,4,2,6,40,0,1
23097,-90.9090909090909,4,2,3,40,0,1
23278,-90.9090909090909,4,2,6,40,0,1
23460,-90.9090909090909,4,2,7,40,0,1
23641,-90.9090909090909,4,2,8,40,0,1
23824,-90.9090909090909,4,2,3,40,0,1
24006,-90.9090909090909,4,2,2,40,0,1
24188,-90.9090909090909,4,2,9,40,0,0
24369,-90.9090909090909,4,2,2,40,0,0
24551,-84.7457627118644,4,2,10,50,0,1
24732,-84.7457627118644,4,2,2,50,0,1
24915,-84.7457627118644,4,2,3,50,0,1
25096,-84.7457627118644,4,2,4,50,0,1
25279,-84.7457627118644,4,2,5,50,0,1
25460,-84.7457627118644,4,2,3,50,0,1
25642,-84.7457627118644,4,2,5,50,0,1
25824,-84.7457627118644,4,2,6,50,0,1
26006,-84.7457627118644,4,2,3,50,0,1
26187,-84.7457627118644,4,2,6,50,0,1
26369,-84.7457627118644,4,2,11,50,0,1
26550,-84.7457627118644,4,2,8,50,0,1
26733,-84.7457627118644,4,2,1,50,0,1
26915,-84.7457627118644,4,2,2,50,0,1
27097,-84.7457627118644,4,2,3,50,0,1
27279,-84.7457627118644,4,2,6,50,0,1
27460,-84.7457627118644,4,2,12,50,0,1
27641,-84.7457627118644,4,2,2,50,0,1
27824,-84.7457627118644,4,2,3,50,0,1
28005,-84.7457627118644,4,2,4,50,0,1
28188,-84.7457627118644,4,2,5,50,0,1
28551,-84.7457627118644,4,2,3,50,0,1
28733,-84.7457627118644,4,2,6,50,0,1
28915,-84.7457627118644,4,2,3,50,0,1
29096,-84.7457627118644,4,2,6,50,0,1
29279,-84.7457627118644,4,2,7,50,0,1
29460,-84.7457627118644,4,2,8,50,0,1
29642,-84.7457627118644,4,2,3,50,0,1
29824,-84.7457627118644,4,2,2,50,0,1
30006,-84.7457627118644,4,2,9,50,0,1
30188,-84.7457627118644,4,2,2,50,0,1
30369,-84.7457627118644,4,2,9,50,0,1
30550,-84.7457627118644,4,2,2,50,0,1
30733,-84.7457627118644,4,2,3,50,0,1
30914,-84.7457627118644,4,2,4,50,0,1
31097,-84.7457627118644,4,2,5,50,0,1
31279,-84.7457627118644,4,2,3,50,0,1
31460,-84.7457627118644,4,2,5,50,0,1
31642,-84.7457627118644,4,2,6,50,0,1
31824,-84.7457627118644,4,2,3,50,0,1
32005,-84.7457627118644,4,2,6,50,0,1
32188,-84.7457627118644,4,2,7,50,0,1
32369,-84.7457627118644,4,2,8,50,0,1
32551,-84.7457627118644,4,2,1,50,0,1
32733,-84.7457627118644,4,2,2,50,0,1
32915,-84.7457627118644,4,2,3,50,0,1
33097,-84.7457627118644,4,2,6,50,0,1
33279,-84.7457627118644,4,2,13,50,0,1
33460,-84.7457627118644,4,2,2,50,0,1
33642,-84.7457627118644,4,2,3,50,0,1
33823,-84.7457627118644,4,2,4,50,0,1
34006,-84.7457627118644,4,2,5,50,0,1
34188,-84.7457627118644,4,2,3,50,0,1
34369,-84.7457627118644,4,2,3,50,0,1
34551,-84.7457627118644,4,2,6,50,0,1
34733,-84.7457627118644,4,2,6,50,0,1
34914,-84.7457627118644,4,2,5,50,0,1
35097,-84.7457627118644,4,2,7,50,0,1
35278,-84.7457627118644,4,2,8,50,0,1
35460,-84.7457627118644,4,2,2,50,0,1
35642,-84.7457627118644,4,2,9,50,0,1
35824,-84.7457627118644,4,2,2,50,0,1
36006,-84.7457627118644,4,2,9,50,0,1
36188,-84.7457627118644,4,2,2,50,0,0
38733,-84.7457627118644,4,2,9,5,0,0

[Colours]
Combo1 : 231,212,155
Combo2 : 253,190,175
Combo3 : 136,157,206

[HitObjects]
60,99,1279,6,0,P|96:95|132:99,1,70,2|2,3:2|2:0,2:0:0:0:
195,150,1642,1,2,2:0:0:0:
144,211,1824,1,2,2:0:0:0:
269,275,2006,2,0,P|234:271|199:275,1,70,2|2,3:2|2:0,2:0:0:0:
320,354,2369,1,2,2:0:0:0:
381,298,2551,1,2,2:0:0:0:
463,364,2733,6,0,B|470:325|470:325|461:296,1,70,2|2,3:2|2:0,2:0:0:0:
371,215,3097,2,0,B|404:224|404:224|438:215,1,70,2|2,2:0|3:2,2:0:0:0:
477,99,3460,1,0,2:0:0:0:
402,140,3642,1,2,2:0:0:0:
512,176,3824,1,2,3:2:0:0:
402,60,4006,1,2,2:0:0:0:
289,154,4188,6,0,P|285:190|289:225,1,70,2|2,3:2|2:0,2:0:0:0:
194,300,4551,2,0,P|198:264|194:229,1,70,2|2,2:0|2:0,2:0:0:0:
176,201,4824,1,0,2:0:0:0:
176,201,4915,2,0,B|113:219|113:219|40:201,1,140,2|2,3:2|2:0,2:0:0:0:
78,78,5460,1,2,2:0:0:0:
78,78,5642,6,0,B|114:74|114:74|154:78,1,70,2|2,3:2|2:0,2:0:0:0:
256,197,6006,2,0,P|252:161|256:121,1,70,2|2,2:0|2:0,2:0:0:0:
273,98,6279,1,0,2:0:0:0:
273,98,6369,1,2,3:2:0:0:
346,30,6551,1,2,2:0:0:0:
381,110,6733,1,2,3:2:0:0:
257,9,6915,1,2,2:0:0:0:
160,150,7097,6,0,P|169:220|182:302,1,140,2|2,3:2|2:0,2:0:0:0:
252,353,7642,1,2,2:0:0:0:
252,353,7733,1,0,2:0:0:0:
252,353,7824,2,0,P|170:339|123:379,1,140,2|2,3:2|2:0,2:0:0:0:
36,244,8369,1,2,2:0:0:0:
36,244,8551,6,0,P|27:298|20:333,1,70,2|2,3:2|2:0,2:0:0:0:
128,370,8915,2,0,P|119:316|112:281,1,70,2|2,2:0|2:0,2:0:0:0:
196,229,9279,1,0,3:0:0:0:
116,301,9460,1,2,2:0:0:0:
198,335,9642,1,2,3:2:0:0:
115,194,9824,1,2,2:0:0:0:
243,115,10006,6,0,B|318:129|296:162|366:178,1,140,2|2,3:2|2:0,2:0:0:0:
488,141,10551,1,2,2:0:0:0:
488,141,10642,1,0,2:0:0:0:
488,141,10733,2,0,P|472:216|459:285,1,140,2|2,3:2|2:0,2:0:0:0:
368,357,11279,1,2,2:0:0:0:
368,357,11460,6,0,P|361:322|354:288,1,70,2|2,3:2|2:0,2:0:0:0:
381,200,11824,2,0,P|412:215|446:221,1,70,2|2,2:0|3:2,2:0:0:0:
472,217,12097,1,0,2:0:0:0:
472,217,12188,1,2,2:0:0:0:
408,124,12369,1,2,2:0:0:0:
504,60,12551,2,0,L|494:139,1,70,2|2,3:2|2:0,2:0:0:0:
412,13,12915,5,6,3:2:0:0:
334,76,13097,1,2,2:0:0:0:
218,13,13279,2,0,P|180:6|141:14,1,77,2|2,2:0|2:0,2:0:0:0:
116,35,13551,1,0,2:0:0:0:
116,35,13642,2,0,P|78:27|39:25,1,77,2|2,3:2|2:0,2:0:0:0:
7,160,14006,1,2,2:0:0:0:
97,228,14188,1,2,2:0:0:0:
180,162,14369,6,0,P|177:123|179:85,1,77,2|2,3:2|2:0,2:0:0:0:
321,202,14733,2,0,P|323:163|320:125,1,77,2|2,2:0|2:0,2:0:0:0:
401,43,15097,1,8,2:0:0:0:
483,124,15279,1,2,2:0:0:0:
401,206,15460,1,2,2:0:0:0:
320,125,15642,1,2,2:0:0:0:
236,238,15824,6,0,B|243:274|243:274|238:314,1,77,6|2,3:2|2:0,2:0:0:0:
98,362,16188,2,0,P|142:359|174:362,1,77,2|2,2:0|2:0,2:0:0:0:
13,210,16551,2,0,B|2:285|2:285|21:363,1,154,2|2,3:2|2:0,2:0:0:0:
122,191,17097,1,2,2:0:0:0:
59,134,17279,6,0,P|54:95|61:58,1,77,2|2,3:2|2:0,2:0:0:0:
226,186,17642,2,0,P|233:144|226:101,1,77,2|2,2:0|2:0,2:0:0:0:
209,85,17915,1,0,2:0:0:0:
209,85,18006,1,2,3:2:0:0:
276,20,18188,1,2,2:0:0:0:
333,114,18369,1,2,3:2:0:0:
198,2,18551,1,2,2:0:0:0:
118,153,18733,6,0,P|124:191|128:229,1,77,6|2,3:2|2:0,2:0:0:0:
283,327,19097,2,0,P|287:288|293:250,1,77,2|2,2:0|2:0,2:0:0:0:
315,216,19369,1,0,2:0:0:0:
315,216,19460,2,0,P|378:194|456:230,1,154,2|2,3:2|2:0,2:0:0:0:
378,296,20006,1,2,2:0:0:0:
236,153,20188,6,0,P|173:131|95:167,1,154,2|2,3:2|2:0,2:0:0:0:
176,239,20733,1,2,2:0:0:0:
113,337,20915,2,0,P|51:332|26:333,1,77,8|2,2:0|2:0,2:0:0:0:
220,374,21279,2,0,P|282:369|307:370,1,77,2|2,2:0|2:0,2:0:0:0:
380,255,21642,6,0,B|376:294|376:294|383:341,1,77,6|2,3:2|2:0,2:0:0:0:
475,213,22006,2,0,B|479:174|479:174|472:127,1,77,2|2,2:0|2:0,2:0:0:0:
365,51,22369,2,0,P|445:62|485:8,1,154,2|2,3:2|2:0,2:0:0:0:
312,114,22915,1,2,2:0:0:0:
208,16,23097,6,0,P|205:69|208:103,1,77,2|2,3:2|2:0,2:0:0:0:
110,215,23460,2,0,P|111:176|108:138,1,77,2|2,2:0|2:0,2:0:0:0:
93,113,23733,1,0,2:0:0:0:
93,113,23824,1,2,3:2:0:0:
40,30,24006,1,2,2:0:0:0:
3,148,24188,1,2,3:2:0:0:
142,3,24369,1,2,2:0:0:0:
224,182,24551,6,0,P|264:176|305:181,1,82.6,6|2,3:2|2:0,2:0:0:0:
370,318,24915,2,0,P|364:276|369:234,1,82.6,2|2,2:0|2:0,2:0:0:0:
470,101,25279,2,0,B|487:188|487:188|474:265,1,165.2,2|2,3:2|2:0,2:0:0:0:
370,318,25824,1,2,2:0:0:0:
269,254,26006,6,0,P|228:248|186:254,1,82.6,2|2,3:2|2:0,2:0:0:0:
103,366,26369,2,0,P|109:325|103:283,1,82.6,2|2,2:0|2:0,2:0:0:0:
0,226,26733,1,8,2:0:0:0:
103,284,26915,1,2,2:0:0:0:
162,182,27097,1,2,2:0:0:0:
59,122,27279,1,2,2:0:0:0:
187,253,27460,6,0,P|228:248|279:254,1,82.6,6|2,3:2|2:0,2:0:0:0:
400,331,27824,2,0,P|358:334|318:329,1,82.6,2|2,2:0|2:0,2:0:0:0:
318,171,28188,2,0,B|398:153|398:153|479:171,1,165.2,2|2,3:2|2:0,2:0:0:0:
395,255,28733,1,2,2:0:0:0:
318,171,28915,6,0,P|315:129|318:88,1,82.6,2|2,3:2|2:0,2:0:0:0:
180,216,29279,2,0,P|182:174|179:133,1,82.6,2|2,2:0|2:0,2:0:0:0:
163,108,29551,1,0,2:0:0:0:
163,108,29642,1,2,3:2:0:0:
92,39,29824,1,2,2:0:0:0:
38,155,30006,1,2,3:2:0:0:
179,18,30188,1,2,2:0:0:0:
284,171,30369,6,0,L|275:259,1,82.6,6|2,3:2|2:0,2:0:0:0:
193,367,30733,2,0,P|152:345|106:346,1,82.6,2|2,2:0|2:0,2:0:0:0:
28,236,31097,2,0,P|114:250|185:210,1,165.2,2|2,3:2|2:0,2:0:0:0:
100,150,31642,1,2,2:0:0:0:
247,82,31824,6,0,P|207:90|171:71,1,82.6,2|2,3:2|2:0,2:0:0:0:
311,30,32188,2,0,P|350:21|386:40,1,82.6,2|2,2:0|2:0,2:0:0:0:
436,125,32551,1,8,2:0:0:0:
481,52,32733,1,2,2:0:0:0:
335,103,32915,1,2,2:0:0:0:
431,227,33097,1,2,2:0:0:0:
358,336,33279,6,0,B|319:329|319:329|272:336,1,82.6,6|2,3:2|2:0,2:0:0:0:
116,279,33642,2,0,B|157:272|157:272|197:280,1,82.6,2|2,2:0|2:0,2:0:0:0:
218,260,33915,1,0,2:0:0:0:
218,260,34006,2,0,L|200:95,1,165.2,2|2,3:2|2:0,2:0:0:0:
289,12,34551,1,2,2:0:0:0:
368,124,34733,6,0,L|357:227,1,82.6,2|2,3:2|2:0,2:0:0:0:
217,259,35097,2,0,L|206:156,1,82.6,2|2,2:0|2:0,2:0:0:0:
142,56,35460,5,2,3:2:0:0:
21,122,35642,1,2,2:0:0:0:
88,243,35824,1,2,3:2:0:0:
209,177,36006,1,2,2:0:0:0:
118,146,36188,5,2,2:0:0:0:
256,192,36279,12,0,38733,2:0:0:0:
