osu file format v14

[General]
AudioFilename: audio.mp3
AudioLeadIn: 0
PreviewTime: 12824
Countdown: 0
SampleSet: Normal
StackLeniency: 1
Mode: 1
LetterboxInBreaks: 0
WidescreenStoryboard: 1

[Editor]
Bookmarks: 1279,12915,24551,36188
DistanceSpacing: 0.8
BeatDivisor: 4
GridSize: 32
TimelineZoom: 2.2

[Metadata]
Title:In my room
TitleUnicode:In my room
Artist:FELT
ArtistUnicode:FELT
Creator:Rycy
Version:futsuu
Source:
Tags:nagi☆ nagi* nagi grow color comic market comiket 85 c85 コミケ85 コミックマーケット85 original track doujin doujinshi Dōjinshi 同人誌 instrumental electronic
BeatmapID:4525756
BeatmapSetID:2148450

[Difficulty]
HPDrainRate:9.5
CircleSize:5
OverallDifficulty:3.5
ApproachRate:10
SliderMultiplier:1.4
SliderTickRate:1

[Events]
//Background and Video events
0,0,"in my room.jpg",0,15
//Break Periods
//Storyboard Layer 0 (Background)
//Storyboard Layer 1 (Fail)
//Storyboard Layer 2 (Pass)
//Storyboard Layer 3 (Foreground)
//Storyboard Layer 4 (Overlay)
//Storyboard Sound Samples

[TimingPoints]
1275,363.636363636364,4,1,0,45,1,0
12906,-100,4,1,0,55,0,0
24547,-100,4,1,0,65,0,1
36184,-100,4,1,0,65,0,0
36360,-100,4,1,0,60,0,0
36542,-100,4,1,0,50,0,0
36724,-100,4,1,0,40,0,0
36906,-100,4,1,0,30,0,0

[HitObjects]
256,192,1275,5,0,0:0:0:0:
256,192,2002,1,8,0:0:0:0:
256,192,2365,1,0,0:0:0:0:
256,192,2729,5,8,0:0:0:0:
256,192,3093,1,8,0:0:0:0:
256,192,3456,1,0,0:0:0:0:
256,192,3820,1,8,0:0:0:0:
256,192,4002,1,0,0:0:0:0:
256,192,4365,5,0,0:0:0:0:
256,192,4729,1,8,0:0:0:0:
256,192,4911,1,8,0:0:0:0:
256,192,5275,1,0,0:0:0:0:
256,192,5638,5,8,0:0:0:0:
256,192,6002,1,8,0:0:0:0:
256,192,6184,1,0,0:0:0:0:
256,192,6365,1,0,0:0:0:0:
256,192,6729,1,8,0:0:0:0:
256,192,7093,5,0,0:0:0:0:
256,192,7820,1,8,0:0:0:0:
256,192,8184,1,0,0:0:0:0:
256,192,8547,5,8,0:0:0:0:
256,192,8911,1,8,0:0:0:0:
256,192,9275,1,0,0:0:0:0:
256,192,9638,1,8,0:0:0:0:
256,192,9820,1,0,0:0:0:0:
256,192,10002,5,8,0:0:0:0:
256,192,10729,1,8,0:0:0:0:
256,192,11093,1,0,0:0:0:0:
256,192,11456,5,0,0:0:0:0:
256,192,11820,1,8,0:0:0:0:
256,192,12002,1,0,0:0:0:0:
256,192,12184,1,0,0:0:0:0:
256,192,12911,5,0,0:0:0:0:
256,192,13275,1,0,0:0:0:0:
256,192,13638,1,8,0:0:0:0:
256,192,14002,1,8,0:0:0:0:
256,192,14184,1,8,0:0:0:0:
256,192,14365,5,0,0:0:0:0:
256,192,14729,1,8,0:0:0:0:
256,192,15093,1,0,0:0:0:0:
256,192,15456,1,8,0:0:0:0:
256,192,15638,1,0,0:0:0:0:
256,192,16002,5,0,0:0:0:0:
256,192,16184,1,0,0:0:0:0:
256,192,16365,1,8,0:0:0:0:
256,192,16547,1,8,0:0:0:0:
256,192,16911,1,8,0:0:0:0:
256,192,17275,5,0,0:0:0:0:
256,192,17638,1,8,0:0:0:0:
256,192,17820,1,0,0:0:0:0:
256,192,18002,1,0,0:0:0:0:
256,192,18365,1,0,0:0:0:0:
256,192,18729,5,8,0:0:0:0:
256,192,19093,1,8,0:0:0:0:
256,192,19456,1,0,0:0:0:0:
256,192,19820,1,0,0:0:0:0:
256,192,20002,1,0,0:0:0:0:
256,192,20184,5,8,0:0:0:0:
256,192,20547,1,0,0:0:0:0:
256,192,20911,1,8,0:0:0:0:
256,192,21275,1,8,0:0:0:0:
256,192,21456,1,0,0:0:0:0:
256,192,21820,5,0,0:0:0:0:
256,192,22002,1,8,0:0:0:0:
256,192,22184,1,8,0:0:0:0:
256,192,22365,1,8,0:0:0:0:
256,192,22729,1,0,0:0:0:0:
256,192,23093,5,8,0:0:0:0:
256,192,23456,1,8,0:0:0:0:
256,192,23638,1,0,0:0:0:0:
256,192,23820,1,0,0:0:0:0:
320,192,24547,5,4,0:0:0:0:
256,192,24911,1,0,0:0:0:0:
256,192,25093,1,0,0:0:0:0:
256,192,25275,1,8,0:0:0:0:
256,192,25638,1,8,0:0:0:0:
256,192,26002,5,0,0:0:0:0:
256,192,26365,1,0,0:0:0:0:
256,192,26547,1,0,0:0:0:0:
256,192,26729,1,8,0:0:0:0:
256,192,26911,1,0,0:0:0:0:
256,192,27093,1,8,0:0:0:0:
256,192,27275,1,0,0:0:0:0:
256,192,27638,5,0,0:0:0:0:
256,192,27820,1,8,0:0:0:0:
256,192,28002,1,0,0:0:0:0:
256,192,28184,1,8,0:0:0:0:
256,192,28547,1,8,0:0:0:0:
256,192,28911,5,0,0:0:0:0:
256,192,29275,1,8,0:0:0:0:
256,192,29456,1,0,0:0:0:0:
256,192,29638,1,0,0:0:0:0:
256,192,30002,1,8,0:0:0:0:
256,192,30365,5,8,0:0:0:0:
256,192,30729,1,0,0:0:0:0:
256,192,30911,1,0,0:0:0:0:
256,192,31093,1,8,0:0:0:0:
256,192,31456,1,8,0:0:0:0:
256,192,31820,5,0,0:0:0:0:
256,192,32184,1,8,0:0:0:0:
256,192,32365,1,0,0:0:0:0:
256,192,32547,1,0,0:0:0:0:
256,192,32729,1,0,0:0:0:0:
256,192,32911,1,8,0:0:0:0:
256,192,33093,1,0,0:0:0:0:
256,192,33456,5,0,0:0:0:0:
256,192,33638,1,0,0:0:0:0:
256,192,33820,1,8,0:0:0:0:
256,192,34002,1,8,0:0:0:0:
256,192,34365,1,8,0:0:0:0:
256,192,34729,5,0,0:0:0:0:
256,192,35093,1,8,0:0:0:0:
256,192,35275,1,8,0:0:0:0:
256,192,35456,1,0,0:0:0:0:
256,192,35638,1,0,0:0:0:0:
256,192,35820,1,8,0:0:0:0:
256,192,36002,1,0,0:0:0:0:
256,192,36184,12,0,37638,0:0:0:0:
