osu file format v14

[General]
AudioFilename: audio.mp3
AudioLeadIn: 0
PreviewTime: 12915
Countdown: 0
SampleSet: None
StackLeniency: 0.3
Mode: 0
LetterboxInBreaks: 0
WidescreenStoryboard: 0

[Editor]
Bookmarks: 21279
DistanceSpacing: 1.4
BeatDivisor: 4
GridSize: 8
TimelineZoom: 2.5

[Metadata]
Title:In my room
TitleUnicode:In my room
Artist:FELT
ArtistUnicode:FELT
Creator:Gokateigo
Version:Serenity
Source:
Tags:NAGI☆ Grow Color Comiket85 Touhou
BeatmapID:1751465
BeatmapSetID:836348

[Difficulty]
HPDrainRate:5
CircleSize:7
OverallDifficulty:8
ApproachRate:8.5
SliderMultiplier:1.5
SliderTickRate:1

[Events]
//Background and Video events
0,0,"Spencer_sais Deep Sea Girl.png",0,0
//Break Periods
//Storyboard Layer 0 (Background)
//Storyboard Layer 1 (Fail)
//Storyboard Layer 2 (Pass)
//Storyboard Layer 3 (Foreground)
//Storyboard Sound Samples

[TimingPoints]
1279,363.636363636364,4,1,1,45,1,0
9642,-100,4,1,1,20,0,0
9733,-100,4,1,1,45,0,0
10006,-100,4,1,1,30,0,0
10097,-100,4,1,1,45,0,0
10551,-100,4,1,1,35,0,0
10642,-100,4,1,1,45,0,0
11097,-100,4,1,1,35,0,0
11188,-100,4,1,1,45,0,0
11642,-100,4,1,1,35,0,0
11733,-100,4,1,1,45,0,0
12188,-100,4,1,1,20,0,0
12279,-100,4,1,1,45,0,0
12915,-100,4,1,1,60,0,1
15097,-100,4,1,1,45,0,1
15188,-100,4,1,1,60,0,1
17279,-100,4,1,1,45,0,1
17369,-100,4,1,1,60,0,1
17824,-100,4,1,1,50,0,1
17915,-100,4,1,1,60,0,1
18369,-100,4,1,1,45,0,1
18460,-100,4,1,1,60,0,1
20915,-100,4,1,1,50,0,1
21006,-100,4,1,1,60,0,1
23097,-100,4,1,1,45,0,1
23188,-100,4,1,1,60,0,1
23824,-100,4,1,1,50,0,1
23915,-100,4,1,1,60,0,1
24188,-100,4,1,1,45,0,1
24279,-100,4,1,1,60,0,1
26551,-100,4,1,1,50,0,1
26824,-100,4,1,1,60,0,1
29460,-100,4,1,1,45,0,1
29551,-100,4,1,1,60,0,1
30006,-100,4,1,1,50,0,1
30097,-100,4,1,1,60,0,1
32551,-100,4,1,1,50,0,1
32642,-100,4,1,1,60,0,1
35097,-100,4,1,1,40,0,1
35188,-100,4,1,1,50,0,1
35733,-100,4,1,1,40,0,1
36188,-100,4,1,1,60,0,0

[Colours]
Combo1 : 244,94,135
Combo2 : 45,255,255
Combo3 : 255,28,141
Combo4 : 46,166,237

[HitObjects]
434,223,1279,6,0,P|470:248|486:288,1,75,4|0,0:0|0:0,0:0:0:0:
467,350,1642,1,0,3:0:0:0:
412,295,1824,1,2,1:0:0:0:
389,367,2006,2,0,P|353:342|337:302,1,75,0|0,2:0|0:0,0:0:0:0:
359,241,2369,1,2,0:0:0:0:
412,295,2551,1,0,0:0:0:0:
286,260,2733,5,0,0:0:0:0:
321,134,2915,1,2,0:0:0:0:
359,241,3097,5,2,0:0:0:0:
265,149,3279,1,0,0:0:0:0:
227,242,3460,6,0,P|199:285|166:301,1,75,2|0,1:0|0:0,0:0:0:0:
86,219,3824,2,0,P|137:221|167:242,1,75,0|0,3:0|3:0,0:0:0:0:
112,283,4188,5,2,1:0:0:0:
22,246,4369,1,0,0:0:0:0:
86,219,4551,1,0,0:0:0:0:
59,282,4733,1,2,1:0:0:0:
23,192,4915,2,0,P|8:148|10:103,1,75,2|0,1:0|0:0,0:0:0:0:
27,38,5279,1,2,1:0:0:0:
89,138,5460,1,0,0:0:0:0:
145,35,5642,5,0,0:0:0:0:
88,71,5824,1,2,1:0:0:0:
205,66,6006,5,0,0:0:0:0:
207,153,6188,1,2,0:0:0:0:
207,153,6279,1,0,0:0:0:0:
207,153,6369,2,0,P|218:204|257:231,1,75,2|0,0:0|1:0,0:0:0:0:
287,158,6733,2,0,P|333:182|378:169,1,75,2|0,0:0|3:0,0:0:0:0:
424,110,7097,6,0,P|408:60|367:37,1,75,2|0,0:0|0:0,0:0:0:0:
299,72,7460,1,0,0:0:0:0:
358,105,7642,1,2,0:0:0:0:
391,46,7824,2,0,P|418:20|454:13,1,75,2|0,0:0|0:0,0:0:0:0:
494,77,8188,1,2,0:0:0:0:
454,141,8369,1,0,0:0:0:0:
394,47,8551,5,0,0:0:0:0:
452,94,8732,1,2,0:0:0:0:
325,73,8915,5,0,0:0:0:0:
354,6,9097,1,2,0:0:0:0:
364,127,9279,6,0,P|313:138|275:115,1,75,2|0,0:0|0:0,0:0:0:0:
254,76,9642,2,0,P|305:65|343:88,1,75,8|0,0:0|0:0,0:0:0:0:
261,187,10006,6,0,L|183:166,1,75,10|0,0:0|0:0,0:0:0:0:
118,141,10369,1,0,0:0:0:0:
130,214,10551,1,10,0:0:0:0:
134,239,10642,1,0,0:0:0:0:
137,265,10733,6,0,P|140:306|127:338,1,75,0|0,0:0|0:0,0:0:0:0:
75,370,11097,1,10,0:0:0:0:
60,290,11279,1,0,0:0:0:0:
127,336,11460,5,0,0:0:0:0:
181,254,11642,1,10,0:0:0:0:
199,350,11824,5,0,0:0:0:0:
314,326,12006,1,2,0:0:0:0:
339,321,12097,1,0,0:0:0:0:
365,318,12188,2,0,P|411:302|451:303,1,75,10|0,0:0|0:0,0:0:0:0:
453,373,12551,2,0,P|437:327|438:287,1,75,0|0,3:0|3:0,0:0:0:0:
454,196,12915,5,10,3:0:0:0:
490,295,13097,1,0,3:0:0:0:
409,227,13279,5,0,0:0:0:0:
476,145,13460,1,0,3:0:0:0:
377,183,13642,6,0,P|338:193|295:190,1,75,2|0,0:0|3:0,0:0:0:0:
248,147,14006,1,0,0:0:0:0:
328,104,14188,1,2,0:0:0:0:
303,191,14369,5,0,0:0:0:0:
204,113,14551,1,0,3:0:0:0:
285,24,14733,5,2,0:0:0:0:
288,125,14915,1,0,3:0:0:0:
122,33,15097,6,0,P|157:22|195:22,1,75,8|0,2:0|0:0,0:0:0:0:
204,113,15460,2,0,P|168:124|131:124,1,75,0|0,3:0|3:0,0:0:0:0:
31,43,15824,6,0,P|19:78|19:115,1,75,2|0,0:0|3:0,0:0:0:0:
68,215,16188,5,0,0:0:0:0:
75,104,16370,1,0,3:0:0:0:
147,185,16551,5,2,0:0:0:0:
3,185,16733,1,0,3:0:0:0:
130,123,16915,2,0,P|166:131|198:149,1,75,2|2,0:0|0:0,0:0:0:0:
283,224,17279,5,8,0:0:0:0:
209,309,17460,1,2,0:0:0:0:
198,150,17642,5,2,0:0:0:0:
246,266,17824,1,8,0:0:0:0:
253,283,17915,1,0,0:0:0:0:
260,300,18006,6,0,P|285:342|320:362,1,75,2|0,0:0|0:0,0:0:0:0:
407,275,18369,2,0,P|358:275|323:295,1,75,10|0,0:0|0:0,0:0:0:0:
479,301,18733,6,0,P|478:252|458:217,1,75,2|0,1:0|3:0,0:0:0:0:
422,169,19097,1,0,0:0:0:0:
407,275,19279,1,0,3:0:0:0:
497,161,19460,5,2,0:0:0:0:
378,109,19642,1,0,3:0:0:0:
467,229,19824,5,0,0:0:0:0:
449,74,20006,1,2,0:0:0:0:
324,168,20188,5,10,0:0:0:0:
422,169,20369,1,0,3:0:0:0:
325,70,20551,5,2,0:0:0:0:
226,167,20733,1,2,0:0:0:0:
191,32,20915,6,0,P|228:59|245:89,1,75,8|0,2:0|0:0,0:0:0:0:
165,112,21279,2,0,P|138:148|108:166,1,75,0|0,3:0|3:0,0:0:0:0:
14,66,21642,6,0,P|58:71|89:88,1,75,2|0,0:0|3:0,0:0:0:0:
113,163,22006,5,0,3:0:0:0:
31,150,22188,1,0,3:0:0:0:
165,112,22369,5,2,0:0:0:0:
152,194,22551,1,0,0:0:0:0:
84,85,22733,5,0,0:0:0:0:
192,31,22915,1,2,0:0:0:0:
246,139,23097,5,10,0:0:0:0:
147,68,23279,1,0,3:0:0:0:
257,17,23460,1,2,0:0:0:0:
356,88,23642,5,2,0:0:0:0:
384,106,23733,1,0,0:0:0:0:
413,122,23824,2,0,P|458:139|493:136,1,75,10|0,0:0|3:0,0:0:0:0:
330,77,24188,2,0,P|313:122|316:157,1,75,10|0,0:0|3:0,0:0:0:0:
376,268,24551,5,4,0:0:0:0:
443,190,24733,1,0,3:0:0:0:
346,225,24915,5,0,0:0:0:0:
447,243,25097,1,0,3:0:0:0:
305,293,25279,6,0,P|253:307|201:294,1,75,2|0,0:0|3:0,0:0:0:0:
143,265,25642,1,0,0:0:0:0:
258,228,25825,1,0,0:0:0:0:
117,342,26006,5,2,0:0:0:0:
90,204,26188,1,0,3:0:0:0:
232,305,26369,5,2,0:0:0:0:
76,293,26551,1,8,0:0:0:0:
164,163,26733,6,0,P|198:130|232:116,1,75,8|0,2:0|3:0,0:0:0:0:
316,90,27097,1,2,0:0:0:0:
309,212,27279,2,0,P|274:197|237:196,1,75,2|2,0:0|0:0,0:0:0:0:
253,292,27642,1,0,3:0:0:0:
389,268,27824,5,0,3:0:0:0:
367,133,28006,1,2,0:0:0:0:
317,315,28188,5,0,3:0:0:0:
461,221,28369,1,2,0:0:0:0:
309,212,28551,5,0,3:0:0:0:
378,349,28733,1,2,3:0:0:0:
387,196,28915,5,2,0:0:0:0:
317,315,29097,1,2,0:0:0:0:
461,221,29279,5,2,0:0:0:0:
293,186,29460,1,10,0:0:0:0:
293,186,29551,1,0,0:0:0:0:
293,186,29642,2,0,P|250:160|226:123,1,75,2|0,0:0|3:0,0:0:0:0:
252,53,30006,2,0,P|286:70|311:98,1,75,8|0,2:0|0:0,0:0:0:0:
168,81,30369,5,2,1:0:0:0:
256,0,30551,1,0,3:0:0:0:
235,140,30733,5,2,0:0:0:0:
199,25,30915,1,0,3:0:0:0:
163,140,31097,6,0,P|139:182|110:204,1,75,2|0,0:0|3:0,0:0:0:0:
15,243,31460,1,0,0:0:0:0:
76,122,31642,1,2,0:0:0:0:
90,286,31824,5,0,0:0:0:0:
29,165,32006,1,0,3:0:0:0:
167,224,32188,5,2,0:0:0:0:
15,243,32370,1,0,0:0:0:0:
108,366,32551,6,0,P|155:367|191:353,1,75,8|0,2:0|3:0,0:0:0:0:
275,295,32915,1,0,3:0:0:0:
254,366,33097,6,0,P|207:367|171:353,1,75,0|2,3:0|0:0,0:0:0:0:
87,295,33461,1,0,3:0:0:0:
150,202,33642,5,0,0:0:0:0:
180,358,33824,1,2,0:0:0:0:
301,255,34006,6,0,P|343:226|381:228,1,75,0|0,0:0|3:0,0:0:0:0:
468,245,34369,5,2,0:0:0:0:
361,301,34551,1,0,3:0:0:0:
369,147,34733,5,2,0:0:0:0:
414,273,34915,1,2,0:0:0:0:
269,205,35097,5,8,0:0:0:0:
445,141,35279,1,8,0:0:0:0:
269,77,35460,6,0,P|309:125|336:137,1,75,2|0,0:0|3:0,0:0:0:0:
445,141,35824,2,0,P|405:93|378:81,1,75,4|4,0:0|3:0,0:0:0:0:
