osu file format v14

[General]
AudioFilename: audio.mp3
AudioLeadIn: 0
PreviewTime: 12915
Countdown: 0
SampleSet: Normal
StackLeniency: 0.7
Mode: 2
LetterboxInBreaks: 0
WidescreenStoryboard: 1

[Editor]
Bookmarks: 1279,12915,24551,36006
DistanceSpacing: 2.7
BeatDivisor: 4
GridSize: 32
TimelineZoom: 1.9

[Metadata]
Title:In my room
TitleUnicode:In my room
Artist:FELT
ArtistUnicode:FELT
Creator:Golo-
Version:Serenity
Source:
Tags:Grow Color NAGI☆ Comiket 85 c85 コミケット Electronic Instrumental
BeatmapID:3170740
BeatmapSetID:1551700

[Difficulty]
HPDrainRate:6
CircleSize:4
OverallDifficulty:9
ApproachRate:9
SliderMultiplier:1.8
SliderTickRate:2

[Events]
//Background and Video events
0,0,"bg.jpg",0,0
//Break Periods
//Storyboard Layer 0 (Background)
//Storyboard Layer 1 (Fail)
//Storyboard Layer 2 (Pass)
//Storyboard Layer 3 (Foreground)
//Storyboard Layer 4 (Overlay)
//Storyboard Sound Samples

[TimingPoints]
1279,363.636363636364,4,1,1,30,1,0
1824,-100,4,1,2,30,0,0
2188,-100,4,1,1,30,0,0
2369,-100,4,1,2,30,0,0
2733,-100,4,1,1,30,0,0
2915,-100,4,1,2,30,0,0
3096,-100,4,1,3,30,0,0
3460,-100,4,2,1,30,0,0
3642,-100,4,1,1,30,0,0
4006,-100,4,1,3,30,0,0
4187,-100,4,1,1,30,0,0
4733,-100,4,1,2,30,0,0
5097,-100,4,2,1,30,0,0
5279,-100,4,1,1,30,0,0
5461,-100,4,1,2,30,0,0
5642,-100,4,1,1,30,0,0
5824,-100,4,1,2,30,0,0
6188,-100,4,1,3,30,0,0
6369,-100,4,1,1,30,0,0
6733,-100,4,1,3,30,0,0
6915,-100,4,1,1,30,0,0
7097,-100,4,1,3,30,0,0
7278,-100,4,1,1,30,0,0
7642,-100,4,1,2,30,0,0
8005,-100,4,1,1,30,0,0
8187,-100,4,1,2,30,0,0
8551,-100,4,1,1,30,0,0
8733,-100,4,1,2,30,0,0
8915,-100,4,1,3,30,0,0
9279,-100,4,2,1,30,0,0
9460,-100,4,1,1,30,0,0
9824,-100,4,1,3,30,0,0
10006,-100,4,1,2,30,0,0
10188,-100,4,1,1,30,0,0
10551,-100,4,1,2,30,0,0
10915,-100,4,2,1,30,0,0
11097,-100,4,1,1,30,0,0
11279,-100,4,1,2,30,0,0
11460,-100,4,1,1,30,0,0
11642,-100,4,1,2,30,0,0
11824,-100,4,1,3,30,0,0
12187,-100,4,1,1,30,0,0
12551,-100,4,1,3,30,0,0
12733,-100,4,1,1,30,0,0
12915,-100,4,3,1,40,0,0
13097,-100,4,1,1,40,0,0
13460,-100,4,1,2,40,0,0
13824,-100,4,1,1,40,0,0
14006,-100,4,1,2,40,0,0
14369,-100,4,1,1,40,0,0
14551,-100,4,1,2,40,0,0
14732,-100,4,1,3,40,0,0
15097,-100,4,2,1,40,0,0
15279,-100,4,1,1,40,0,0
15642,-100,4,1,3,40,0,0
15824,-100,4,3,2,40,0,0
16006,-100,4,1,1,40,0,0
16369,-100,4,1,2,40,0,0
16733,-100,4,2,1,40,0,0
16915,-100,4,1,1,40,0,0
17097,-100,4,1,2,40,0,0
17278,-100,4,1,1,40,0,0
17460,-100,4,1,2,40,0,0
17642,-100,4,1,3,40,0,0
18006,-100,4,1,1,40,0,0
18369,-100,4,1,3,40,0,0
18551,-100,4,1,1,40,0,0
18733,-100,4,3,3,40,0,0
18914,-100,4,1,1,40,0,0
19278,-100,4,1,2,40,0,0
19641,-100,4,1,1,40,0,0
19824,-100,4,1,2,40,0,0
20187,-100,4,1,1,40,0,0
20369,-100,4,1,2,40,0,0
20550,-100,4,1,3,40,0,0
20915,-100,4,2,1,40,0,0
21097,-100,4,1,1,40,0,0
21460,-100,4,1,3,40,0,0
21642,-100,4,3,4,40,0,0
21824,-100,4,1,1,40,0,0
22188,-100,4,1,2,40,0,0
22551,-100,4,2,1,40,0,0
22733,-100,4,1,1,40,0,0
22914,-100,4,1,2,40,0,0
23097,-100,4,1,1,40,0,0
23278,-100,4,1,2,40,0,0
23460,-100,4,1,3,40,0,0
23824,-100,4,1,1,40,0,0
24187,-100,4,1,3,40,0,0
24369,-100,4,1,1,40,0,0
24551,-100,4,3,5,50,0,0
24733,-100,4,1,1,50,0,0
25097,-100,4,1,2,50,0,0
25460,-100,4,1,1,50,0,0
25824,-100,4,1,2,50,0,0
26006,-100,4,1,1,50,0,0
26188,-100,4,1,2,50,0,0
26369,-100,4,1,4,50,0,0
26551,-100,4,1,3,50,0,0
26733,-100,4,2,1,50,0,0
26915,-100,4,1,1,50,0,0
27279,-100,4,1,2,50,0,0
27460,-100,4,3,6,50,0,0
27642,-100,4,1,1,50,0,0
28006,-100,4,1,2,50,0,0
28369,-100,4,2,1,50,0,0
28551,-100,4,1,1,50,0,0
28733,-100,4,1,2,50,0,0
28915,-100,4,1,1,50,0,0
29097,-100,4,1,2,50,0,0
29279,-100,4,1,3,50,0,0
29642,-100,4,1,1,50,0,0
30006,-100,4,1,3,50,0,0
30188,-100,4,1,1,50,0,0
30369,-100,4,3,1,50,0,0
30551,-100,4,1,1,50,0,0
30915,-100,4,1,2,50,0,0
31279,-100,4,1,1,50,0,0
31642,-100,4,1,2,50,0,0
31824,-100,4,1,1,50,0,0
32006,-100,4,1,2,50,0,0
32188,-100,4,1,3,50,0,0
32551,-100,4,2,1,50,0,0
32733,-100,4,1,1,50,0,0
33097,-100,4,1,3,50,0,0
33279,-100,4,3,2,50,0,0
33460,-100,4,1,1,50,0,0
33824,-100,4,1,2,50,0,0
34188,-100,4,1,1,50,0,0
34369,-100,4,1,2,50,0,0
34551,-100,4,1,1,50,0,0
34733,-100,4,1,2,50,0,0
34915,-100,4,1,3,50,0,0
35279,-100,4,1,1,50,0,0
35642,-100,4,1,3,50,0,0
35824,-100,4,1,1,50,0,0
36006,-100,4,1,4,50,0,0

[Colours]
Combo1 : 202,101,0
Combo2 : 255,255,128
Combo3 : 128,255,128

[HitObjects]
192,320,1279,5,2,0:0:0:0:
93,320,1460,1,4,0:0:0:0:
93,220,1642,1,8,0:0:0:0:
192,220,1824,1,2,0:0:0:0:
354,220,2006,6,0,L|354:310,1,90,8|8,0:0|0:0,0:0:0:0:
191,310,2369,2,0,L|85:310,1,90,8|4,0:0|0:0,0:0:0:0:
345,313,2733,5,8,0:0:0:0:
444,313,2915,1,4,0:0:0:0:
444,213,3097,1,2,0:0:0:0:
344,213,3279,1,8,0:0:0:0:
182,213,3460,6,0,L|87:213,1,90,0|4,0:0|0:0,0:0:0:0:
255,213,3824,2,0,L|344:213,1,90,8|4,0:0|0:0,0:0:0:0:
101,200,4188,5,8,0:0:0:0:
101,101,4369,1,4,0:0:0:0:
200,101,4551,1,8,0:0:0:0:
299,101,4733,1,2,0:0:0:0:
136,101,4915,6,0,L|136:205,1,90,8|0,0:0|0:0,0:0:0:0:
299,191,5279,2,0,L|394:191,1,90,8|4,0:0|0:0,0:0:0:0:
145,191,5642,5,8,0:0:0:0:
145,290,5824,2,0,L|242:290,1,90,4|2,0:0|0:0,0:0:0:0:
398,290,6188,1,8,0:0:0:0:
398,208,6279,1,0,0:0:0:0:
291,208,6369,6,0,L|193:208,1,90,8|4,0:0|0:0,0:0:0:0:
37,208,6733,2,0,L|38:304,1,90,4|4,0:0|0:0,0:0:0:0:
282,297,7097,5,4,0:0:0:0:
381,297,7279,1,4,0:0:0:0:
479,297,7460,1,8,0:0:0:0:
381,297,7642,1,2,0:0:0:0:
218,297,7824,6,0,L|119:298,1,90,8|8,0:0|0:0,0:0:0:0:
291,297,8188,2,0,L|290:200,1,90,8|4,0:0|0:0,0:0:0:0:
127,207,8551,5,8,0:0:0:0:
127,107,8733,1,4,0:0:0:0:
226,107,8915,1,2,0:0:0:0:
325,107,9097,1,8,0:0:0:0:
162,107,9279,6,0,L|259:107,1,90,0|4,0:0|0:0,0:0:0:0:
414,107,9642,2,0,L|414:209,1,90,8|4,0:0|0:0,0:0:0:0:
169,197,10006,5,2,0:0:0:0:
69,197,10188,1,4,0:0:0:0:
69,295,10369,1,8,0:0:0:0:
168,295,10551,1,2,0:0:0:0:
330,295,10733,6,0,L|444:295,1,90,8|0,0:0|0:0,0:0:0:0:
258,295,11097,2,0,L|152:295,1,90,8|4,0:0|0:0,0:0:0:0:
411,295,11460,5,8,0:0:0:0:
411,195,11642,2,0,L|304:194,1,90,4|2,0:0|0:0,0:0:0:0:
157,194,12006,1,8,0:0:0:0:
157,112,12097,1,0,0:0:0:0:
265,112,12188,6,0,L|373:112,1,90,8|4,0:0|0:0,0:0:0:0:
192,112,12551,2,0,L|192:204,1,90,4|4,0:0|0:0,0:0:0:0:
436,202,12915,5,2,0:0:0:0:
436,301,13097,1,4,0:0:0:0:
336,301,13279,1,8,0:0:0:0:
237,301,13460,1,2,0:0:0:0:
74,301,13642,6,0,L|73:201,1,90,8|8,0:0|0:0,0:0:0:0:
236,211,14006,2,0,L|333:211,1,90,8|4,0:0|0:0,0:0:0:0:
82,211,14369,5,8,0:0:0:0:
82,111,14551,1,4,0:0:0:0:
181,111,14733,1,2,0:0:0:0:
82,111,14915,1,8,0:0:0:0:
244,111,15097,6,0,L|341:110,1,90,0|4,0:0|0:0,0:0:0:0:
172,111,15460,2,0,L|66:111,1,90,8|4,0:0|0:0,0:0:0:0:
326,111,15824,5,8,0:0:0:0:
425,111,16006,1,4,0:0:0:0:
425,210,16188,1,8,0:0:0:0:
326,210,16369,1,2,0:0:0:0:
163,210,16551,6,0,L|165:304,1,90,8|0,0:0|0:0,0:0:0:0:
327,299,16915,2,0,L|417:299,1,90,8|4,0:0|0:0,0:0:0:0:
172,299,17279,5,8,0:0:0:0:
73,299,17460,1,4,0:0:0:0:
172,299,17642,1,2,0:0:0:0:
334,299,17824,1,8,0:0:0:0:
334,217,17915,1,0,0:0:0:0:
225,217,18006,6,0,L|117:217,1,90,8|4,0:0|0:0,0:0:0:0:
297,217,18369,2,0,L|397:217,1,90,4|4,0:0|0:0,0:0:0:0:
142,217,18733,5,4,0:0:0:0:
42,217,18915,1,4,0:0:0:0:
142,217,19097,1,8,0:0:0:0:
241,217,19279,1,2,0:0:0:0:
402,217,19460,6,0,L|402:119,1,90,8|8,0:0|0:0,0:0:0:0:
238,127,19824,2,0,L|135:128,1,90,8|4,0:0|0:0,0:0:0:0:
392,127,20188,5,8,0:0:0:0:
392,225,20369,1,4,0:0:0:0:
292,225,20551,1,2,0:0:0:0:
192,225,20733,1,8,0:0:0:0:
354,225,20915,6,0,L|457:225,1,90,0|4,0:0|0:0,0:0:0:0:
280,225,21279,2,0,L|186:224,1,90,8|4,0:0|0:0,0:0:0:0:
433,224,21642,5,2,0:0:0:0:
433,124,21824,1,4,0:0:0:0:
333,124,22006,1,8,0:0:0:0:
233,124,22188,1,2,0:0:0:0:
394,124,22369,6,0,L|394:221,1,90,8|0,0:0|0:0,0:0:0:0:
230,214,22733,2,0,L|127:213,1,90,8|4,0:0|0:0,0:0:0:0:
384,213,23097,5,8,0:0:0:0:
483,213,23279,1,4,0:0:0:0:
384,213,23460,1,2,0:0:0:0:
221,213,23642,1,8,0:0:0:0:
221,131,23733,1,0,0:0:0:0:
329,131,23824,6,0,L|429:132,1,90,8|4,0:0|0:0,0:0:0:0:
201,131,24188,2,0,L|105:132,1,90,4|4,0:0|0:0,0:0:0:0:
354,131,24551,5,2,0:0:0:0:
354,230,24733,2,0,L|248:230,1,90,4|8,0:0|0:0,0:0:0:0:
164,230,25097,1,2,0:0:0:0:
326,230,25279,6,0,L|326:123,1,90,8|8,0:0|0:0,0:0:0:0:
164,140,25642,2,0,L|51:140,1,90,8|4,0:0|0:0,0:0:0:0:
319,231,26006,6,0,L|425:232,1,90,8|4,0:0|0:0,0:0:0:0:
408,132,26369,2,0,L|305:132,1,90,2|8,0:0|0:0,0:0:0:0:
73,132,26733,2,0,L|73:235,1,90,0|4,0:0|0:0,0:0:0:0:
236,222,27097,2,0,L|332:222,1,90,8|4,0:0|0:0,0:0:0:0:
82,222,27460,5,8,0:0:0:0:
82,122,27642,2,0,L|181:122,1,90,4|8,0:0|0:0,0:0:0:0:
271,122,28006,1,2,0:0:0:0:
108,122,28188,6,0,L|108:217,1,90,8|0,0:0|0:0,0:0:0:0:
270,212,28551,2,0,L|362:212,1,90,8|4,0:0|0:0,0:0:0:0:
115,212,28915,5,8,0:0:0:0:
15,212,29097,1,4,0:0:0:0:
115,212,29279,1,2,0:0:0:0:
276,212,29460,1,8,0:0:0:0:
276,293,29551,1,0,0:0:0:0:
167,293,29642,6,0,L|73:293,1,90,8|4,0:0|0:0,0:0:0:0:
240,293,30006,2,0,L|336:293,1,90,4|4,0:0|0:0,0:0:0:0:
86,293,30369,6,0,L|85:179,1,90,2|4,0:0|0:0,0:0:0:0:
184,203,30733,1,8,0:0:0:0:
283,203,30915,1,2,0:0:0:0:
120,203,31097,6,0,L|121:294,1,90,8|8,0:0|0:0,0:0:0:0:
283,293,31460,2,0,L|373:293,1,90,8|4,0:0|0:0,0:0:0:0:
128,293,31824,6,0,L|128:169,1,90,8|4,0:0|0:0,0:0:0:0:
227,203,32188,2,0,L|328:203,1,90,2|8,0:0|0:0,0:0:0:0:
73,203,32551,6,0,L|72:112,1,90,0|4,0:0|0:0,0:0:0:0:
235,113,32915,2,0,L|341:113,1,90,8|4,0:0|0:0,0:0:0:0:
80,113,33279,6,0,L|81:203,1,90,8|4,0:0|0:0,0:0:0:0:
180,202,33642,1,8,0:0:0:0:
279,202,33824,1,2,0:0:0:0:
116,202,34006,6,0,L|117:300,1,90,8|8,0:0|0:0,0:0:0:0:
279,291,34369,2,0,L|377:291,1,90,4|8,0:0|0:0,0:0:0:0:
124,201,34733,6,0,L|123:86,1,90,4|2,0:0|0:0,0:0:0:0:
222,111,35097,1,8,0:0:0:0:
384,111,35279,1,8,0:0:0:0:
384,191,35369,1,0,0:0:0:0:
275,191,35460,2,0,L|179:191,1,90,4|4,0:0|0:0,0:0:0:0:
348,191,35824,2,0,L|448:192,1,90,4|8,0:0|0:0,0:0:0:0:
