osu file format v14

[General]
AudioFilename: audio.mp3
AudioLeadIn: 0
PreviewTime: 12915
Countdown: 0
SampleSet: Normal
StackLeniency: 0.7
Mode: 2
LetterboxInBreaks: 0
WidescreenStoryboard: 1

[Editor]
Bookmarks: 1279,12915,24551,36006
DistanceSpacing: 1
BeatDivisor: 2
GridSize: 32
TimelineZoom: 1.9

[Metadata]
Title:In my room
TitleUnicode:In my room
Artist:FELT
ArtistUnicode:FELT
Creator:Golo-
Version:Salad
Source:
Tags:Grow Color NAGI☆ Comiket 85 c85 コミケット Electronic Instrumental
BeatmapID:3179648
BeatmapSetID:1551700

[Difficulty]
HPDrainRate:4
CircleSize:3
OverallDifficulty:7
ApproachRate:7
SliderMultiplier:1.4
SliderTickRate:1

[Events]
//Background and Video events
0,0,"bg.jpg",0,0
//Break Periods
//Storyboard Layer 0 (Background)
//Storyboard Layer 1 (Fail)
//Storyboard Layer 2 (Pass)
//Storyboard Layer 3 (Foreground)
//Storyboard Layer 4 (Overlay)
//Storyboard Sound Samples

[TimingPoints]
1279,363.636363636364,4,1,1,30,1,0
1824,-100,4,1,2,30,0,0
2188,-100,4,1,1,30,0,0
2369,-100,4,1,2,30,0,0
2733,-100,4,1,1,30,0,0
2915,-100,4,1,2,30,0,0
3096,-100,4,1,3,30,0,0
3460,-100,4,2,1,30,0,0
3642,-100,4,1,1,30,0,0
4006,-100,4,1,3,30,0,0
4187,-100,4,1,1,30,0,0
4733,-100,4,1,2,30,0,0
5097,-100,4,2,1,30,0,0
5279,-100,4,1,1,30,0,0
5461,-100,4,1,2,30,0,0
5642,-100,4,1,1,30,0,0
5824,-100,4,1,2,30,0,0
6188,-100,4,1,3,30,0,0
6369,-100,4,1,1,30,0,0
6733,-100,4,1,3,30,0,0
6915,-100,4,1,1,30,0,0
7097,-100,4,1,3,30,0,0
7278,-100,4,1,1,30,0,0
7642,-100,4,1,2,30,0,0
8005,-100,4,1,1,30,0,0
8187,-100,4,1,2,30,0,0
8551,-100,4,1,1,30,0,0
8733,-100,4,1,2,30,0,0
8915,-100,4,1,3,30,0,0
9279,-100,4,2,1,30,0,0
9460,-100,4,1,1,30,0,0
9824,-100,4,1,3,30,0,0
10006,-100,4,1,2,30,0,0
10188,-100,4,1,1,30,0,0
10551,-100,4,1,2,30,0,0
10915,-100,4,2,1,30,0,0
11097,-100,4,1,1,30,0,0
11279,-100,4,1,2,30,0,0
11460,-100,4,1,1,30,0,0
11642,-100,4,1,2,30,0,0
11824,-100,4,1,3,30,0,0
12187,-100,4,1,1,30,0,0
12551,-100,4,1,3,30,0,0
12733,-100,4,1,1,30,0,0
12915,-100,4,3,1,40,0,0
13097,-100,4,1,1,40,0,0
13460,-100,4,1,2,40,0,0
13824,-100,4,1,1,40,0,0
14006,-100,4,1,2,40,0,0
14369,-100,4,1,1,40,0,0
14551,-100,4,1,2,40,0,0
14732,-100,4,1,3,40,0,0
15097,-100,4,2,1,40,0,0
15279,-100,4,1,1,40,0,0
15642,-100,4,1,3,40,0,0
15824,-100,4,3,2,40,0,0
16006,-100,4,1,1,40,0,0
16369,-100,4,1,2,40,0,0
16733,-100,4,2,1,40,0,0
16915,-100,4,1,1,40,0,0
17097,-100,4,1,2,40,0,0
17278,-100,4,1,1,40,0,0
17460,-100,4,1,2,40,0,0
17642,-100,4,1,3,40,0,0
18006,-100,4,1,1,40,0,0
18369,-100,4,1,3,40,0,0
18551,-100,4,1,1,40,0,0
18733,-100,4,3,3,40,0,0
18914,-100,4,1,1,40,0,0
19278,-100,4,1,2,40,0,0
19641,-100,4,1,1,40,0,0
19824,-100,4,1,2,40,0,0
20187,-100,4,1,1,40,0,0
20369,-100,4,1,2,40,0,0
20550,-100,4,1,3,40,0,0
20915,-100,4,2,1,40,0,0
21097,-100,4,1,1,40,0,0
21460,-100,4,1,3,40,0,0
21642,-100,4,3,4,40,0,0
21824,-100,4,1,1,40,0,0
22188,-100,4,1,2,40,0,0
22551,-100,4,2,1,40,0,0
22733,-100,4,1,1,40,0,0
22914,-100,4,1,2,40,0,0
23097,-100,4,1,1,40,0,0
23278,-100,4,1,2,40,0,0
23460,-100,4,1,3,40,0,0
23824,-100,4,1,1,40,0,0
24187,-100,4,1,3,40,0,0
24369,-100,4,1,1,40,0,0
24551,-100,4,3,5,50,0,0
24733,-100,4,1,1,50,0,0
25097,-100,4,1,2,50,0,0
25460,-100,4,1,1,50,0,0
25824,-100,4,1,2,50,0,0
26006,-100,4,1,1,50,0,0
26188,-100,4,1,2,50,0,0
26369,-100,4,1,4,50,0,0
26551,-100,4,1,3,50,0,0
26733,-100,4,2,1,50,0,0
26915,-100,4,1,1,50,0,0
27279,-100,4,1,2,50,0,0
27460,-100,4,3,6,50,0,0
27642,-100,4,1,1,50,0,0
28006,-100,4,1,2,50,0,0
28369,-100,4,2,1,50,0,0
28551,-100,4,1,1,50,0,0
28733,-100,4,1,2,50,0,0
28915,-100,4,1,1,50,0,0
29097,-100,4,1,2,50,0,0
29279,-100,4,1,3,50,0,0
29642,-100,4,1,1,50,0,0
30006,-100,4,1,3,50,0,0
30188,-100,4,1,1,50,0,0
30369,-100,4,3,1,50,0,0
30551,-100,4,1,1,50,0,0
30915,-100,4,1,2,50,0,0
31279,-100,4,1,1,50,0,0
31642,-100,4,1,2,50,0,0
31824,-100,4,1,1,50,0,0
32006,-100,4,1,2,50,0,0
32188,-100,4,1,3,50,0,0
32551,-100,4,2,1,50,0,0
32733,-100,4,1,1,50,0,0
33097,-100,4,1,3,50,0,0
33279,-100,4,3,2,50,0,0
33460,-100,4,1,1,50,0,0
33824,-100,4,1,2,50,0,0
34188,-100,4,1,1,50,0,0
34369,-100,4,1,2,50,0,0
34551,-100,4,1,1,50,0,0
34733,-100,4,1,2,50,0,0
34915,-100,4,1,3,50,0,0
35279,-100,4,1,1,50,0,0
35642,-100,4,1,3,50,0,0
35824,-100,4,1,1,50,0,0
36006,-100,4,1,4,50,0,0
36188,-100,4,1,4,50,0,0
36551,-100,4,1,4,50,0,0
36915,-100,4,1,4,50,0,0

[Colours]
Combo1 : 202,101,0
Combo2 : 255,255,128
Combo3 : 128,255,128

[HitObjects]
224,256,1279,5,2,0:0:0:0:
154,256,1460,1,4,0:0:0:0:
224,256,1642,1,8,0:0:0:0:
294,256,1824,1,2,0:0:0:0:
364,256,2006,2,0,P|411:209|359:168,1,140,8|8,0:0|0:0,0:0:0:0:
228,167,2733,5,8,0:0:0:0:
157,167,2915,1,4,0:0:0:0:
157,237,3097,1,2,0:0:0:0:
225,237,3279,2,0,L|377:237,1,140,8|4,0:0|0:0,0:0:0:0:
294,237,3824,1,8,0:0:0:0:
153,237,4188,6,0,P|108:181|174:148,1,140,8|8,0:0|0:0,0:0:0:0:
218,143,4733,1,2,0:0:0:0:
288,143,4915,2,0,L|144:144,1,140,8|8,0:0|0:0,0:0:0:0:
288,143,5642,5,8,0:0:0:0:
358,143,5824,1,4,0:0:0:0:
428,143,6006,1,2,0:0:0:0:
358,143,6188,2,0,L|202:142,1,140,8|4,0:0|0:0,0:0:0:0:
288,142,6733,1,4,0:0:0:0:
428,142,7097,6,0,P|427:217|355:244,1,140,4|8,0:0|0:0,0:0:0:0:
306,245,7642,1,2,0:0:0:0:
235,245,7824,2,0,L|381:245,1,140,8|8,0:0|0:0,0:0:0:0:
234,245,8551,5,8,0:0:0:0:
163,245,8733,1,4,0:0:0:0:
233,245,8915,1,2,0:0:0:0:
303,245,9097,2,0,P|382:224|374:160,1,140,8|4,0:0|0:0,0:0:0:0:
314,177,9642,1,8,0:0:0:0:
173,177,10006,6,0,P|126:233|192:264,1,140,2|8,0:0|0:0,0:0:0:0:
234,268,10551,1,2,0:0:0:0:
304,268,10733,2,0,L|160:268,1,140,8|8,0:0|0:0,0:0:0:0:
304,268,11460,5,8,0:0:0:0:
304,197,11642,1,4,0:0:0:0:
233,197,11824,1,2,0:0:0:0:
162,197,12006,2,0,P|103:228|127:297,1,140,8|4,0:0|0:0,0:0:0:0:
187,290,12551,1,4,0:0:0:0:
439,290,12915,6,0,B|472:225|472:225|372:226,1,140,2|8,0:0|0:0,0:0:0:0:
334,225,13460,1,2,0:0:0:0:
263,225,13642,2,0,L|118:225,1,140,8|8,0:0|0:0,0:0:0:0:
263,225,14369,5,8,0:0:0:0:
333,225,14551,1,4,0:0:0:0:
333,295,14733,1,2,0:0:0:0:
262,295,14915,2,0,L|114:294,1,140,8|4,0:0|0:0,0:0:0:0:
192,294,15460,1,8,0:0:0:0:
444,294,15824,6,0,B|444:216|444:216|368:216,1,140,8|8,0:0|0:0,0:0:0:0:
311,216,16369,1,2,0:0:0:0:
242,215,16551,2,0,L|390:216,1,140,8|8,0:0|0:0,0:0:0:0:
241,215,17279,5,8,0:0:0:0:
171,215,17460,1,4,0:0:0:0:
241,215,17642,1,2,0:0:0:0:
311,215,17824,2,0,L|458:215,1,140,8|4,0:0|0:0,0:0:0:0:
380,215,18369,1,4,0:0:0:0:
127,215,18733,6,0,P|83:165|132:128,1,140,4|8,0:0|0:0,0:0:0:0:
198,127,19279,1,2,0:0:0:0:
268,128,19460,2,0,L|120:127,1,140,8|8,0:0|0:0,0:0:0:0:
198,127,20006,1,4,0:0:0:0:
268,128,20188,6,0,P|312:189|261:222,1,140,8|2,0:0|0:0,0:0:0:0:
203,221,20733,2,0,L|55:220,1,140,8|4,0:0|0:0,0:0:0:0:
133,220,21279,1,8,0:0:0:0:
384,220,21642,6,0,P|437:270|380:307,1,140,2|8,0:0|0:0,0:0:0:0:
331,307,22188,1,2,0:0:0:0:
261,307,22369,2,0,L|100:306,1,140,8|8,0:0|0:0,0:0:0:0:
261,306,23097,5,8,0:0:0:0:
331,307,23279,1,4,0:0:0:0:
261,306,23460,1,2,0:0:0:0:
190,306,23642,2,0,P|135:306|135:214,1,140,8|4,0:0|0:0,0:0:0:0:
186,234,24188,1,4,0:0:0:0:
437,234,24551,6,0,P|437:162|352:161,1,140,2|8,0:0|0:0,0:0:0:0:
310,143,25097,1,2,0:0:0:0:
241,143,25279,2,0,L|385:143,1,140,8|8,0:0|0:0,0:0:0:0:
128,143,26006,5,8,0:0:0:0:
57,143,26188,1,4,0:0:0:0:
128,143,26369,1,2,0:0:0:0:
196,143,26551,2,0,L|45:143,1,140,8|4,0:0|0:0,0:0:0:0:
128,143,27097,1,8,0:0:0:0:
379,143,27460,6,0,P|426:185|372:228,1,140,8|8,0:0|0:0,0:0:0:0:
311,229,28006,1,2,0:0:0:0:
242,229,28188,2,0,L|389:229,1,140,8|8,0:0|0:0,0:0:0:0:
129,229,28915,5,8,0:0:0:0:
129,158,29097,1,4,0:0:0:0:
199,158,29279,1,2,0:0:0:0:
268,158,29460,2,0,L|411:158,1,140,8|4,0:0|0:0,0:0:0:0:
337,158,30006,1,4,0:0:0:0:
85,158,30369,6,0,P|85:241|157:240,1,140,2|8,0:0|0:0,0:0:0:0:
198,253,30915,1,2,0:0:0:0:
268,253,31097,2,0,L|121:253,1,140,8|8,0:0|0:0,0:0:0:0:
380,253,31824,5,8,0:0:0:0:
380,182,32006,1,4,0:0:0:0:
309,182,32188,1,2,0:0:0:0:
240,182,32369,2,0,L|387:181,1,140,8|4,0:0|0:0,0:0:0:0:
309,181,32915,1,8,0:0:0:0:
56,181,33279,6,0,P|57:258|150:258,1,140,8|8,0:0|0:0,0:0:0:0:
177,279,33824,1,2,0:0:0:0:
247,279,34006,2,0,L|97:278,1,140,8|4,0:0|0:0,0:0:0:0:
359,278,34733,5,4,0:0:0:0:
429,278,34915,1,2,0:0:0:0:
429,207,35097,1,8,0:0:0:0:
358,207,35279,2,0,L|209:207,1,140,8|4,0:0|0:0,0:0:0:0:
147,207,35824,1,4,0:0:0:0:
218,207,36006,1,8,0:0:0:0:
