osu file format v14

[General]
AudioFilename: audio.mp3
AudioLeadIn: 0
PreviewTime: 12915
Countdown: 0
SampleSet: Normal
StackLeniency: 0.7
Mode: 2
LetterboxInBreaks: 0
WidescreenStoryboard: 1

[Editor]
Bookmarks: 1279,12915,24551,36006
DistanceSpacing: 1.1
BeatDivisor: 4
GridSize: 32
TimelineZoom: 1.9

[Metadata]
Title:In my room
TitleUnicode:In my room
Artist:FELT
ArtistUnicode:FELT
Creator:Golo-
Version:Platter
Source:
Tags:Grow Color NAGI☆ Comiket 85 c85 コミケット Electronic Instrumental
BeatmapID:3179647
BeatmapSetID:1551700

[Difficulty]
HPDrainRate:5
CircleSize:3.5
OverallDifficulty:8
ApproachRate:8
SliderMultiplier:1.5
SliderTickRate:1

[Events]
//Background and Video events
0,0,"bg.jpg",0,0
//Break Periods
//Storyboard Layer 0 (Background)
//Storyboard Layer 1 (Fail)
//Storyboard Layer 2 (Pass)
//Storyboard Layer 3 (Foreground)
//Storyboard Layer 4 (Overlay)
//Storyboard Sound Samples

[TimingPoints]
1279,363.636363636364,4,1,1,30,1,0
1824,-100,4,1,2,30,0,0
2188,-100,4,1,1,30,0,0
2369,-100,4,1,2,30,0,0
2733,-100,4,1,1,30,0,0
2915,-100,4,1,2,30,0,0
3096,-100,4,1,3,30,0,0
3460,-100,4,2,1,30,0,0
3642,-100,4,1,1,30,0,0
4006,-100,4,1,3,30,0,0
4187,-100,4,1,1,30,0,0
4733,-100,4,1,2,30,0,0
5097,-100,4,2,1,30,0,0
5279,-100,4,1,1,30,0,0
5461,-100,4,1,2,30,0,0
5642,-100,4,1,1,30,0,0
5824,-100,4,1,2,30,0,0
6188,-100,4,1,3,30,0,0
6369,-100,4,1,1,30,0,0
6733,-100,4,1,3,30,0,0
6915,-100,4,1,1,30,0,0
7097,-100,4,1,3,30,0,0
7278,-100,4,1,1,30,0,0
7642,-100,4,1,2,30,0,0
8005,-100,4,1,1,30,0,0
8187,-100,4,1,2,30,0,0
8551,-100,4,1,1,30,0,0
8733,-100,4,1,2,30,0,0
8915,-100,4,1,3,30,0,0
9279,-100,4,2,1,30,0,0
9460,-100,4,1,1,30,0,0
9824,-100,4,1,3,30,0,0
10006,-100,4,1,2,30,0,0
10188,-100,4,1,1,30,0,0
10551,-100,4,1,2,30,0,0
10915,-100,4,2,1,30,0,0
11097,-100,4,1,1,30,0,0
11279,-100,4,1,2,30,0,0
11460,-100,4,1,1,30,0,0
11642,-100,4,1,2,30,0,0
11824,-100,4,1,3,30,0,0
12187,-100,4,1,1,30,0,0
12551,-100,4,1,3,30,0,0
12733,-100,4,1,1,30,0,0
12915,-100,4,3,1,40,0,0
13097,-100,4,1,1,40,0,0
13460,-100,4,1,2,40,0,0
13824,-100,4,1,1,40,0,0
14006,-100,4,1,2,40,0,0
14369,-100,4,1,1,40,0,0
14551,-100,4,1,2,40,0,0
14732,-100,4,1,3,40,0,0
15097,-100,4,2,1,40,0,0
15279,-100,4,1,1,40,0,0
15642,-100,4,1,3,40,0,0
15824,-100,4,3,2,40,0,0
16006,-100,4,1,1,40,0,0
16369,-100,4,1,2,40,0,0
16733,-100,4,2,1,40,0,0
16915,-100,4,1,1,40,0,0
17097,-100,4,1,2,40,0,0
17278,-100,4,1,1,40,0,0
17460,-100,4,1,2,40,0,0
17642,-100,4,1,3,40,0,0
18006,-100,4,1,1,40,0,0
18369,-100,4,1,3,40,0,0
18551,-100,4,1,1,40,0,0
18733,-100,4,3,3,40,0,0
18914,-100,4,1,1,40,0,0
19278,-100,4,1,2,40,0,0
19641,-100,4,1,1,40,0,0
19824,-100,4,1,2,40,0,0
20187,-100,4,1,1,40,0,0
20369,-100,4,1,2,40,0,0
20550,-100,4,1,3,40,0,0
20915,-100,4,2,1,40,0,0
21097,-100,4,1,1,40,0,0
21460,-100,4,1,3,40,0,0
21642,-100,4,3,4,40,0,0
21824,-100,4,1,1,40,0,0
22188,-100,4,1,2,40,0,0
22551,-100,4,2,1,40,0,0
22733,-100,4,1,1,40,0,0
22914,-100,4,1,2,40,0,0
23097,-100,4,1,1,40,0,0
23278,-100,4,1,2,40,0,0
23460,-100,4,1,3,40,0,0
23824,-100,4,1,1,40,0,0
24187,-100,4,1,3,40,0,0
24369,-100,4,1,1,40,0,0
24551,-100,4,3,5,50,0,0
24733,-100,4,1,1,50,0,0
25097,-100,4,1,2,50,0,0
25460,-100,4,1,1,50,0,0
25824,-100,4,1,2,50,0,0
26006,-100,4,1,1,50,0,0
26188,-100,4,1,2,50,0,0
26369,-100,4,1,4,50,0,0
26551,-100,4,1,3,50,0,0
26733,-100,4,2,1,50,0,0
26915,-100,4,1,1,50,0,0
27279,-100,4,1,2,50,0,0
27460,-100,4,3,6,50,0,0
27642,-100,4,1,1,50,0,0
28006,-100,4,1,2,50,0,0
28369,-100,4,2,1,50,0,0
28551,-100,4,1,1,50,0,0
28733,-100,4,1,2,50,0,0
28915,-100,4,1,1,50,0,0
29097,-100,4,1,2,50,0,0
29279,-100,4,1,3,50,0,0
29642,-100,4,1,1,50,0,0
30006,-100,4,1,3,50,0,0
30188,-100,4,1,1,50,0,0
30369,-100,4,3,1,50,0,0
30551,-100,4,1,1,50,0,0
30915,-100,4,1,2,50,0,0
31279,-100,4,1,1,50,0,0
31642,-100,4,1,2,50,0,0
31824,-100,4,1,1,50,0,0
32006,-100,4,1,2,50,0,0
32188,-100,4,1,3,50,0,0
32551,-100,4,2,1,50,0,0
32733,-100,4,1,1,50,0,0
33097,-100,4,1,3,50,0,0
33279,-100,4,3,2,50,0,0
33460,-100,4,1,1,50,0,0
33824,-100,4,1,2,50,0,0
34188,-100,4,1,1,50,0,0
34369,-100,4,1,2,50,0,0
34551,-100,4,1,1,50,0,0
34733,-100,4,1,2,50,0,0
34915,-100,4,1,3,50,0,0
35279,-100,4,1,1,50,0,0
35642,-100,4,1,3,50,0,0
35824,-100,4,1,1,50,0,0
36006,-100,4,1,4,50,0,0

[Colours]
Combo1 : 202,101,0
Combo2 : 255,255,128
Combo3 : 128,255,128

[HitObjects]
384,256,1279,5,2,0:0:0:0:
466,256,1460,1,4,0:0:0:0:
384,256,1642,1,8,0:0:0:0:
301,256,1824,1,2,0:0:0:0:
128,256,2006,2,0,P|82:206|132:145,1,150,8|8,0:0|0:0,0:0:0:0:
204,147,2551,1,4,0:0:0:0:
376,147,2733,5,8,0:0:0:0:
458,147,2915,2,0,L|373:148,1,75,4|2,0:0|0:0,0:0:0:0:
204,147,3279,2,0,P|162:189|219:243,1,150,8|4,0:0|0:0,0:0:0:0:
296,243,3824,2,0,L|207:243,1,75,8|4,0:0|0:0,0:0:0:0:
47,243,4188,5,8,0:0:0:0:
47,160,4369,1,4,0:0:0:0:
129,160,4551,1,8,0:0:0:0:
211,160,4733,1,2,0:0:0:0:
383,160,4915,2,0,P|430:212|379:256,1,150,8|8,0:0|0:0,0:0:0:0:
299,255,5460,1,4,0:0:0:0:
126,255,5642,5,8,0:0:0:0:
126,172,5824,2,0,L|203:172,1,75,4|2,0:0|0:0,0:0:0:0:
374,172,6188,2,0,P|435:173|459:270,1,150,8|4,0:0|0:0,0:0:0:0:
386,246,6733,2,0,L|307:246,1,75,4|4,0:0|0:0,0:0:0:0:
137,246,7097,5,4,0:0:0:0:
54,246,7279,1,4,0:0:0:0:
54,163,7460,1,8,0:0:0:0:
136,163,7642,1,2,0:0:0:0:
311,175,7824,2,0,P|363:173|356:269,1,150,8|8,0:0|0:0,0:0:0:0:
294,254,8369,1,4,0:0:0:0:
121,254,8551,5,8,0:0:0:0:
121,171,8733,2,0,L|200:171,1,75,4|2,0:0|0:0,0:0:0:0:
369,171,9097,2,0,L|205:171,1,150,8|4,0:0|0:0,0:0:0:0:
136,171,9642,2,0,L|223:171,1,75,8|4,0:0|0:0,0:0:0:0:
384,171,10006,5,2,0:0:0:0:
466,171,10188,1,4,0:0:0:0:
384,171,10369,1,8,0:0:0:0:
301,171,10551,1,2,0:0:0:0:
128,171,10733,2,0,P|70:228|130:257,1,150,8|8,0:0|0:0,0:0:0:0:
188,259,11279,1,4,0:0:0:0:
359,259,11460,5,8,0:0:0:0:
441,259,11642,2,0,L|357:259,1,75,4|2,0:0|0:0,0:0:0:0:
192,256,12006,2,0,L|43:256,1,150,8|4,0:0|0:0,0:0:0:0:
42,173,12551,2,0,L|148:173,1,75,4|4,0:0|0:0,0:0:0:0:
366,173,12915,5,2,0:0:0:0:
448,173,13097,1,4,0:0:0:0:
448,90,13279,1,8,0:0:0:0:
365,90,13460,1,2,0:0:0:0:
192,90,13642,2,0,P|130:146|184:191,1,150,8|8,0:0|0:0,0:0:0:0:
242,186,14188,1,4,0:0:0:0:
413,186,14369,5,8,0:0:0:0:
413,268,14551,2,0,L|332:267,1,75,4|2,0:0|0:0,0:0:0:0:
164,267,14915,2,0,L|326:267,1,150,8|4,0:0|0:0,0:0:0:0:
396,267,15460,2,0,L|322:267,1,75,8|4,0:0|0:0,0:0:0:0:
71,267,15824,5,8,0:0:0:0:
71,184,16006,1,4,0:0:0:0:
153,184,16188,1,8,0:0:0:0:
235,184,16369,1,2,0:0:0:0:
58,183,16551,2,0,P|67:269|121:282,1,150,8|8,0:0|0:0,0:0:0:0:
201,282,17097,1,4,0:0:0:0:
373,282,17279,5,8,0:0:0:0:
455,282,17460,2,0,L|379:281,1,75,4|2,0:0|0:0,0:0:0:0:
206,281,17824,2,0,L|52:281,1,150,8|4,0:0|0:0,0:0:0:0:
138,281,18369,2,0,L|217:281,1,75,4|4,0:0|0:0,0:0:0:0:
462,281,18733,5,4,0:0:0:0:
462,198,18915,1,4,0:0:0:0:
379,198,19097,1,8,0:0:0:0:
296,198,19279,1,2,0:0:0:0:
124,198,19460,2,0,P|114:264|186:296,1,150,8|8,0:0|0:0,0:0:0:0:
262,297,20006,1,4,0:0:0:0:
439,197,20188,6,0,P|478:246|421:289,1,150,8|2,0:0|0:0,0:0:0:0:
337,288,20733,2,0,L|178:288,1,150,8|4,0:0|0:0,0:0:0:0:
103,288,21279,2,0,L|103:203,1,75,8|4,0:0|0:0,0:0:0:0:
350,213,21642,5,2,0:0:0:0:
432,213,21824,1,4,0:0:0:0:
350,213,22006,1,8,0:0:0:0:
267,213,22188,1,2,0:0:0:0:
95,213,22369,2,0,P|40:168|92:111,1,150,8|8,0:0|0:0,0:0:0:0:
159,113,22915,1,4,0:0:0:0:
331,113,23097,5,8,0:0:0:0:
413,113,23279,2,0,L|415:196,1,75,4|2,0:0|0:0,0:0:0:0:
242,187,23642,2,0,L|91:187,1,150,8|4,0:0|0:0,0:0:0:0:
92,270,24188,2,0,L|178:270,1,75,4|4,0:0|0:0,0:0:0:0:
414,270,24551,5,2,0:0:0:0:
414,187,24733,1,4,0:0:0:0:
331,187,24915,1,8,0:0:0:0:
248,187,25097,1,2,0:0:0:0:
75,187,25279,2,0,P|65:259|133:290,1,150,8|8,0:0|0:0,0:0:0:0:
207,291,25824,1,4,0:0:0:0:
390,287,26006,5,8,0:0:0:0:
472,287,26188,2,0,L|387:288,1,75,4|2,0:0|0:0,0:0:0:0:
224,287,26551,2,0,L|71:288,1,150,8|4,0:0|0:0,0:0:0:0:
74,204,27097,2,0,L|156:204,1,75,8|4,0:0|0:0,0:0:0:0:
396,204,27460,5,8,0:0:0:0:
478,204,27642,1,4,0:0:0:0:
396,204,27824,1,8,0:0:0:0:
313,204,28006,1,2,0:0:0:0:
140,204,28188,2,0,P|75:248|124:308,1,150,8|8,0:0|0:0,0:0:0:0:
182,300,28733,1,4,0:0:0:0:
354,300,28915,5,8,0:0:0:0:
354,217,29097,2,0,L|270:217,1,75,4|2,0:0|0:0,0:0:0:0:
106,217,29460,2,0,L|256:218,1,150,8|4,0:0|0:0,0:0:0:0:
339,217,30006,2,0,L|339:293,1,75,4|4,0:0|0:0,0:0:0:0:
91,292,30369,5,2,0:0:0:0:
91,209,30551,1,4,0:0:0:0:
173,209,30733,1,8,0:0:0:0:
255,209,30915,1,2,0:0:0:0:
82,209,31097,2,0,P|83:148|166:122,1,150,8|8,0:0|0:0,0:0:0:0:
239,118,31642,1,4,0:0:0:0:
411,118,31824,5,8,0:0:0:0:
411,200,32006,2,0,L|333:199,1,75,4|2,0:0|0:0,0:0:0:0:
163,199,32369,2,0,P|77:178|56:117,1,150,8|4,0:0|0:0,0:0:0:0:
138,127,32915,2,0,L|215:128,1,75,8|4,0:0|0:0,0:0:0:0:
462,127,33279,5,8,0:0:0:0:
462,209,33460,1,4,0:0:0:0:
379,209,33642,1,8,0:0:0:0:
296,209,33824,1,2,0:0:0:0:
123,209,34006,2,0,P|71:211|86:305,1,150,8|4,0:0|0:0,0:0:0:0:
146,293,34551,1,8,0:0:0:0:
318,293,34733,5,4,0:0:0:0:
400,293,34915,2,0,L|317:293,1,75,2|8,0:0|0:0,0:0:0:0:
146,293,35279,2,0,P|102:245|158:192,1,150,8|4,0:0|0:0,0:0:0:0:
232,191,35824,1,4,0:0:0:0:
314,191,36006,1,8,0:0:0:0:
