osu file format v14

[General]
AudioFilename: audio.mp3
AudioLeadIn: 0
PreviewTime: 12915
Countdown: 0
SampleSet: Normal
StackLeniency: 0.7
Mode: 2
LetterboxInBreaks: 0
WidescreenStoryboard: 1

[Editor]
Bookmarks: 1279,12915,24551,36006
DistanceSpacing: 1
BeatDivisor: 4
GridSize: 32
TimelineZoom: 1.9

[Metadata]
Title:In my room
TitleUnicode:In my room
Artist:FELT
ArtistUnicode:FELT
Creator:Golo-
Version:Cup
Source:
Tags:Grow Color NAGI☆ Comiket 85 c85 コミケット Electronic Instrumental
BeatmapID:3170736
BeatmapSetID:1551700

[Difficulty]
HPDrainRate:3
CircleSize:2.5
OverallDifficulty:6
ApproachRate:6
SliderMultiplier:1.2
SliderTickRate:1

[Events]
//Background and Video events
0,0,"bg.jpg",0,0
//Break Periods
//Storyboard Layer 0 (Background)
//Storyboard Layer 1 (Fail)
//Storyboard Layer 2 (Pass)
//Storyboard Layer 3 (Foreground)
//Storyboard Layer 4 (Overlay)
//Storyboard Sound Samples

[TimingPoints]
1279,363.636363636364,4,1,1,30,1,0
1824,-100,4,1,2,30,0,0
2188,-100,4,1,1,30,0,0
2369,-100,4,1,2,30,0,0
2733,-100,4,1,1,30,0,0
2915,-100,4,1,2,30,0,0
3096,-100,4,1,3,30,0,0
3460,-100,4,2,1,30,0,0
3642,-100,4,1,1,30,0,0
4006,-100,4,1,3,30,0,0
4187,-100,4,1,1,30,0,0
4733,-100,4,1,2,30,0,0
5097,-100,4,2,1,30,0,0
5279,-100,4,1,1,30,0,0
5461,-100,4,1,2,30,0,0
5642,-100,4,1,1,30,0,0
5824,-100,4,1,2,30,0,0
6188,-100,4,1,3,30,0,0
6369,-100,4,1,1,30,0,0
6733,-100,4,1,3,30,0,0
6915,-100,4,1,1,30,0,0
7097,-100,4,1,3,30,0,0
7278,-100,4,1,1,30,0,0
7642,-100,4,1,2,30,0,0
8005,-100,4,1,1,30,0,0
8187,-100,4,1,2,30,0,0
8551,-100,4,1,1,30,0,0
8733,-100,4,1,2,30,0,0
8915,-100,4,1,3,30,0,0
9279,-100,4,2,1,30,0,0
9460,-100,4,1,1,30,0,0
9824,-100,4,1,3,30,0,0
10006,-100,4,1,2,30,0,0
10188,-100,4,1,1,30,0,0
10551,-100,4,1,2,30,0,0
10915,-100,4,2,1,30,0,0
11097,-100,4,1,1,30,0,0
11279,-100,4,1,2,30,0,0
11460,-100,4,1,1,30,0,0
11642,-100,4,1,2,30,0,0
11824,-100,4,1,3,30,0,0
12187,-100,4,1,1,30,0,0
12551,-100,4,1,3,30,0,0
12733,-100,4,1,1,30,0,0
12915,-100,4,3,1,40,0,0
13097,-100,4,1,1,40,0,0
13460,-100,4,1,2,40,0,0
13824,-100,4,1,1,40,0,0
14006,-100,4,1,2,40,0,0
14369,-100,4,1,1,40,0,0
14551,-100,4,1,2,40,0,0
14732,-100,4,1,3,40,0,0
15097,-100,4,2,1,40,0,0
15279,-100,4,1,1,40,0,0
15642,-100,4,1,3,40,0,0
15824,-100,4,3,2,40,0,0
16006,-100,4,1,1,40,0,0
16369,-100,4,1,2,40,0,0
16733,-100,4,2,1,40,0,0
16915,-100,4,1,1,40,0,0
17097,-100,4,1,2,40,0,0
17278,-100,4,1,1,40,0,0
17460,-100,4,1,2,40,0,0
17642,-100,4,1,3,40,0,0
18006,-100,4,1,1,40,0,0
18369,-100,4,1,3,40,0,0
18551,-100,4,1,1,40,0,0
18733,-100,4,3,3,40,0,0
18914,-100,4,1,1,40,0,0
19278,-100,4,1,2,40,0,0
19641,-100,4,1,1,40,0,0
19824,-100,4,1,2,40,0,0
20187,-100,4,1,1,40,0,0
20369,-100,4,1,2,40,0,0
20550,-100,4,1,3,40,0,0
20915,-100,4,2,1,40,0,0
21097,-100,4,1,1,40,0,0
21460,-100,4,1,3,40,0,0
21642,-100,4,3,4,40,0,0
21824,-100,4,1,1,40,0,0
22188,-100,4,1,2,40,0,0
22551,-100,4,2,1,40,0,0
22733,-100,4,1,1,40,0,0
22914,-100,4,1,2,40,0,0
23097,-100,4,1,1,40,0,0
23278,-100,4,1,2,40,0,0
23460,-100,4,1,3,40,0,0
23824,-100,4,1,1,40,0,0
24187,-100,4,1,3,40,0,0
24369,-100,4,1,1,40,0,0
24551,-100,4,3,5,50,0,0
24733,-100,4,1,1,50,0,0
25097,-100,4,1,2,50,0,0
25460,-100,4,1,1,50,0,0
25824,-100,4,1,2,50,0,0
26006,-100,4,1,1,50,0,0
26188,-100,4,1,2,50,0,0
26369,-100,4,1,4,50,0,0
26551,-100,4,1,3,50,0,0
26733,-100,4,2,1,50,0,0
26915,-100,4,1,1,50,0,0
27279,-100,4,1,2,50,0,0
27460,-100,4,3,6,50,0,0
27642,-100,4,1,1,50,0,0
28006,-100,4,1,2,50,0,0
28369,-100,4,2,1,50,0,0
28551,-100,4,1,1,50,0,0
28733,-100,4,1,2,50,0,0
28915,-100,4,1,1,50,0,0
29097,-100,4,1,2,50,0,0
29279,-100,4,1,3,50,0,0
29642,-100,4,1,1,50,0,0
30006,-100,4,1,3,50,0,0
30188,-100,4,1,1,50,0,0
30369,-100,4,3,1,50,0,0
30551,-100,4,1,1,50,0,0
30915,-100,4,1,2,50,0,0
31279,-100,4,1,1,50,0,0
31642,-100,4,1,2,50,0,0
31824,-100,4,1,1,50,0,0
32006,-100,4,1,2,50,0,0
32188,-100,4,1,3,50,0,0
32551,-100,4,2,1,50,0,0
32733,-100,4,1,1,50,0,0
33097,-100,4,1,3,50,0,0
33279,-100,4,3,2,50,0,0
33460,-100,4,1,1,50,0,0
33824,-100,4,1,2,50,0,0
34188,-100,4,1,1,50,0,0
34369,-100,4,1,2,50,0,0
34551,-100,4,1,1,50,0,0
34733,-100,4,1,2,50,0,0
34915,-100,4,1,3,50,0,0
35279,-100,4,1,1,50,0,0
35642,-100,4,1,3,50,0,0
35824,-100,4,1,1,50,0,0
36006,-100,4,1,4,50,0,0
36188,-100,4,1,4,50,0,0
36551,-100,4,1,4,50,0,0
36915,-100,4,1,4,50,0,0

[Colours]
Combo1 : 202,101,0
Combo2 : 255,255,128
Combo3 : 128,255,128

[HitObjects]
128,256,1279,5,2,0:0:0:0:
247,256,1642,1,8,0:0:0:0:
367,256,2006,2,0,L|237:255,1,120,8|8,0:0|0:0,0:0:0:0:
126,255,2733,5,8,0:0:0:0:
306,255,3279,2,0,P|364:255|364:183,1,120,8|4,0:0|0:0,0:0:0:0:
318,203,3824,1,8,0:0:0:0:
197,203,4188,5,8,0:0:0:0:
318,203,4551,1,8,0:0:0:0:
437,203,4915,2,0,L|297:202,1,120,8|8,0:0|0:0,0:0:0:0:
196,202,5642,5,8,0:0:0:0:
376,202,6188,2,0,P|376:268|317:268,1,120,8|4,0:0|0:0,0:0:0:0:
273,277,6733,1,4,0:0:0:0:
152,277,7097,5,4,0:0:0:0:
152,157,7460,1,8,0:0:0:0:
274,161,7824,2,0,L|416:162,1,120,8|8,0:0|0:0,0:0:0:0:
273,161,8551,5,8,0:0:0:0:
92,161,9097,2,0,P|51:206|100:237,1,120,8|4,0:0|0:0,0:0:0:0:
144,238,9642,1,8,0:0:0:0:
283,238,10006,5,2,0:0:0:0:
402,238,10369,1,8,0:0:0:0:
283,238,10733,2,0,L|153:238,1,120,8|8,0:0|0:0,0:0:0:0:
283,238,11460,5,8,0:0:0:0:
102,238,12006,2,0,P|55:219|63:143,1,120,8|4,0:0|0:0,0:0:0:0:
111,156,12551,1,4,0:0:0:0:
267,156,12915,5,2,0:0:0:0:
387,156,13279,2,0,L|447:157,1,60,8|2,0:0|0:0,0:0:0:0:
387,156,13642,2,0,L|267:156,1,120,8|8,0:0|0:0,0:0:0:0:
110,156,14369,5,8,0:0:0:0:
290,156,14915,2,0,L|414:156,1,120,8|4,0:0|0:0,0:0:0:0:
349,156,15460,1,8,0:0:0:0:
192,156,15824,5,8,0:0:0:0:
71,156,16188,2,0,L|71:219,1,60,8|2,0:0|0:0,0:0:0:0:
131,216,16551,2,0,L|250:216,1,120,8|8,0:0|0:0,0:0:0:0:
407,216,17279,5,8,0:0:0:0:
227,216,17824,2,0,P|175:216|131:167,1,120,8|4,0:0|0:0,0:0:0:0:
131,108,18369,1,4,0:0:0:0:
287,108,18733,5,4,0:0:0:0:
407,108,19097,2,0,L|472:108,1,60,8|2,0:0|0:0,0:0:0:0:
407,108,19460,2,0,L|276:108,1,120,8|8,0:0|0:0,0:0:0:0:
130,108,20188,5,8,0:0:0:0:
309,108,20733,2,0,L|444:107,1,120,8|4,0:0|0:0,0:0:0:0:
368,107,21279,1,8,0:0:0:0:
224,107,21642,5,2,0:0:0:0:
103,107,22006,2,0,L|102:176,1,60,8|2,0:0|0:0,0:0:0:0:
162,166,22369,2,0,L|283:166,1,120,8|8,0:0|0:0,0:0:0:0:
402,166,23097,5,8,0:0:0:0:
222,166,23642,2,0,L|90:165,1,120,8|4,0:0|0:0,0:0:0:0:
102,225,24188,1,4,0:0:0:0:
257,225,24551,5,2,0:0:0:0:
377,225,24915,1,8,0:0:0:0:
437,225,25097,1,2,0:0:0:0:
377,225,25279,2,0,L|251:225,1,120,8|8,0:0|0:0,0:0:0:0:
100,225,26006,5,8,0:0:0:0:
279,225,26551,2,0,L|412:224,1,120,8|4,0:0|0:0,0:0:0:0:
338,224,27097,1,8,0:0:0:0:
182,224,27460,5,8,0:0:0:0:
61,224,27824,1,8,0:0:0:0:
61,163,28006,1,2,0:0:0:0:
121,163,28188,2,0,L|259:164,1,120,8|8,0:0|0:0,0:0:0:0:
403,165,28915,5,8,0:0:0:0:
223,165,29460,2,0,P|143:164|120:210,1,120,8|4,0:0|0:0,0:0:0:0:
184,190,30006,1,4,0:0:0:0:
339,190,30369,5,2,0:0:0:0:
459,190,30733,1,8,0:0:0:0:
459,250,30915,1,2,0:0:0:0:
398,250,31097,2,0,L|274:249,1,120,8|8,0:0|0:0,0:0:0:0:
121,249,31824,5,8,0:0:0:0:
300,249,32369,2,0,L|429:250,1,120,8|4,0:0|0:0,0:0:0:0:
419,189,32915,1,8,0:0:0:0:
262,189,33279,5,8,0:0:0:0:
142,189,33642,1,8,0:0:0:0:
81,189,33824,1,2,0:0:0:0:
142,189,34006,2,0,L|265:190,1,120,8|4,0:0|0:0,0:0:0:0:
418,189,34733,5,4,0:0:0:0:
237,189,35279,2,0,P|190:191|156:259,1,120,8|4,0:0|0:0,0:0:0:0:
214,248,35824,1,4,0:0:0:0:
274,248,36006,1,8,0:0:0:0:
