osu file format v14

[General]
AudioFilename: audio.mp3
AudioLeadIn: 0
PreviewTime: 199203
Countdown: 0
SampleSet: Soft
StackLeniency: 0.3
Mode: 0
LetterboxInBreaks: 0
WidescreenStoryboard: 0

[Editor]
Bookmarks: 9903,48303,105903,163503,182703,201903,221103,240303,259503,278703,297903,300291,326706
DistanceSpacing: 0.6
BeatDivisor: 4
GridSize: 32
TimelineZoom: 3.899998

[Metadata]
Title:Future Will Lead & The Ray of Light
TitleUnicode:Future Will Lead & The Ray of Light
Artist:FELT
ArtistUnicode:FELT
Creator:[C u r i]
Version:Prism
Source:
Tags:Vivienne 美歌 Mika BOYZ PARTY NAGI☆ Increase Beat toybot Silky Kalibe
BeatmapID:1465375
BeatmapSetID:692522

[Difficulty]
HPDrainRate:7
CircleSize:4
OverallDifficulty:8
ApproachRate:9.2
SliderMultiplier:1.63
SliderTickRate:1

[Events]
//Background and Video events
0,0,"cache-20068035-36b8-4d57-cd24-db784e0238db.jpg",0,0
//Break Periods
//Storyboard Layer 0 (Background)
//Storyboard Layer 1 (Fail)
//Storyboard Layer 2 (Pass)
//Storyboard Layer 3 (Foreground)
//Storyboard Sound Samples

[TimingPoints]
291,300,4,2,3,60,1,0
9891,-200,4,2,3,30,0,0
10191,-200,4,2,3,10,0,0
14691,-200,4,2,3,30,0,0
14991,-200,4,2,3,10,0,0
19491,-200,4,2,3,30,0,0
19791,-200,4,2,3,10,0,0
23691,-200,4,2,3,30,0,0
24591,-200,4,2,3,10,0,0
28791,-200,4,2,3,25,0,0
29016,-200,4,2,3,5,0,0
29091,-200,4,2,3,30,0,0
47616,-200,4,2,3,5,0,0
48291,-90.9090909090909,4,2,3,60,0,0
68391,-111.111111111111,4,2,3,60,0,0
69291,-142.857142857143,4,2,3,60,0,0
69891,-90.9090909090909,4,2,3,60,0,0
70791,-111.111111111111,4,2,3,60,0,0
72291,-90.9090909090908,4,2,3,60,0,0
73191,-111.111111111111,4,2,3,60,0,0
74091,-142.857142857143,4,2,3,60,0,0
74691,-90.9090909090909,4,2,3,60,0,0
75591,-76.9230769230769,4,2,3,60,0,0
76491,-90.9090909090909,4,2,3,60,0,0
77991,-111.111111111111,4,2,3,60,0,0
78891,-142.857142857143,4,2,3,60,0,0
79491,-90.9090909090909,4,2,3,60,0,0
80391,-111.111111111111,4,2,3,60,0,0
81891,-90.9090909090909,4,2,3,60,0,0
82791,-111.111111111111,4,2,3,60,0,0
83691,-90.9090909090909,4,2,3,60,0,0
84216,-90.9090909090909,4,2,3,5,0,0
84291,-90.9090909090909,4,2,3,60,0,0
86691,-200,4,2,3,60,0,0
86766,-200,4,2,2,30,0,0
95016,-200,4,2,3,5,0,0
95091,-200,4,2,3,60,0,0
95166,-200,4,2,2,30,0,0
105891,-200,4,2,3,25,0,0
108216,-200,4,2,2,15,0,0
109191,-200,4,2,3,25,0,0
110766,-200,4,2,2,15,0,0
111591,-200,4,2,3,25,0,0
115566,-200,4,2,2,15,0,0
116391,-200,4,2,3,25,0,0
117966,-200,4,2,2,15,0,0
118791,-200,4,2,3,25,0,0
120291,-200,4,2,3,40,0,0
120366,-200,4,2,2,15,0,0
124641,-200,4,2,3,25,0,0
127416,-200,4,2,2,15,0,0
128391,-200,4,2,3,25,0,0
129966,-200,4,2,2,15,0,0
130791,-200,4,2,3,25,0,0
134766,-200,4,2,2,15,0,0
136191,-200,4,2,3,25,0,0
139566,-200,4,2,2,15,0,0
141591,-200,4,2,3,25,0,0
144141,-200,4,2,3,20,0,0
144291,-111.111111111111,4,2,3,35,0,0
161091,-200,4,2,3,20,0,0
163491,-100,4,2,3,55,0,0
172791,-133.333333333333,4,2,3,55,0,0
173016,-133.333333333333,4,2,3,5,0,0
173091,-100,4,2,3,55,0,0
177816,-100,4,2,3,5,0,0
177891,-100,4,2,3,55,0,0
181791,-90.9090909090909,4,2,3,55,0,0
182016,-90.9090909090909,4,2,3,5,0,0
182091,-90.9090909090909,4,2,3,55,0,0
182391,-76.9230769230769,4,2,3,60,0,0
182616,-76.9230769230769,4,2,3,5,0,0
182691,-100,4,2,3,60,0,0
182916,-100,4,2,3,5,0,0
182991,-100,4,2,3,60,0,0
186216,-100,4,2,3,5,0,0
186291,-100,4,2,3,60,0,0
187191,-83.3333333333333,4,2,3,60,0,0
187416,-83.3333333333333,4,2,3,5,0,0
187491,-100,4,2,3,60,0,0
188916,-100,4,2,3,5,0,0
188991,-100,4,2,3,60,0,0
189891,-125,4,2,3,60,0,0
190116,-125,4,2,3,5,0,0
190191,-83.3333333333333,4,2,3,60,0,0
191991,-90.9090909090909,4,2,3,60,0,0
192216,-90.9090909090909,4,2,3,5,0,0
192291,-100,4,2,3,60,0,0
192516,-100,4,2,3,5,0,0
192591,-100,4,2,3,60,0,0
194616,-100,4,2,3,5,0,0
194691,-100,4,2,3,60,0,0
195816,-100,4,2,3,5,0,0
195891,-100,4,2,3,60,0,0
197016,-100,4,2,3,5,0,0
197091,-100,4,2,3,60,0,0
198591,-83.3333333333333,4,2,3,60,0,0
198816,-83.3333333333333,4,2,3,5,0,0
198891,-83.3333333333333,4,2,3,60,0,0
199491,-100,4,2,3,60,0,0
200953,-166.666666666667,4,2,3,60,0,0
201291,-100,4,2,3,60,0,0
201628,-100,4,2,2,40,0,0
201891,-90.9090909090909,4,2,3,70,0,1
209916,-90.9090909090909,4,2,3,5,0,1
209991,-90.9090909090909,4,2,3,70,0,1
214116,-90.9090909090909,4,2,3,5,0,1
214191,-90.9090909090909,4,2,3,70,0,1
236991,-111.111111111111,4,2,3,70,0,1
237291,-90.9090909090909,4,2,3,70,0,1
237591,-76.9230769230769,4,2,3,75,0,1
239016,-76.9230769230769,4,2,3,5,0,1
239091,-76.9230769230769,4,2,3,75,0,1
240291,-100,4,2,3,60,0,0
240816,-100,4,2,3,5,0,0
240891,-100,4,2,3,60,0,0
248316,-100,4,2,3,5,0,0
248391,-100,4,2,3,60,0,0
258816,-100,4,2,3,5,0,0
258891,-166.666666666667,4,2,3,60,0,0
259266,-125,4,2,3,60,0,0
259416,-166.666666666667,4,2,3,5,0,0
259491,-90.9090909090909,4,2,3,75,0,1
271716,-90.9090909090909,4,2,3,5,0,1
271791,-90.9090909090909,4,2,3,75,0,1
295491,-142.857142857143,4,2,3,75,0,1
297291,-200,4,2,3,75,0,1
297816,-200,4,2,3,5,0,1
297891,-90.9090909090909,4,2,3,65,0,0
298416,-90.9090909090909,4,2,3,5,0,0
298491,-90.9090909090909,4,2,3,65,0,0
300816,-90.9090909090909,4,2,3,5,0,0
300891,-90.9090909090909,4,2,3,65,0,0
305916,-90.9090909090909,4,2,3,5,0,0
305991,-90.9090909090909,4,2,3,65,0,0
314691,-166.666666666667,4,2,3,50,0,0
315291,310.880829015544,4,2,3,50,1,0
316223,327.868852459016,4,2,3,50,1,0
316550,346.820809248555,4,2,3,45,1,0
316896,377.358490566038,4,2,3,45,1,0
317273,377.358490566038,4,2,3,60,1,0
317273,-200,4,2,3,60,0,0
317320,-200,4,2,2,35,0,0
320292,-200,4,2,3,25,0,0
321801,-200,4,2,2,15,0,0
325952,-200,4,2,3,10,0,0
326706,-200,4,2,2,5,0,0

[Colours]
Combo1 : 255,217,102
Combo2 : 255,148,40
Combo3 : 255,182,147
Combo4 : 172,172,172

[HitObjects]
394,70,9891,6,0,B|449:50|402:-21|330:-20|271:74|324:144|401:148|401:148|378:168|331:190|266:177|220:115|220:115|259:164|289:231|284:298|220:364|220:364|148:357|98:323|60:234|114:136|114:136|158:154|190:185|212:239|189:284,1,1263.25,2|0,3:0|0:0,0:0:0:0:
56,362,14691,6,0,B|-32:244|-7:-7|163:-76|334:85|328:281|328:281|277:150|160:140|105:203|105:203|176:228|192:288,1,1141,0|0,3:0|0:0,0:0:0:0:
189,280,19491,6,0,B|161:242|164:202|188:171|188:171|121:214|105:320|159:390|244:406|331:319|289:248|248:224|248:224|285:211|318:196|318:196|328:167|336:132|336:132|448:121|504:203|534:321|457:388|386:392|327:310|391:239,1,1141,2|0,3:0|0:0,0:0:0:0:
393,237,23991,1,0,0:0:0:0:
501,269,24291,6,0,B|471:345|381:375|296:341|269:280|269:280|217:318|138:335|85:290|51:209|109:88|214:104|272:174|272:174|314:124|376:106|445:115|489:174,1,978,0|0,3:0|0:0,0:0:0:0:
196,233,28791,2,0,P|184:211|206:222,1,61.125,2|0,0:2|0:0,0:0:0:0:
196,233,29091,6,0,B|217:5|217:5|174:17|164:53|196:95,1,326,2|2,3:0|0:0,0:0:0:0:
272,47,31491,2,0,B|325:44|358:94|358:94|343:23|279:14|209:24|184:87,1,326,2|0,0:0|3:0,0:0:0:0:
188,79,33591,1,2,0:0:0:0:
320,284,33891,6,0,B|357:238|331:191|331:191|346:122|275:104|219:131|216:199|278:236,1,326,2|0,3:0|0:0,0:0:0:0:
402,158,36291,2,0,B|459:121|546:170|538:262|482:283|482:283|497:255|499:220|475:187,1,326,2|0,0:0|3:0,0:0:0:0:
417,242,37791,2,0,L|251:225,1,163,2|0,0:0|0:0,0:0:0:0:
75,210,38691,6,0,B|90:236|98:269|98:269|144:76|144:76|154:116|171:151,1,326,2|0,3:0|0:0,0:0:0:0:
181,140,41091,2,0,B|229:118|275:151|275:151|325:108|413:134|419:225|380:262|355:268,1,326,2|0,0:0|3:0,0:0:0:0:
321,206,43191,1,2,0:0:0:0:
396,87,43491,6,0,P|459:188|422:301,1,244.5,2|2,3:0|0:0,0:0:0:0:
355,174,44691,2,0,B|441:157|418:230|505:211,2,163,0|2|2,3:0|0:0|0:0,0:0:0:0:
256,192,46041,12,0,47616,0:0:0:0:
168,87,48291,6,0,B|246:94|246:94|267:113|267:113|359:123,1,179.300005471802,4|0,0:0|3:0,0:0:0:0:
361,308,48741,2,0,P|296:288|272:263,1,89.650002735901,12|0,0:1|3:0,0:0:0:0:
457,255,49041,1,2,0:0:0:0:
339,120,49191,2,0,L|350:215,1,89.650002735901,0|0,3:0|0:0,0:0:0:0:
444,143,49491,5,4,3:0:0:0:
296,348,49641,2,0,B|248:364|248:364|115:329,1,179.300005471802,8|0,0:0|0:0,0:0:0:0:
41,129,50091,2,0,L|128:105,1,89.650002735901,0|2,3:0|0:0,0:0:0:0:
244,283,50391,2,0,L|157:259,1,89.650002735901,0|0,3:0|3:0,0:0:0:0:
99,204,50616,1,8,3:0:0:0:
99,204,50691,6,0,B|152:178|152:178|282:214,1,179.300005471802,4|0,0:0|3:0,0:0:0:0:
405,343,51141,2,0,L|385:164,1,179.300005471802,2|0,0:0|0:0,0:0:0:0:
195,76,51591,2,0,L|205:173,1,89.650002735901,0|0,3:0|0:0,0:0:0:0:
308,72,51891,5,4,3:0:0:0:
157,259,52041,1,8,0:0:0:0:
296,216,52191,1,4,3:0:0:0:
70,131,52341,1,12,0:1:0:0:
114,325,52491,2,0,P|156:337|199:325,1,89.650002735901,2|8,3:2|3:0,0:0:0:0:
433,148,52791,2,0,P|390:135|348:147,1,89.650002735901,8|8,0:0|3:0,0:0:0:0:
296,216,53016,1,8,0:0:0:0:
296,216,53091,6,0,L|311:33,1,179.300005471802,4|0,0:0|3:0,0:0:0:0:
492,190,53541,2,0,P|461:144|338:155,1,179.300005471802,12|0,0:1|0:0,0:0:0:0:
68,246,53991,2,0,L|165:260,1,89.650002735901,8|0,3:0|0:0,0:0:0:0:
292,276,54291,5,4,3:0:0:0:
97,153,54441,1,8,0:0:0:0:
156,258,54591,1,0,3:0:0:0:
355,172,54741,1,8,3:0:0:0:
258,365,54891,2,0,L|136:346,1,89.650002735901,2|0,3:2|3:0,0:0:0:0:
8,166,55191,2,0,L|96:152,1,89.650002735901,4|0,3:0|3:0,0:0:0:0:
165,97,55416,1,8,3:0:0:0:
165,97,55491,6,0,B|243:109|243:109|262:127|262:127|360:145,1,179.300005471802,4|0,0:0|3:0,0:0:0:0:
436,333,55941,2,0,P|338:334|288:245,1,179.300005471802,2|0,0:0|0:0,0:0:0:0:
322,51,56391,2,0,L|337:154,1,89.650002735901,2|0,3:2|0:0,0:0:0:0:
379,254,56691,5,4,3:0:0:0:
414,43,56841,1,8,0:0:0:0:
379,254,56991,1,12,3:0:0:0:
165,97,57141,1,12,0:1:0:0:
334,139,57291,2,0,P|384:142|421:117,1,89.650002735901,2|8,3:2|0:0,0:0:0:0:
219,34,57591,2,0,P|180:12|136:17,1,89.650002735901,2|4,3:2|3:0,0:0:0:0:
34,284,57891,6,0,B|74:300|122:278|122:278|169:256|207:273,1,179.300005471802,4|0,0:0|3:0,0:0:0:0:
74,109,58341,2,0,B|46:72|46:72|65:203,1,179.300005471802,12|8,0:1|3:0,0:0:0:0:
180,348,58791,2,0,P|235:348|267:324,1,89.650002735901,12|0,3:0|0:0,0:0:0:0:
313,135,59091,5,4,3:0:0:0:
207,273,59241,2,0,L|220:88,1,179.300005471802,8|0,0:0|0:0,0:0:0:0:
389,217,59691,2,0,L|288:235,1,89.650002735901,0|0,3:0|0:0,0:0:0:0:
228,13,59991,2,0,L|316:28,1,89.650002735901,0|0,3:0|3:0,0:0:0:0:
397,69,60216,1,8,3:0:0:0:
397,69,60291,6,0,L|212:95,1,179.300005471802,4|2,0:0|0:0,0:0:0:0:
34,241,60741,2,0,B|88:232|88:232|219:272,1,179.300005471802,12|2,0:1|0:0,0:0:0:0:
124,118,61191,2,0,P|101:156|103:200,1,89.650002735901,12|0,0:0|0:0,0:0:0:0:
134,373,61491,5,0,3:0:0:0:
279,167,61641,2,0,L|173:185,1,89.650002735901,8|0,0:0|3:0,0:0:0:0:
379,296,61941,1,12,0:1:0:0:
366,16,62091,2,0,P|351:58|348:103,1,89.650002735901,2|0,3:2|3:0,0:0:0:0:
208,269,62391,2,0,P|204:224|189:182,1,89.650002735901,2|0,3:2|3:0,0:0:0:0:
225,103,62616,1,8,0:0:0:0:
225,103,62691,6,0,P|165:98|105:192,1,179.300005471802,4|0,0:0|3:0,0:0:0:0:
268,350,63141,2,0,B|341:339|341:339|373:349|373:349|448:338,1,179.300005471802,2|0,0:0|0:0,0:0:0:0:
471,162,63591,2,0,P|421:164|381:201,1,89.650002735901,2|0,3:2|0:0,0:0:0:0:
453,248,63891,5,0,3:0:0:0:
314,233,64041,2,0,L|132:212,1,179.300005471802,2|0,0:0|0:0,0:0:0:0:
10,307,64491,2,0,L|98:295,1,89.650002735901,0|0,3:0|0:0,0:0:0:0:
236,146,64791,2,0,L|141:134,1,89.650002735901,0|2,3:2|0:0,0:0:0:0:
268,350,65091,6,0,B|341:339|341:339|373:349|373:349|448:338,1,179.300005471802,6|0,0:3|3:0,0:0:0:0:
387,158,65541,1,2,0:0:0:0:
353,245,65691,2,0,L|448:231,1,89.650002735901,0|2,3:0|0:0,0:0:0:0:
418,69,65991,2,0,L|323:83,1,89.650002735901,0|0,3:0|0:0,0:0:0:0:
489,146,66291,5,14,3:0:0:0:
329,82,66441,1,12,3:0:0:0:
268,350,66591,2,0,L|363:336,1,89.650002735901,12|0,0:1|0:0,0:0:0:0:
99,220,66891,5,0,3:0:0:0:
249,70,67041,1,0,1:3:0:0:
254,99,67116,1,8,1:3:0:0:
260,128,67191,1,0,3:0:0:0:
266,157,67266,1,0,1:0:0:0:
272,187,67341,1,10,0:0:0:0:
278,216,67416,1,8,0:0:0:0:
284,245,67491,6,0,L|187:233,1,89.650002735901,12|0,0:0|3:0,0:0:0:0:
99,220,67791,1,4,3:0:0:0:
36,38,67941,2,0,L|124:26,1,89.650002735901,12|0,0:0|3:0,0:0:0:0:
221,13,68241,1,4,3:0:0:0:
269,226,68391,6,0,L|188:215,1,73.3499977615357,12|0,0:0|3:0,0:0:0:0:
114,205,68691,1,4,3:0:0:0:
50,58,68841,2,0,L|123:47,1,73.3499977615357,12|0,0:0|3:0,0:0:0:0:
205,37,69141,1,12,3:0:0:0:
37,243,69291,6,0,P|28:199|29:161,1,57.0499982589722,2|2,1:0|1:0,0:0:0:0:
295,26,69591,2,0,P|292:54|285:82,1,57.0499982589722,2|8,1:0|3:0,0:0:0:0:
212,354,69891,6,0,L|309:342,1,89.650002735901,12|0,0:0|3:0,0:0:0:0:
397,329,70191,1,4,3:0:0:0:
460,147,70341,2,0,L|372:135,1,89.650002735901,12|0,0:0|3:0,0:0:0:0:
275,122,70641,1,4,3:0:0:0:
227,335,70791,6,0,L|308:324,1,73.3499977615357,12|0,0:0|3:0,0:0:0:0:
382,314,71091,1,4,3:0:0:0:
446,167,71241,2,0,L|373:156,1,73.3499977615357,12|0,0:0|3:0,0:0:0:0:
291,146,71541,1,12,3:0:0:0:
475,342,71691,5,2,3:3:0:0:
449,248,71841,1,0,3:0:0:0:
196,171,71991,1,8,0:0:0:0:
222,77,72141,1,0,3:0:0:0:
235,256,72291,6,0,L|332:244,1,89.650002735901,12|0,0:0|3:0,0:0:0:0:
420,231,72591,1,4,3:0:0:0:
483,49,72741,2,0,L|395:37,1,89.650002735901,12|0,0:0|3:0,0:0:0:0:
298,24,73041,1,2,3:2:0:0:
250,237,73191,6,0,L|331:226,1,73.3499977615357,12|0,0:0|3:0,0:0:0:0:
405,216,73491,1,4,3:0:0:0:
469,69,73641,2,0,L|396:58,1,73.3499977615357,12|0,0:0|3:0,0:0:0:0:
314,48,73941,1,12,3:0:0:0:
483,261,74091,6,0,P|491:220|494:180,1,57.0499982589722,2|2,1:0|1:0,1:0:0:0:
226,38,74391,2,0,P|229:66|235:94,1,57.0499982589722,12|0,0:0|3:0,1:0:0:0:
307,365,74691,6,0,L|210:353,1,89.650002735901,12|0,0:0|3:0,0:0:0:0:
122,340,74991,1,4,3:0:0:0:
59,158,75141,2,0,L|147:146,1,89.650002735901,12|0,0:0|3:0,0:0:0:0:
244,133,75441,1,4,3:0:0:0:
122,340,75591,5,12,0:0:0:0:
285,221,75741,1,12,0:0:0:0:
307,365,75891,1,8,3:0:0:0:
94,241,76041,5,12,0:0:0:0:
263,96,76191,1,2,0:0:0:0:
338,286,76341,1,8,3:0:0:0:
75,266,76491,6,0,L|136:257,1,44.8250013679505,8|0,3:0|3:0,0:0:0:0:
329,151,76641,2,0,L|390:160,1,44.8250013679505,8|0,3:0|3:0,0:0:0:0:
492,363,76791,2,0,P|432:356|401:315,1,89.650002735901,8|8,3:2|3:0,0:0:0:0:
284,139,77091,6,0,L|187:151,1,89.650002735901,12|0,0:0|3:0,0:0:0:0:
99,164,77391,1,4,3:0:0:0:
36,346,77541,2,0,L|124:358,1,89.650002735901,12|0,0:0|3:0,0:0:0:0:
221,371,77841,1,4,3:0:0:0:
269,158,77991,6,0,L|188:169,1,73.3499977615357,12|0,0:0|3:0,0:0:0:0:
114,179,78291,1,4,3:0:0:0:
50,326,78441,2,0,L|123:337,1,73.3499977615357,12|0,0:0|3:0,0:0:0:0:
205,347,78741,1,4,3:0:0:0:
36,131,78891,6,0,P|25:185|25:207,1,57.0499982589722,2|2,1:0|3:1,3:1:0:0:
292,360,79191,2,0,P|288:331|280:304,1,57.0499982589722,8|4,3:0|3:0,3:1:0:0:
212,30,79491,6,0,L|309:42,1,89.650002735901,12|0,0:0|3:0,0:0:0:0:
397,55,79791,1,4,3:0:0:0:
460,237,79941,2,0,L|372:249,1,89.650002735901,12|0,0:0|3:0,0:0:0:0:
275,262,80241,1,4,3:0:0:0:
227,49,80391,6,0,L|308:60,1,73.3499977615357,12|8,0:0|3:1,0:0:0:0:
382,70,80691,1,8,3:0:0:0:
446,217,80841,2,0,L|373:228,1,73.3499977615357,12|0,0:0|0:0,0:0:0:0:
291,238,81141,1,8,3:0:0:0:
477,39,81291,5,2,3:0:0:0:
453,132,81441,1,0,3:0:0:0:
193,213,81591,1,8,0:0:0:0:
217,306,81741,1,0,3:0:0:0:
235,128,81891,6,0,L|332:140,1,89.650002735901,12|2,0:0|3:2,0:0:0:0:
420,153,82191,1,4,3:0:0:0:
483,335,82341,2,0,L|395:347,1,89.650002735901,12|0,0:0|3:0,0:0:0:0:
298,360,82641,1,4,3:0:0:0:
238,209,82791,6,0,L|319:220,1,73.3499977615357,12|0,0:0|3:0,0:0:0:0:
310,218,83091,1,4,3:0:0:0:
450,261,83241,2,0,L|377:272,1,73.3499977615357,12|0,0:0|3:0,0:0:0:0:
377,271,83541,1,4,3:0:0:0:
484,112,83691,6,0,P|494:156|498:213,1,89.650002735901,10|0,0:0|3:0,0:0:0:0:
206,353,83991,2,0,P|114:362|80:320,1,134.475004103851,2|0,0:0|0:0,0:0:0:0:
47,274,84291,5,12,0:0:0:0:
47,274,84591,1,0,3:0:0:0:
55,252,84741,1,0,3:0:0:0:
146,279,84891,5,4,3:0:0:0:
131,194,85041,1,4,3:0:0:0:
232,319,85191,5,8,3:0:0:0:
251,164,85341,1,8,3:0:0:0:
335,341,85491,5,8,3:0:0:0:
339,319,85566,1,0,3:0:0:0:
338,296,85641,1,4,3:0:0:0:
332,275,85716,1,4,3:0:0:0:
320,255,85791,1,8,3:0:0:0:
316,233,85866,1,0,1:0:0:0:
317,211,85941,1,0,1:0:0:0:
323,190,86016,1,0,1:0:0:0:
334,170,86091,1,8,1:3:0:0:
232,319,86291,1,2,3:0:0:0:
232,319,86391,2,0,L|150:312,2,59.7666684906006,2|8|4,0:0|3:0|3:0,0:0:0:0:
83,289,86691,6,0,B|52:234|83:171|83:171|127:94|125:-10|-87:11|-48:211|110:161|110:161|166:142|197:94|168:51|149:18|149:18|229:90|319:50|319:50|440:-5|511:84|511:84|445:152|380:112,1,1222.5,6|0,1:2|0:0,0:0:0:0:
211,204,91491,6,0,B|250:95|149:18|149:18|232:91|319:50|319:50|496:-34|588:143|506:288|384:277|326:258|298:138|350:95|397:119,1,957.625,2|0,0:1|0:0,0:0:0:0:
387,115,95091,6,0,P|289:154|112:102,1,285.25,2|0,0:3|0:0,0:0:0:0:
120,109,96291,6,0,B|154:139|186:151|186:151|127:220|72:187|25:160|-1:93|48:38|94:9|139:16|190:59|190:59|276:120|388:125|450:59|450:59|334:166|342:294|397:349|397:349|448:325|477:257|463:180,1,1263.25,2|0,0:1|0:0,0:0:0:0:
308,19,101091,6,0,B|376:-4|450:59|450:59|386:126|307:111|240:105|167:41|167:41|222:128|161:222|161:222|103:184|74:144|79:56|79:56|14:71|-7:153|31:232|31:232|83:329|73:377|73:377|62:326|24:296,1,1304,2|2,0:1|0:0,0:0:0:0:
33,304,106491,6,0,P|70:284|119:292,2,81.5,2|0|2,0:0|0:0|0:0,0:0:0:0:
199,353,107391,1,0,0:0:0:0:
295,225,107691,1,2,0:0:0:0:
429,293,107991,1,0,0:0:0:0:
366,371,108141,6,0,B|308:292|346:177|346:177|384:198|427:200,1,285.25,2|0,0:0|0:0,0:0:0:0:
424,199,109491,2,0,L|481:190,1,40.75,2|0,0:0|0:0,0:0:0:0:
474,91,109791,2,0,P|444:104|391:97,1,81.5,0|2,0:0|0:0,0:0:0:0:
225,34,110391,2,0,L|231:78,1,40.75,2|0,0:0|0:0,0:0:0:0:
256,158,110691,6,0,B|177:178|142:97|142:97|135:149|79:169,1,244.5,2|0,0:0|0:0,0:0:0:0:
79,169,111891,2,0,P|58:129|66:87,1,81.5,2|0,0:0|0:0,0:0:0:0:
153,231,112491,2,0,P|156:270|136:305,1,81.5,2|0,0:0|0:0,0:0:0:0:
48,331,113091,6,0,P|127:324|185:378,1,163,2|2,0:0|0:0,0:0:0:0:
472,272,114291,2,0,P|392:265|334:319,1,163,2|2,0:0|0:0,0:0:0:0:
334,319,115491,6,0,B|262:260|299:187|299:187|326:139|392:172|335:203,1,244.5,2|0,0:0|0:0,0:0:0:0:
348,193,116691,2,0,P|387:185|448:178,1,81.5,2|0,0:0|0:0,0:0:0:0:
256,256,117291,2,0,P|215:250|175:242,1,81.5,2|0,0:0|0:0,0:0:0:0:
126,31,117891,6,0,B|165:41|194:16|194:16|265:22|285:115|217:165,1,244.5,2|0,0:0|0:0,0:0:0:0:
236,147,119091,2,0,P|218:139|198:139,1,40.75,2|0,0:0|0:0,0:0:0:0:
111,122,119391,2,0,P|72:141|22:138,1,81.5,0|2,0:0|0:0,0:0:0:0:
94,265,119991,2,0,P|95:245|101:225,1,40.75,2|0,0:0|0:0,0:0:0:0:
16,319,120291,6,0,B|79:275|147:284|204:315|245:363|245:363|164:232|171:165|209:74|304:28|304:28|224:165|297:249|388:266|486:237|502:133|487:31|387:34|333:98|377:138,1,1181.75,2|0,0:3|0:0,0:0:0:0:
464,201,124791,2,0,L|510:192,2,40.75,0|2|2,0:0|0:0|0:3,0:0:0:0:
322,346,125691,6,0,P|285:362|244:362,2,81.5,2|0|2,0:0|0:0|0:0,0:0:0:0:
463,290,126591,1,0,0:0:0:0:
262,257,126891,1,2,0:0:0:0:
367,124,127191,1,0,0:0:0:0:
420,198,127341,6,0,P|435:60|308:54,1,285.25,2|0,0:0|0:0,0:0:0:0:
318,46,128691,6,0,L|263:37,1,40.75,2|0,0:0|0:0,0:0:0:0:
181,72,128991,2,0,L|100:58,1,81.5,0|2,0:0|0:0,0:0:0:0:
224,183,129591,2,0,L|169:174,1,40.75,2|0,0:0|0:0,0:0:0:0:
47,246,129891,6,0,B|15:322|80:370|80:370|120:327|175:343,1,244.5,2|0,0:0|0:0,0:0:0:0:
174,343,131091,2,0,P|179:302|185:251,1,81.5,2|0,0:0|0:0,0:0:0:0:
318,46,131691,2,0,P|322:86|327:126,1,81.5,2|0,0:0|0:0,0:0:0:0:
452,299,132291,6,0,P|391:249|313:262,1,163,2|2,0:0|0:0,0:0:0:0:
62,161,133491,2,0,P|140:174|201:124,1,163,2|2,0:0|0:0,0:0:0:0:
256,361,134691,6,0,B|275:289|221:257|221:257|186:375|66:378|11:314|86:230|130:276,1,407.5,2|0,0:0|0:0,0:0:0:0:
116,266,136491,6,0,P|119:283|126:322,1,40.75,2|0,0:0|0:0,0:0:0:0:
256,361,136791,2,0,P|290:344|339:346,1,81.5,0|2,0:0|0:0,0:0:0:0:
489,280,137391,2,0,P|448:280|412:263,1,81.5,0|2,0:0|0:0,0:0:0:0:
479,138,137991,2,0,P|475:155|469:194,1,40.75
386,40,138291,6,0,L|375:120,1,81.5,2|0,0:0|0:0,0:0:0:0:
236,158,138891,1,2,0:0:0:0:
152,41,139191,1,0,0:0:0:0:
14,79,139491,6,0,B|89:160|50:274|50:274|107:158|190:115|284:190|285:248|206:291|169:244,1,570.5,2|0,0:0|0:0,0:0:0:0:
174,250,141891,5,2,0:3:0:0:
174,250,144141,2,0,L|171:231,2,13.5833333333333,2|0|0,0:0|0:0|0:0,0:0:0:0:
123,307,144291,6,0,P|191:293|256:352,1,146.699995523071,2|0,1:2|0:0,0:0:0:0:
462,384,144891,2,0,P|470:344|478:305,1,73.3499977615357,2|0,0:0|0:0,0:0:0:0:
346,195,145191,2,0,P|352:231|360:266,1,73.3499977615357,2|0,0:3|0:0,0:0:0:0:
395,114,145491,6,0,P|327:100|262:159,1,146.699995523071,2|2,0:0|0:3,0:0:0:0:
174,250,145941,2,0,P|138:243|91:235,1,73.3499977615357,0|2,0:0|0:0,0:0:0:0:
0,139,146241,2,0,P|35:131|72:125,1,73.3499977615357,0|2,0:0|0:3,0:0:0:0:
183,40,146541,1,0,0:0:0:0:
214,217,146691,6,0,P|198:288|186:360,1,146.699995523071,2|0,0:0|0:0,0:0:0:0:
512,328,147291,2,0,P|478:312|434:307,1,73.3499977615357,2|0,0:0|0:0,0:0:0:0:
366,245,147591,2,0,P|329:250|296:266,1,73.3499977615357,2|0,0:3|0:0,0:0:0:0:
186,360,147891,6,0,P|111:362|64:293,1,146.699995523071,2|2,0:0|0:3,0:0:0:0:
174,206,148341,2,0,P|162:243|153:290,1,73.3499977615357,0|2,0:0|0:0,0:0:0:0:
53,127,148641,1,0,0:0:0:0:
53,127,148791,2,0,P|63:162|71:197,1,73.3499977615357,2|0,0:3|0:0,0:0:0:0:
183,40,149091,6,0,P|112:46|53:-1,1,146.699995523071,2|0,0:0|0:0,0:0:0:0:
256,128,149691,2,0,P|293:116|342:115,1,73.3499977615357,2|0,0:3|0:0,0:0:0:0:
461,45,149991,2,0,P|424:42|389:30,1,73.3499977615357,2|0,0:3|0:0,0:0:0:0:
489,149,150291,6,0,P|514:216|484:281,1,146.699995523071,2|0,0:0|0:0,0:0:0:0:
337,383,150891,2,0,P|317:309|314:226,1,146.699995523071,2|2,0:0|0:3,0:0:0:0:
489,149,151491,6,0,P|418:152|366:93,1,146.699995523071,2|0,0:0|0:0,0:0:0:0:
188,0,152091,2,0,L|201:78,1,73.3499977615357,2|0,0:0|0:0,0:0:0:0:
248,188,152391,2,0,P|208:179|156:171,1,73.3499977615357,2|0,0:3|0:0,0:0:0:0:
16,121,152691,2,0,P|52:114|87:106,1,73.3499977615357,2|0,0:0|0:0,0:0:0:0:
218,284,152991,6,0,B|128:317|76:233|76:233|128:317|81:383,1,293.399991046143,2|0,0:3|0:0,0:0:0:0:
95,353,153891,6,0,P|220:283|354:331,1,293.399991046143,2|2,1:2|0:0,0:0:0:0:
512,215,154791,2,0,P|506:176|498:131,1,73.3499977615357,2|0,0:3|0:0,0:0:0:0:
506,42,155091,6,0,P|443:78|372:69,1,146.699995523071,2|0,0:0|0:0,0:0:0:0:
276,128,155541,2,0,P|213:91|142:100,1,146.699995523071
30,86,155991,2,0,L|45:157,1,73.3499977615357,2|0,0:3|0:0,0:0:0:0:
0,281,156291,6,0,P|62:244|133:253,1,146.699995523071,2|0,0:0|0:0,0:0:0:0:
257,384,156891,2,0,L|272:312,1,73.3499977615357,2|0,0:0|0:0,0:0:0:0:
347,146,157191,2,0,L|363:218,1,73.3499977615357,2|0,0:3|0:0,0:0:0:0:
389,326,157491,6,0,P|460:333|513:284,1,146.699995523071,2|2,0:0|0:3,0:0:0:0:
434,202,157941,2,0,P|399:212|363:218,1,73.3499977615357,0|2,0:0|0:0,0:0:0:0:
177,164,158241,1,0,0:0:0:0:
267,62,158391,2,0,P|277:96|288:155,1,73.3499977615357
214,258,158691,6,0,P|143:264|90:215,1,146.699995523071,2|0,0:3|0:0,0:0:0:0:
0,352,159291,2,0,P|37:342|82:335,1,73.3499977615357,2|0,0:0|0:0,0:0:0:0:
184,368,159591,2,0,P|221:378|266:385,1,73.3499977615357,2|0,0:3|0:0,0:0:0:0:
357,304,159891,6,0,P|349:263|336:203,1,73.3499977615357,2|0,0:0|0:0,0:0:0:0:
468,364,160191,2,0,P|474:327|482:292,1,73.3499977615357,2|0,0:3|0:0,0:0:0:0:
511,108,160491,2,0,P|461:157|390:151,1,146.699995523071,2|2,0:0|0:3,0:0:0:0:
390,151,161091,6,0,P|391:107|412:63,1,81.5,0|0,3:0|0:0,0:0:0:0:
234,34,161691,2,0,P|260:111|256:192,2,163,0|2|0,0:0|0:0|0:0,0:0:0:0:
234,34,163491,6,0,P|260:111|256:192,1,163,4|8,0:0|0:0,0:0:0:0:
154,280,163941,1,0,0:0:0:0:
83,147,164091,2,0,P|122:157|154:182,1,81.5,2|0,0:0|3:0,0:0:0:0:
253,327,164391,2,0,P|299:313|334:282,1,81.5,8|0,0:0|0:0,0:0:0:0:
154,280,164691,6,0,B|72:264|89:327|-10:306,2,163,0|8|2,3:0|0:0|0:0,0:0:0:0:
41,221,165441,1,0,3:0:0:0:
160,167,165591,2,0,P|120:162|83:147,1,81.5,8|0,0:0|0:0,0:0:0:0:
16,52,165891,6,0,P|90:49|183:2,1,163,0|8,3:0|0:0,0:0:0:0:
350,74,166341,1,0,0:0:0:0:
191,156,166491,1,2,0:0:0:0:
281,203,166641,1,0,3:0:0:0:
253,36,166791,2,0,L|271:117,1,81.5,8|0,0:0|0:0,0:0:0:0:
353,296,167091,6,0,L|370:216,1,81.5,0|0,3:0|0:0,0:0:0:0:
271,331,167391,2,0,P|293:364|328:383,1,81.5,8|0,0:0|0:0,0:0:0:0:
416,360,167691,1,2,0:0:0:0:
279,243,167841,1,0,3:0:0:0:
469,286,167991,2,0,P|498:256|505:194,1,81.5,8|0,0:0|0:0,0:0:0:0:
407,56,168291,6,0,P|419:136|425:217,1,163,0|8,3:0|0:0,0:0:0:0:
416,360,168741,1,0,0:0:0:0:
261,218,168891,2,0,P|300:228|333:251,1,81.5,2|0,0:0|3:0,0:0:0:0:
178,322,169191,2,0,P|140:334|109:360,1,81.5,8|0,0:0|0:0,0:0:0:0:
261,218,169491,6,0,P|273:170|212:60,2,163,0|8|0,3:0|0:0|0:0,0:0:0:0:
178,165,170241,1,0,3:0:0:0:
347,270,170391,2,0,P|382:253|446:244,1,81.5,8|0,0:0|0:0,0:0:0:0:
214,310,170691,6,0,P|156:302|100:207,1,163,0|8,3:0|0:0,0:0:0:0:
150,62,171141,1,0,0:0:0:0:
265,185,171291,2,0,P|234:211|195:220,1,81.5,2|0,0:0|3:0,0:0:0:0:
70,138,171591,1,8,0:0:0:0:
259,94,171741,1,0,0:0:0:0:
267,286,171891,6,0,L|270:382,1,81.5,2|0,3:2|0:0,0:0:0:0:
373,245,172191,2,0,P|373:211|350:157,1,81.5,8|0,0:0|0:0,0:0:0:0:
161,144,172491,1,2,0:3:0:0:
267,286,172641,1,0,3:0:0:0:
259,94,172791,6,0,L|254:-19,1,91.6875034976007,12|0,3:0|0:0,0:0:0:0:
254,2,173091,6,0,B|170:-9|183:68|77:38,1,163,4|8,0:0|0:0,0:0:0:0:
259,94,173541,1,0,0:0:0:0:
95,229,173691,1,2,0:0:0:0:
177,128,173841,1,0,3:0:0:0:
239,285,173991,2,0,P|252:352|247:386,1,81.5,8|0,0:0|0:0,0:0:0:0:
6,255,174291,6,0,P|6:214|18:175,1,81.5,0|0,3:0|0:0,0:0:0:0:
175,219,174591,2,0,L|95:229,1,81.5,8|0,0:0|0:0,0:0:0:0:
29,56,174891,1,2,0:0:0:0:
140,131,175041,1,0,3:0:0:0:
230,29,175191,2,0,L|129:20,1,81.5,8|0,0:0|0:0,0:0:0:0:
171,307,175491,6,0,P|223:297|255:186,1,163,0|8,3:0|0:0,0:0:0:0:
140,131,175941,1,0,0:0:0:0:
176,218,176091,2,0,P|214:229|263:231,1,81.5,2|0,0:0|3:0,0:0:0:0:
412,311,176391,2,0,P|376:329|336:339,1,81.5,8|0,0:0|0:0,0:0:0:0:
236,142,176691,6,0,P|277:141|334:120,1,81.5,0|0,3:0|0:0,0:0:0:0:
413,192,176991,2,0,P|376:222|341:239,1,81.5,8|0,0:0|0:0,0:0:0:0:
261,40,177291,1,2,0:0:0:0:
413,192,177441,1,0,3:0:0:0:
228,254,177591,2,0,P|212:195|246:132,1,122.25,8|0,0:0|0:0,0:0:0:0:
235,141,177891,6,0,L|128:154,1,81.5,2|0,3:2|0:0,0:0:0:0:
307,302,178191,2,0,L|478:325,1,163,8|2,0:0|0:0,0:0:0:0:
270,378,178641,1,0,3:0:0:0:
387,228,178791,2,0,P|389:180|365:124,1,81.5,8|0,0:0|0:0,0:0:0:0:
171,331,179091,5,0,3:0:0:0:
306,200,179241,1,0,0:0:0:0:
95,87,179391,2,0,P|84:126|87:166,1,81.5,10|0,0:0|0:0,0:0:0:0:
302,324,179691,5,2,0:0:0:0:
174,133,179841,1,0,3:0:0:0:
367,54,179991,1,8,0:0:0:0:
182,241,180141,1,2,0:0:0:0:
435,133,180291,6,0,B|457:125|457:125|482:140|515:142,1,81.5,2|0,3:0|0:0,0:0:0:0:
260,293,180591,2,0,B|249:313|249:313|220:319|194:339,1,81.5,10|2,0:0|0:0,0:0:0:0:
342,127,180891,2,0,B|338:103|338:103|358:82|367:50,1,81.5,2|0,3:0|3:0,0:0:0:0:
341,259,181191,2,0,B|353:278|353:278|344:306|350:338,1,81.5,8|0,0:0|0:0,0:0:0:0:
279,41,181491,5,2,3:2:0:0:
96,144,181641,1,0,3:0:0:0:
342,127,181791,2,0,L|182:114,1,134.475004103851,12|0,0:1|0:0,0:0:0:0:
137,65,182091,5,0,3:0:0:0:
269,253,182241,1,8,3:0:0:0:
34,276,182391,2,0,B|125:249|106:328|223:289,1,158.924992724991,12|0,0:0|0:0,0:0:0:0:
269,253,182691,6,0,P|260:319|258:380,1,122.25,4|0,0:0|0:0,0:0:0:0:
338,360,182991,2,0,P|341:307|348:263,1,81.5,10|0,0:0|0:0,0:0:0:0:
169,378,183291,1,2,0:0:0:0:
269,253,183441,1,0,3:0:0:0:
424,366,183591,2,0,P|466:366|521:331,1,81.5,8|0,0:0|0:0,0:0:0:0:
431,111,183891,6,0,B|395:99|352:121|352:121|312:140|272:124,1,163,0|8,3:0|0:0,0:0:0:0:
118,229,184341,1,0,0:0:0:0:
196,43,184491,1,2,0:3:0:0:
315,208,184641,1,0,3:0:0:0:
94,139,184791,2,0,L|109:47,1,81.5,8|0,0:0|0:0,0:0:0:0:
337,220,185091,6,0,B|350:287|350:287|338:314|338:314|352:387,2,163,0|8|0,3:0|0:0|0:0,0:0:0:0:
214,328,185841,1,0,3:0:0:0:
300,150,185991,2,0,P|370:147|415:205,1,122.25,8|0,0:0|0:0,0:0:0:0:
445,96,186291,6,0,P|391:107|365:121,1,81.5,2|0,3:2|0:0,0:0:0:0:
354,305,186591,2,0,P|300:294|274:280,1,81.5,8|0,0:0|0:0,0:0:0:0:
261,61,186891,2,0,P|219:97|204:122,1,81.5,2|0,0:3|3:0,0:0:0:0:
433,324,187191,6,0,L|404:172,1,146.699995523071,12|0,0:1|0:0,0:0:0:0:
405,179,187491,6,0,B|370:160|327:186|327:186|280:207|247:188,1,163,4|8,0:0|0:0,0:0:0:0:
157,298,187941,1,0,0:0:0:0:
280,363,188091,2,0,P|326:347|360:322,1,81.5,2|0,0:0|3:0,0:0:0:0:
512,287,188391,2,0,P|477:264|439:252,1,81.5,8|0,0:0|0:0,0:0:0:0:
249,189,188691,6,0,P|228:220|153:184,1,122.25,0|0,3:0|0:0,0:0:0:0:
257,108,188991,2,0,P|251:148|248:188,1,81.5,8|0,0:0|0:0,0:0:0:0:
166,378,189291,2,0,P|162:337|156:297,1,81.5,2|0,0:3|3:0,0:0:0:0:
298,317,189591,1,8,0:0:0:0:
157,199,189741,1,2,0:0:0:0:
236,33,189891,2,0,P|278:31|326:67,1,97.8,0|0,3:0|0:0,0:0:0:0:
403,23,190191,6,0,L|386:159,1,97.799997015381,12|0,0:1|0:0,0:0:0:0:
416,324,190491,1,2,0:0:0:0:
416,324,190641,1,0,3:0:0:0:
322,61,190791,6,0,L|305:197,1,97.799997015381,12|0,1:2|0:0,0:0:0:0:
497,306,191091,1,8,3:0:0:0:
390,120,191241,1,8,3:0:0:0:
297,327,191391,6,0,P|343:352|395:344,1,97.799997015381,8|0,0:0|0:0,0:0:0:0:
492,103,191691,1,2,0:0:0:0:
354,275,191841,1,4,3:0:0:0:
189,137,191991,2,0,B|182:89|177:35|177:35|199:61,1,134.475004103851,12|0,0:0|0:0,0:0:0:0:
265,100,192291,6,0,B|314:95|314:95|333:102|333:102|420:94,1,122.25,4|0,3:2|0:0,0:0:0:0:
385,97,192591,6,0,L|377:199,1,81.5,8|0,0:0|0:0,0:0:0:0:
488,350,192891,2,0,L|481:268,1,81.5,2|0,0:0|3:0,0:0:0:0:
267,315,193191,1,8,0:0:0:0:
399,288,193341,1,2,0:0:0:0:
184,335,193491,6,0,P|128:330|94:304,1,81.5,2|0,3:2|0:0,0:0:0:0:
16,104,193791,2,0,P|52:86|92:86,1,81.5,8|0,0:0|0:0,0:0:0:0:
162,250,194091,2,0,P|126:229|104:196,1,81.5,2|0,0:0|3:0,0:0:0:0:
201,33,194391,6,0,L|188:173,1,122.25,8|0,0:0|0:0,0:0:0:0:
189,154,194691,6,0,B|221:139|266:160|266:160|311:182|352:161,1,163,0|8,3:0|0:0,0:0:0:0:
488,57,195141,2,0,P|418:81|395:101,1,81.5,0|2,0:0|0:0,0:0:0:0:
385,261,195441,1,0,3:0:0:0:
332,42,195591,2,0,L|349:186,1,122.25,8|0,0:0|0:0,0:0:0:0:
346,163,195891,6,0,P|276:139|253:119,1,81.5,0|0,3:0|0:0,0:0:0:0:
75,236,196191,2,0,P|110:216|150:208,1,81.5,8|0,0:0|0:0,0:0:0:0:
313,342,196491,1,2,0:3:0:0:
142,296,196641,1,0,3:0:0:0:
222,80,196791,2,0,L|239:224,1,122.25,12|0,1:0|0:0,0:0:0:0:
246,279,197091,5,4,0:0:0:0:
246,279,197241,1,8,3:0:0:0:
249,6,197391,2,0,P|184:11|153:41,1,81.5,8|0,0:0|0:0,0:0:0:0:
343,143,197691,5,2,0:0:0:0:
343,143,197841,1,0,3:0:0:0:
142,296,197991,2,0,P|77:291|46:261,1,81.5,8|0,0:0|0:0,0:0:0:0:
267,368,198291,5,0,3:0:0:0:
267,368,198441,1,2,0:0:0:0:
96,77,198591,6,0,B|107:135|107:135|100:154|100:154|120:249,1,146.699995523071,12|0,0:0|0:0,0:0:0:0:
142,296,198891,1,8,0:0:0:0:
255,131,199041,1,8,3:0:0:0:
421,351,199191,6,0,P|446:311|434:250,1,97.799997015381,12|4,1:0|3:0,0:0:0:0:
366,291,199416,1,4,3:0:0:0:
366,291,199491,1,10,0:0:0:0:
366,291,200953,2,0,P|332:293|300:279,1,61.1249981346131,2|12,0:1|3:0,0:0:0:0:
321,116,201216,1,8,3:0:0:0:
321,116,201291,6,0,B|350:124|375:110|375:110|346:173|348:236,1,163,12|0,0:0|0:0,0:0:0:0:
348,213,201628,2,0,L|386:206,5,20.375,2|2|2|2|2|0,0:3|0:3|3:0|3:0|3:0|3:0,0:0:0:0:
403,366,201891,6,0,P|351:322|233:352,1,179.300005471802,4|0,0:0|0:0,0:0:0:0:
79,270,202341,1,0,3:0:0:0:
167,162,202491,2,0,P|185:205|180:258,1,89.650002735901,8|0,0:0|0:0,0:0:0:0:
49,375,202791,2,0,P|89:366|144:357,1,89.650002735901,2|0,0:3|0:0,0:0:0:0:
256,114,203091,6,0,P|172:136|105:81,1,179.300005471802,2|0,0:0|3:0,0:0:0:0:
380,0,203541,2,0,P|369:43|359:97,1,89.650002735901,2|8,0:0|0:0,0:0:0:0:
479,227,203841,2,0,L|469:183|459:139,1,89.650002735901,2|0,0:0|0:0,0:0:0:0:
348,213,204141,1,2,0:3:0:0:
480,340,204291,6,0,B|420:329|420:329|368:354|368:354|290:340,1,179.300005471802,4|2,3:0|0:3,0:0:0:0:
159,197,204741,1,0,3:0:0:0:
209,369,204891,2,0,P|216:322|228:273,1,89.650002735901,8|0,0:0|0:0,0:0:0:0:
58,166,205191,2,0,P|67:209|75:253,1,89.650002735901,2|0,0:0|0:0,0:0:0:0:
216,104,205491,5,2,1:2:0:0:
60,52,205641,1,8,1:3:0:0:
159,197,205791,1,0,3:0:0:0:
318,124,205941,2,0,P|319:80|299:41,1,89.650002735901,2|8,0:0|0:0,0:0:0:0:
75,253,206241,2,0,P|169:238|273:224,1,179.300005471802,8|4,3:0|3:0,0:0:0:0:
449,188,206691,6,0,P|402:116|317:124,1,179.300005471802,4|0,0:0|0:0,0:0:0:0:
170,300,207141,1,0,3:0:0:0:
346,376,207291,2,0,P|354:278|369:162,1,179.300005471802,8|2,0:0|0:3,0:0:0:0:
216,104,207741,1,0,3:0:0:0:
257,243,207891,5,2,1:2:0:0:
108,156,208041,1,0,1:0:0:0:
318,55,208191,1,8,3:0:0:0:
195,383,208491,2,0,P|152:386|103:350,1,89.650002735901,8|0,0:0|0:0,0:0:0:0:
0,262,208791,2,0,P|46:253|102:244,1,89.650002735901,2|0,0:0|0:0,0:0:0:0:
293,112,209091,6,0,P|226:57|142:78,1,179.300005471802,2|2,3:2|0:0,0:0:0:0:
205,159,209541,1,0,3:0:0:0:
393,66,209691,2,0,P|380:129|366:210,1,134.475004103851,12|0,0:1|0:0,0:0:0:0:
350,278,209991,5,2,0:0:0:0:
293,112,210141,1,0,3:0:0:0:
194,334,210291,5,4,3:1:0:0:
205,159,210441,1,0,3:0:0:0:
44,260,210591,5,12,3:0:0:0:
123,103,210741,1,0,3:0:0:0:
225,250,210891,5,8,0:0:0:0:
11,113,211041,1,0,3:0:0:0:
235,1,211191,1,8,3:0:0:0:
120,201,211341,1,4,3:0:0:0:
77,26,211491,6,0,B|174:-11|155:60|251:27,1,179.300005471802,4|2,0:0|0:0,0:0:0:0:
429,146,211941,1,0,3:0:0:0:
334,210,212091,2,0,P|315:165|320:110,1,89.650002735901,8|0,0:0|0:0,0:0:0:0:
508,246,212391,2,0,P|507:290|489:331,1,89.650002735901,2|0,0:0|0:0,0:0:0:0:
263,306,212691,6,0,P|327:248|411:269,1,179.300005471802,2|0,3:2|3:0,0:0:0:0:
493,69,213141,2,0,P|447:62|385:51,1,89.650002735901,2|8,3:3|0:0,0:0:0:0:
334,210,213441,1,0,1:0:0:0:
147,133,213591,2,0,P|191:125|235:118,1,89.650002735901,2|0,1:2|0:0,0:0:0:0:
166,357,213891,6,0,P|83:360|38:299,1,134.475004103851,2|0,3:2|0:0,0:0:0:0:
0,261,214191,2,0,L|12:162,1,89.650002735901,2|0,0:0|3:0,0:0:0:0:
156,33,214491,2,0,P|230:77|240:163,1,179.300005471802,12|2,0:0|0:3,0:0:0:0:
57,93,214941,1,0,3:0:0:0:
123,277,215091,2,0,P|168:270|226:264,1,89.650002735901,2|0,1:2|1:0,0:0:0:0:
488,331,215391,6,0,B|414:309|363:350|363:350|297:335,1,179.300005471802,4|8,3:0|0:0,0:0:0:0:
135,180,215841,2,0,P|147:96|229:78,1,179.300005471802,8|0,3:0|3:0,0:0:0:0:
390,38,216291,6,0,B|398:105|398:105|382:140|382:140|391:213,1,179.300005471802,4|2,0:0|0:0,0:0:0:0:
256,192,216741,1,0,3:0:0:0:
316,339,216891,2,0,P|362:332|430:325,1,89.650002735901,8|0,0:0|0:0,0:0:0:0:
474,234,217191,2,0,P|434:212|390:213,1,89.650002735901,2|0,0:0|0:0,0:0:0:0:
221,328,217491,6,0,B|125:361|144:290|47:327,1,179.300005471802,2|0,1:2|3:0,0:0:0:0:
240,107,218091,2,0,P|259:147|256:192,1,89.650002735901,12|0,0:1|0:0,0:0:0:0:
37,134,218391,2,0,L|50:42,1,89.650002735901,2|0,0:0|3:0,0:0:0:0:
167,170,218691,5,4,0:0:0:0:
26,224,218841,1,0,3:0:0:0:
150,62,218991,1,2,0:3:0:0:
184,278,219141,1,4,3:0:0:0:
184,278,219216,1,0,0:0:0:0:
184,278,219291,2,0,L|296:261,1,89.650002735901,8|0,0:0|0:0,0:0:0:0:
512,370,219591,6,0,P|427:382|371:317,1,179.300005471802,12|2,0:0|1:3,0:0:0:0:
427,119,220041,1,8,3:0:0:0:
427,119,220116,1,0,3:0:0:0:
427,119,220191,1,12,0:0:0:0:
460,291,220341,1,2,0:0:0:0:
284,175,220491,1,8,1:2:0:0:
464,28,220641,1,0,3:0:0:0:
390,210,220791,1,2,3:2:0:0:
390,210,220941,1,0,3:0:0:0:
194,118,221091,6,0,P|123:125|79:224,1,179.300005471802,4|0,0:0|0:0,0:0:0:0:
269,332,221541,1,0,3:0:0:0:
294,126,221691,2,0,P|285:82|261:44,1,89.650002735901,8|0,0:0|0:0,0:0:0:0:
167,199,221991,1,2,0:0:0:0:
381,159,222141,1,2,0:3:0:0:
173,100,222291,6,0,B|82:84|99:153|-5:126,1,179.300005471802,0|0,1:0|3:0,0:0:0:0:
253,260,222741,2,0,P|297:256|340:244,1,89.650002735901,2|8,0:0|0:0,0:0:0:0:
321,53,223041,1,2,0:0:0:0:
167,199,223191,1,2,0:3:0:0:
343,324,223341,1,0,3:0:0:0:
231,120,223491,6,0,P|146:100|77:152,1,179.300005471802,2|0,3:2|0:0,0:0:0:0:
214,307,223941,2,0,P|226:273|248:243,1,44.8250013679505,4|0,3:0|0:0,0:0:0:0:
167,199,224091,2,0,L|134:7,1,179.300005471802,8|2,0:0|0:0,0:0:0:0:
90,242,224541,1,0,3:0:0:0:
249,120,224691,6,0,P|262:78|258:34,1,89.650002735901,2|0,1:2|1:0,0:0:0:0:
105,131,224991,1,0,3:0:0:0:
291,205,225141,2,0,P|333:187|362:154,1,89.650002735901,2|8,0:0|0:0,0:0:0:0:
223,278,225441,2,0,P|232:321|260:356,1,89.650002735901,0|0,3:0|0:0,0:0:0:0:
351,293,225741,1,4,3:0:0:0:
130,236,225891,6,0,P|64:239|22:360,1,179.300005471802,4|0,0:0|0:0,0:0:0:0:
102,317,226341,1,0,3:0:0:0:
204,191,226491,2,0,B|221:93|156:131|182:3,1,179.300005471802,8|2,0:0|0:0,0:0:0:0:
180,18,227091,5,2,1:2:0:0:
119,162,227241,1,0,1:0:0:0:
262,59,227391,2,0,L|372:47,1,89.650002735901,0|0,3:0|0:0,0:0:0:0:
119,162,227691,2,0,L|19:156,1,89.650002735901,8|0,0:0|0:0,0:0:0:0:
285,246,227991,6,0,B|341:226|417:227|417:227|388:218|371:209,1,179.300005471802,2|0,0:0|3:0,0:0:0:0:
290,157,228441,1,4,3:0:0:0:
479,282,228591,2,0,P|501:242|483:171,1,89.650002735901,2|0,0:0|3:0,0:0:0:0:
355,31,228891,2,0,P|366:79|375:128,1,89.650002735901,12|0,1:1|0:0,0:0:0:0:
212,325,229191,5,2,0:0:0:0:
329,252,229341,1,0,3:0:0:0:
166,160,229491,1,4,3:0:0:0:
311,346,229641,1,2,0:0:0:0:
383,126,229791,6,0,P|336:139|267:146,1,89.650002735901,8|0,3:0|0:0,0:0:0:0:
95,75,230091,2,0,P|129:109|170:165,1,89.650002735901,10|0,0:0|3:0,0:0:0:0:
195,350,230391,1,2,3:0:0:0:
224,215,230541,1,0,3:0:0:0:
106,334,230691,6,0,L|309:315,1,179.300005471802,6|0,0:0|0:0,0:0:0:0:
328,199,231141,1,0,3:0:0:0:
147,150,231291,2,0,P|127:189|125:234,1,89.650002735901,8|0,0:0|0:0,0:0:0:0:
389,299,231591,5,2,0:0:0:0:
224,215,231741,1,0,3:0:0:0:
387,126,231891,2,0,P|415:159|423:203,1,89.650002735901,2|0,1:2|0:0,0:0:0:0:
124,335,232191,6,0,B|221:358|190:279|300:307,1,179.300005471802,4|8,3:0|0:0,0:0:0:0:
288,110,232641,2,0,P|231:125|201:260,1,179.300005471802,2|0,0:0|3:0,0:0:0:0:
380,354,233091,6,0,P|390:310|381:266,1,89.650002735901,2|0,3:2|0:0,0:0:0:0:
278,203,233391,1,2,0:0:0:0:
74,284,233541,1,0,3:0:0:0:
252,290,233691,2,0,L|234:109,1,179.300005471802,8|2,0:0|0:3,0:0:0:0:
153,224,234141,1,0,0:0:0:0:
354,228,234291,6,0,P|346:183|348:139,1,89.650002735901,2|0,1:2|1:0,0:0:0:0:
252,290,234591,2,0,L|148:361,1,89.650002735901,0|0,3:0|0:0,0:0:0:0:
234,111,234891,2,0,L|113:85,1,89.650002735901,8|0,0:0|3:0,0:0:0:0:
176,210,235191,1,2,0:0:0:0:
436,183,235341,1,4,3:0:0:0:
233,150,235491,6,0,B|330:175|274:225|401:250,1,179.300005471802,6|2,0:0|0:3,0:0:0:0:
339,104,235941,1,0,3:0:0:0:
226,243,236091,2,0,P|219:286|234:328,1,89.650002735901,8|0,0:0|0:0,0:0:0:0:
431,117,236391,2,0,P|403:35|319:14,1,179.300005471802,2|2,0:3|0:3,0:0:0:0:
319,14,236991,6,0,P|330:53|330:94,1,73.3499977615357,2|0,1:2|0:0,0:0:0:0:
156,288,237291,6,0,P|154:243|163:200,1,89.650002735901,12|0,0:0|0:0,0:0:0:0:
409,136,237591,6,0,P|368:169|317:181,1,105.949995149994,2|0,3:0|3:0,0:0:0:0:
28,45,237891,6,0,B|108:34|152:104|152:104|186:83|226:91,1,211.899990299988,6|0,0:0|3:0,0:0:0:0:
72,274,238341,2,0,L|57:205,1,52.9749975749971,2|0,0:0|0:0,0:0:0:0:
54,143,238491,1,12,0:0:0:0:
234,285,238641,1,0,3:0:0:0:
214,89,238791,2,0,B|168:123|168:123|157:245,1,158.924992724991,12|0,1:1|0:0,0:0:0:0:
234,285,239091,6,0,L|372:261,1,105.949995149994,4|2,3:0|0:0,0:0:0:0:
491,136,239391,1,12,0:0:0:0:
309,90,239541,1,8,0:0:0:0:
447,318,239691,5,10,0:0:0:0:
412,67,239841,1,4,3:0:0:0:
238,265,239991,1,2,3:0:0:0:
512,231,240141,1,12,3:0:0:0:
122,158,240291,6,0,L|18:146,1,81.5,6|0,0:0|0:0,0:0:0:0:
150,347,240591,2,0,B|191:362|191:362|298:336,1,122.25,0|0,3:0|0:0,0:0:0:0:
318,275,240891,2,0,P|308:219|261:186,1,81.5,8|0,0:0|0:0,0:0:0:0:
390,351,241191,1,0,3:0:0:0:
238,265,241341,1,2,0:3:0:0:
416,63,241491,6,0,L|396:229,2,163,2|0|8,1:2|3:0|0:0,0:0:0:0:
239,129,242241,1,2,0:3:0:0:
267,343,242391,1,2,0:0:0:0:
321,166,242541,1,0,3:0:0:0:
172,311,242691,6,0,L|75:293,1,81.5,4|0,3:2|0:0,0:0:0:0:
312,256,242991,1,0,3:0:0:0:
151,333,243141,1,2,0:0:0:0:
24,190,243291,2,0,L|104:175,1,81.5,8|0,0:0|0:0,0:0:0:0:
267,343,243591,2,0,L|186:328,1,81.5,0|8,3:0|0:0,0:0:0:0:
188,97,243891,5,2,0:0:0:0:
229,247,244041,1,2,0:0:0:0:
136,37,244191,2,0,P|187:17|268:93,1,163,0|8,3:0|0:0,0:0:0:0:
104,174,244641,1,0,0:0:0:0:
305,211,244791,2,0,L|420:188,1,81.5,0|0,1:0|3:0,0:0:0:0:
206,338,245091,6,0,B|219:301|204:264|204:264|186:223|204:178,2,163,4|0|10,0:0|3:0|0:0,0:0:0:0:
45,80,245991,1,0,3:0:0:0:
97,224,246141,1,0,1:0:0:0:
225,96,246291,6,0,P|159:103|133:134,1,81.5,2|0,0:0|1:0,0:0:0:0:
46,288,246591,2,0,P|81:306|121:302,1,81.5,0|0,3:0|0:0,0:0:0:0:
351,37,246891,2,0,B|318:59|318:59|302:213,1,163,8|0,0:0|1:0,0:0:0:0:
349,328,247341,1,0,3:0:0:0:
97,224,247491,6,0,B|125:212|166:223|186:252|186:252|222:234|262:241,1,163,4|0,0:0|3:0,0:0:0:0:
121,301,247941,1,2,0:0:0:0:
139,75,248091,2,0,P|158:139|175:226,1,122.25,12|0,0:1|0:0,0:0:0:0:
97,224,248391,2,0,P|104:182|113:139,1,81.5,0|8,3:0|3:0,0:0:0:0:
236,324,248691,5,2,3:2:0:0:
353,62,248841,2,0,L|250:85,2,81.5,12|4|0,0:1|3:0|3:0,0:0:0:0:
389,279,249291,1,8,0:0:0:0:
486,82,249441,1,8,3:0:0:0:
293,185,249591,1,4,3:0:0:0:
511,215,249741,1,2,3:0:0:0:
353,62,249891,5,4,3:2:0:0:
389,279,250041,2,0,P|379:335|367:373,1,81.5,2|0,0:0|3:0,0:0:0:0:
211,250,250341,1,2,0:0:0:0:
50,130,250491,2,0,P|59:186|72:224,1,81.5,8|0,0:0|0:0,0:0:0:0:
189,45,250791,1,0,3:0:0:0:
211,250,250941,6,0,P|201:306|189:344,1,81.5,2|0,0:3|0:0,0:0:0:0:
105,70,251241,1,0,1:0:0:0:
35,299,251391,2,0,P|91:289|129:277,1,81.5,0|0,3:0|0:0,0:0:0:0:
358,196,251691,2,0,P|318:185|278:179,1,81.5,8|0,0:0|0:0,0:0:0:0:
105,70,251991,2,0,P|76:98|50:130,1,81.5,2|0,0:3|3:0,0:0:0:0:
223,352,252291,6,0,B|252:368|303:352|303:352|354:333|388:353,1,163,4|0,0:0|3:0,0:0:0:0:
507,237,252741,2,0,P|474:237|421:266,1,81.5,0|8,0:0|0:0,0:0:0:0:
397,108,253040,1,2,0:0:0:0:
180,254,253191,2,0,P|216:272|256:273,1,81.5,0|10,3:0|0:0,0:0:0:0:
307,92,253491,5,0,1:0:0:0:
271,352,253641,2,0,P|254:307|267:252,1,81.5,2|0,0:0|3:0,0:0:0:0:
459,281,253941,1,0,1:0:0:0:
283,72,254091,2,0,L|179:93,1,81.5,8|0,0:0|0:0,0:0:0:0:
8,241,254391,2,0,L|87:257,1,81.5,2|0,1:2|1:0,0:0:0:0:
418,139,254691,6,0,P|348:133|317:241,2,163,4|0|8,3:2|3:0|0:0,0:0:0:0:
418,139,255591,1,2,3:0:0:0:
345,287,255741,1,2,0:0:0:0:
304,205,255891,1,2,0:3:0:0:
473,216,256041,1,2,0:0:0:0:
293,367,256191,2,0,L|112:343,1,163,4|8,0:0|0:0,0:0:0:0:
29,84,256641,5,8,3:0:0:0:
114,184,256791,1,8,3:0:0:0:
78,267,256941,1,4,3:0:0:0:
61,7,257091,1,12,3:2:0:0:
461,240,258591,6,0,P|374:239|344:292,1,122.25,2|0,0:1|0:0,0:0:0:0:
268,283,258891,6,0,P|316:288|352:258,1,97.799997015381,12|0,3:0|0:0,3:0:0:0:
353,258,259266,2,0,L|367:308,2,32.6
401,187,259491,6,0,B|341:176|341:176|289:201|289:201|211:187,1,179.300005471802,6|0,1:1|0:0,0:0:0:0:
75,102,259941,1,0,3:0:0:0:
106,292,260091,2,0,L|125:191,1,89.650002735901,8|0,0:0|0:0,0:0:0:0:
207,353,260391,1,2,0:0:0:0:
4,233,260541,1,0,1:0:0:0:
217,101,260691,5,2,0:0:0:0:
106,292,260841,1,0,1:0:0:0:
21,41,260991,2,0,B|60:19|60:19|105:26,1,89.650002735901,0|0,3:0|0:0,0:0:0:0:
423,92,261291,2,0,B|384:114|384:114|339:107,1,89.650002735901,8|0,0:0|0:0,0:0:0:0:
232,12,261591,2,0,L|217:101,1,89.650002735901,2|0,0:3|0:0,0:0:0:0:
489,151,261891,6,0,P|508:67|448:5,1,179.300005471802,2|2,3:2|0:3,0:0:0:0:
339,107,262341,1,0,3:0:0:0:
429,226,262491,2,0,P|465:248|511:248,1,89.650002735901,8|0,0:0|0:0,0:0:0:0:
296,341,262791,2,0,L|206:352,1,89.650002735901,2|0,1:2|0:0,0:0:0:0:
88,207,263091,5,2,0:0:0:0:
37,368,263241,1,0,1:0:0:0:
213,225,263391,2,0,P|205:180|195:136,1,89.650002735901,4|2,3:0|0:0,0:0:0:0:
88,207,263691,1,8,0:0:0:0:
296,341,263841,2,0,P|305:297|313:252,1,89.650002735901,4|2,3:0|0:0,0:0:0:0:
129,310,264141,1,0,3:0:0:0:
110,100,264291,6,0,P|172:42|255:65,2,179.300005471802,6|2|8,0:1|0:3|0:0,0:0:0:0:
367,8,265191,1,2,0:0:0:0:
322,174,265341,1,2,0:3:0:0:
492,126,265491,5,2,0:0:0:0:
255,65,265641,1,0,1:0:0:0:
298,277,265791,2,0,P|345:266|391:258,1,89.650002735901,0|0,3:0|0:0,0:0:0:0:
163,192,266091,2,0,P|177:282|190:388,1,179.300005471802,10|0,0:0|1:0,0:0:0:0:
36,307,266541,1,0,1:0:0:0:
119,106,266691,6,0,B|217:71|192:146|291:107,1,179.300005471802,4|2,3:2|0:3,0:0:0:0:
471,18,267141,1,0,3:0:0:0:
411,192,267291,2,0,P|404:142|395:93,1,89.650002735901,12|0,1:0|0:0,0:0:0:0:
378,294,267591,2,0,P|429:299|469:282,1,89.650002735901,2|0,0:0|3:0,0:0:0:0:
256,192,267891,5,4,3:2:0:0:
166,370,268041,1,2,0:0:0:0:
378,294,268191,1,4,3:0:0:0:
140,237,268341,1,0,1:0:0:0:
349,111,268491,1,8,0:0:0:0:
256,288,268641,1,8,3:0:0:0:
187,65,268791,1,4,3:0:0:0:
402,179,268941,5,8,3:0:0:0:
402,179,269016,1,0,3:0:0:0:
402,179,269091,2,0,P|437:112|380:30,1,179.300005471802,4|2,0:0|0:3,0:0:0:0:
256,192,269541,1,0,3:0:0:0:
378,294,269691,2,0,P|421:285|476:278,1,89.650002735901,12|0,0:0|0:0,0:0:0:0:
166,370,269991,2,0,P|123:361|68:354,1,89.650002735901,2|2,0:0|0:3,0:0:0:0:
0,208,270291,6,0,P|85:216|136:147,1,179.300005471802,2|0,1:2|3:0,0:0:0:0:
31,44,270741,2,0,P|28:88|45:129,1,89.650002735901,2|8,0:0|0:0,0:0:0:0:
256,192,271041,1,2,0:3:0:0:
203,0,271191,2,0,P|178:37|170:83,1,89.650002735901,2|0,0:0|1:0,0:0:0:0:
256,192,271491,6,0,P|325:184|391:178,1,134.475004103851,2|0,3:2|0:0,0:0:0:0:
455,223,271791,2,0,P|480:186|488:140,1,89.650002735901,2|0,0:0|3:0,0:0:0:0:
224,288,272091,2,0,P|232:331|257:368,1,89.650002735901,8|0,0:0|0:0,0:0:0:0:
402,81,272391,2,0,P|394:38|369:1,1,89.650002735901,2|0,0:3|1:0,0:0:0:0:
256,192,272691,5,2,1:2:0:0:
455,223,272841,1,2,0:0:0:0:
302,78,272991,2,0,B|233:56|178:98|178:98|110:73,1,179.300005471802,0|8,3:0|0:0,0:0:0:0:
24,280,273441,2,0,B|-21:223|26:160|26:160|72:176,1,179.300005471802,8|4,3:0|3:0,0:0:0:0:
224,288,273891,6,0,P|216:333|208:388,1,89.650002735901,4|0,0:0|0:0,0:0:0:0:
106,254,274191,1,8,3:0:0:0:
307,201,274341,1,2,3:2:0:0:
177,98,274491,1,8,0:0:0:0:
177,98,274791,5,2,0:0:0:0:
224,288,274941,1,0,1:0:0:0:
72,176,275091,1,2,0:0:0:0:
256,40,275241,1,0,1:0:0:0:
172,201,275391,1,0,3:0:0:0:
389,112,275541,1,4,3:0:0:0:
312,304,275691,2,0,P|268:295|224:288,1,89.650002735901,12|0,1:0|0:0,0:0:0:0:
443,246,275991,2,0,P|460:286|457:330,1,89.650002735901,12|0,3:0|0:0,0:0:0:0:
299,177,276291,5,4,3:2:0:0:
491,83,276441,2,0,P|403:83|344:18,1,179.300005471802,12|0,0:0|3:0,0:0:0:0:
86,86,276891,2,0,P|79:130|71:174,1,89.650002735901,10|0,0:0|0:0,0:0:0:0:
71,175,277191,2,0,P|159:175|218:110,1,179.300005471802,12|2,0:1|3:2,0:0:0:0:
356,240,277641,1,8,3:0:0:0:
352,262,277716,1,0,3:0:0:0:
348,284,277791,5,12,0:0:0:0:
210,361,277941,1,2,1:2:0:0:
172,201,278091,1,10,0:0:0:0:
349,101,278241,1,8,3:0:0:0:
442,342,278391,1,10,3:0:0:0:
78,288,278541,1,4,3:0:0:0:
433,132,278691,6,0,P|367:188|284:165,1,179.300005471802,6|2,0:0|0:3,0:0:0:0:
181,11,279141,1,0,3:0:0:0:
347,5,279291,2,0,P|309:28|265:37,1,89.650002735901,8|0,0:0|0:0,0:0:0:0:
89,182,279591,2,0,P|131:194|166:222,1,89.650002735901,2|2,0:0|0:3,0:0:0:0:
145,87,279891,6,0,P|84:154|-26:156,1,179.300005471802,2|0,1:2|3:0,0:0:0:0:
42,68,280341,1,2,0:0:0:0:
215,144,280491,1,8,0:0:0:0:
112,361,280641,2,0,P|94:320|93:275,1,89.650002735901,2|2,0:0|0:3,0:0:0:0:
261,65,280941,1,2,0:0:0:0:
423,195,281091,6,0,L|308:211,1,89.650002735901,0|8,3:0|3:0,0:0:0:0:
467,44,281391,2,0,L|378:31,1,89.650002735901,2|4,0:3|3:0,0:0:0:0:
507,258,281691,1,8,0:0:0:0:
507,258,281991,1,2,1:2:0:0:
333,118,282141,1,8,0:0:0:0:
400,371,282291,6,0,B|417:334|417:334|401:276,1,89.650002735901,2|0,1:2|1:0,0:0:0:0:
262,73,282591,2,0,B|245:110|245:110|261:168,1,89.650002735901,0|2,3:0|0:0,0:0:0:0:
399,32,282891,1,8,0:0:0:0:
267,192,283041,2,0,B|169:170|183:242|83:209,1,179.300005471802,8|4,3:0|3:0,0:0:0:0:
334,121,283491,6,0,L|457:107,1,89.650002735901,4|0,0:0|0:0,0:0:0:0:
128,131,283791,1,2,0:0:0:0:
160,361,283941,1,0,3:0:0:0:
225,175,284091,2,0,P|235:126|135:23,1,179.300005471802,8|2,0:0|0:3,0:0:0:0:
52,187,284541,1,8,0:0:0:0:
308,80,284691,6,0,P|263:87|179:96,1,89.650002735901,0|0,1:0|1:0,0:0:0:0:
25,278,284991,2,0,P|70:271|154:262,1,89.650002735901,0|0,3:0|0:0,0:0:0:0:
52,187,285291,1,8,0:0:0:0:
84,362,285441,1,2,0:0:0:0:
52,187,285591,2,0,L|37:78,1,89.650002735901,0|0,1:0|1:0,0:0:0:0:
265,0,285891,6,0,L|280:109,1,89.650002735901,2|8,3:2|3:0,0:0:0:0:
304,242,286191,1,2,0:3:0:0:
178,104,286341,1,0,3:0:0:0:
476,215,286491,1,12,1:0:0:0:
336,331,286641,1,2,0:0:0:0:
336,331,286716,1,2,0:0:0:0:
336,331,286791,2,0,L|351:232,1,89.650002735901,2|0,0:3|3:0,0:0:0:0:
435,354,287091,5,2,1:2:0:0:
232,286,287241,1,0,1:0:0:0:
444,331,287391,1,0,3:0:0:0:
231,314,287541,1,2,0:0:0:0:
443,204,287691,5,10,0:0:0:0:
336,331,287841,1,0,3:0:0:0:
271,174,287991,1,2,0:0:0:0:
349,242,288141,1,0,3:0:0:0:
139,125,288291,6,0,B|72:182|89:240|89:240|109:225|92:172,1,179.300005471802,6|2,0:0|0:3,0:0:0:0:
43,39,288741,1,0,3:0:0:0:
197,199,288891,2,0,P|248:205|326:103,1,179.300005471802,8|2,0:0|0:3,0:0:0:0:
43,39,289341,1,0,3:0:0:0:
235,117,289491,6,0,L|336:104,1,89.650002735901,2|0,0:0|3:0,0:0:0:0:
156,32,289791,1,8,3:0:0:0:
139,284,289941,1,2,0:0:0:0:
156,32,290091,1,8,0:0:0:0:
229,255,290241,2,0,P|166:194|80:203,1,179.300005471802,2|0,0:0|3:0,0:0:0:0:
266,341,290691,6,0,P|308:327|351:314,1,89.650002735901,4|8,3:2|3:0,0:0:0:0:
457,250,290991,2,0,P|414:236|371:223,1,89.650002735901,2|4,0:3|3:0,0:0:0:0:
256,34,291291,2,0,L|266:139,1,89.650002735901,8|0,0:0|0:0,0:0:0:0:
346,30,291591,1,2,3:0:0:0:
176,109,291741,1,0,3:0:0:0:
486,338,291891,6,0,L|508:142,1,179.300005471802,6|8,3:2|3:0,0:0:0:0:
297,313,292341,1,6,0:0:0:0:
357,130,292491,1,8,0:0:0:0:
396,274,292641,1,0,3:0:0:0:
244,226,292791,1,2,0:0:0:0:
334,215,292941,1,0,3:0:0:0:
150,325,293091,6,0,P|84:342|3:258,1,179.300005471802,6|2,0:0|0:0,0:0:0:0:
147,82,293541,1,0,3:0:0:0:
95,254,293691,2,0,P|87:208|103:160,1,89.650002735901,8|0,0:0|0:0,0:0:0:0:
358,5,293991,1,10,3:0:0:0:
220,147,294141,1,0,3:0:0:0:
373,102,294291,6,0,L|268:79,1,89.650002735901,2|2,0:0|3:0,0:0:0:0:
422,214,294591,2,0,L|317:191,1,89.650002735901,8|2,3:0|0:0,0:0:0:0:
51,120,294891,5,12,0:0:0:0:
217,338,295041,1,8,3:0:0:0:
285,82,295191,1,8,3:0:0:0:
73,267,295341,1,2,3:2:0:0:
481,355,295491,6,0,L|466:117,2,228.199993035889,6|2|0,0:0|0:0|0:0,0:0:0:0:
481,355,296991,1,4,3:0:0:0:
466,127,297291,6,0,L|476:273,1,142.625,12|0,1:1|0:0,0:0:0:0:
481,355,297891,6,0,P|430:347|354:340,1,89.650002735901,4|0,0:0|0:0,0:0:0:0:
227,245,298191,2,0,P|333:252|349:289,1,134.475004103851,2|0,0:1|0:0,0:0:0:0:
317,335,298491,2,0,P|266:327|190:320,1,89.650002735901,8|0,0:0|0:0,0:0:0:0:
88,197,298791,1,2,0:0:0:0:
137,359,298941,1,0,3:0:0:0:
231,213,299091,6,0,B|216:146|216:146|226:118|226:118|205:22,2,179.300005471802,4|0|8,3:2|3:0|0:0,0:0:0:0:
134,115,299841,1,0,0:0:0:0:
324,67,299991,2,0,L|311:167,1,89.650002735901,2|0,0:0|0:0,0:0:0:0:
434,350,300291,6,0,L|422:261,1,89.650002735901,0|8,3:0|3:0,0:0:0:0:
212,346,300591,2,0,L|233:194,1,134.475004103851,6|0,0:3|0:0,0:0:0:0:
189,144,300891,2,0,P|131:154|108:190,1,89.650002735901,8|0,0:0|0:0,0:0:0:0:
36,20,301191,2,0,L|52:116,1,89.650002735901,2|0,0:0|3:0,0:0:0:0:
250,284,301491,6,0,B|285:297|336:268|336:268|382:245|422:260,2,179.300005471802,4|0|8,3:2|3:0|0:0,0:0:0:0:
79,319,302241,1,0,3:0:0:0:
182,170,302391,1,2,0:0:0:0:
179,358,302541,1,0,3:0:0:0:
360,171,302691,6,0,P|348:119|325:65,1,89.650002735901,4|0,0:0|0:0,0:0:0:0:
147,12,302991,2,0,P|131:54|121:97,1,89.650002735901,2|0,0:1|3:0,0:0:0:0:
303,317,303291,2,0,P|274:268|142:293,1,179.300005471802,8|2,0:0|0:1,0:0:0:0:
201,139,303741,1,0,3:0:0:0:
57,300,303891,6,0,P|105:298|154:281,1,89.650002735901,4|0,3:2|0:0,0:0:0:0:
319,101,304191,2,0,P|367:103|416:120,1,89.650002735901,0|0,3:0|0:0,0:0:0:0:
447,342,304491,2,0,P|350:348|312:253,1,179.300005471802,8|2,0:0|0:0,0:0:0:0:
396,273,304941,1,0,3:0:0:0:
319,101,305091,6,0,L|334:197,1,89.650002735901,2|8,3:0|3:0,0:0:0:0:
211,349,305391,2,0,L|224:260,1,89.650002735901,2|0,0:0|3:0,0:0:0:0:
495,35,305691,2,0,P|428:69|376:46,1,134.475004103851,12|0,1:0|0:0,0:0:0:0:
319,101,305991,1,2,0:1:0:0:
184,26,306141,1,0,3:0:0:0:
57,262,306291,6,0,B|96:238|96:238|159:279|223:260,2,179.300005471802,4|0|10,0:0|3:0|0:0,0:0:0:0:
159,358,307041,1,8,3:0:0:0:
330,282,307191,1,4,3:0:0:0:
176,166,307341,1,8,3:0:0:0:
404,23,307491,6,0,B|385:95|385:95|392:119|392:119|372:210,1,179.300005471802,4|2,0:0|0:0,0:0:0:0:
484,91,307941,1,0,3:0:0:0:
275,39,308091,2,0,L|292:155,1,89.650002735901,8|0,0:0|0:0,0:0:0:0:
412,302,308391,2,0,P|373:280|329:281,1,89.650002735901,2|2,0:0|0:3,0:0:0:0:
66,301,308691,6,0,L|258:335,2,179.300005471802,6|0|8,0:0|3:0|0:0,0:0:0:0:
196,217,309441,1,2,0:0:0:0:
79,80,309591,2,0,P|94:150|99:182,1,89.650002735901,2|0,0:1|3:0,0:0:0:0:
313,257,309891,6,0,P|320:212|330:169,1,89.650002735901,4|8,3:0|3:0,0:0:0:0:
379,327,310191,1,2,0:3:0:0:
214,228,310341,1,0,3:0:0:0:
365,60,310491,2,0,P|399:88|432:119,1,89.650002735901,8|0,0:0|0:0,0:0:0:0:
507,227,310791,2,0,P|464:242|421:255,1,89.650002735901,2|2,0:0|0:3,0:0:0:0:
180,65,311091,6,0,P|222:78|265:93,1,89.650002735901,6|0,0:2|1:0,0:0:0:0:
344,323,311391,2,0,P|333:279|326:235,1,89.650002735901,0|0,3:0|0:0,0:0:0:0:
476,56,311691,2,0,P|443:86|408:115,1,89.650002735901,8|0,0:0|3:0,0:0:0:0:
301,163,311991,1,2,0:0:0:0:
441,282,312141,1,4,3:0:0:0:
373,34,312291,6,0,B|330:20|289:43|289:43|244:66|193:44,1,179.300005471802,4|0,3:2|3:0,0:0:0:0:
201,184,312741,1,2,0:3:0:0:
94,22,312891,2,0,P|111:88|120:138,1,89.650002735901,8|0,0:0|3:0,0:0:0:0:
288,293,313191,2,0,P|297:249|309:205,1,89.650002735901,2|8,3:1|3:0,0:0:0:0:
82,220,313491,6,0,L|188:202,1,89.650002735901,2|2,0:0|3:0,0:0:0:0:
190,364,313791,2,0,L|296:382,1,89.650002735901,2|0,3:2|3:0,0:0:0:0:
435,208,314091,1,12,0:0:0:0:
246,281,314241,1,8,3:0:0:0:
432,338,314391,2,0,B|449:302|449:302|436:209,1,134.475004103851,8|0,3:0|0:0,0:0:0:0:
460,134,314691,6,0,B|413:123|374:145|361:186|361:186|328:157|279:174,1,195.599994030762,4|8,0:0|3:0,0:0:0:0:
157,72,315757,6,0,L|148:17,2,40.75,0|0|8,1:0|1:0|0:0,0:0:0:0:
117,219,316223,1,8,3:0:0:0:
235,123,316550,1,8,3:0:0:0:
83,131,316896,1,6,3:0:0:0:
210,213,317273,6,0,B|305:238|364:128|303:59|303:59|345:100|438:136|508:59|508:59|481:46|414:27|352:91|352:91|287:166|336:307|418:361|490:312|490:312|487:260|405:207|314:278|314:278|266:305|198:306|109:317|49:245|111:142|134:66|247:-2|293:106|289:172|237:156|209:137|173:100|173:100|140:64|68:42|18:88|5:154|43:218|93:212|116:210,1,2037.5,6|0,0:0|0:0,0:0:0:0:
